  0
SECTION
  2
HEADER
  9
$ACADVER
  1
AC1015
  9
$ACADMAINTVER
 70
    20
  9
$DWGCODEPAGE
  3
ANSI_932
  9
$INSBASE
 10
0.0
 20
0.0
 30
0.0
  9
$EXTMIN
 10
-604.8550756401144
 20
-1760.914516277136
 30
-0.00000001
  9
$EXTMAX
 10
493.094369121885
 20
-524.413570238981
 30
0.00000001
  9
$LIMMIN
 10
0.0
 20
0.0
  9
$LIMMAX
 10
420.0
 20
297.0
  9
$ORTHOMODE
 70
     1
  9
$REGENMODE
 70
     1
  9
$FILLMODE
 70
     1
  9
$QTEXTMODE
 70
     0
  9
$MIRRTEXT
 70
     1
  9
$LTSCALE
 40
1.0
  9
$ATTMODE
 70
     1
  9
$TEXTSIZE
 40
43.66586864911549
  9
$TRACEWID
 40
1.0
  9
$TEXTSTYLE
  7
Standard
  9
$CLAYER
  8
0
  9
$CELTYPE
  6
ByLayer
  9
$CECOLOR
 62
   256
  9
$CELTSCALE
 40
1.0
  9
$DISPSILH
 70
     0
  9
$DIMSCALE
 40
5.0
  9
$DIMASZ
 40
2.5
  9
$DIMEXO
 40
0.625
  9
$DIMDLI
 40
3.75
  9
$DIMRND
 40
0.0
  9
$DIMDLE
 40
0.0
  9
$DIMEXE
 40
1.25
  9
$DIMTP
 40
0.0
  9
$DIMTM
 40
0.0
  9
$DIMTXT
 40
2.5
  9
$DIMCEN
 40
2.5
  9
$DIMTSZ
 40
0.0
  9
$DIMTOL
 70
     0
  9
$DIMLIM
 70
     0
  9
$DIMTIH
 70
     0
  9
$DIMTOH
 70
     0
  9
$DIMSE1
 70
     0
  9
$DIMSE2
 70
     0
  9
$DIMTAD
 70
     1
  9
$DIMZIN
 70
     8
  9
$DIMBLK
  1
OPEN30
  9
$DIMASO
 70
     1
  9
$DIMSHO
 70
     1
  9
$DIMPOST
  1

  9
$DIMAPOST
  1

  9
$DIMALT
 70
     0
  9
$DIMALTD
 70
     3
  9
$DIMALTF
 40
0.03937007874016
  9
$DIMLFAC
 40
1.0
  9
$DIMTOFL
 70
     1
  9
$DIMTVP
 40
0.0
  9
$DIMTIX
 70
     0
  9
$DIMSOXD
 70
     0
  9
$DIMSAH
 70
     0
  9
$DIMBLK1
  1

  9
$DIMBLK2
  1

  9
$DIMSTYLE
  2
ISO-25
  9
$DIMCLRD
 70
     0
  9
$DIMCLRE
 70
     0
  9
$DIMCLRT
 70
     0
  9
$DIMTFAC
 40
1.0
  9
$DIMGAP
 40
0.625
  9
$DIMJUST
 70
     0
  9
$DIMSD1
 70
     0
  9
$DIMSD2
 70
     0
  9
$DIMTOLJ
 70
     0
  9
$DIMTZIN
 70
     8
  9
$DIMALTZ
 70
     0
  9
$DIMALTTZ
 70
     0
  9
$DIMUPT
 70
     0
  9
$DIMDEC
 70
     1
  9
$DIMTDEC
 70
     1
  9
$DIMALTU
 70
     2
  9
$DIMALTTD
 70
     3
  9
$DIMTXSTY
  7
Standard
  9
$DIMAUNIT
 70
     0
  9
$DIMADEC
 70
     0
  9
$DIMALTRND
 40
0.0
  9
$DIMAZIN
 70
     0
  9
$DIMDSEP
 70
    46
  9
$DIMATFIT
 70
     3
  9
$DIMFRAC
 70
     0
  9
$DIMLDRBLK
  1
DOTSMALL
  9
$DIMLUNIT
 70
     2
  9
$DIMLWD
 70
    -2
  9
$DIMLWE
 70
    -2
  9
$DIMTMOVE
 70
     0
  9
$LUNITS
 70
     2
  9
$LUPREC
 70
     4
  9
$SKETCHINC
 40
1.0
  9
$FILLETRAD
 40
10.0
  9
$AUNITS
 70
     0
  9
$AUPREC
 70
     0
  9
$MENU
  1
.
  9
$ELEVATION
 40
0.0
  9
$PELEVATION
 40
0.0
  9
$THICKNESS
 40
0.0
  9
$LIMCHECK
 70
     0
  9
$CHAMFERA
 40
10.0
  9
$CHAMFERB
 40
10.0
  9
$CHAMFERC
 40
20.0
  9
$CHAMFERD
 40
0.0
  9
$SKPOLY
 70
     0
  9
$TDCREATE
 40
2451686.550481944
  9
$TDUCREATE
 40
2451686.175481945
  9
$TDUPDATE
 40
2454985.549093009
  9
$TDUUPDATE
 40
2454985.174093009
  9
$TDINDWG
 40
1.9337689815
  9
$TDUSRTIMER
 40
1.9337666204
  9
$USRTIMER
 70
     1
  9
$ANGBASE
 50
0.0
  9
$ANGDIR
 70
     0
  9
$PDMODE
 70
     0
  9
$PDSIZE
 40
0.0
  9
$PLINEWID
 40
0.0
  9
$SPLFRAME
 70
     0
  9
$SPLINETYPE
 70
     6
  9
$SPLINESEGS
 70
     8
  9
$HANDSEED
  5
DF3
  9
$SURFTAB1
 70
     6
  9
$SURFTAB2
 70
     6
  9
$SURFTYPE
 70
     6
  9
$SURFU
 70
     6
  9
$SURFV
 70
     6
  9
$UCSBASE
  2

  9
$UCSNAME
  2

  9
$UCSORG
 10
0.0
 20
0.0
 30
0.0
  9
$UCSXDIR
 10
1.0
 20
0.0
 30
0.0
  9
$UCSYDIR
 10
0.0
 20
1.0
 30
0.0
  9
$UCSORTHOREF
  2

  9
$UCSORTHOVIEW
 70
     0
  9
$UCSORGTOP
 10
0.0
 20
0.0
 30
0.0
  9
$UCSORGBOTTOM
 10
0.0
 20
0.0
 30
0.0
  9
$UCSORGLEFT
 10
0.0
 20
0.0
 30
0.0
  9
$UCSORGRIGHT
 10
0.0
 20
0.0
 30
0.0
  9
$UCSORGFRONT
 10
0.0
 20
0.0
 30
0.0
  9
$UCSORGBACK
 10
0.0
 20
0.0
 30
0.0
  9
$PUCSBASE
  2

  9
$PUCSNAME
  2

  9
$PUCSORG
 10
0.0
 20
0.0
 30
0.0
  9
$PUCSXDIR
 10
1.0
 20
0.0
 30
0.0
  9
$PUCSYDIR
 10
0.0
 20
1.0
 30
0.0
  9
$PUCSORTHOREF
  2

  9
$PUCSORTHOVIEW
 70
     0
  9
$PUCSORGTOP
 10
0.0
 20
0.0
 30
0.0
  9
$PUCSORGBOTTOM
 10
0.0
 20
0.0
 30
0.0
  9
$PUCSORGLEFT
 10
0.0
 20
0.0
 30
0.0
  9
$PUCSORGRIGHT
 10
0.0
 20
0.0
 30
0.0
  9
$PUCSORGFRONT
 10
0.0
 20
0.0
 30
0.0
  9
$PUCSORGBACK
 10
0.0
 20
0.0
 30
0.0
  9
$USERI1
 70
     0
  9
$USERI2
 70
     0
  9
$USERI3
 70
     0
  9
$USERI4
 70
     0
  9
$USERI5
 70
     0
  9
$USERR1
 40
0.0
  9
$USERR2
 40
0.0
  9
$USERR3
 40
0.0
  9
$USERR4
 40
0.0
  9
$USERR5
 40
0.0
  9
$WORLDVIEW
 70
     1
  9
$SHADEDGE
 70
     3
  9
$SHADEDIF
 70
    70
  9
$TILEMODE
 70
     1
  9
$MAXACTVP
 70
    48
  9
$PINSBASE
 10
0.0
 20
0.0
 30
0.0
  9
$PLIMCHECK
 70
     0
  9
$PEXTMIN
 10
-982.0797161783586
 20
-834.8188083761055
 30
0.0
  9
$PEXTMAX
 10
2182.6505788904
 20
1202.797866695381
 30
0.0
  9
$PLIMMIN
 10
0.0
 20
0.0
  9
$PLIMMAX
 10
12.0
 20
9.0
  9
$UNITMODE
 70
     0
  9
$VISRETAIN
 70
     1
  9
$PLINEGEN
 70
     0
  9
$PSLTSCALE
 70
     1
  9
$TREEDEPTH
 70
  3020
  9
$CMLSTYLE
  2
Standard
  9
$CMLJUST
 70
     0
  9
$CMLSCALE
 40
20.0
  9
$PROXYGRAPHICS
 70
     1
  9
$MEASUREMENT
 70
     1
  9
$CELWEIGHT
370
    -1
  9
$ENDCAPS
280
     0
  9
$JOINSTYLE
280
     0
  9
$LWDISPLAY
290
     0
  9
$INSUNITS
 70
     4
  9
$HYPERLINKBASE
  1

  9
$STYLESHEET
  1

  9
$XEDIT
290
     1
  9
$CEPSNTYPE
380
     0
  9
$PSTYLEMODE
290
     1
  9
$FINGERPRINTGUID
  2
{ECDC9267-7ABB-4F0D-83E7-88C84068E348}
  9
$VERSIONGUID
  2
{9DD5787C-0E4D-43B4-8ED3-3480EEEF1ABB}
  9
$EXTNAMES
290
     1
  9
$PSVPSCALE
 40
0.0
  9
$OLESTARTUP
290
     0
  0
ENDSEC
  0
SECTION
  2
CLASSES
  0
CLASS
  1
ACDBDICTIONARYWDFLT
  2
AcDbDictionaryWithDefault
  3
ObjectDBX Classes
 90
        0
280
     0
281
     0
  0
CLASS
  1
ACDBPLACEHOLDER
  2
AcDbPlaceHolder
  3
ObjectDBX Classes
 90
        0
280
     0
281
     0
  0
CLASS
  1
LAYOUT
  2
AcDbLayout
  3
ObjectDBX Classes
 90
        0
280
     0
281
     0
  0
CLASS
  1
ACME_DOCUMENT
  2
AcMeDoc
  3
AcMeServices
 90
    32768
280
     1
281
     0
  0
CLASS
  1
ACMESTATEMGR
  2
AcMeStateMgr
  3
AcMeServices
 90
    33792
280
     0
281
     0
  0
CLASS
  1
ACMESCOPE
  2
AcMeScope
  3
AcMeServices
 90
    33792
280
     0
281
     0
  0
CLASS
  1
ACMECOMMANDHISTORY
  2
AcMeCommandHistory
  3
AcMeServices
 90
    33792
280
     0
281
     0
  0
CLASS
  1
ACRFINSADJUSTERMGR
  2
AcRfInsAdjusterMgr
  3
AcMeServices
 90
    33792
280
     0
281
     0
  0
CLASS
  1
DICTIONARYVAR
  2
AcDbDictionaryVar
  3
ObjectDBX Classes
 90
        0
280
     0
281
     0
  0
CLASS
  1
ACIMSYSVARMAN
  2
AcImSysVarManager
  3
AcMeServices
 90
    33792
280
     0
281
     0
  0
CLASS
  1
ACIMREALSYSVAR
  2
AcImRealSysVar
  3
AcMeServices
 90
    33792
280
     0
281
     0
  0
CLASS
  1
ACIMINTSYSVAR
  2
AcImIntSysVar
  3
AcMeServices
 90
    33792
280
     0
281
     0
  0
CLASS
  1
ACMEDRAWINGMAN
  2
AcMeDrawingMan
  3
AcMeServices
 90
    33792
280
     0
281
     0
  0
CLASS
  1
ACMEVIEW
  2
AcMeView
  3
AcMeServices
 90
    33792
280
     0
281
     0
  0
CLASS
  1
ACDBENTITYCACHE
  2
AcMeEntityCache
  3
AcMeServices
 90
    33792
280
     0
281
     0
  0
CLASS
  1
ACGREFMASTER
  2
AcGrefMaster
  3
AcAttribServices
 90
    33792
280
     0
281
     0
  0
CLASS
  1
AMIMASTER
  2
AmiMaster
  3
AmiServices
 90
    33792
280
     0
281
     0
  0
CLASS
  1
ACASGREFMASTER
  2
AcAsGrefMaster
  3
AutoSurfResolverServices
 90
    33792
280
     0
281
     0
  0
CLASS
  1
ADAPPL
  2
AcAdAppl
  3
DesignerServices
 90
    33792
280
     0
281
     0
  0
CLASS
  1
DEPMGR
  2
AcAdDepMgr
  3
DesignerServices
 90
    33792
280
     0
281
     0
  0
CLASS
  1
PARAMMGR
  2
AcAdParamMgr
  3
DesignerServices
 90
    33792
280
     0
281
     0
  0
CLASS
  1
PARAMSCOPE
  2
AcAdParamScope
  3
DesignerServices
 90
    33792
280
     0
281
     0
  0
CLASS
  1
ACIMSTRSYSVAR
  2
AcImStrSysVar
  3
AcMeServices
 90
    33792
280
     0
281
     0
  0
CLASS
  1
NAMEDAPPL
  2
AcAdNamedAppl
  3
DesignerServices
 90
    33792
280
     0
281
     0
  0
CLASS
  1
ADHNTMPLT
  2
AdHoleNoteTemplateMgr
  3
DesignerServices
 90
    33792
280
     0
281
     0
  0
CLASS
  1
AM_HNTEMPLATE_MGR_NAME
  2
AdHoleNoteTemplateMgrName
  3
DesignerServices
 90
    33792
280
     0
281
     0
  0
CLASS
  1
ACADGREFMODULE
  2
AcAdGrefModule
  3
AdGrefServices
 90
    33792
280
     0
281
     0
  0
CLASS
  1
AM_DRAWING_MGR
  2
AcDmDwgMgr
  3
AcMechDwgViewMgmt
 90
    33792
280
     0
281
     0
  0
CLASS
  1
AM_DWG_DOCUMENT
  2
AcDmDwgDocument
  3
AcMechDwgViewMgmt
 90
    33792
280
     0
281
     0
  0
CLASS
  1
AM_DWG_SHEET
  2
AcDmSheet
  3
AcMechDwgViewMgmt
 90
    33792
280
     0
281
     0
  0
CLASS
  1
AM_VIEWDIMPARMAP
  2
AcDmViewDimParMap
  3
AcMechDwgViewMgmt
 90
    33792
280
     0
281
     0
  0
CLASS
  1
AM_DWGMGR_NAME
  2
AcDmDwgMgrName
  3
AcMechDwgViewMgmt
 90
    33792
280
     0
281
     0
  0
CLASS
  1
ACAMPROJECT
  2
AcAmProject
  3
DesignerAssemblies
 90
    33792
280
     0
281
     0
  0
CLASS
  1
ACAMGRCOMPSET
  2
AcAmGrCompSet
  3
DesignerAssemblies
 90
    32768
280
     1
281
     0
  0
CLASS
  1
ACAMGRCOMPDEFSET
  2
AcAmGrCompDefSet
  3
DesignerAssemblies
 90
    33792
280
     0
281
     0
  0
CLASS
  1
ACAMGRCOMPDEF
  2
AcAmGrCompDef
  3
DesignerAssemblies
 90
    33792
280
     0
281
     0
  0
CLASS
  1
ACCMCONTEXT
  2
AcCmContext
  3
DesignerAssemblies
 90
    33792
280
     0
281
     0
  0
CLASS
  1
ACAMCOMPDEF
  2
AcAmCompDef
  3
DesignerAssemblies
 90
    33792
280
     0
281
     0
  0
CLASS
  1
ACAMCOMPDEFMGR
  2
AcAmCompDefMgr
  3
DesignerAssemblies
 90
    33792
280
     0
281
     0
  0
CLASS
  1
AMCONTEXTMGR
  2
AcAmContextMgr
  3
DesignerAssemblies
 90
    33792
280
     0
281
     0
  0
CLASS
  1
ACAMCONTEXTMODELER
  2
AcAmContextModeler
  3
DesignerAssemblies
 90
    33792
280
     0
281
     0
  0
CLASS
  1
ACMDATADICTIONARY
  2
AcmDataDictionary
  3
"AcmSymBB|Product Description: AutoCAD Mechanical|Company: Autodesk, Inc."
 90
    33792
280
     0
281
     0
  0
CLASS
  1
ACMDATAENTRYBLOCK
  2
AcmDataEntryBlock
  3
AcmSymBB|Product Description: AutoCAD Mechanical|Company: Autodesk, Inc.
 90
    33792
280
     0
281
     0
  0
CLASS
  1
ACDMVIEWGEOM
  2
AcDmViewGeometry
  3
AcMechDwgViewMgmt
 90
    33792
280
     0
281
     1
  0
CLASS
  1
CBROWSERAPPOBJECT
  2
CBrowserAppObject
  3
McadcomServices
 90
    33792
280
     0
281
     0
  0
CLASS
  1
IM_STATIC_MAN
  2
AcImStaticVarManager
  3
AcMeServices
 90
    33792
280
     0
281
     0
  0
CLASS
  1
ASAPP
  2
AcAsAppObject
  3
AutoSurfServices
 90
    33792
280
     0
281
     0
  0
CLASS
  1
ACIMDBLSTATICVAR
  2
AcImDblStaticVar
  3
AcMeServices
 90
    33792
280
     0
281
     0
  0
CLASS
  1
ACIMSTRSTATICVAR
  2
AcImStrStaticVar
  3
AcMeServices
 90
    33792
280
     0
281
     0
  0
CLASS
  1
ACIMINTSTATICVAR
  2
AcImIntStaticVar
  3
AcMeServices
 90
    33792
280
     0
281
     0
  0
CLASS
  1
CATALOGSTATE
  2
AcAmCatalogState
  3
DesignerAssemblies
 90
    33792
280
     0
281
     0
  0
CLASS
  1
DM_PLACEHOLDER
  2
AcDmSelsetPlaceholder
  3
AcMechDwgViewMgmt
 90
    33792
280
     0
281
     0
  0
CLASS
  1
LAYER_INDEX
  2
AcDbLayerIndex
  3
ObjectDBX Classes
 90
    32768
280
     0
281
     0
  0
CLASS
  1
IDBUFFER
  2
AcDbIdBuffer
  3
ObjectDBX Classes
 90
    32768
280
     0
281
     0
  0
CLASS
  1
ACAMEXTERNALCOMPDEF
  2
AcAmExternalCompDef
  3
DesignerAssemblies
 90
    33792
280
     0
281
     0
  0
CLASS
  1
ACCMBODY
  2
AcCmBody
  3
DesignerAssemblies
 90
    33792
280
     0
281
     0
  0
CLASS
  1
ACAMGRCOMP
  2
AcAmGrComp
  3
DesignerAssemblies
 90
    33792
280
     0
281
     0
  0
CLASS
  1
ACAMCOMPFEEDBACK
  2
AcAmCompFeedback
  3
DesignerAssemblies
 90
    33792
280
     0
281
     0
  0
CLASS
  1
ACAMCOMP
  2
AcAmComp
  3
DesignerAssemblies
 90
    33792
280
     0
281
     0
  0
CLASS
  1
ACAMGRCOMPCLONE
  2
AcAmGrCompClone
  3
DesignerAssemblies
 90
    33792
280
     0
281
     0
  0
CLASS
  1
ACAMCLONEREACTOR
  2
AcAmGrCompCloneReactor
  3
DesignerAssemblies
 90
    33792
280
     0
281
     0
  0
CLASS
  1
AGDICTIONARY
  2
AgDictionary
  3
AccelView
 90
    33793
280
     0
281
     0
  0
CLASS
  1
EDGEID
  2
AcAdEdgeId
  3
DesignerServices
 90
    33792
280
     0
281
     0
  0
CLASS
  1
ACADPARTLINEDGRES
  2
AcAdPartLinEdgRes
  3
AdGrefServices
 90
    33792
280
     0
281
     0
  0
CLASS
  1
ACRFINSADJ
  2
AcRfInsAdjuster
  3
AcMeServices
 90
    33792
280
     0
281
     0
  0
CLASS
  1
STREFID
  2
AcAdStraightRefId
  3
DesignerServices
 90
    33792
280
     0
281
     0
  0
CLASS
  1
ACMEAXIS
  2
AcImAxisDisplay
  3
AcMeServices
 90
    33792
280
     0
281
     1
  0
CLASS
  1
FACEID
  2
AcAdFaceId
  3
DesignerServices
 90
    33792
280
     0
281
     0
  0
CLASS
  1
DEPEDGESECONDARYDEPID
  2
AcAdDepEdgeSecondaryDepId
  3
DesignerServices
 90
    33792
280
     0
281
     0
  0
CLASS
  1
ACADPARTPLANARFACERES
  2
AcAdPartPlanarFaceRes
  3
AdGrefServices
 90
    33792
280
     0
281
     0
  0
CLASS
  1
ACMEPOINT
  2
AcImPointDisplay
  3
AcMeServices
 90
    33792
280
     0
281
     1
  0
CLASS
  1
ACMELINEARARROW
  2
AcImLinearArrowDisplay
  3
AcMeServices
 90
    33792
280
     0
281
     1
  0
CLASS
  1
ACAMEXPR
  2
AcAmExpr
  3
DesignerAssemblies
 90
    33792
280
     0
281
     0
  0
CLASS
  1
ACCMDISTPLPL
  2
AcCmDistPlPl
  3
DesignerAssemblies
 90
    33792
280
     0
281
     0
  0
CLASS
  1
ACCMCONSTREACTOR
  2
AcCmConstraintReactor
  3
DesignerAssemblies
 90
    33792
280
     0
281
     0
  0
CLASS
  1
ACAMVIEWENTITYFILTER
  2
AcAmViewEntityFilter
  3
DesignerAssemblies
 90
    33792
280
     0
281
     0
  0
CLASS
  1
ACAMGRBLOCKRECORD
  2
AcAmGrBlockRecord
  3
DesignerAssemblies
 90
    33792
280
     0
281
     0
  0
CLASS
  1
ACAMVIEWREACTOR
  2
AcAmViewReactor
  3
DesignerAssemblies
 90
    33792
280
     0
281
     0
  0
CLASS
  1
AMVIEW
  2
AcAmView
  3
DesignerAssemblies
 90
    33792
280
     0
281
     0
  0
CLASS
  1
ACAMVIEWCONTEXT
  2
AcAmViewContext
  3
DesignerAssemblies
 90
    33792
280
     0
281
     0
  0
CLASS
  1
ACAMCOMPVIEWREACTOR
  2
AcAmGrCompViewReactor
  3
DesignerAssemblies
 90
    33792
280
     0
281
     0
  0
CLASS
  1
ACAMGRCOMPVIEW
  2
AcAmGrCompView
  3
DesignerAssemblies
 90
    33792
280
     0
281
     0
  0
CLASS
  1
SURFACEID
  2
AcAdSurfaceId
  3
DesignerServices
 90
    33792
280
     0
281
     0
  0
CLASS
  1
AM_GREF_PLANE
  2
AcDmGrefPlnDef
  3
AcMechDwgViewMgmt
 90
    33792
280
     0
281
     0
  0
CLASS
  1
AM_GREF_AXIS
  2
AcDmGrefAxisDef
  3
AcMechDwgViewMgmt
 90
    33792
280
     0
281
     0
  0
CLASS
  1
AM_BASE_VIEW_ORIENT
  2
AcDmBaseViewOr
  3
AcMechDwgViewMgmt
 90
    33792
280
     0
281
     0
  0
CLASS
  1
AM_DWG_VIEWPORT
  2
AcDmViewport
  3
AcMechDwgViewMgmt
 90
    33792
280
     0
281
     0
  0
CLASS
  1
AM_VIEW_DISPLAY
  2
AcDmDwgViewDisplay
  3
AcMechDwgViewMgmt
 90
    33792
280
     0
281
     0
  0
CLASS
  1
AM_BASE_VIEW
  2
AcDmBaseView
  3
AcMechDwgViewMgmt
 90
    33792
280
     0
281
     0
  0
CLASS
  1
ACDMVWEDLINE
  2
AcDmViewEdgeLine
  3
AcMechDwgViewMgmt
 90
    33792
280
     0
281
     1
  0
CLASS
  1
ACDMVWEDARC
  2
AcDmViewEdgeArc
  3
AcMechDwgViewMgmt
 90
    33792
280
     0
281
     1
  0
CLASS
  1
ACDMVWEDCIRC
  2
AcDmViewEdgeCircle
  3
AcMechDwgViewMgmt
 90
    33792
280
     0
281
     1
  0
CLASS
  1
AM_ORTHO_VIEW_ORIENT
  2
AcDmOrthoViewOr
  3
AcMechDwgViewMgmt
 90
    33792
280
     0
281
     0
  0
CLASS
  1
AM_ORTHO_VIEW
  2
AcDmOrthoView
  3
AcMechDwgViewMgmt
 90
    33792
280
     0
281
     0
  0
CLASS
  1
CNRREFID
  2
AcAdCornerId
  3
DesignerServices
 90
    33792
280
     0
281
     0
  0
CLASS
  1
ACADPARTPOINTRES
  2
AcAdPartPointRes
  3
AdGrefServices
 90
    33792
280
     0
281
     0
  0
CLASS
  1
AM_VIEWDIMLINEAR
  2
AcDmViewDimLinear
  3
AcMechDwgViewMgmt
 90
    33792
280
     0
281
     0
  0
CLASS
  1
ACADPARTCIRCEDGRES
  2
AcAdPartCircEdgRes
  3
AdGrefServices
 90
    33792
280
     0
281
     0
  0
CLASS
  1
CIRREFID
  2
AcAdCircleRefId
  3
DesignerServices
 90
    33792
280
     0
281
     0
  0
CLASS
  1
ACADPARTCYLINDERFACERES
  2
AcAdPartCylinderFaceRes
  3
AdGrefServices
 90
    33792
280
     0
281
     0
  0
CLASS
  1
ACCMDISTLNLN
  2
AcCmDistLnLn
  3
DesignerAssemblies
 90
    33792
280
     0
281
     0
  0
CLASS
  1
ACMECIRCARC
  2
AcImCircArcDisplay
  3
AcMeServices
 90
    33792
280
     0
281
     1
  0
CLASS
  1
ACCMDISTPTLN
  2
AcCmDistPtLn
  3
DesignerAssemblies
 90
    33792
280
     0
281
     0
  0
CLASS
  1
ACRFATTGENMGR
  2
AcRfAttGeneralMgr
  3
AcAttribServices
 90
    33792
280
     0
281
     0
  0
CLASS
  1
FEEDBACK
  2
AcAmFeedback
  3
DesignerAssemblies
 90
    33792
280
     0
281
     1
  0
CLASS
  1
ACAMTRIAXISSYMBOL
  2
AcAmTriAxisSymbol
  3
DesignerAssemblies
 90
    33792
280
     0
281
     0
  0
CLASS
  1
ACAMROTAXISSYMBOL
  2
AcAmRotAxisSymbol
  3
DesignerAssemblies
 90
    33792
280
     0
281
     0
  0
CLASS
  1
ACAMTEXTCIRCLESYMBOL
  2
AcAmTextCircleSymbol
  3
DesignerAssemblies
 90
    33792
280
     0
281
     0
  0
CLASS
  1
ACCMTANCLCL
  2
AcCmTanClCl
  3
AcCmServices
 90
    33792
280
     0
281
     0
  0
CLASS
  1
ACCMANGVECVEC
  2
AcCmAngVecVec
  3
DesignerAssemblies
 90
    33792
280
     0
281
     0
  0
CLASS
  1
ACMEROTATIONARROW
  2
AcImRotationArrowDisplay
  3
AcMeServices
 90
    33792
280
     0
281
     1
  0
CLASS
  1
ACDMVWEDSPLINE
  2
AcDmViewEdgeSpline
  3
AcMechDwgViewMgmt
 90
    33792
280
     0
281
     1
  0
CLASS
  1
SILEDGEID
  2
AcAdSilhouetteEdgeId
  3
DesignerServices
 90
    33792
280
     0
281
     0
  0
CLASS
  1
ACAMVECTORSYMBOL
  2
AcAmVectorSymbol
  3
DesignerAssemblies
 90
    33792
280
     0
281
     0
  0
CLASS
  1
ACCMTANCLPL
  2
AcCmTanClPl
  3
AcCmServices
 90
    33792
280
     0
281
     0
  0
CLASS
  1
AM_VIEW_SELECT_FILTER
  2
AcDmSelectViewEntFilter
  3
AcMechDwgViewMgmt
 90
    33792
280
     0
281
     0
  0
CLASS
  1
ACME_DATABASE
  2
AcMeDbDatabase
  3
AcMeServices
 90
    33792
280
     0
281
     0
  0
CLASS
  1
ACME_DOCUMENT
  2
AcMeDbDoc
  3
AcMeServices
 90
    33792
280
     0
281
     0
  0
CLASS
  1
AMGSETTINGSOBJ
  2
AmgSettingsObj
  3
"AcadM|Product Description: AutoCAD Mechanical|Company: Autodesk, Inc."
 90
    33792
280
     0
281
     0
  0
CLASS
  1
GSMANAGER
  2
AcMeGSManager
  3
AcMeServices
 90
    33792
280
     0
281
     0
  0
CLASS
  1
AMDTINTERNALREACTOR
  2
AmdtInternalReactor
  3
AcMeServices
 90
    33792
280
     0
281
     0
  0
CLASS
  1
ACGREFACADMASTER
  2
AcGrefacadMaster
  3
AcGrefServices
 90
    33792
280
     0
281
     0
  0
CLASS
  1
AMDTMENUSTATEMGR
  2
AmdtMenuStateMgr
  3
McadcomServices
 90
    33792
280
     0
281
     0
  0
CLASS
  1
AMDTMCOMMENUSTATE
  2
AmdtMcomMenuState
  3
McadcomServices
 90
    33792
280
     0
281
     0
  0
CLASS
  1
MAPIAMMOUDLE
  2
MApiAmModule
  3
MApiAmServices
 90
    33792
280
     0
281
     0
  0
CLASS
  1
AMDTDMMENUSTATE
  2
AmdtDmMenuState
  3
AcMechDwgViewMgmt
 90
    33792
280
     0
281
     0
  0
CLASS
  1
AMDTADMENUSTATE
  2
AmdtAdMenuState
  3
DesignerServices
 90
    33792
280
     0
281
     0
  0
CLASS
  1
AMDTAMMENUSTATE
  2
AmdtAmMenuState
  3
DesignerAssemblies
 90
    33792
280
     0
281
     0
  0
CLASS
  1
MAPIADMODULE
  2
MApiAdModule
  3
MApiAdServices
 90
    33792
280
     0
281
     0
  0
CLASS
  1
ACAMCOMPENT
  2
AcAmCompEnt
  3
DesignerAssemblies
 90
    33792
280
     0
281
     1
  0
CLASS
  1
ACAMCOMPENTCLONE
  2
AcAmCompEntClone
  3
DesignerAssemblies
 90
    33792
280
     0
281
     1
  0
CLASS
  1
ACAMCOMPENTVIEW
  2
AcAmCompEntView
  3
DesignerAssemblies
 90
    33792
280
     0
281
     1
  0
CLASS
  1
AM_CLDFLTS
  2
AcDmClDflts
  3
AcMechDwgViewMgmt
 90
    33792
280
     0
281
     0
  0
CLASS
  1
AMDTBROWSERDBTAB
  2
AmdtBrowserDbTab
  3
McadcomServices
 90
    33792
280
     0
281
     0
  0
CLASS
  1
AMGOBJPROPCFG
  2
AmgObjPropCfg
  3
"AmgLay|Product Description: AutoCAD Mechanical|Company: Autodesk, Inc."
 90
    33793
280
     0
281
     0
  0
CLASS
  1
ACDMVWEDELLIPSE
  2
AcDmViewEdgeEllipse
  3
AcMechDwgViewMgmt
 90
    33792
280
     0
281
     1
  0
CLASS
  1
ACAMGFILTERDAT
  2
AcAmgFilterDat
  3
"AcadM|Product Description: AutoCAD Mechanical|Company: Autodesk, Inc."
 90
    33792
280
     0
281
     0
  0
CLASS
  1
AMDTMAPISURFMOUDULE
  2
AmdtMApiSurfModule
  3
MApiSurfServices
 90
    33792
280
     0
281
     0
  0
CLASS
  1
ACDMPARTVIEWDATA
  2
AcDmPartViewData
  3
AcMechDwgViewMgmt
 90
    33792
280
     0
281
     0
  0
CLASS
  1
ACDMDISPLAYATTRIBS
  2
AcDmDisplayAttribs
  3
AcMechDwgViewMgmt
 90
    33792
280
     0
281
     0
  0
CLASS
  1
ACDMBODYINSTANCEDATA
  2
AcDmBodyInstanceData
  3
AcMechDwgViewMgmt
 90
    33792
280
     0
281
     0
  0
CLASS
  1
ACMSTANDARDISO
  2
AcmStandardISO
  3
"Amdt_StdImp|Product Description: AutoCAD Mechanical|Company: Autodesk, Inc."
 90
    33792
280
     0
281
     0
  0
CLASS
  1
AMDTEDGESTANDARDISO
  2
AmdtEdgeStdISO
  3
"Amdt_StdImp|Product Description: AutoCAD Mechanical|Company: Autodesk, Inc."
 90
    33792
280
     0
281
     0
  0
CLASS
  1
ACMSURFSTANDARDISO
  2
AcmSurfTextStdISO
  3
"Amdt_StdImp|Product Description: AutoCAD Mechanical|Company: Autodesk, Inc."
 90
    33792
280
     0
281
     0
  0
CLASS
  1
ACMFCFSTANDARDISO
  2
AcmFCFStdISO
  3
"Amdt_StdImp|Product Description: AutoCAD Mechanical|Company: Autodesk, Inc."
 90
    33792
280
     0
281
     0
  0
CLASS
  1
ACMWELDSTANDARDISO
  2
AcmWeldingStdISO
  3
"Amdt_StdImp|Product Description: AutoCAD Mechanical|Company: Autodesk, Inc."
 90
    33792
280
     0
281
     0
  0
CLASS
  1
ACMIDSTANDARDISO
  2
AcmIdStdISO
  3
"Amdt_StdImp|Product Description: AutoCAD Mechanical|Company: Autodesk, Inc."
 90
    33792
280
     0
281
     0
  0
CLASS
  1
ACMDATUMSTANDARDISO
  2
AcmDatumStdISO
  3
"Amdt_StdImp|Product Description: AutoCAD Mechanical|Company: Autodesk, Inc."
 90
    33792
280
     0
281
     0
  0
CLASS
  1
ACMBOMSTANDARDISO
  2
AcmBOMStdISO
  3
"Amdt_StdImp|Product Description: AutoCAD Mechanical|Company: Autodesk, Inc."
 90
    33792
280
     0
281
     0
  0
CLASS
  1
ACMDETAILSTANDARDISO
  2
AmdtDetailSymStdISO
  3
"Amdt_StdImp|Product Description: AutoCAD Mechanical|Company: Autodesk, Inc."
 90
    33792
280
     0
281
     0
  0
CLASS
  1
ACMSECTIONSTANDARDISO
  2
AmdtSectionSymStdISO
  3
"Amdt_StdImp|Product Description: AutoCAD Mechanical|Company: Autodesk, Inc."
 90
    33792
280
     0
281
     0
  0
CLASS
  1
ACMCENTERLINESTANDARDISO
  2
AmdtCenterLineStdISO
  3
"Amdt_StdImp|Product Description: AutoCAD Mechanical|Company: Autodesk, Inc."
 90
    33792
280
     0
281
     0
  0
CLASS
  1
ACMTHREADLINESTANDARDISO
  2
AmdtThreadLineStdISO
  3
"Amdt_StdImp|Product Description: AutoCAD Mechanical|Company: Autodesk, Inc."
 90
    33792
280
     0
281
     0
  0
CLASS
  1
ACAMGLAYSTD
  2
AcAmgLayStd
  3
"AmgLay|Product Description: AutoCAD Mechanical|Company: Autodesk, Inc."
 90
    33792
280
     0
281
     0
  0
CLASS
  1
ACAMGDIMSTD
  2
AcAmgDimStd
  3
"AmgDim|Product Description: AutoCAD Mechanical|Company: Autodesk, Inc."
 90
    33792
280
     0
281
     0
  0
CLASS
  1
ACAMGTITLESTD
  2
AcAmgTitleStd
  3
"AmgTitle|Product Description: AutoCAD Mechanical|Company: Autodesk, Inc."
 90
    36863
280
     0
281
     0
  0
CLASS
  1
AMDTFORMULAUPDATEDISPATCHER
  2
AmdtFormulaUpdateDispatcher
  3
AcMeServices
 90
    33792
280
     0
281
     0
  0
CLASS
  1
PARAM
  2
AcAdParam
  3
DesignerServices
 90
    33792
280
     0
281
     0
  0
CLASS
  1
ACMEPLINE
  2
AcImPlineDisplay
  3
AcMeServices
 90
    33792
280
     0
281
     1
  0
CLASS
  1
ACCMDISTLNPL
  2
AcCmDistLnPl
  3
AcCmServices
 90
    33792
280
     0
281
     0
  0
CLASS
  1
ACCMDISTPTPL
  2
AcCmDistPtPl
  3
DesignerAssemblies
 90
    33792
280
     0
281
     0
  0
CLASS
  1
ACMNOTESTANDARDISO
  2
AmdtNoteStdISO
  3
"Amdt_StdImp|Product Description: AutoCAD Mechanical|Company: Autodesk, Inc."
 90
    33792
280
     0
281
     0
  0
CLASS
  1
AMDTNOTETEMPLATEDB
  2
AmdtNoteTemplateDB
  3
AcmSymBB|Product Description: AutoCAD Mechanical|Company: Autodesk, Inc.
 90
    33792
280
     0
281
     0
  0
CLASS
  1
TABLESTYLE
  2
AcDbTableStyle
  3
ObjectDBX Classes
 90
     4095
280
     0
281
     0
  0
CLASS
  1
MATERIAL
  2
AcDbMaterial
  3
ObjectDBX Classes
 90
     1153
280
     0
281
     0
  0
CLASS
  1
VISUALSTYLE
  2
AcDbVisualStyle
  3
ObjectDBX Classes
 90
     4095
280
     0
281
     0
  0
CLASS
  1
SCALE
  2
AcDbScale
  3
ObjectDBX Classes
 90
     1153
280
     0
281
     0
  0
CLASS
  1
MLEADERSTYLE
  2
AcDbMLeaderStyle
  3
ACDB_MLEADERSTYLE_CLASS
 90
     4095
280
     0
281
     0
  0
CLASS
  1
EXACTERMXREFMAP
  2
ExAcTermXrefMap
  3
EXAC_SERVICE
 90
    33793
280
     0
281
     0
  0
CLASS
  1
NPOCOLLECTION
  2
AcDbImpNonPersistentObjectsCollection
  3
ObjectDBX Classes
 90
     1153
280
     0
281
     0
  0
CLASS
  1
ACMTAPERSTANDARDISO
  2
AcmTaperStdISO
  3
"Amdt_StdImp|Product Description: AutoCAD Mechanical|Company: Autodesk, Inc."
 90
    33792
280
     0
281
     0
  0
CLASS
  1
ACMANOOTATIONVIEWSTANDARDISO
  2
AmdtAnViewStdISO
  3
"Amdt_StdImp|Product Description: AutoCAD Mechanical|Company: Autodesk, Inc."
 90
    33792
280
     0
281
     0
  0
CLASS
  1
SOLID_BACKGROUND
  2
AcDbSolidBackground
  3
SCENEOE
 90
     4095
280
     0
281
     0
  0
CLASS
  1
AM_ABS_AXIS
  2
AcDmAbsAxisDef
  3
AcMechDwgViewMgmt
 90
    33792
280
     0
281
     0
  0
CLASS
  1
AM_ABS_PLANE
  2
AcDmAbsPlnDef
  3
AcMechDwgViewMgmt
 90
    33792
280
     0
281
     0
  0
CLASS
  1
AM_VIEW_GROUP_FILTER
  2
AcDmGroupViewEntFilter
  3
AcMechDwgViewMgmt
 90
    33792
280
     0
281
     0
  0
CLASS
  1
AM_ADCIRCTRLINE
  2
AcAdBullsEyeCl
  3
DesignerServices
 90
    33792
280
     0
281
     0
  0
CLASS
  1
AM_ADLINCTRLINE
  2
AcAdLineCl
  3
DesignerServices
 90
    33792
280
     0
281
     0
  0
CLASS
  1
CELLSTYLEMAP
  2
AcDbCellStyleMap
  3
ObjectDBX Classes
 90
     1152
280
     0
281
     0
  0
CLASS
  1
MULTILEADER
  2
AcDbMLeader
  3
ACDB_MLEADER_CLASS
 90
     1025
280
     0
281
     1
  0
ENDSEC
  0
SECTION
  2
TABLES
  0
TABLE
  2
VPORT
  5
2A
102
{ACAD_XDICTIONARY
360
53B
102
}
330
0
100
AcDbSymbolTable
 70
     1
  0
VPORT
  5
7CC
330
2A
100
AcDbSymbolTableRecord
100
AcDbViewportTableRecord
  2
*Active
 70
     0
 10
0.0
 20
0.0
 11
1.0
 21
1.0
 12
-548.1599358153305
 22
183.7802312238219
 13
0.0
 23
0.0
 14
10.0
 24
10.0
 15
10.0
 25
10.0
 16
0.0
 26
0.0
 36
3064.856699222638
 17
492.2795825562157
 27
-1326.44427448188
 37
0.0
 40
1246.049215891731
 41
1.807989690721649
 42
50.0
 43
0.0
 44
0.0
 50
0.0
 51
0.0
 71
     0
 72
   100
 73
     1
 74
     2
 75
     0
 76
     0
 77
     0
 78
     0
281
     4
 65
     0
110
0.0
120
0.0
130
0.0
111
1.0
121
0.0
131
0.0
112
0.0
122
1.0
132
0.0
 79
     0
146
0.0
  0
ENDTAB
  0
TABLE
  2
LTYPE
  5
25
330
0
100
AcDbSymbolTable
 70
     5
  0
LTYPE
  5
26
330
25
100
AcDbSymbolTableRecord
100
AcDbLinetypeTableRecord
  2
ByBlock
 70
     0
  3

 72
    65
 73
     0
 40
0.0
  0
LTYPE
  5
27
330
25
100
AcDbSymbolTableRecord
100
AcDbLinetypeTableRecord
  2
ByLayer
 70
     0
  3

 72
    65
 73
     0
 40
0.0
  0
LTYPE
  5
13
330
25
100
AcDbSymbolTableRecord
100
AcDbLinetypeTableRecord
  2
Continuous
 70
     0
  3
Solid line
 72
    65
 73
     0
 40
0.0
  0
LTYPE
  5
C6
330
25
100
AcDbSymbolTableRecord
100
AcDbLinetypeTableRecord
  2
HIDDEN
 70
     0
  3
Hidden __ __ __ __ __ __ __ __ __ __ __ __ __ _
 72
    65
 73
     2
 40
9.524999999999996
 49
6.349999999999997
 74
     0
 49
-3.174999999999998
 74
     0
  0
LTYPE
  5
7F
330
25
100
AcDbSymbolTableRecord
100
AcDbLinetypeTableRecord
  2
AM_ISO08W050
 70
     0
  3
____ . ____ . ____ . ____ . ____ . ____ . ____
 72
    65
 73
     4
 40
18.0
 49
12.0
 74
     0
 49
-1.5
 74
     0
 49
3.0
 74
     0
 49
-1.5
 74
     0
  0
LTYPE
  5
7ED
330
25
100
AcDbSymbolTableRecord
100
AcDbLinetypeTableRecord
  2
DASHDOT
 70
     0
  3
____ _ ____ _ ____ _ ____ _ ____ _ ____ _ ____
 72
    65
 73
     4
 40
5.5
 49
4.0
 74
     0
 49
-0.6
 74
     0
 49
0.3
 74
     0
 49
-0.6
 74
     0
  0
ENDTAB
  0
TABLE
  2
LAYER
  5
1E
102
{ACAD_XDICTIONARY
360
1F
102
}
330
0
100
AcDbSymbolTable
 70
    13
  0
LAYER
  5
6
102
{ACAD_XDICTIONARY
360
528
102
}
330
1E
100
AcDbSymbolTableRecord
100
AcDbLayerTableRecord
  2
0
 70
     0
 62
     7
  6
Continuous
370
    -3
390
7
  0
LAYER
  5
C5
102
{ACAD_XDICTIONARY
360
52C
102
}
330
1E
100
AcDbSymbolTableRecord
100
AcDbLayerTableRecord
  2
HID
 70
     0
 62
     3
  6
HIDDEN
370
    -3
390
7
  0
LAYER
  5
49
102
{ACAD_XDICTIONARY
360
52E
102
}
330
1E
100
AcDbSymbolTableRecord
100
AcDbLayerTableRecord
  2
AM_0
 70
     0
 62
     7
  6
Continuous
370
    50
390
7
1001
AcAecLayerStandard
1000

1000

  0
LAYER
  5
5AD
330
1E
100
AcDbSymbolTableRecord
100
AcDbLayerTableRecord
  2
Defpoints
 70
     0
 62
     7
  6
Continuous
290
     0
370
    -3
390
7
  0
LAYER
  5
7EE
330
1E
100
AcDbSymbolTableRecord
100
AcDbLayerTableRecord
  2
SIZE
 70
     0
 62
    30
  6
Continuous
370
    -3
390
7
  0
LAYER
  5
7EF
330
1E
100
AcDbSymbolTableRecord
100
AcDbLayerTableRecord
  2
OUTLINE
 70
     0
 62
     3
  6
Continuous
370
    -3
390
7
  0
LAYER
  5
7F0
330
1E
100
AcDbSymbolTableRecord
100
AcDbLayerTableRecord
  2
DETAIL
 70
     0
 62
     5
  6
Continuous
370
    -3
390
7
  0
LAYER
  5
7F1
330
1E
100
AcDbSymbolTableRecord
100
AcDbLayerTableRecord
  2
BASIS
 70
     0
 62
     6
  6
DASHDOT
370
    -3
390
7
  0
LAYER
  5
7F2
330
1E
100
AcDbSymbolTableRecord
100
AcDbLayerTableRecord
  2
NOTE
 70
     0
 62
     4
  6
Continuous
370
    -3
390
7
  0
LAYER
  5
7F3
330
1E
100
AcDbSymbolTableRecord
100
AcDbLayerTableRecord
  2
ARRANGE
 70
     0
 62
     1
  6
Continuous
370
    -3
390
7
  0
LAYER
  5
7F4
330
1E
100
AcDbSymbolTableRecord
100
AcDbLayerTableRecord
  2
ETC
 70
     0
 62
    61
  6
Continuous
370
    -3
390
7
  0
ENDTAB
  0
TABLE
  2
STYLE
  5
22
330
0
100
AcDbSymbolTable
 70
     2
  0
STYLE
  5
23
330
22
100
AcDbSymbolTableRecord
100
AcDbTextStyleTableRecord
  2
Standard
 70
     0
 40
0.0
 41
1.0
 50
0.0
 71
     0
 42
43.66586864911549
  3
romans.shx
  4
bigfont.shx
  0
STYLE
  5
7F5
330
22
100
AcDbSymbolTableRecord
100
AcDbTextStyleTableRecord
  2
STANDARD1
 70
     0
 40
0.0
 41
1.0
 50
0.0
 71
     0
 42
3.5
  3
MONOTXT
  4
BIGFONT
  0
ENDTAB
  0
TABLE
  2
VIEW
  5
28
330
0
100
AcDbSymbolTable
 70
     0
  0
ENDTAB
  0
TABLE
  2
UCS
  5
29
330
0
100
AcDbSymbolTable
 70
     0
  0
ENDTAB
  0
TABLE
  2
APPID
  5
2E
330
0
100
AcDbSymbolTable
 70
     8
  0
APPID
  5
2F
330
2E
100
AcDbSymbolTableRecord
100
AcDbRegAppTableRecord
  2
ACAD
 70
     0
  0
APPID
  5
4A
330
2E
100
AcDbSymbolTableRecord
100
AcDbRegAppTableRecord
  2
AcAecLayerStandard
 70
     0
  0
APPID
  5
1D
330
2E
100
AcDbSymbolTableRecord
100
AcDbRegAppTableRecord
  2
ACAD_PSEXT
 70
     0
  0
APPID
  5
4EE
330
2E
100
AcDbSymbolTableRecord
100
AcDbRegAppTableRecord
  2
ACATTRIBSERVICES
 70
     0
  0
APPID
  5
51F
330
2E
100
AcDbSymbolTableRecord
100
AcDbRegAppTableRecord
  2
ACAD_MLEADERVER
 70
     0
  0
APPID
  5
526
330
2E
100
AcDbSymbolTableRecord
100
AcDbRegAppTableRecord
  2
ACAD_DSTYLE_DIMJAG
 70
     0
  0
APPID
  5
527
330
2E
100
AcDbSymbolTableRecord
100
AcDbRegAppTableRecord
  2
ACAD_DSTYLE_DIMTALN
 70
     0
  0
APPID
  5
720
330
2E
100
AcDbSymbolTableRecord
100
AcDbRegAppTableRecord
  2
ACAD_DSTYLE_DIMRADIAL_EXTENSION
 70
     0
  0
ENDTAB
  0
TABLE
  2
DIMSTYLE
  5
30
330
0
100
AcDbSymbolTable
 70
     3
100
AcDbDimStyleTable
 71
     1
340
31
  0
DIMSTYLE
105
31
102
{ACAD_REACTORS
330
5AC
330
5BA
330
5C7
330
5D4
330
5E1
330
5EE
330
615
330
622
330
631
330
63E
330
674
330
683
330
690
330
6C4
330
6DA
330
706
330
713
102
}
330
30
100
AcDbSymbolTableRecord
100
AcDbDimStyleTableRecord
  2
ISO-25
 70
     0
 41
2.5
 42
0.625
 43
3.75
 44
1.25
 73
     0
 74
     0
 77
     1
 78
     8
140
2.5
141
2.5
143
0.03937007874016
147
0.625
171
     3
172
     1
271
     2
272
     2
274
     3
283
     0
284
     8
340
23
  0
DIMSTYLE
105
7F6
330
30
100
AcDbSymbolTableRecord
100
AcDbDimStyleTableRecord
  2
STANDARD
 70
     0
275
     1
279
     2
284
     8
285
     8
286
     8
340
23
  0
ENDTAB
  0
TABLE
  2
BLOCK_RECORD
  5
1
330
0
100
AcDbSymbolTable
 70
    35
  0
BLOCK_RECORD
  5
2
102
{ACAD_XDICTIONARY
360
3
102
}
330
1
100
AcDbSymbolTableRecord
100
AcDbBlockTableRecord
  2
*Model_Space
340
15
  0
BLOCK_RECORD
  5
17
330
1
100
AcDbSymbolTableRecord
100
AcDbBlockTableRecord
  2
*Paper_Space
340
1A
  0
BLOCK_RECORD
  5
4B
330
1
100
AcDbSymbolTableRecord
100
AcDbBlockTableRecord
  2
_OPEN30
340
0
102
{BLKREFS
331
602
331
603
331
60F
331
610
331
654
331
655
331
661
331
662
331
66E
331
66F
331
6A4
331
6A5
331
6B1
331
6B2
331
6F7
331
6F8
331
700
331
701
331
728
331
732
331
7BC
331
7BD
331
7C6
331
7C7
331
D47
331
D48
331
D50
331
D51
331
D59
331
D5A
331
D62
331
D63
331
D6B
331
D6C
331
D74
331
D75
331
D7D
331
D7E
331
D86
331
D87
331
D91
331
D92
331
D9A
331
D9B
331
DA3
331
DA4
331
DAC
331
DAD
331
DB5
331
DB6
331
DBE
331
DBF
331
DC7
331
DC8
331
DD2
331
DD3
331
DDD
331
DDE
102
}
  0
BLOCK_RECORD
  5
51
330
1
100
AcDbSymbolTableRecord
100
AcDbBlockTableRecord
  2
_DOTSMALL
340
0
  0
BLOCK_RECORD
  5
5AE
330
1
100
AcDbSymbolTableRecord
100
AcDbBlockTableRecord
  2
*D2
340
0
  0
BLOCK_RECORD
  5
5BB
330
1
100
AcDbSymbolTableRecord
100
AcDbBlockTableRecord
  2
*D3
340
0
  0
BLOCK_RECORD
  5
5C8
330
1
100
AcDbSymbolTableRecord
100
AcDbBlockTableRecord
  2
*D4
340
0
  0
BLOCK_RECORD
  5
5D5
330
1
100
AcDbSymbolTableRecord
100
AcDbBlockTableRecord
  2
*D5
340
0
  0
BLOCK_RECORD
  5
5E2
330
1
100
AcDbSymbolTableRecord
100
AcDbBlockTableRecord
  2
*D6
340
0
  0
BLOCK_RECORD
  5
5EF
330
1
100
AcDbSymbolTableRecord
100
AcDbBlockTableRecord
  2
*D7
340
0
  0
BLOCK_RECORD
  5
5FC
330
1
100
AcDbSymbolTableRecord
100
AcDbBlockTableRecord
  2
*D8
340
0
  0
BLOCK_RECORD
  5
609
330
1
100
AcDbSymbolTableRecord
100
AcDbBlockTableRecord
  2
*D9
340
0
  0
BLOCK_RECORD
  5
616
330
1
100
AcDbSymbolTableRecord
100
AcDbBlockTableRecord
  2
*D10
340
0
  0
BLOCK_RECORD
  5
623
330
1
100
AcDbSymbolTableRecord
100
AcDbBlockTableRecord
  2
*D11
340
0
  0
BLOCK_RECORD
  5
632
330
1
100
AcDbSymbolTableRecord
100
AcDbBlockTableRecord
  2
*D12
340
0
  0
BLOCK_RECORD
  5
63F
330
1
100
AcDbSymbolTableRecord
100
AcDbBlockTableRecord
  2
*D13
340
0
  0
BLOCK_RECORD
  5
64E
330
1
100
AcDbSymbolTableRecord
100
AcDbBlockTableRecord
  2
*D14
340
0
  0
BLOCK_RECORD
  5
65B
330
1
100
AcDbSymbolTableRecord
100
AcDbBlockTableRecord
  2
*D15
340
0
  0
BLOCK_RECORD
  5
668
330
1
100
AcDbSymbolTableRecord
100
AcDbBlockTableRecord
  2
*D16
340
0
  0
BLOCK_RECORD
  5
675
330
1
100
AcDbSymbolTableRecord
100
AcDbBlockTableRecord
  2
*D17
340
0
  0
BLOCK_RECORD
  5
684
330
1
100
AcDbSymbolTableRecord
100
AcDbBlockTableRecord
  2
*D18
340
0
  0
BLOCK_RECORD
  5
691
330
1
100
AcDbSymbolTableRecord
100
AcDbBlockTableRecord
  2
*D19
340
0
  0
BLOCK_RECORD
  5
69E
330
1
100
AcDbSymbolTableRecord
100
AcDbBlockTableRecord
  2
*D20
340
0
  0
BLOCK_RECORD
  5
6AB
330
1
100
AcDbSymbolTableRecord
100
AcDbBlockTableRecord
  2
*D21
340
0
  0
BLOCK_RECORD
  5
6B8
330
1
100
AcDbSymbolTableRecord
100
AcDbBlockTableRecord
  2
*D22
340
0
  0
BLOCK_RECORD
  5
6C5
330
1
100
AcDbSymbolTableRecord
100
AcDbBlockTableRecord
  2
*D23
340
0
  0
BLOCK_RECORD
  5
6DB
330
1
100
AcDbSymbolTableRecord
100
AcDbBlockTableRecord
  2
*D24
340
0
  0
BLOCK_RECORD
  5
6E8
330
1
100
AcDbSymbolTableRecord
100
AcDbBlockTableRecord
  2
*D25
340
0
  0
BLOCK_RECORD
  5
707
330
1
100
AcDbSymbolTableRecord
100
AcDbBlockTableRecord
  2
*D26
340
0
  0
BLOCK_RECORD
  5
714
330
1
100
AcDbSymbolTableRecord
100
AcDbBlockTableRecord
  2
*D27
340
0
  0
BLOCK_RECORD
  5
722
330
1
100
AcDbSymbolTableRecord
100
AcDbBlockTableRecord
  2
*D28
340
0
  0
BLOCK_RECORD
  5
72C
330
1
100
AcDbSymbolTableRecord
100
AcDbBlockTableRecord
  2
*D29
340
0
  0
BLOCK_RECORD
  5
795
330
1
100
AcDbSymbolTableRecord
100
AcDbBlockTableRecord
  2
*D30
340
0
  0
BLOCK_RECORD
  5
7C1
330
1
100
AcDbSymbolTableRecord
100
AcDbBlockTableRecord
  2
*D31
340
0
  0
BLOCK_RECORD
  5
7E8
330
1
100
AcDbSymbolTableRecord
100
AcDbBlockTableRecord
  2
_DOTBLANK
340
0
  0
ENDTAB
  0
ENDSEC
  0
SECTION
  2
BLOCKS
  0
BLOCK
  5
5
330
2
100
AcDbEntity
  8
0
100
AcDbBlockBegin
  2
*Model_Space
 70
     0
 10
0.0
 20
0.0
 30
0.0
  3
*Model_Space
  1

  0
ENDBLK
  5
14
330
2
100
AcDbEntity
  8
0
100
AcDbBlockEnd
  0
BLOCK
  5
18
330
17
100
AcDbEntity
 67
     1
  8
0
100
AcDbBlockBegin
  2
*Paper_Space
 70
     0
 10
0.0
 20
0.0
 30
0.0
  3
*Paper_Space
  1

  0
ENDBLK
  5
19
330
17
100
AcDbEntity
 67
     1
  8
0
100
AcDbBlockEnd
  0
BLOCK
  5
4C
330
4B
100
AcDbEntity
  8
0
100
AcDbBlockBegin
  2
_OPEN30
 70
     0
 10
0.0
 20
0.0
 30
0.0
  3
_OPEN30
  1

  0
LINE
  5
4D
330
4B
100
AcDbEntity
  8
0
  6
ByBlock
 62
     0
100
AcDbLine
 10
-1.0
 20
0.26794919
 30
0.0
 11
0.0
 21
0.0
 31
0.0
  0
LINE
  5
4E
330
4B
100
AcDbEntity
  8
0
  6
ByBlock
 62
     0
100
AcDbLine
 10
0.0
 20
0.0
 30
0.0
 11
-1.0
 21
-0.26794919
 31
0.0
  0
LINE
  5
4F
330
4B
100
AcDbEntity
  8
0
  6
ByBlock
 62
     0
100
AcDbLine
 10
0.0
 20
0.0
 30
0.0
 11
-1.0
 21
0.0
 31
0.0
  0
ENDBLK
  5
50
330
4B
100
AcDbEntity
  8
0
100
AcDbBlockEnd
  0
BLOCK
  5
52
330
51
100
AcDbEntity
  8
0
100
AcDbBlockBegin
  2
_DOTSMALL
 70
     0
 10
0.0
 20
0.0
 30
0.0
  3
_DOTSMALL
  1

  0
POLYLINE
  5
53
330
51
100
AcDbEntity
  8
0
  6
ByBlock
 62
     0
100
AcDb2dPolyline
 66
     1
 10
0.0
 20
0.0
 30
0.0
 70
     1
 40
0.5
 41
0.5
  0
VERTEX
  5
54
330
53
100
AcDbEntity
  8
0
  6
ByBlock
 62
     0
100
AcDbVertex
100
AcDb2dVertex
 10
-0.0625
 20
0.0
 30
0.0
 42
1.0
  0
VERTEX
  5
55
330
53
100
AcDbEntity
  8
0
  6
ByBlock
 62
     0
100
AcDbVertex
100
AcDb2dVertex
 10
0.0625
 20
0.0
 30
0.0
 42
1.0
  0
SEQEND
  5
56
330
53
100
AcDbEntity
  8
0
  6
ByBlock
 62
     0
  0
ENDBLK
  5
57
330
51
100
AcDbEntity
  8
0
100
AcDbBlockEnd
  0
BLOCK
  5
5AF
330
5AE
100
AcDbEntity
  8
0
100
AcDbBlockBegin
  2
*D2
 70
     1
 10
0.0
 20
0.0
 30
0.0
  3
*D2
  1

  0
LINE
  5
DC4
330
5AE
100
AcDbEntity
  8
SIZE
 62
     0
370
    -2
100
AcDbLine
 10
-318.2084475973143
 20
-798.6792934160839
 30
0.0
 11
-318.2084475973143
 21
-687.4996434007953
 31
0.0
  0
LINE
  5
DC5
330
5AE
100
AcDbEntity
  8
SIZE
 62
     0
370
    -2
100
AcDbLine
 10
411.7915524026856
 20
-799.1411736314327
 30
0.0
 11
411.7915524026856
 21
-687.4996434007953
 31
0.0
  0
LINE
  5
DC6
330
5AE
100
AcDbEntity
  8
SIZE
 62
     0
370
    -2
100
AcDbLine
 10
-305.7084475973143
 20
-693.7496434007953
 30
0.0
 11
399.2915524026856
 21
-693.7496434007953
 31
0.0
  0
INSERT
  5
DC7
330
5AE
100
AcDbEntity
  8
SIZE
 62
     0
370
    -2
100
AcDbBlockReference
  2
_OPEN30
 10
-318.2084475973143
 20
-693.7496434007953
 30
0.0
 41
12.5
 42
12.5
 43
12.5
 50
180.0
  0
INSERT
  5
DC8
330
5AE
100
AcDbEntity
  8
SIZE
 62
     0
370
    -2
100
AcDbBlockReference
  2
_OPEN30
 10
411.7915524026856
 20
-693.7496434007953
 30
0.0
 41
12.5
 42
12.5
 43
12.5
  0
MTEXT
  5
DC9
330
5AE
100
AcDbEntity
  8
SIZE
 62
     0
100
AcDbMText
 10
46.79155240268565
 20
-684.3746434007953
 30
0.0
 40
12.5
 41
0.0
 71
     5
 72
     1
  1
730
 73
     1
 44
1.0
1001
ACAD
1000
MTEXTBEGIN
1070
    73
1070
     1
1070
    44
1040
1.0
1070
    74
1070
     0
1000
MTEXTEND
  0
POINT
  5
DCA
330
5AE
100
AcDbEntity
  8
Defpoints
 62
     0
100
AcDbPoint
 10
-318.2084475973143
 20
-801.804293416084
 30
0.0
  0
POINT
  5
DCB
330
5AE
100
AcDbEntity
  8
Defpoints
 62
     0
100
AcDbPoint
 10
411.7915524026856
 20
-802.2661736314327
 30
0.0
  0
POINT
  5
DCC
330
5AE
100
AcDbEntity
  8
Defpoints
 62
     0
100
AcDbPoint
 10
411.7915524026856
 20
-693.7496434007953
 30
0.0
  0
ENDBLK
  5
5B0
330
5AE
100
AcDbEntity
  8
0
100
AcDbBlockEnd
  0
BLOCK
  5
5BC
330
5BB
100
AcDbEntity
  8
0
100
AcDbBlockBegin
  2
*D3
 70
     1
 10
0.0
 20
0.0
 30
0.0
  3
*D3
  1

  0
LINE
  5
D68
330
5BB
100
AcDbEntity
  8
SIZE
 62
     0
370
    -2
100
AcDbLine
 10
-317.3334475973143
 20
-784.7593741729687
 30
0.0
 11
-595.4800756401145
 21
-784.7593741729687
 31
0.0
  0
LINE
  5
D69
330
5BB
100
AcDbEntity
  8
SIZE
 62
     0
370
    -2
100
AcDbLine
 10
-320.533447597315
 20
-1663.304293416084
 30
0.0
 11
-595.4800756401147
 21
-1663.304293416083
 31
0.0
  0
LINE
  5
D6A
330
5BB
100
AcDbEntity
  8
SIZE
 62
     0
370
    -2
100
AcDbLine
 10
-589.2300756401145
 20
-797.2593741729687
 30
0.0
 11
-589.2300756401147
 21
-1650.804293416084
 31
0.0
  0
INSERT
  5
D6B
330
5BB
100
AcDbEntity
  8
SIZE
 62
     0
370
    -2
100
AcDbBlockReference
  2
_OPEN30
 10
-589.2300756401145
 20
-784.7593741729687
 30
0.0
 41
12.5
 42
12.5
 43
12.5
 50
90.0
  0
INSERT
  5
D6C
330
5BB
100
AcDbEntity
  8
SIZE
 62
     0
370
    -2
100
AcDbBlockReference
  2
_OPEN30
 10
-589.2300756401147
 20
-1663.304293416083
 30
0.0
 41
12.5
 42
12.5
 43
12.5
 50
270.0
  0
MTEXT
  5
D6D
330
5BB
100
AcDbEntity
  8
SIZE
 62
     0
100
AcDbMText
 10
-598.6050756401144
 20
-1224.031833794526
 30
0.0
 40
12.5
 41
0.0
 71
     5
 72
     1
  1
878.5
 11
0.0000000000000001
 21
1.0
 31
0.0
 73
     1
 44
1.0
1001
ACAD
1000
MTEXTBEGIN
1070
    73
1070
     1
1070
    44
1040
1.0
1070
    74
1070
     0
1000
MTEXTEND
  0
POINT
  5
D6E
330
5BB
100
AcDbEntity
  8
Defpoints
 62
     0
100
AcDbPoint
 10
-314.2084475973143
 20
-784.7593741729687
 30
0.0
  0
POINT
  5
D6F
330
5BB
100
AcDbEntity
  8
Defpoints
 62
     0
100
AcDbPoint
 10
-317.408447597315
 20
-1663.304293416084
 30
0.0
  0
POINT
  5
D70
330
5BB
100
AcDbEntity
  8
Defpoints
 62
     0
100
AcDbPoint
 10
-589.2300756401147
 20
-1663.304293416083
 30
0.0
  0
ENDBLK
  5
5BD
330
5BB
100
AcDbEntity
  8
0
100
AcDbBlockEnd
  0
BLOCK
  5
5C9
330
5C8
100
AcDbEntity
  8
0
100
AcDbBlockBegin
  2
*D4
 70
     1
 10
0.0
 20
0.0
 30
0.0
  3
*D4
  1

  0
LINE
  5
DBB
330
5C8
100
AcDbEntity
  8
SIZE
 62
     0
370
    -2
100
AcDbLine
 10
-243.7084475973133
 20
-783.1343741729726
 30
0.0
 11
-243.7084475973133
 21
-752.7139849506237
 31
0.0
  0
LINE
  5
DBC
330
5C8
100
AcDbEntity
  8
SIZE
 62
     0
370
    -2
100
AcDbLine
 10
-10.70844759731426
 20
-783.1343741729726
 30
0.0
 11
-10.70844759731426
 21
-752.7139849506237
 31
0.0
  0
LINE
  5
DBD
330
5C8
100
AcDbEntity
  8
SIZE
 62
     0
370
    -2
100
AcDbLine
 10
-231.2084475973133
 20
-758.9639849506237
 30
0.0
 11
-23.20844759731426
 21
-758.9639849506237
 31
0.0
  0
INSERT
  5
DBE
330
5C8
100
AcDbEntity
  8
SIZE
 62
     0
370
    -2
100
AcDbBlockReference
  2
_OPEN30
 10
-243.7084475973133
 20
-758.9639849506237
 30
0.0
 41
12.5
 42
12.5
 43
12.5
 50
180.0
  0
INSERT
  5
DBF
330
5C8
100
AcDbEntity
  8
SIZE
 62
     0
370
    -2
100
AcDbBlockReference
  2
_OPEN30
 10
-10.70844759731426
 20
-758.9639849506237
 30
0.0
 41
12.5
 42
12.5
 43
12.5
  0
MTEXT
  5
DC0
330
5C8
100
AcDbEntity
  8
SIZE
 62
     0
100
AcDbMText
 10
-127.2084475973138
 20
-749.5889849506237
 30
0.0
 40
12.5
 41
0.0
 71
     5
 72
     1
  1
233
 73
     1
 44
1.0
1001
ACAD
1000
MTEXTBEGIN
1070
    73
1070
     1
1070
    44
1040
1.0
1070
    74
1070
     0
1000
MTEXTEND
  0
POINT
  5
DC1
330
5C8
100
AcDbEntity
  8
Defpoints
 62
     0
100
AcDbPoint
 10
-243.7084475973133
 20
-786.2593741729726
 30
0.0
  0
POINT
  5
DC2
330
5C8
100
AcDbEntity
  8
Defpoints
 62
     0
100
AcDbPoint
 10
-10.70844759731426
 20
-786.2593741729726
 30
0.0
  0
POINT
  5
DC3
330
5C8
100
AcDbEntity
  8
Defpoints
 62
     0
100
AcDbPoint
 10
-10.70844759731426
 20
-758.9639849506237
 30
0.0
  0
ENDBLK
  5
5CA
330
5C8
100
AcDbEntity
  8
0
100
AcDbBlockEnd
  0
BLOCK
  5
5D6
330
5D5
100
AcDbEntity
  8
0
100
AcDbBlockBegin
  2
*D5
 70
     1
 10
0.0
 20
0.0
 30
0.0
  3
*D5
  1

  0
LINE
  5
DB2
330
5D5
100
AcDbEntity
  8
SIZE
 62
     0
370
    -2
100
AcDbLine
 10
-10.70844759731426
 20
-783.0243741729717
 30
0.0
 11
-10.70844759731426
 21
-752.7139849506237
 31
0.0
  0
LINE
  5
DB3
330
5D5
100
AcDbEntity
  8
SIZE
 62
     0
370
    -2
100
AcDbLine
 10
104.2915524026857
 20
-783.0243741729717
 30
0.0
 11
104.2915524026857
 21
-752.7139849506237
 31
0.0
  0
LINE
  5
DB4
330
5D5
100
AcDbEntity
  8
SIZE
 62
     0
370
    -2
100
AcDbLine
 10
1.791552402685741
 20
-758.9639849506237
 30
0.0
 11
91.79155240268569
 21
-758.9639849506237
 31
0.0
  0
INSERT
  5
DB5
330
5D5
100
AcDbEntity
  8
SIZE
 62
     0
370
    -2
100
AcDbBlockReference
  2
_OPEN30
 10
-10.70844759731426
 20
-758.9639849506237
 30
0.0
 41
12.5
 42
12.5
 43
12.5
 50
180.0
  0
INSERT
  5
DB6
330
5D5
100
AcDbEntity
  8
SIZE
 62
     0
370
    -2
100
AcDbBlockReference
  2
_OPEN30
 10
104.2915524026857
 20
-758.9639849506237
 30
0.0
 41
12.5
 42
12.5
 43
12.5
  0
MTEXT
  5
DB7
330
5D5
100
AcDbEntity
  8
SIZE
 62
     0
100
AcDbMText
 10
46.79155240268571
 20
-749.5889849506237
 30
0.0
 40
12.5
 41
0.0
 71
     5
 72
     1
  1
115
 73
     1
 44
1.0
1001
ACAD
1000
MTEXTBEGIN
1070
    73
1070
     1
1070
    44
1040
1.0
1070
    74
1070
     0
1000
MTEXTEND
  0
POINT
  5
DB8
330
5D5
100
AcDbEntity
  8
Defpoints
 62
     0
100
AcDbPoint
 10
-10.70844759731426
 20
-786.1493741729717
 30
0.0
  0
POINT
  5
DB9
330
5D5
100
AcDbEntity
  8
Defpoints
 62
     0
100
AcDbPoint
 10
104.2915524026857
 20
-786.1493741729717
 30
0.0
  0
POINT
  5
DBA
330
5D5
100
AcDbEntity
  8
Defpoints
 62
     0
100
AcDbPoint
 10
104.2915524026857
 20
-758.9639849506237
 30
0.0
  0
ENDBLK
  5
5D7
330
5D5
100
AcDbEntity
  8
0
100
AcDbBlockEnd
  0
BLOCK
  5
5E3
330
5E2
100
AcDbEntity
  8
0
100
AcDbBlockBegin
  2
*D6
 70
     1
 10
0.0
 20
0.0
 30
0.0
  3
*D6
  1

  0
LINE
  5
DA9
330
5E2
100
AcDbEntity
  8
SIZE
 62
     0
370
    -2
100
AcDbLine
 10
104.2915524026857
 20
-783.1343741729726
 30
0.0
 11
104.2915524026857
 21
-752.7139849506237
 31
0.0
  0
LINE
  5
DAA
330
5E2
100
AcDbEntity
  8
SIZE
 62
     0
370
    -2
100
AcDbLine
 10
337.2915524026857
 20
-783.0243741729717
 30
0.0
 11
337.2915524026857
 21
-752.7139849506237
 31
0.0
  0
LINE
  5
DAB
330
5E2
100
AcDbEntity
  8
SIZE
 62
     0
370
    -2
100
AcDbLine
 10
116.7915524026857
 20
-758.9639849506237
 30
0.0
 11
324.7915524026857
 21
-758.9639849506237
 31
0.0
  0
INSERT
  5
DAC
330
5E2
100
AcDbEntity
  8
SIZE
 62
     0
370
    -2
100
AcDbBlockReference
  2
_OPEN30
 10
104.2915524026857
 20
-758.9639849506237
 30
0.0
 41
12.5
 42
12.5
 43
12.5
 50
180.0
  0
INSERT
  5
DAD
330
5E2
100
AcDbEntity
  8
SIZE
 62
     0
370
    -2
100
AcDbBlockReference
  2
_OPEN30
 10
337.2915524026857
 20
-758.9639849506237
 30
0.0
 41
12.5
 42
12.5
 43
12.5
  0
MTEXT
  5
DAE
330
5E2
100
AcDbEntity
  8
SIZE
 62
     0
100
AcDbMText
 10
220.7915524026857
 20
-749.5889849506237
 30
0.0
 40
12.5
 41
0.0
 71
     5
 72
     1
  1
233
 73
     1
 44
1.0
1001
ACAD
1000
MTEXTBEGIN
1070
    73
1070
     1
1070
    44
1040
1.0
1070
    74
1070
     0
1000
MTEXTEND
  0
POINT
  5
DAF
330
5E2
100
AcDbEntity
  8
Defpoints
 62
     0
100
AcDbPoint
 10
104.2915524026857
 20
-786.2593741729726
 30
0.0
  0
POINT
  5
DB0
330
5E2
100
AcDbEntity
  8
Defpoints
 62
     0
100
AcDbPoint
 10
337.2915524026857
 20
-786.1493741729717
 30
0.0
  0
POINT
  5
DB1
330
5E2
100
AcDbEntity
  8
Defpoints
 62
     0
100
AcDbPoint
 10
337.2915524026857
 20
-758.9639849506237
 30
0.0
  0
ENDBLK
  5
5E4
330
5E2
100
AcDbEntity
  8
0
100
AcDbBlockEnd
  0
BLOCK
  5
5F0
330
5EF
100
AcDbEntity
  8
0
100
AcDbBlockBegin
  2
*D7
 70
     1
 10
0.0
 20
0.0
 30
0.0
  3
*D7
  1

  0
LINE
  5
DA0
330
5EF
100
AcDbEntity
  8
SIZE
 62
     0
370
    -2
100
AcDbLine
 10
-308.7084475973143
 20
-863.0692934160832
 30
0.0
 11
-308.7084475973143
 21
-721.8863923704462
 31
0.0
  0
LINE
  5
DA1
330
5EF
100
AcDbEntity
  8
SIZE
 62
     0
370
    -2
100
AcDbLine
 10
402.2915524026855
 20
-886.8843741729724
 30
0.0
 11
402.2915524026855
 21
-721.8863923704462
 31
0.0
  0
LINE
  5
DA2
330
5EF
100
AcDbEntity
  8
SIZE
 62
     0
370
    -2
100
AcDbLine
 10
-296.2084475973143
 20
-728.1363923704462
 30
0.0
 11
389.7915524026855
 21
-728.1363923704462
 31
0.0
  0
INSERT
  5
DA3
330
5EF
100
AcDbEntity
  8
SIZE
 62
     0
370
    -2
100
AcDbBlockReference
  2
_OPEN30
 10
-308.7084475973143
 20
-728.1363923704462
 30
0.0
 41
12.5
 42
12.5
 43
12.5
 50
180.0
  0
INSERT
  5
DA4
330
5EF
100
AcDbEntity
  8
SIZE
 62
     0
370
    -2
100
AcDbBlockReference
  2
_OPEN30
 10
402.2915524026855
 20
-728.1363923704462
 30
0.0
 41
12.5
 42
12.5
 43
12.5
  0
MTEXT
  5
DA5
330
5EF
100
AcDbEntity
  8
SIZE
 62
     0
100
AcDbMText
 10
46.79155240268556
 20
-718.7613923704462
 30
0.0
 40
12.5
 41
0.0
 71
     5
 72
     1
  1
711
 73
     1
 44
1.0
1001
ACAD
1000
MTEXTBEGIN
1070
    73
1070
     1
1070
    44
1040
1.0
1070
    74
1070
     0
1000
MTEXTEND
  0
POINT
  5
DA6
330
5EF
100
AcDbEntity
  8
Defpoints
 62
     0
100
AcDbPoint
 10
-308.7084475973143
 20
-866.1942934160832
 30
0.0
  0
POINT
  5
DA7
330
5EF
100
AcDbEntity
  8
Defpoints
 62
     0
100
AcDbPoint
 10
402.2915524026855
 20
-890.0093741729724
 30
0.0
  0
POINT
  5
DA8
330
5EF
100
AcDbEntity
  8
Defpoints
 62
     0
100
AcDbPoint
 10
402.2915524026855
 20
-728.1363923704462
 30
0.0
  0
ENDBLK
  5
5F1
330
5EF
100
AcDbEntity
  8
0
100
AcDbBlockEnd
  0
BLOCK
  5
5FD
330
5FC
100
AcDbEntity
  8
0
100
AcDbBlockBegin
  2
*D8
 70
     1
 10
0.0
 20
0.0
 30
0.0
  3
*D8
  1

  0
LINE
  5
5FF
330
5FC
100
AcDbEntity
  8
AM_0
 62
     0
370
    -2
100
AcDbLine
 10
-296.7084475973143
 20
-1659.929293416084
 30
0.0
 11
-296.7084475973143
 21
-1703.164804095499
 31
0.0
  0
LINE
  5
600
330
5FC
100
AcDbEntity
  8
AM_0
 62
     0
370
    -2
100
AcDbLine
 10
402.2915524026855
 20
-1659.929293416084
 30
0.0
 11
402.2915524026855
 21
-1703.164804095499
 31
0.0
  0
LINE
  5
601
330
5FC
100
AcDbEntity
  8
AM_0
 62
     0
370
    -2
100
AcDbLine
 10
-284.2084475973143
 20
-1696.914804095499
 30
0.0
 11
389.7915524026857
 21
-1696.914804095499
 31
0.0
  0
INSERT
  5
602
330
5FC
100
AcDbEntity
  8
AM_0
 62
     0
370
    -2
100
AcDbBlockReference
  2
_OPEN30
 10
-296.7084475973143
 20
-1696.914804095499
 30
0.0
 41
12.5
 42
12.5
 43
12.5
 50
180.0
  0
INSERT
  5
603
330
5FC
100
AcDbEntity
  8
AM_0
 62
     0
370
    -2
100
AcDbBlockReference
  2
_OPEN30
 10
402.2915524026855
 20
-1696.914804095499
 30
0.0
 41
12.5
 42
12.5
 43
12.5
  0
MTEXT
  5
604
330
5FC
100
AcDbEntity
  8
AM_0
 62
     0
100
AcDbMText
 10
52.79155240268574
 20
-1687.539804095499
 30
0.0
 40
12.5
 41
0.0
 71
     5
 72
     1
  1
699
 73
     1
 44
1.0
1001
ACAD
1000
MTEXTBEGIN
1070
    73
1070
     1
1070
    44
1040
1.0
1070
    74
1070
     0
1000
MTEXTEND
  0
POINT
  5
605
330
5FC
100
AcDbEntity
  8
Defpoints
 62
     0
100
AcDbPoint
 10
-296.7084475973143
 20
-1656.804293416084
 30
0.0
  0
POINT
  5
606
330
5FC
100
AcDbEntity
  8
Defpoints
 62
     0
100
AcDbPoint
 10
402.2915524026855
 20
-1656.804293416084
 30
0.0
  0
POINT
  5
607
330
5FC
100
AcDbEntity
  8
Defpoints
 62
     0
100
AcDbPoint
 10
402.2915524026855
 20
-1696.914804095499
 30
0.0
  0
ENDBLK
  5
5FE
330
5FC
100
AcDbEntity
  8
0
100
AcDbBlockEnd
  0
BLOCK
  5
60A
330
609
100
AcDbEntity
  8
0
100
AcDbBlockBegin
  2
*D9
 70
     1
 10
0.0
 20
0.0
 30
0.0
  3
*D9
  1

  0
LINE
  5
60C
330
609
100
AcDbEntity
  8
AM_0
 62
     0
370
    -2
100
AcDbLine
 10
-296.7084475973143
 20
-1253.429293416084
 30
0.0
 11
-296.7084475973143
 21
-1513.877381686399
 31
0.0
  0
LINE
  5
60D
330
609
100
AcDbEntity
  8
AM_0
 62
     0
370
    -2
100
AcDbLine
 10
402.2915524026855
 20
-1254.039293416084
 30
0.0
 11
402.2915524026855
 21
-1513.877381686399
 31
0.0
  0
LINE
  5
60E
330
609
100
AcDbEntity
  8
AM_0
 62
     0
370
    -2
100
AcDbLine
 10
-284.2084475973143
 20
-1507.627381686399
 30
0.0
 11
389.7915524026857
 21
-1507.627381686399
 31
0.0
  0
INSERT
  5
60F
330
609
100
AcDbEntity
  8
AM_0
 62
     0
370
    -2
100
AcDbBlockReference
  2
_OPEN30
 10
-296.7084475973143
 20
-1507.627381686399
 30
0.0
 41
12.5
 42
12.5
 43
12.5
 50
180.0
  0
INSERT
  5
610
330
609
100
AcDbEntity
  8
AM_0
 62
     0
370
    -2
100
AcDbBlockReference
  2
_OPEN30
 10
402.2915524026855
 20
-1507.627381686399
 30
0.0
 41
12.5
 42
12.5
 43
12.5
  0
MTEXT
  5
611
330
609
100
AcDbEntity
  8
AM_0
 62
     0
100
AcDbMText
 10
52.79155240268574
 20
-1498.252381686399
 30
0.0
 40
12.5
 41
0.0
 71
     5
 72
     1
  1
699
 73
     1
 44
1.0
1001
ACAD
1000
MTEXTBEGIN
1070
    73
1070
     1
1070
    44
1040
1.0
1070
    74
1070
     0
1000
MTEXTEND
  0
POINT
  5
612
330
609
100
AcDbEntity
  8
Defpoints
 62
     0
100
AcDbPoint
 10
-296.7084475973143
 20
-1250.304293416084
 30
0.0
  0
POINT
  5
613
330
609
100
AcDbEntity
  8
Defpoints
 62
     0
100
AcDbPoint
 10
402.2915524026855
 20
-1250.914293416084
 30
0.0
  0
POINT
  5
614
330
609
100
AcDbEntity
  8
Defpoints
 62
     0
100
AcDbPoint
 10
402.2915524026855
 20
-1507.627381686399
 30
0.0
  0
ENDBLK
  5
60B
330
609
100
AcDbEntity
  8
0
100
AcDbBlockEnd
  0
BLOCK
  5
617
330
616
100
AcDbEntity
  8
0
100
AcDbBlockBegin
  2
*D10
 70
     1
 10
0.0
 20
0.0
 30
0.0
  3
*D10
  1

  0
LINE
  5
D97
330
616
100
AcDbEntity
  8
SIZE
 62
     0
370
    -2
100
AcDbLine
 10
-296.7084475973143
 20
-1253.429293416084
 30
0.0
 11
-296.7084475973144
 21
-1760.914516277136
 31
0.0
  0
LINE
  5
D98
330
616
100
AcDbEntity
  8
SIZE
 62
     0
370
    -2
100
AcDbLine
 10
402.2915524026855
 20
-1253.429293416084
 30
0.0
 11
402.2915524026854
 21
-1760.914516277136
 31
0.0
  0
LINE
  5
D99
330
616
100
AcDbEntity
  8
SIZE
 62
     0
370
    -2
100
AcDbLine
 10
-284.2084475973144
 20
-1754.664516277136
 30
0.0
 11
389.7915524026854
 21
-1754.664516277136
 31
0.0
  0
INSERT
  5
D9A
330
616
100
AcDbEntity
  8
SIZE
 62
     0
370
    -2
100
AcDbBlockReference
  2
_OPEN30
 10
-296.7084475973144
 20
-1754.664516277136
 30
0.0
 41
12.5
 42
12.5
 43
12.5
 50
180.0
  0
INSERT
  5
D9B
330
616
100
AcDbEntity
  8
SIZE
 62
     0
370
    -2
100
AcDbBlockReference
  2
_OPEN30
 10
402.2915524026854
 20
-1754.664516277136
 30
0.0
 41
12.5
 42
12.5
 43
12.5
  0
MTEXT
  5
D9C
330
616
100
AcDbEntity
  8
SIZE
 62
     0
100
AcDbMText
 10
52.79155240268551
 20
-1745.289516277136
 30
0.0
 40
12.5
 41
0.0
 71
     5
 72
     1
  1
699
 73
     1
 44
1.0
1001
ACAD
1000
MTEXTBEGIN
1070
    73
1070
     1
1070
    44
1040
1.0
1070
    74
1070
     0
1000
MTEXTEND
  0
POINT
  5
D9D
330
616
100
AcDbEntity
  8
Defpoints
 62
     0
100
AcDbPoint
 10
-296.7084475973143
 20
-1250.304293416084
 30
0.0
  0
POINT
  5
D9E
330
616
100
AcDbEntity
  8
Defpoints
 62
     0
100
AcDbPoint
 10
402.2915524026855
 20
-1250.304293416084
 30
0.0
  0
POINT
  5
D9F
330
616
100
AcDbEntity
  8
Defpoints
 62
     0
100
AcDbPoint
 10
402.2915524026854
 20
-1754.664516277136
 30
0.0
  0
ENDBLK
  5
618
330
616
100
AcDbEntity
  8
0
100
AcDbBlockEnd
  0
BLOCK
  5
624
330
623
100
AcDbEntity
  8
0
100
AcDbBlockBegin
  2
*D11
 70
     1
 10
0.0
 20
0.0
 30
0.0
  3
*D11
  1

  0
LINE
  5
DD8
330
623
100
AcDbEntity
  8
SIZE
 62
     0
370
    -2
100
AcDbLine
 10
-296.7084475973143
 20
-1253.429293416084
 30
0.0
 11
-296.7084475973143
 21
-1346.67455187629
 31
0.0
  0
LINE
  5
DD9
330
623
100
AcDbEntity
  8
SIZE
 62
     0
370
    -2
100
AcDbLine
 10
-308.7084475973143
 20
-1281.42929341608
 30
0.0
 11
-308.7084475973143
 21
-1346.67455187629
 31
0.0
  0
LINE
  5
DDA
330
623
100
AcDbEntity
  8
SIZE
 62
     0
370
    -2
100
AcDbLine
 10
-284.2084475973143
 20
-1340.42455187629
 30
0.0
 11
-271.7084475973143
 21
-1340.42455187629
 31
0.0
  0
LINE
  5
DDB
330
623
100
AcDbEntity
  8
SIZE
 62
     0
370
    -2
100
AcDbLine
 10
-321.2084475973143
 20
-1340.42455187629
 30
0.0
 11
-358.4108285496953
 21
-1340.42455187629
 31
0.0
  0
LINE
  5
DDC
330
623
100
AcDbEntity
  8
SIZE
 62
     0
370
    -2
100
AcDbLine
 10
-296.7084475973143
 20
-1340.42455187629
 30
0.0
 11
-308.7084475973143
 21
-1340.42455187629
 31
0.0
  0
INSERT
  5
DDD
330
623
100
AcDbEntity
  8
SIZE
 62
     0
370
    -2
100
AcDbBlockReference
  2
_OPEN30
 10
-296.7084475973143
 20
-1340.42455187629
 30
0.0
 41
12.5
 42
12.5
 43
12.5
 50
180.0
  0
INSERT
  5
DDE
330
623
100
AcDbEntity
  8
SIZE
 62
     0
370
    -2
100
AcDbBlockReference
  2
_OPEN30
 10
-308.7084475973143
 20
-1340.42455187629
 30
0.0
 41
12.5
 42
12.5
 43
12.5
  0
MTEXT
  5
DDF
330
623
100
AcDbEntity
  8
SIZE
 62
     0
100
AcDbMText
 10
-346.0596380735048
 20
-1331.04955187629
 30
0.0
 40
12.5
 41
0.0
 71
     5
 72
     1
  1
12
 73
     1
 44
1.0
1001
ACAD
1000
MTEXTBEGIN
1070
    73
1070
     1
1070
    44
1040
1.0
1070
    74
1070
     0
1000
MTEXTEND
  0
POINT
  5
DE0
330
623
100
AcDbEntity
  8
Defpoints
 62
     0
100
AcDbPoint
 10
-296.7084475973143
 20
-1250.304293416084
 30
0.0
  0
POINT
  5
DE1
330
623
100
AcDbEntity
  8
Defpoints
 62
     0
100
AcDbPoint
 10
-308.7084475973143
 20
-1278.30429341608
 30
0.0
  0
POINT
  5
DE2
330
623
100
AcDbEntity
  8
Defpoints
 62
     0
100
AcDbPoint
 10
-308.7084475973143
 20
-1340.42455187629
 30
0.0
  0
ENDBLK
  5
625
330
623
100
AcDbEntity
  8
0
100
AcDbBlockEnd
  0
BLOCK
  5
633
330
632
100
AcDbEntity
  8
0
100
AcDbBlockBegin
  2
*D12
 70
     1
 10
0.0
 20
0.0
 30
0.0
  3
*D12
  1

  0
LINE
  5
D83
330
632
100
AcDbEntity
  8
SIZE
 62
     0
370
    -2
100
AcDbLine
 10
-302.9434475973149
 20
-1653.804293416084
 30
0.0
 11
-564.8097864918534
 21
-1653.804293416084
 31
0.0
  0
LINE
  5
D84
330
632
100
AcDbEntity
  8
SIZE
 62
     0
370
    -2
100
AcDbLine
 10
-314.9434475973139
 20
-1275.30429341608
 30
0.0
 11
-564.8097864918534
 21
-1275.30429341608
 31
0.0
  0
LINE
  5
D85
330
632
100
AcDbEntity
  8
SIZE
 62
     0
370
    -2
100
AcDbLine
 10
-558.5597864918534
 20
-1641.304293416084
 30
0.0
 11
-558.5597864918534
 21
-1287.80429341608
 31
0.0
  0
INSERT
  5
D86
330
632
100
AcDbEntity
  8
SIZE
 62
     0
370
    -2
100
AcDbBlockReference
  2
_OPEN30
 10
-558.5597864918534
 20
-1653.804293416084
 30
0.0
 41
12.5
 42
12.5
 43
12.5
 50
270.0
  0
INSERT
  5
D87
330
632
100
AcDbEntity
  8
SIZE
 62
     0
370
    -2
100
AcDbBlockReference
  2
_OPEN30
 10
-558.5597864918534
 20
-1275.30429341608
 30
0.0
 41
12.5
 42
12.5
 43
12.5
 50
90.0
  0
MTEXT
  5
D88
330
632
100
AcDbEntity
  8
SIZE
 62
     0
100
AcDbMText
 10
-567.9347864918533
 20
-1464.554293416082
 30
0.0
 40
12.5
 41
0.0
 71
     5
 72
     1
  1
378.5
 11
0.0000000000000001
 21
1.0
 31
0.0
 73
     1
 44
1.0
1001
ACAD
1000
MTEXTBEGIN
1070
    73
1070
     1
1070
    44
1040
1.0
1070
    74
1070
     0
1000
MTEXTEND
  0
POINT
  5
D89
330
632
100
AcDbEntity
  8
Defpoints
 62
     0
100
AcDbPoint
 10
-299.8184475973149
 20
-1653.804293416084
 30
0.0
  0
POINT
  5
D8A
330
632
100
AcDbEntity
  8
Defpoints
 62
     0
100
AcDbPoint
 10
-311.8184475973139
 20
-1275.30429341608
 30
0.0
  0
POINT
  5
D8B
330
632
100
AcDbEntity
  8
Defpoints
 62
     0
100
AcDbPoint
 10
-558.5597864918534
 20
-1275.30429341608
 30
0.0
  0
ENDBLK
  5
634
330
632
100
AcDbEntity
  8
0
100
AcDbBlockEnd
  0
BLOCK
  5
640
330
63F
100
AcDbEntity
  8
0
100
AcDbBlockBegin
  2
*D13
 70
     1
 10
0.0
 20
0.0
 30
0.0
  3
*D13
  1

  0
LINE
  5
D8C
330
63F
100
AcDbEntity
  8
SIZE
 62
     0
370
    -2
100
AcDbLine
 10
-302.8334475973143
 20
-1247.304293416084
 30
0.0
 11
-564.8097864918536
 21
-1247.304293416084
 31
0.0
  0
LINE
  5
D8D
330
63F
100
AcDbEntity
  8
SIZE
 62
     0
370
    -2
100
AcDbLine
 10
-314.8334475973143
 20
-1275.30429341608
 30
0.0
 11
-564.8097864918536
 21
-1275.30429341608
 31
0.0
  0
LINE
  5
D8E
330
63F
100
AcDbEntity
  8
SIZE
 62
     0
370
    -2
100
AcDbLine
 10
-558.5597864918536
 20
-1234.804293416084
 30
0.0
 11
-558.5597864918536
 21
-1222.304293416083
 31
0.0
  0
LINE
  5
D8F
330
63F
100
AcDbEntity
  8
SIZE
 62
     0
370
    -2
100
AcDbLine
 10
-558.5597864918537
 20
-1287.80429341608
 30
0.0
 11
-558.5597864918537
 21
-1300.30429341608
 31
0.0
  0
LINE
  5
D90
330
63F
100
AcDbEntity
  8
SIZE
 62
     0
370
    -2
100
AcDbLine
 10
-558.5597864918536
 20
-1247.304293416084
 30
0.0
 11
-558.5597864918536
 21
-1275.30429341608
 31
0.0
  0
INSERT
  5
D91
330
63F
100
AcDbEntity
  8
SIZE
 62
     0
370
    -2
100
AcDbBlockReference
  2
_OPEN30
 10
-558.5597864918536
 20
-1247.304293416084
 30
0.0
 41
12.5
 42
12.5
 43
12.5
 50
270.0
  0
INSERT
  5
D92
330
63F
100
AcDbEntity
  8
SIZE
 62
     0
370
    -2
100
AcDbBlockReference
  2
_OPEN30
 10
-558.5597864918536
 20
-1275.30429341608
 30
0.0
 41
12.5
 42
12.5
 43
12.5
 50
90.0
  0
MTEXT
  5
D93
330
63F
100
AcDbEntity
  8
SIZE
 62
     0
100
AcDbMText
 10
-567.9347864918534
 20
-1261.304293416082
 30
0.0
 40
12.5
 41
0.0
 71
     5
 72
     1
  1
28
 11
0.0000000000000001
 21
1.0
 31
0.0
 73
     1
 44
1.0
1001
ACAD
1000
MTEXTBEGIN
1070
    73
1070
     1
1070
    44
1040
1.0
1070
    74
1070
     0
1000
MTEXTEND
  0
POINT
  5
D94
330
63F
100
AcDbEntity
  8
Defpoints
 62
     0
100
AcDbPoint
 10
-299.7084475973143
 20
-1247.304293416084
 30
0.0
  0
POINT
  5
D95
330
63F
100
AcDbEntity
  8
Defpoints
 62
     0
100
AcDbPoint
 10
-311.7084475973143
 20
-1275.30429341608
 30
0.0
  0
POINT
  5
D96
330
63F
100
AcDbEntity
  8
Defpoints
 62
     0
100
AcDbPoint
 10
-558.5597864918536
 20
-1275.30429341608
 30
0.0
  0
ENDBLK
  5
641
330
63F
100
AcDbEntity
  8
0
100
AcDbBlockEnd
  0
BLOCK
  5
64F
330
64E
100
AcDbEntity
  8
0
100
AcDbBlockBegin
  2
*D14
 70
     1
 10
0.0
 20
0.0
 30
0.0
  3
*D14
  1

  0
LINE
  5
651
330
64E
100
AcDbEntity
  8
AM_0
 62
     0
370
    -2
100
AcDbLine
 10
-299.622447597314
 20
-1247.304293416084
 30
0.0
 11
-564.8097864918536
 21
-1247.304293416084
 31
0.0
  0
LINE
  5
652
330
64E
100
AcDbEntity
  8
AM_0
 62
     0
370
    -2
100
AcDbLine
 10
-311.622447597314
 20
-1185.009374172972
 30
0.0
 11
-564.8097864918536
 21
-1185.009374172972
 31
0.0
  0
LINE
  5
653
330
64E
100
AcDbEntity
  8
AM_0
 62
     0
370
    -2
100
AcDbLine
 10
-558.5597864918536
 20
-1234.804293416084
 30
0.0
 11
-558.5597864918536
 21
-1197.509374172972
 31
0.0
  0
INSERT
  5
654
330
64E
100
AcDbEntity
  8
AM_0
 62
     0
370
    -2
100
AcDbBlockReference
  2
_OPEN30
 10
-558.5597864918536
 20
-1247.304293416084
 30
0.0
 41
12.5
 42
12.5
 43
12.5
 50
270.0
  0
INSERT
  5
655
330
64E
100
AcDbEntity
  8
AM_0
 62
     0
370
    -2
100
AcDbBlockReference
  2
_OPEN30
 10
-558.5597864918536
 20
-1185.009374172972
 30
0.0
 41
12.5
 42
12.5
 43
12.5
 50
90.0
  0
MTEXT
  5
656
330
64E
100
AcDbEntity
  8
AM_0
 62
     0
100
AcDbMText
 10
-567.9347864918534
 20
-1216.156833794528
 30
0.0
 40
12.5
 41
0.0
 71
     5
 72
     1
  1
62.3
 11
0.0000000000000001
 21
1.0
 31
0.0
 73
     1
 44
1.0
1001
ACAD
1000
MTEXTBEGIN
1070
    73
1070
     1
1070
    44
1040
1.0
1070
    74
1070
     0
1000
MTEXTEND
  0
POINT
  5
657
330
64E
100
AcDbEntity
  8
Defpoints
 62
     0
100
AcDbPoint
 10
-296.497447597314
 20
-1247.304293416084
 30
0.0
  0
POINT
  5
658
330
64E
100
AcDbEntity
  8
Defpoints
 62
     0
100
AcDbPoint
 10
-308.497447597314
 20
-1185.009374172972
 30
0.0
  0
POINT
  5
659
330
64E
100
AcDbEntity
  8
Defpoints
 62
     0
100
AcDbPoint
 10
-558.5597864918536
 20
-1185.009374172972
 30
0.0
  0
ENDBLK
  5
650
330
64E
100
AcDbEntity
  8
0
100
AcDbBlockEnd
  0
BLOCK
  5
65C
330
65B
100
AcDbEntity
  8
0
100
AcDbBlockBegin
  2
*D15
 70
     1
 10
0.0
 20
0.0
 30
0.0
  3
*D15
  1

  0
LINE
  5
65E
330
65B
100
AcDbEntity
  8
AM_0
 62
     0
370
    -2
100
AcDbLine
 10
-312.7188418403394
 20
-1185.009374172972
 30
0.0
 11
-564.8097864918536
 21
-1185.009374172972
 31
0.0
  0
LINE
  5
65F
330
65B
100
AcDbEntity
  8
AM_0
 62
     0
370
    -2
100
AcDbLine
 10
-317.4434475973139
 20
-1046.009374172969
 30
0.0
 11
-564.8097864918536
 21
-1046.009374172968
 31
0.0
  0
LINE
  5
660
330
65B
100
AcDbEntity
  8
AM_0
 62
     0
370
    -2
100
AcDbLine
 10
-558.5597864918536
 20
-1172.509374172972
 30
0.0
 11
-558.5597864918536
 21
-1058.509374172968
 31
0.0
  0
INSERT
  5
661
330
65B
100
AcDbEntity
  8
AM_0
 62
     0
370
    -2
100
AcDbBlockReference
  2
_OPEN30
 10
-558.5597864918536
 20
-1185.009374172972
 30
0.0
 41
12.5
 42
12.5
 43
12.5
 50
270.0
  0
INSERT
  5
662
330
65B
100
AcDbEntity
  8
AM_0
 62
     0
370
    -2
100
AcDbBlockReference
  2
_OPEN30
 10
-558.5597864918536
 20
-1046.009374172968
 30
0.0
 41
12.5
 42
12.5
 43
12.5
 50
90.0
  0
MTEXT
  5
663
330
65B
100
AcDbEntity
  8
AM_0
 62
     0
100
AcDbMText
 10
-567.9347864918534
 20
-1115.50937417297
 30
0.0
 40
12.5
 41
0.0
 71
     5
 72
     1
  1
139
 11
0.0000000000000001
 21
1.0
 31
0.0
 73
     1
 44
1.0
1001
ACAD
1000
MTEXTBEGIN
1070
    73
1070
     1
1070
    44
1040
1.0
1070
    74
1070
     0
1000
MTEXTEND
  0
POINT
  5
664
330
65B
100
AcDbEntity
  8
Defpoints
 62
     0
100
AcDbPoint
 10
-309.5938418403394
 20
-1185.009374172972
 30
0.0
  0
POINT
  5
665
330
65B
100
AcDbEntity
  8
Defpoints
 62
     0
100
AcDbPoint
 10
-314.3184475973139
 20
-1046.009374172969
 30
0.0
  0
POINT
  5
666
330
65B
100
AcDbEntity
  8
Defpoints
 62
     0
100
AcDbPoint
 10
-558.5597864918536
 20
-1046.009374172968
 30
0.0
  0
ENDBLK
  5
65D
330
65B
100
AcDbEntity
  8
0
100
AcDbBlockEnd
  0
BLOCK
  5
669
330
668
100
AcDbEntity
  8
0
100
AcDbBlockBegin
  2
*D16
 70
     1
 10
0.0
 20
0.0
 30
0.0
  3
*D16
  1

  0
LINE
  5
66B
330
668
100
AcDbEntity
  8
AM_0
 62
     0
370
    -2
100
AcDbLine
 10
-318.4434475973139
 20
-882.8042934160803
 30
0.0
 11
-564.8097864918536
 21
-882.8042934160803
 31
0.0
  0
LINE
  5
66C
330
668
100
AcDbEntity
  8
AM_0
 62
     0
370
    -2
100
AcDbLine
 10
-317.4434475973139
 20
-1046.009374172969
 30
0.0
 11
-564.8097864918536
 21
-1046.009374172968
 31
0.0
  0
LINE
  5
66D
330
668
100
AcDbEntity
  8
AM_0
 62
     0
370
    -2
100
AcDbLine
 10
-558.5597864918536
 20
-895.3042934160803
 30
0.0
 11
-558.5597864918536
 21
-1033.509374172968
 31
0.0
  0
INSERT
  5
66E
330
668
100
AcDbEntity
  8
AM_0
 62
     0
370
    -2
100
AcDbBlockReference
  2
_OPEN30
 10
-558.5597864918536
 20
-882.8042934160803
 30
0.0
 41
12.5
 42
12.5
 43
12.5
 50
90.0
  0
INSERT
  5
66F
330
668
100
AcDbEntity
  8
AM_0
 62
     0
370
    -2
100
AcDbBlockReference
  2
_OPEN30
 10
-558.5597864918536
 20
-1046.009374172968
 30
0.0
 41
12.5
 42
12.5
 43
12.5
 50
270.0
  0
MTEXT
  5
670
330
668
100
AcDbEntity
  8
AM_0
 62
     0
100
AcDbMText
 10
-567.9347864918534
 20
-964.4068337945244
 30
0.0
 40
12.5
 41
0.0
 71
     5
 72
     1
  1
163.2
 11
0.0000000000000001
 21
1.0
 31
0.0
 73
     1
 44
1.0
1001
ACAD
1000
MTEXTBEGIN
1070
    73
1070
     1
1070
    44
1040
1.0
1070
    74
1070
     0
1000
MTEXTEND
  0
POINT
  5
671
330
668
100
AcDbEntity
  8
Defpoints
 62
     0
100
AcDbPoint
 10
-315.3184475973139
 20
-882.8042934160803
 30
0.0
  0
POINT
  5
672
330
668
100
AcDbEntity
  8
Defpoints
 62
     0
100
AcDbPoint
 10
-314.3184475973139
 20
-1046.009374172969
 30
0.0
  0
POINT
  5
673
330
668
100
AcDbEntity
  8
Defpoints
 62
     0
100
AcDbPoint
 10
-558.5597864918536
 20
-1046.009374172968
 30
0.0
  0
ENDBLK
  5
66A
330
668
100
AcDbEntity
  8
0
100
AcDbBlockEnd
  0
BLOCK
  5
676
330
675
100
AcDbEntity
  8
0
100
AcDbBlockBegin
  2
*D17
 70
     1
 10
0.0
 20
0.0
 30
0.0
  3
*D17
  1

  0
LINE
  5
DCD
330
675
100
AcDbEntity
  8
SIZE
 62
     0
370
    -2
100
AcDbLine
 10
-314.9434475973139
 20
-869.3042934160839
 30
0.0
 11
-439.6820490868569
 21
-869.3042934160839
 31
0.0
  0
LINE
  5
DCE
330
675
100
AcDbEntity
  8
SIZE
 62
     0
370
    -2
100
AcDbLine
 10
-318.4434475973139
 20
-882.8042934160803
 30
0.0
 11
-439.6820490868569
 21
-882.8042934160803
 31
0.0
  0
LINE
  5
DCF
330
675
100
AcDbEntity
  8
SIZE
 62
     0
370
    -2
100
AcDbLine
 10
-433.4320490868569
 20
-856.8042934160839
 30
0.0
 11
-433.4320490868569
 21
-844.3042934160839
 31
0.0
  0
LINE
  5
DD0
330
675
100
AcDbEntity
  8
SIZE
 62
     0
370
    -2
100
AcDbLine
 10
-433.4320490868569
 20
-895.3042934160803
 30
0.0
 11
-433.432049086857
 21
-950.3638172256042
 31
0.0
  0
LINE
  5
DD1
330
675
100
AcDbEntity
  8
SIZE
 62
     0
370
    -2
100
AcDbLine
 10
-433.4320490868569
 20
-869.3042934160839
 30
0.0
 11
-433.4320490868569
 21
-882.8042934160803
 31
0.0
  0
INSERT
  5
DD2
330
675
100
AcDbEntity
  8
SIZE
 62
     0
370
    -2
100
AcDbBlockReference
  2
_OPEN30
 10
-433.4320490868569
 20
-869.3042934160839
 30
0.0
 41
12.5
 42
12.5
 43
12.5
 50
270.0
  0
INSERT
  5
DD3
330
675
100
AcDbEntity
  8
SIZE
 62
     0
370
    -2
100
AcDbBlockReference
  2
_OPEN30
 10
-433.4320490868569
 20
-882.8042934160803
 30
0.0
 41
12.5
 42
12.5
 43
12.5
 50
90.0
  0
MTEXT
  5
DD4
330
675
100
AcDbEntity
  8
SIZE
 62
     0
100
AcDbMText
 10
-442.8070490868568
 20
-929.0840553208424
 30
0.0
 40
12.5
 41
0.0
 71
     5
 72
     1
  1
13.5
 11
0.0000000000000001
 21
1.0
 31
0.0
 73
     1
 44
1.0
1001
ACAD
1000
MTEXTBEGIN
1070
    73
1070
     1
1070
    44
1040
1.0
1070
    74
1070
     0
1000
MTEXTEND
  0
POINT
  5
DD5
330
675
100
AcDbEntity
  8
Defpoints
 62
     0
100
AcDbPoint
 10
-311.8184475973139
 20
-869.3042934160839
 30
0.0
  0
POINT
  5
DD6
330
675
100
AcDbEntity
  8
Defpoints
 62
     0
100
AcDbPoint
 10
-315.3184475973139
 20
-882.8042934160803
 30
0.0
  0
POINT
  5
DD7
330
675
100
AcDbEntity
  8
Defpoints
 62
     0
100
AcDbPoint
 10
-433.4320490868569
 20
-882.8042934160803
 30
0.0
  0
ENDBLK
  5
677
330
675
100
AcDbEntity
  8
0
100
AcDbBlockEnd
  0
BLOCK
  5
685
330
684
100
AcDbEntity
  8
0
100
AcDbBlockBegin
  2
*D18
 70
     1
 10
0.0
 20
0.0
 30
0.0
  3
*D18
  1

  0
LINE
  5
D7A
330
684
100
AcDbEntity
  8
SIZE
 62
     0
370
    -2
100
AcDbLine
 10
-249.9434475973139
 20
-789.2593741729724
 30
0.0
 11
-564.8097864918536
 21
-789.2593741729723
 31
0.0
  0
LINE
  5
D7B
330
684
100
AcDbEntity
  8
SIZE
 62
     0
370
    -2
100
AcDbLine
 10
-318.4434475973139
 20
-882.8042934160803
 30
0.0
 11
-564.8097864918536
 21
-882.8042934160803
 31
0.0
  0
LINE
  5
D7C
330
684
100
AcDbEntity
  8
SIZE
 62
     0
370
    -2
100
AcDbLine
 10
-558.5597864918536
 20
-801.7593741729722
 30
0.0
 11
-558.5597864918536
 21
-870.3042934160803
 31
0.0
  0
INSERT
  5
D7D
330
684
100
AcDbEntity
  8
SIZE
 62
     0
370
    -2
100
AcDbBlockReference
  2
_OPEN30
 10
-558.5597864918536
 20
-789.2593741729723
 30
0.0
 41
12.5
 42
12.5
 43
12.5
 50
90.0
  0
INSERT
  5
D7E
330
684
100
AcDbEntity
  8
SIZE
 62
     0
370
    -2
100
AcDbBlockReference
  2
_OPEN30
 10
-558.5597864918536
 20
-882.8042934160803
 30
0.0
 41
12.5
 42
12.5
 43
12.5
 50
270.0
  0
MTEXT
  5
D7F
330
684
100
AcDbEntity
  8
SIZE
 62
     0
100
AcDbMText
 10
-567.9347864918534
 20
-836.0318337945264
 30
0.0
 40
12.5
 41
0.0
 71
     5
 72
     1
  1
93.5
 11
0.0000000000000001
 21
1.0
 31
0.0
 73
     1
 44
1.0
1001
ACAD
1000
MTEXTBEGIN
1070
    73
1070
     1
1070
    44
1040
1.0
1070
    74
1070
     0
1000
MTEXTEND
  0
POINT
  5
D80
330
684
100
AcDbEntity
  8
Defpoints
 62
     0
100
AcDbPoint
 10
-246.8184475973139
 20
-789.2593741729724
 30
0.0
  0
POINT
  5
D81
330
684
100
AcDbEntity
  8
Defpoints
 62
     0
100
AcDbPoint
 10
-315.3184475973139
 20
-882.8042934160803
 30
0.0
  0
POINT
  5
D82
330
684
100
AcDbEntity
  8
Defpoints
 62
     0
100
AcDbPoint
 10
-558.5597864918536
 20
-882.8042934160803
 30
0.0
  0
ENDBLK
  5
686
330
684
100
AcDbEntity
  8
0
100
AcDbBlockEnd
  0
BLOCK
  5
692
330
691
100
AcDbEntity
  8
0
100
AcDbBlockBegin
  2
*D19
 70
     1
 10
0.0
 20
0.0
 30
0.0
  3
*D19
  1

  0
LINE
  5
D5F
330
691
100
AcDbEntity
  8
SIZE
 62
     0
370
    -2
100
AcDbLine
 10
343.5265524026863
 20
-789.2593741729724
 30
0.0
 11
493.094369121885
 21
-789.2593741729724
 31
0.0
  0
LINE
  5
D60
330
691
100
AcDbEntity
  8
SIZE
 62
     0
370
    -2
100
AcDbLine
 10
412.0265524026863
 20
-906.304293416084
 30
0.0
 11
493.094369121885
 21
-906.304293416084
 31
0.0
  0
LINE
  5
D61
330
691
100
AcDbEntity
  8
SIZE
 62
     0
370
    -2
100
AcDbLine
 10
486.844369121885
 20
-801.7593741729724
 30
0.0
 11
486.844369121885
 21
-893.804293416084
 31
0.0
  0
INSERT
  5
D62
330
691
100
AcDbEntity
  8
SIZE
 62
     0
370
    -2
100
AcDbBlockReference
  2
_OPEN30
 10
486.844369121885
 20
-789.2593741729724
 30
0.0
 41
12.5
 42
12.5
 43
12.5
 50
90.0
  0
INSERT
  5
D63
330
691
100
AcDbEntity
  8
SIZE
 62
     0
370
    -2
100
AcDbBlockReference
  2
_OPEN30
 10
486.844369121885
 20
-906.304293416084
 30
0.0
 41
12.5
 42
12.5
 43
12.5
 50
270.0
  0
MTEXT
  5
D64
330
691
100
AcDbEntity
  8
SIZE
 62
     0
100
AcDbMText
 10
477.4693691218852
 20
-847.7818337945281
 30
0.0
 40
12.5
 41
0.0
 71
     5
 72
     1
  1
117
 11
0.0000000000000001
 21
1.0
 31
0.0
 73
     1
 44
1.0
1001
ACAD
1000
MTEXTBEGIN
1070
    73
1070
     1
1070
    44
1040
1.0
1070
    74
1070
     0
1000
MTEXTEND
  0
POINT
  5
D65
330
691
100
AcDbEntity
  8
Defpoints
 62
     0
100
AcDbPoint
 10
340.4015524026863
 20
-789.2593741729724
 30
0.0
  0
POINT
  5
D66
330
691
100
AcDbEntity
  8
Defpoints
 62
     0
100
AcDbPoint
 10
408.9015524026863
 20
-906.304293416084
 30
0.0
  0
POINT
  5
D67
330
691
100
AcDbEntity
  8
Defpoints
 62
     0
100
AcDbPoint
 10
486.844369121885
 20
-906.304293416084
 30
0.0
  0
ENDBLK
  5
693
330
691
100
AcDbEntity
  8
0
100
AcDbBlockEnd
  0
BLOCK
  5
69F
330
69E
100
AcDbEntity
  8
0
100
AcDbBlockBegin
  2
*D20
 70
     1
 10
0.0
 20
0.0
 30
0.0
  3
*D20
  1

  0
LINE
  5
6A1
330
69E
100
AcDbEntity
  8
AM_0
 62
     0
370
    -2
100
AcDbLine
 10
412.0265524026863
 20
-906.304293416084
 30
0.0
 11
493.094369121885
 21
-906.304293416084
 31
0.0
  0
LINE
  5
6A2
330
69E
100
AcDbEntity
  8
AM_0
 62
     0
370
    -2
100
AcDbLine
 10
412.0265524026861
 20
-1046.009374172969
 30
0.0
 11
493.094369121885
 21
-1046.009374172969
 31
0.0
  0
LINE
  5
6A3
330
69E
100
AcDbEntity
  8
AM_0
 62
     0
370
    -2
100
AcDbLine
 10
486.844369121885
 20
-918.804293416084
 30
0.0
 11
486.844369121885
 21
-1033.509374172969
 31
0.0
  0
INSERT
  5
6A4
330
69E
100
AcDbEntity
  8
AM_0
 62
     0
370
    -2
100
AcDbBlockReference
  2
_OPEN30
 10
486.844369121885
 20
-906.304293416084
 30
0.0
 41
12.5
 42
12.5
 43
12.5
 50
90.0
  0
INSERT
  5
6A5
330
69E
100
AcDbEntity
  8
AM_0
 62
     0
370
    -2
100
AcDbBlockReference
  2
_OPEN30
 10
486.844369121885
 20
-1046.009374172969
 30
0.0
 41
12.5
 42
12.5
 43
12.5
 50
270.0
  0
MTEXT
  5
6A6
330
69E
100
AcDbEntity
  8
AM_0
 62
     0
100
AcDbMText
 10
477.4693691218852
 20
-976.1568337945263
 30
0.0
 40
12.5
 41
0.0
 71
     5
 72
     1
  1
139.7
 11
0.0000000000000001
 21
1.0
 31
0.0
 73
     1
 44
1.0
1001
ACAD
1000
MTEXTBEGIN
1070
    73
1070
     1
1070
    44
1040
1.0
1070
    74
1070
     0
1000
MTEXTEND
  0
POINT
  5
6A7
330
69E
100
AcDbEntity
  8
Defpoints
 62
     0
100
AcDbPoint
 10
408.9015524026863
 20
-906.304293416084
 30
0.0
  0
POINT
  5
6A8
330
69E
100
AcDbEntity
  8
Defpoints
 62
     0
100
AcDbPoint
 10
408.9015524026861
 20
-1046.009374172969
 30
0.0
  0
POINT
  5
6A9
330
69E
100
AcDbEntity
  8
Defpoints
 62
     0
100
AcDbPoint
 10
486.844369121885
 20
-1046.009374172969
 30
0.0
  0
ENDBLK
  5
6A0
330
69E
100
AcDbEntity
  8
0
100
AcDbBlockEnd
  0
BLOCK
  5
6AC
330
6AB
100
AcDbEntity
  8
0
100
AcDbBlockBegin
  2
*D21
 70
     1
 10
0.0
 20
0.0
 30
0.0
  3
*D21
  1

  0
LINE
  5
6AE
330
6AB
100
AcDbEntity
  8
AM_0
 62
     0
370
    -2
100
AcDbLine
 10
411.0265524026861
 20
-1046.009374172969
 30
0.0
 11
493.094369121885
 21
-1046.009374172969
 31
0.0
  0
LINE
  5
6AF
330
6AB
100
AcDbEntity
  8
AM_0
 62
     0
370
    -2
100
AcDbLine
 10
405.6275524026856
 20
-1185.009374172972
 30
0.0
 11
493.0943691218848
 21
-1185.009374172972
 31
0.0
  0
LINE
  5
6B0
330
6AB
100
AcDbEntity
  8
AM_0
 62
     0
370
    -2
100
AcDbLine
 10
486.844369121885
 20
-1058.509374172968
 30
0.0
 11
486.8443691218848
 21
-1172.509374172972
 31
0.0
  0
INSERT
  5
6B1
330
6AB
100
AcDbEntity
  8
AM_0
 62
     0
370
    -2
100
AcDbBlockReference
  2
_OPEN30
 10
486.844369121885
 20
-1046.009374172969
 30
0.0
 41
12.5
 42
12.5
 43
12.5
 50
90.0
  0
INSERT
  5
6B2
330
6AB
100
AcDbEntity
  8
AM_0
 62
     0
370
    -2
100
AcDbBlockReference
  2
_OPEN30
 10
486.8443691218848
 20
-1185.009374172972
 30
0.0
 41
12.5
 42
12.5
 43
12.5
 50
270.0
  0
MTEXT
  5
6B3
330
6AB
100
AcDbEntity
  8
AM_0
 62
     0
100
AcDbMText
 10
477.4693691218852
 20
-1115.50937417297
 30
0.0
 40
12.5
 41
0.0
 71
     5
 72
     1
  1
139
 11
0.0000000000000001
 21
1.0
 31
0.0
 73
     1
 44
1.0
1001
ACAD
1000
MTEXTBEGIN
1070
    73
1070
     1
1070
    44
1040
1.0
1070
    74
1070
     0
1000
MTEXTEND
  0
POINT
  5
6B4
330
6AB
100
AcDbEntity
  8
Defpoints
 62
     0
100
AcDbPoint
 10
407.9015524026861
 20
-1046.009374172969
 30
0.0
  0
POINT
  5
6B5
330
6AB
100
AcDbEntity
  8
Defpoints
 62
     0
100
AcDbPoint
 10
402.5025524026856
 20
-1185.009374172972
 30
0.0
  0
POINT
  5
6B6
330
6AB
100
AcDbEntity
  8
Defpoints
 62
     0
100
AcDbPoint
 10
486.8443691218848
 20
-1185.009374172972
 30
0.0
  0
ENDBLK
  5
6AD
330
6AB
100
AcDbEntity
  8
0
100
AcDbBlockEnd
  0
BLOCK
  5
6B9
330
6B8
100
AcDbEntity
  8
0
100
AcDbBlockBegin
  2
*D22
 70
     1
 10
0.0
 20
0.0
 30
0.0
  3
*D22
  1

  0
LINE
  5
6F4
330
6B8
100
AcDbEntity
  8
AM_0
 62
     0
370
    -2
100
AcDbLine
 10
405.5725524026866
 20
-1044.804293416084
 30
0.0
 11
493.0393691218855
 21
-1044.804293416084
 31
0.0
  0
LINE
  5
6F5
330
6B8
100
AcDbEntity
  8
AM_0
 62
     0
370
    -2
100
AcDbLine
 10
408.4715524026868
 20
-1107.599212659192
 30
0.0
 11
493.0393691218855
 21
-1107.599212659192
 31
0.0
  0
LINE
  5
6F6
330
6B8
100
AcDbEntity
  8
AM_0
 62
     0
370
    -2
100
AcDbLine
 10
486.7893691218855
 20
-1057.304293416084
 30
0.0
 11
486.7893691218855
 21
-1095.099212659192
 31
0.0
  0
INSERT
  5
6F7
330
6B8
100
AcDbEntity
  8
AM_0
 62
     0
370
    -2
100
AcDbBlockReference
  2
_OPEN30
 10
486.7893691218855
 20
-1044.804293416084
 30
0.0
 41
12.5
 42
12.5
 43
12.5
 50
90.0
  0
INSERT
  5
6F8
330
6B8
100
AcDbEntity
  8
AM_0
 62
     0
370
    -2
100
AcDbBlockReference
  2
_OPEN30
 10
486.7893691218855
 20
-1107.599212659192
 30
0.0
 41
12.5
 42
12.5
 43
12.5
 50
270.0
  0
MTEXT
  5
6F9
330
6B8
100
AcDbEntity
  8
AM_0
 62
     0
100
AcDbMText
 10
477.4143691218855
 20
-1076.201753037638
 30
0.0
 40
12.5
 41
0.0
 71
     5
 72
     1
  1
62.8
 11
0.0000000000000001
 21
1.0
 31
0.0
 73
     1
 44
1.0
1001
ACAD
1000
MTEXTBEGIN
1070
    73
1070
     1
1070
    44
1040
1.0
1070
    74
1070
     0
1000
MTEXTEND
  0
POINT
  5
6FA
330
6B8
100
AcDbEntity
  8
Defpoints
 62
     0
100
AcDbPoint
 10
402.4475524026866
 20
-1044.804293416084
 30
0.0
  0
POINT
  5
6FB
330
6B8
100
AcDbEntity
  8
Defpoints
 62
     0
100
AcDbPoint
 10
405.3465524026868
 20
-1107.599212659192
 30
0.0
  0
POINT
  5
6FC
330
6B8
100
AcDbEntity
  8
Defpoints
 62
     0
100
AcDbPoint
 10
486.7893691218855
 20
-1107.599212659192
 30
0.0
  0
ENDBLK
  5
6BA
330
6B8
100
AcDbEntity
  8
0
100
AcDbBlockEnd
  0
BLOCK
  5
6C6
330
6C5
100
AcDbEntity
  8
0
100
AcDbBlockBegin
  2
*D23
 70
     1
 10
0.0
 20
0.0
 30
0.0
  3
*D23
  1

  0
LINE
  5
D44
330
6C5
100
AcDbEntity
  8
SIZE
 62
     0
370
    -2
100
AcDbLine
 10
408.5265524026863
 20
-1247.80429341608
 30
0.0
 11
493.0943691218849
 21
-1247.80429341608
 31
0.0
  0
LINE
  5
D45
330
6C5
100
AcDbEntity
  8
SIZE
 62
     0
370
    -2
100
AcDbLine
 10
408.5265524026863
 20
-1653.804293416084
 30
0.0
 11
493.0943691218848
 21
-1653.804293416084
 31
0.0
  0
LINE
  5
D46
330
6C5
100
AcDbEntity
  8
SIZE
 62
     0
370
    -2
100
AcDbLine
 10
486.8443691218849
 20
-1260.30429341608
 30
0.0
 11
486.8443691218848
 21
-1641.304293416084
 31
0.0
  0
INSERT
  5
D47
330
6C5
100
AcDbEntity
  8
SIZE
 62
     0
370
    -2
100
AcDbBlockReference
  2
_OPEN30
 10
486.8443691218849
 20
-1247.80429341608
 30
0.0
 41
12.5
 42
12.5
 43
12.5
 50
90.0
  0
INSERT
  5
D48
330
6C5
100
AcDbEntity
  8
SIZE
 62
     0
370
    -2
100
AcDbBlockReference
  2
_OPEN30
 10
486.8443691218848
 20
-1653.804293416084
 30
0.0
 41
12.5
 42
12.5
 43
12.5
 50
270.0
  0
MTEXT
  5
D49
330
6C5
100
AcDbEntity
  8
SIZE
 62
     0
100
AcDbMText
 10
477.469369121885
 20
-1450.804293416082
 30
0.0
 40
12.5
 41
0.0
 71
     5
 72
     1
  1
406
 11
0.0000000000000001
 21
1.0
 31
0.0
 73
     1
 44
1.0
1001
ACAD
1000
MTEXTBEGIN
1070
    73
1070
     1
1070
    44
1040
1.0
1070
    74
1070
     0
1000
MTEXTEND
  0
POINT
  5
D4A
330
6C5
100
AcDbEntity
  8
Defpoints
 62
     0
100
AcDbPoint
 10
405.4015524026863
 20
-1247.80429341608
 30
0.0
  0
POINT
  5
D4B
330
6C5
100
AcDbEntity
  8
Defpoints
 62
     0
100
AcDbPoint
 10
405.4015524026863
 20
-1653.804293416084
 30
0.0
  0
POINT
  5
D4C
330
6C5
100
AcDbEntity
  8
Defpoints
 62
     0
100
AcDbPoint
 10
486.8443691218848
 20
-1653.804293416084
 30
0.0
  0
ENDBLK
  5
6C7
330
6C5
100
AcDbEntity
  8
0
100
AcDbBlockEnd
  0
BLOCK
  5
6DC
330
6DB
100
AcDbEntity
  8
0
100
AcDbBlockBegin
  2
*D24
 70
     1
 10
0.0
 20
0.0
 30
0.0
  3
*D24
  1

  0
LINE
  5
D71
330
6DB
100
AcDbEntity
  8
SIZE
 62
     0
370
    -2
100
AcDbLine
 10
-314.9598027253329
 20
-882.8042934160803
 30
0.0
 11
-564.8097864918536
 21
-882.8042934160803
 31
0.0
  0
LINE
  5
D72
330
6DB
100
AcDbEntity
  8
SIZE
 62
     0
370
    -2
100
AcDbLine
 10
-302.9434475973149
 20
-1247.304293416084
 30
0.0
 11
-564.8097864918536
 21
-1247.304293416084
 31
0.0
  0
LINE
  5
D73
330
6DB
100
AcDbEntity
  8
SIZE
 62
     0
370
    -2
100
AcDbLine
 10
-558.5597864918536
 20
-895.3042934160803
 30
0.0
 11
-558.5597864918536
 21
-1234.804293416084
 31
0.0
  0
INSERT
  5
D74
330
6DB
100
AcDbEntity
  8
SIZE
 62
     0
370
    -2
100
AcDbBlockReference
  2
_OPEN30
 10
-558.5597864918536
 20
-882.8042934160803
 30
0.0
 41
12.5
 42
12.5
 43
12.5
 50
90.0
  0
INSERT
  5
D75
330
6DB
100
AcDbEntity
  8
SIZE
 62
     0
370
    -2
100
AcDbBlockReference
  2
_OPEN30
 10
-558.5597864918536
 20
-1247.304293416084
 30
0.0
 41
12.5
 42
12.5
 43
12.5
 50
270.0
  0
MTEXT
  5
D76
330
6DB
100
AcDbEntity
  8
SIZE
 62
     0
100
AcDbMText
 10
-567.9347864918534
 20
-1065.054293416082
 30
0.0
 40
12.5
 41
0.0
 71
     5
 72
     1
  1
364.5
 11
0.0000000000000001
 21
1.0
 31
0.0
 73
     1
 44
1.0
1001
ACAD
1000
MTEXTBEGIN
1070
    73
1070
     1
1070
    44
1040
1.0
1070
    74
1070
     0
1000
MTEXTEND
  0
POINT
  5
D77
330
6DB
100
AcDbEntity
  8
Defpoints
 62
     0
100
AcDbPoint
 10
-311.8348027253329
 20
-882.8042934160803
 30
0.0
  0
POINT
  5
D78
330
6DB
100
AcDbEntity
  8
Defpoints
 62
     0
100
AcDbPoint
 10
-299.8184475973149
 20
-1247.304293416084
 30
0.0
  0
POINT
  5
D79
330
6DB
100
AcDbEntity
  8
Defpoints
 62
     0
100
AcDbPoint
 10
-558.5597864918536
 20
-1247.304293416084
 30
0.0
  0
ENDBLK
  5
6DD
330
6DB
100
AcDbEntity
  8
0
100
AcDbBlockEnd
  0
BLOCK
  5
6E9
330
6E8
100
AcDbEntity
  8
0
100
AcDbBlockBegin
  2
*D25
 70
     1
 10
0.0
 20
0.0
 30
0.0
  3
*D25
  1

  0
LINE
  5
6FD
330
6E8
100
AcDbEntity
  8
AM_0
 62
     0
370
    -2
100
AcDbLine
 10
411.9715524026868
 20
-766.0992126591954
 30
0.0
 11
493.0393691218855
 21
-766.0992126591954
 31
0.0
  0
LINE
  5
6FE
330
6E8
100
AcDbEntity
  8
AM_0
 62
     0
370
    -2
100
AcDbLine
 10
405.5725524026866
 20
-1044.804293416084
 30
0.0
 11
493.0393691218855
 21
-1044.804293416084
 31
0.0
  0
LINE
  5
6FF
330
6E8
100
AcDbEntity
  8
AM_0
 62
     0
370
    -2
100
AcDbLine
 10
486.7893691218855
 20
-778.5992126591954
 30
0.0
 11
486.7893691218855
 21
-1032.304293416084
 31
0.0
  0
INSERT
  5
700
330
6E8
100
AcDbEntity
  8
AM_0
 62
     0
370
    -2
100
AcDbBlockReference
  2
_OPEN30
 10
486.7893691218855
 20
-766.0992126591954
 30
0.0
 41
12.5
 42
12.5
 43
12.5
 50
90.0
  0
INSERT
  5
701
330
6E8
100
AcDbEntity
  8
AM_0
 62
     0
370
    -2
100
AcDbBlockReference
  2
_OPEN30
 10
486.7893691218855
 20
-1044.804293416084
 30
0.0
 41
12.5
 42
12.5
 43
12.5
 50
270.0
  0
MTEXT
  5
702
330
6E8
100
AcDbEntity
  8
AM_0
 62
     0
100
AcDbMText
 10
477.4143691218855
 20
-905.4517530376395
 30
0.0
 40
12.5
 41
0.0
 71
     5
 72
     1
  1
278.7
 11
0.0000000000000001
 21
1.0
 31
0.0
 73
     1
 44
1.0
1001
ACAD
1000
MTEXTBEGIN
1070
    73
1070
     1
1070
    44
1040
1.0
1070
    74
1070
     0
1000
MTEXTEND
  0
POINT
  5
703
330
6E8
100
AcDbEntity
  8
Defpoints
 62
     0
100
AcDbPoint
 10
408.8465524026868
 20
-766.0992126591954
 30
0.0
  0
POINT
  5
704
330
6E8
100
AcDbEntity
  8
Defpoints
 62
     0
100
AcDbPoint
 10
402.4475524026866
 20
-1044.804293416084
 30
0.0
  0
POINT
  5
705
330
6E8
100
AcDbEntity
  8
Defpoints
 62
     0
100
AcDbPoint
 10
486.7893691218855
 20
-1044.804293416084
 30
0.0
  0
ENDBLK
  5
6EA
330
6E8
100
AcDbEntity
  8
0
100
AcDbBlockEnd
  0
BLOCK
  5
708
330
707
100
AcDbEntity
  8
0
100
AcDbBlockBegin
  2
*D26
 70
     1
 10
0.0
 20
0.0
 30
0.0
  3
*D26
  1

  0
LINE
  5
D56
330
707
100
AcDbEntity
  8
SIZE
 62
     0
370
    -2
100
AcDbLine
 10
412.0265524026863
 20
-906.304293416084
 30
0.0
 11
493.094369121885
 21
-906.304293416084
 31
0.0
  0
LINE
  5
D57
330
707
100
AcDbEntity
  8
SIZE
 62
     0
370
    -2
100
AcDbLine
 10
406.4932060119923
 20
-1044.804293416084
 30
0.0
 11
493.094369121885
 21
-1044.804293416084
 31
0.0
  0
LINE
  5
D58
330
707
100
AcDbEntity
  8
SIZE
 62
     0
370
    -2
100
AcDbLine
 10
486.844369121885
 20
-918.804293416084
 30
0.0
 11
486.844369121885
 21
-1032.304293416084
 31
0.0
  0
INSERT
  5
D59
330
707
100
AcDbEntity
  8
SIZE
 62
     0
370
    -2
100
AcDbBlockReference
  2
_OPEN30
 10
486.844369121885
 20
-906.304293416084
 30
0.0
 41
12.5
 42
12.5
 43
12.5
 50
90.0
  0
INSERT
  5
D5A
330
707
100
AcDbEntity
  8
SIZE
 62
     0
370
    -2
100
AcDbBlockReference
  2
_OPEN30
 10
486.844369121885
 20
-1044.804293416084
 30
0.0
 41
12.5
 42
12.5
 43
12.5
 50
270.0
  0
MTEXT
  5
D5B
330
707
100
AcDbEntity
  8
SIZE
 62
     0
100
AcDbMText
 10
477.4693691218852
 20
-975.5542934160839
 30
0.0
 40
12.5
 41
0.0
 71
     5
 72
     1
  1
138.5
 11
0.0000000000000001
 21
1.0
 31
0.0
 73
     1
 44
1.0
1001
ACAD
1000
MTEXTBEGIN
1070
    73
1070
     1
1070
    44
1040
1.0
1070
    74
1070
     0
1000
MTEXTEND
  0
POINT
  5
D5C
330
707
100
AcDbEntity
  8
Defpoints
 62
     0
100
AcDbPoint
 10
408.9015524026863
 20
-906.304293416084
 30
0.0
  0
POINT
  5
D5D
330
707
100
AcDbEntity
  8
Defpoints
 62
     0
100
AcDbPoint
 10
403.3682060119923
 20
-1044.804293416084
 30
0.0
  0
POINT
  5
D5E
330
707
100
AcDbEntity
  8
Defpoints
 62
     0
100
AcDbPoint
 10
486.844369121885
 20
-1044.804293416084
 30
0.0
  0
ENDBLK
  5
709
330
707
100
AcDbEntity
  8
0
100
AcDbBlockEnd
  0
BLOCK
  5
715
330
714
100
AcDbEntity
  8
0
100
AcDbBlockBegin
  2
*D27
 70
     1
 10
0.0
 20
0.0
 30
0.0
  3
*D27
  1

  0
LINE
  5
D4D
330
714
100
AcDbEntity
  8
SIZE
 62
     0
370
    -2
100
AcDbLine
 10
408.5265524026863
 20
-1247.80429341608
 30
0.0
 11
493.0943691218849
 21
-1247.80429341608
 31
0.0
  0
LINE
  5
D4E
330
714
100
AcDbEntity
  8
SIZE
 62
     0
370
    -2
100
AcDbLine
 10
407.9715524026868
 20
-1044.804293416084
 30
0.0
 11
493.094369121885
 21
-1044.804293416084
 31
0.0
  0
LINE
  5
D4F
330
714
100
AcDbEntity
  8
SIZE
 62
     0
370
    -2
100
AcDbLine
 10
486.8443691218849
 20
-1235.30429341608
 30
0.0
 11
486.844369121885
 21
-1057.304293416084
 31
0.0
  0
INSERT
  5
D50
330
714
100
AcDbEntity
  8
SIZE
 62
     0
370
    -2
100
AcDbBlockReference
  2
_OPEN30
 10
486.8443691218849
 20
-1247.80429341608
 30
0.0
 41
12.5
 42
12.5
 43
12.5
 50
270.0
  0
INSERT
  5
D51
330
714
100
AcDbEntity
  8
SIZE
 62
     0
370
    -2
100
AcDbBlockReference
  2
_OPEN30
 10
486.844369121885
 20
-1044.804293416084
 30
0.0
 41
12.5
 42
12.5
 43
12.5
 50
90.0
  0
MTEXT
  5
D52
330
714
100
AcDbEntity
  8
SIZE
 62
     0
100
AcDbMText
 10
477.4693691218852
 20
-1146.304293416082
 30
0.0
 40
12.5
 41
0.0
 71
     5
 72
     1
  1
203
 11
0.0000000000000001
 21
1.0
 31
0.0
 73
     1
 44
1.0
1001
ACAD
1000
MTEXTBEGIN
1070
    73
1070
     1
1070
    44
1040
1.0
1070
    74
1070
     0
1000
MTEXTEND
  0
POINT
  5
D53
330
714
100
AcDbEntity
  8
Defpoints
 62
     0
100
AcDbPoint
 10
405.4015524026863
 20
-1247.80429341608
 30
0.0
  0
POINT
  5
D54
330
714
100
AcDbEntity
  8
Defpoints
 62
     0
100
AcDbPoint
 10
404.8465524026868
 20
-1044.804293416084
 30
0.0
  0
POINT
  5
D55
330
714
100
AcDbEntity
  8
Defpoints
 62
     0
100
AcDbPoint
 10
486.844369121885
 20
-1044.804293416084
 30
0.0
  0
ENDBLK
  5
716
330
714
100
AcDbEntity
  8
0
100
AcDbBlockEnd
  0
BLOCK
  5
723
330
722
100
AcDbEntity
  8
0
100
AcDbBlockBegin
  2
*D28
 70
     1
 10
0.0
 20
0.0
 30
0.0
  3
*D28
  1

  0
LINE
  5
725
330
722
100
AcDbEntity
  8
AM_0
 62
     0
370
    -2
100
AcDbLine
 10
-234.6270845375602
 20
-899.0662671256965
 30
0.0
 11
-290.1503161511728
 21
-886.878082466551
 31
0.0
  0
MTEXT
  5
726
330
722
100
AcDbEntity
  8
AM_0
 62
     0
100
AcDbMText
 10
-254.2739585608641
 20
-885.1552642307481
 30
0.0
 40
12.5
 41
0.0
 71
     5
 72
     1
  1
R6.5
 11
0.9767437603232384
 21
-0.214409950024761
 31
0.0
 73
     1
 44
1.0
1001
ACAD
1000
MTEXTBEGIN
1070
    73
1070
     1
1070
    44
1040
1.0
1070
    74
1070
     0
1000
MTEXTEND
  0
LINE
  5
727
330
722
100
AcDbEntity
  8
AM_0
 62
     0
370
    -2
100
AcDbLine
 10
-308.7084475973143
 20
-882.8042934160803
 30
0.0
 11
-302.3596131552133
 21
-884.1979580912413
 31
0.0
  0
INSERT
  5
728
330
722
100
AcDbEntity
  8
AM_0
 62
     0
370
    -2
100
AcDbBlockReference
  2
_OPEN30
 10
-302.3596131552133
 20
-884.1979580912413
 30
0.0
 41
12.5
 42
12.5
 43
12.5
 50
167.61908731828
  0
POINT
  5
729
330
722
100
AcDbEntity
  8
Defpoints
 62
     0
100
AcDbPoint
 10
-302.3596131552133
 20
-884.1979580912413
 30
0.0
  0
POINT
  5
72A
330
722
100
AcDbEntity
  8
Defpoints
 62
     0
100
AcDbPoint
 10
-308.7084475973143
 20
-882.8042934160803
 30
0.0
  0
ENDBLK
  5
724
330
722
100
AcDbEntity
  8
0
100
AcDbBlockEnd
  0
BLOCK
  5
72D
330
72C
100
AcDbEntity
  8
0
100
AcDbBlockBegin
  2
*D29
 70
     1
 10
0.0
 20
0.0
 30
0.0
  3
*D29
  1

  0
LINE
  5
72F
330
72C
100
AcDbEntity
  8
AM_0
 62
     0
370
    -2
100
AcDbLine
 10
-258.7856062915195
 20
-847.4716930525872
 30
0.0
 11
-294.5071062426834
 21
-863.0936651282816
 31
0.0
  0
MTEXT
  5
730
330
72C
100
AcDbEntity
  8
AM_0
 62
     0
100
AcDbMText
 10
-274.6764373465666
 20
-844.1888725098904
 30
0.0
 40
12.5
 41
0.0
 71
     5
 72
     1
  1
R3
 11
0.9162155712664972
 21
0.4006856959872739
 31
0.0
 73
     1
 44
1.0
1001
ACAD
1000
MTEXTBEGIN
1070
    73
1070
     1
1070
    44
1040
1.0
1070
    74
1070
     0
1000
MTEXTEND
  0
LINE
  5
731
330
72C
100
AcDbEntity
  8
AM_0
 62
     0
370
    -2
100
AcDbLine
 10
-308.7084475973143
 20
-869.3042934160843
 30
0.0
 11
-305.9598008835147
 21
-868.1022363281224
 31
0.0
  0
INSERT
  5
732
330
72C
100
AcDbEntity
  8
AM_0
 62
     0
370
    -2
100
AcDbBlockReference
  2
_OPEN30
 10
-305.9598008835147
 20
-868.1022363281224
 30
0.0
 41
12.5
 42
12.5
 43
12.5
 50
203.6210516445069
  0
POINT
  5
733
330
72C
100
AcDbEntity
  8
Defpoints
 62
     0
100
AcDbPoint
 10
-305.9598008835147
 20
-868.1022363281224
 30
0.0
  0
POINT
  5
734
330
72C
100
AcDbEntity
  8
Defpoints
 62
     0
100
AcDbPoint
 10
-308.7084475973143
 20
-869.3042934160843
 30
0.0
  0
ENDBLK
  5
72E
330
72C
100
AcDbEntity
  8
0
100
AcDbBlockEnd
  0
BLOCK
  5
79E
330
795
100
AcDbEntity
  8
0
100
AcDbBlockBegin
  2
*D30
 70
     1
 10
0.0
 20
0.0
 30
0.0
  3
*D30
  1

  0
LINE
  5
7B8
330
795
100
AcDbEntity
  8
AM_0
 62
     0
370
    -2
100
AcDbLine
 10
168.2375681425229
 20
-871.0367240091787
 30
0.0
 11
3.389197362645118
 21
-795.701920764417
 31
0.0
  0
LINE
  5
7B9
330
795
100
AcDbEntity
  8
AM_0
 62
     0
370
    -2
100
AcDbLine
 10
-24.80609255727376
 20
-782.8168275815283
 30
0.0
 11
-36.17516107337002
 21
-777.6212254916537
 31
0.0
  0
MTEXT
  5
7BA
102
{ACAD_XDICTIONARY
360
DEF
102
}
330
795
100
AcDbEntity
  8
AM_0
 62
     0
100
AcDbMText
 10
160.3591630325433
 20
-857.1287633147369
 30
0.0
 40
12.5
 41
0.0
 71
     5
 72
     1
  1
\U+22056
 11
0.9095254812877044
 21
-0.4156481671899562
 31
0.0
 73
     1
 44
1.0
1001
ACAD
1000
MTEXTBEGIN
1070
    73
1070
     1
1070
    44
1040
1.0
1070
    74
1070
     0
1000
MTEXTEND
  0
LINE
  5
7BB
330
795
100
AcDbEntity
  8
AM_0
 62
     0
370
    -2
100
AcDbLine
 10
-13.43702404117744
 20
-788.0124296714027
 30
0.0
 11
-7.979871153451142
 21
-790.5063186745425
 31
0.0
  0
INSERT
  5
7BC
330
795
100
AcDbEntity
  8
AM_0
 62
     0
370
    -2
100
AcDbBlockReference
  2
_OPEN30
 10
-13.43702404117744
 20
-788.0124296714027
 30
0.0
 41
12.5
 42
12.5
 43
12.5
 50
335.4398587096643
  0
INSERT
  5
7BD
330
795
100
AcDbEntity
  8
AM_0
 62
     0
370
    -2
100
AcDbBlockReference
  2
_OPEN30
 10
-7.979871153451142
 20
-790.5063186745425
 30
0.0
 41
12.5
 42
12.5
 43
12.5
 50
155.4398587096643
  0
POINT
  5
7BE
330
795
100
AcDbEntity
  8
Defpoints
 62
     0
100
AcDbPoint
 10
-7.979871153451142
 20
-790.5063186745425
 30
0.0
  0
POINT
  5
7BF
330
795
100
AcDbEntity
  8
Defpoints
 62
     0
100
AcDbPoint
 10
-13.43702404117744
 20
-788.0124296714027
 30
0.0
  0
ENDBLK
  5
79F
330
795
100
AcDbEntity
  8
0
100
AcDbBlockEnd
  0
BLOCK
  5
7CA
330
7C1
100
AcDbEntity
  8
0
100
AcDbBlockBegin
  2
*D31
 70
     1
 10
0.0
 20
0.0
 30
0.0
  3
*D31
  1

  0
LINE
  5
7C2
330
7C1
100
AcDbEntity
  8
AM_0
 62
     0
370
    -2
100
AcDbLine
 10
97.37415917073036
 20
-856.1184683628511
 30
0.0
 11
2.473346156224919
 21
-797.413533445341
 31
0.0
  0
LINE
  5
7C3
330
7C1
100
AcDbEntity
  8
AM_0
 62
     0
370
    -2
100
AcDbLine
 10
-23.89024135085344
 20
-781.1052149006037
 30
0.0
 11
-34.52072018435274
 21
-774.5292800035322
 31
0.0
  0
MTEXT
  5
7C4
102
{ACAD_XDICTIONARY
360
DF1
102
}
330
7C1
100
AcDbEntity
  8
AM_0
 62
     0
100
AcDbMText
 10
91.29597155169546
 20
-841.3348195229024
 30
0.0
 40
12.5
 41
0.0
 71
     5
 72
     1
  1
\U+22056
 11
0.8504383066799455
 21
-0.5260747917657213
 31
0.0
 73
     1
 44
1.0
1001
ACAD
1000
MTEXTBEGIN
1070
    73
1070
     1
1070
    44
1040
1.0
1070
    74
1070
     0
1000
MTEXTEND
  0
LINE
  5
7C5
330
7C1
100
AcDbEntity
  8
AM_0
 62
     0
370
    -2
100
AcDbLine
 10
-13.25976251735415
 20
-787.6811497976753
 30
0.0
 11
-8.157132677274374
 21
-790.8375985482696
 31
0.0
  0
INSERT
  5
7C6
330
7C1
100
AcDbEntity
  8
AM_0
 62
     0
370
    -2
100
AcDbBlockReference
  2
_OPEN30
 10
-13.25976251735415
 20
-787.6811497976753
 30
0.0
 41
12.5
 42
12.5
 43
12.5
 50
328.2593740760026
  0
INSERT
  5
7C7
330
7C1
100
AcDbEntity
  8
AM_0
 62
     0
370
    -2
100
AcDbBlockReference
  2
_OPEN30
 10
-8.157132677274374
 20
-790.8375985482696
 30
0.0
 41
12.5
 42
12.5
 43
12.5
 50
148.2593740760026
  0
POINT
  5
7C8
330
7C1
100
AcDbEntity
  8
Defpoints
 62
     0
100
AcDbPoint
 10
-8.157132677274374
 20
-790.8375985482696
 30
0.0
  0
POINT
  5
7C9
330
7C1
100
AcDbEntity
  8
Defpoints
 62
     0
100
AcDbPoint
 10
-13.25976251735415
 20
-787.6811497976753
 30
0.0
  0
ENDBLK
  5
7CB
330
7C1
100
AcDbEntity
  8
0
100
AcDbBlockEnd
  0
BLOCK
  5
7E9
330
7E8
100
AcDbEntity
  8
0
100
AcDbBlockBegin
  2
_DOTBLANK
 70
     0
 10
0.0
 20
0.0
 30
0.0
  3
_DOTBLANK
  1

  0
CIRCLE
  5
7EA
330
7E8
100
AcDbEntity
  8
0
  6
Continuous
 62
     7
100
AcDbCircle
 10
0.0
 20
0.0
 30
0.0
 40
0.5
  0
LINE
  5
7EB
330
7E8
100
AcDbEntity
  8
0
  6
Continuous
 62
     7
100
AcDbLine
 10
-0.5
 20
0.0
 30
0.0
 11
-1.0
 21
0.0
 31
0.0
  0
ENDBLK
  5
7EC
330
7E8
100
AcDbEntity
  8
0
100
AcDbBlockEnd
  0
ENDSEC
  0
SECTION
  2
ENTITIES
  0
LINE
  5
B8
330
2
100
AcDbEntity
  8
NOTE
100
AcDbLine
 10
402.2365524026853
 20
-906.304293416084
 30
0.0
 11
402.3465524026851
 21
-906.304293416084
 31
0.0
  0
LINE
  5
B9
330
2
100
AcDbEntity
  8
NOTE
100
AcDbLine
 10
402.2915524026855
 20
-906.3592934160842
 30
0.0
 11
402.2915524026855
 21
-906.2492934160836
 31
0.0
  0
LINE
  5
BA
330
2
100
AcDbEntity
  8
NOTE
100
AcDbLine
 10
395.6815524026862
 20
-906.304293416084
 30
0.0
 11
402.0805524026862
 21
-906.304293416084
 31
0.0
  0
LINE
  5
BB
330
2
100
AcDbEntity
  8
NOTE
100
AcDbLine
 10
402.5025524026856
 20
-906.304293416084
 30
0.0
 11
408.9015524026863
 21
-906.304293416084
 31
0.0
  0
LINE
  5
BC
330
2
100
AcDbEntity
  8
NOTE
100
AcDbLine
 10
402.2915524026855
 20
-912.9142934160809
 30
0.0
 11
402.2915524026855
 21
-906.5152934160831
 31
0.0
  0
LINE
  5
BD
330
2
100
AcDbEntity
  8
NOTE
100
AcDbLine
 10
402.2915524026855
 20
-906.0932934160808
 30
0.0
 11
402.2915524026855
 21
-899.6942934160834
 31
0.0
  0
LINE
  5
BE
330
2
100
AcDbEntity
  8
NOTE
100
AcDbLine
 10
-308.7634475973147
 20
-869.3042934160839
 30
0.0
 11
-308.653447597314
 21
-869.3042934160839
 31
0.0
  0
LINE
  5
BF
330
2
100
AcDbEntity
  8
NOTE
100
AcDbLine
 10
-308.7084475973143
 20
-869.3592934160843
 30
0.0
 11
-308.7084475973143
 21
-869.2492934160837
 31
0.0
  0
LINE
  5
C0
330
2
100
AcDbEntity
  8
NOTE
100
AcDbLine
 10
-311.8184475973139
 20
-869.3042934160839
 30
0.0
 11
-308.9194475973136
 21
-869.3042934160839
 31
0.0
  0
LINE
  5
C1
330
2
100
AcDbEntity
  8
NOTE
100
AcDbLine
 10
-308.497447597314
 20
-869.3042934160839
 30
0.0
 11
-305.5984475973147
 21
-869.3042934160839
 31
0.0
  0
LINE
  5
C2
330
2
100
AcDbEntity
  8
NOTE
100
AcDbLine
 10
-308.7084475973143
 20
-872.4142934160845
 30
0.0
 11
-308.7084475973143
 21
-869.5152934160795
 31
0.0
  0
LINE
  5
C3
330
2
100
AcDbEntity
  8
NOTE
100
AcDbLine
 10
-308.7084475973143
 20
-869.0932934160811
 30
0.0
 11
-308.7084475973143
 21
-866.1942934160832
 31
0.0
  0
LINE
  5
C4
330
2
100
AcDbEntity
  8
HID
100
AcDbLine
 10
411.7915524026856
 20
-1097.304293416084
 30
0.0
 11
410.9915524026853
 21
-1097.304293416084
 31
0.0
  0
LINE
  5
C7
330
2
100
AcDbEntity
  8
HID
100
AcDbLine
 10
411.7915524026856
 20
-1157.304293416084
 30
0.0
 11
410.9915524026853
 21
-1157.304293416084
 31
0.0
  0
LINE
  5
C8
330
2
100
AcDbEntity
  8
OUTLINE
100
AcDbLine
 10
411.7915524026856
 20
-1663.304293416084
 30
0.0
 11
395.7915524026857
 21
-1663.304293416084
 31
0.0
  0
LINE
  5
CA
330
2
100
AcDbEntity
  8
OUTLINE
100
AcDbLine
 10
392.7915524026857
 20
-1656.933057665519
 30
0.0
 11
392.7915524026857
 21
-1658.075177450169
 31
0.0
  0
LINE
  5
CB
330
2
100
AcDbEntity
  8
OUTLINE
100
AcDbLine
 10
395.7915524026857
 20
-1663.304293416084
 30
0.0
 11
395.7915524026857
 21
-1662.162173631434
 31
0.0
  0
LINE
  5
CC
330
2
100
AcDbEntity
  8
OUTLINE
100
AcDbLine
 10
392.7915524026857
 20
-1658.075177450169
 30
0.0
 11
395.7915524026857
 21
-1663.304293416084
 31
0.0
  0
LINE
  5
CD
330
2
100
AcDbEntity
  8
HID
100
AcDbLine
 10
395.7915524026857
 20
-1097.304293416084
 30
0.0
 11
410.9915524026853
 21
-1097.304293416084
 31
0.0
  0
LINE
  5
CE
330
2
100
AcDbEntity
  8
HID
100
AcDbLine
 10
395.7915524026857
 20
-1097.304293416084
 30
0.0
 11
392.7915524026857
 21
-1094.304293416084
 31
0.0
  0
LINE
  5
CF
330
2
100
AcDbEntity
  8
HID
100
AcDbLine
 10
392.7915524026857
 20
-1094.304293416084
 30
0.0
 11
392.7915524026857
 21
-811.804293416084
 31
0.0
  0
LINE
  5
D0
330
2
100
AcDbEntity
  8
HID
100
AcDbLine
 10
399.2915524026857
 20
-900.5380121187481
 30
0.0
 11
399.2915524026857
 21
-892.8042934160803
 31
0.0
  0
LINE
  5
D1
330
2
100
AcDbEntity
  8
HID
100
AcDbLine
 10
405.2915524026857
 20
-892.8042934160803
 30
0.0
 11
405.2915524026857
 21
-900.5380121187481
 31
0.0
  0
LINE
  5
D2
330
2
100
AcDbEntity
  8
HID
100
AcDbLine
 10
410.9915524026853
 20
-1157.304293416084
 30
0.0
 11
395.7915524026857
 21
-1157.304293416084
 31
0.0
  0
LINE
  5
D3
330
2
100
AcDbEntity
  8
OUTLINE
100
AcDbLine
 10
410.1915524026861
 20
-1662.162173631434
 30
0.0
 11
395.7915524026857
 21
-1662.162173631434
 31
0.0
  0
LINE
  5
D4
330
2
100
AcDbEntity
  8
OUTLINE
100
AcDbLine
 10
395.7915524026857
 20
-1662.162173631434
 30
0.0
 11
392.7915524026857
 21
-1656.933057665519
 31
0.0
  0
LINE
  5
D5
330
2
100
AcDbEntity
  8
OUTLINE
100
AcDbLine
 10
392.7915524026857
 20
-1656.933057665519
 30
0.0
 11
392.7915524026857
 21
-1236.009374172969
 31
0.0
  0
LINE
  5
D6
330
2
100
AcDbEntity
  8
HID
100
AcDbLine
 10
392.7915524026857
 20
-1236.009374172969
 30
0.0
 11
392.7915524026857
 21
-1160.30429341608
 31
0.0
  0
LINE
  5
D7
330
2
100
AcDbEntity
  8
HID
100
AcDbLine
 10
392.7915524026857
 20
-1160.30429341608
 30
0.0
 11
395.7915524026857
 21
-1157.304293416084
 31
0.0
  0
LINE
  5
D8
330
2
100
AcDbEntity
  8
OUTLINE
100
AcDbLine
 10
410.9915524026853
 20
-977.0093741729686
 30
0.0
 11
410.7915524026855
 21
-977.0093741729686
 31
0.0
  0
LINE
  5
D9
330
2
100
AcDbEntity
  8
HID
100
AcDbLine
 10
410.7915524026855
 20
-977.0093741729686
 30
0.0
 11
395.7915524026857
 21
-977.0093741729686
 31
0.0
  0
LINE
  5
DA
330
2
100
AcDbEntity
  8
HID
100
AcDbLine
 10
395.7915524026857
 20
-975.4712543883217
 30
0.0
 11
410.7915524026855
 21
-975.4712543883217
 31
0.0
  0
LINE
  5
DB
330
2
100
AcDbEntity
  8
OUTLINE
100
AcDbLine
 10
410.7915524026855
 20
-975.4712543883217
 30
0.0
 11
410.9915524026853
 21
-975.4712543883217
 31
0.0
  0
LINE
  5
DC
330
2
100
AcDbEntity
  8
HID
100
AcDbLine
 10
395.7915524026857
 20
-975.0093741729724
 30
0.0
 11
395.7915524026857
 21
-975.4712543883217
 31
0.0
  0
LINE
  5
DD
330
2
100
AcDbEntity
  8
OUTLINE
100
AcDbLine
 10
411.7915524026856
 20
-1235.009374172972
 30
0.0
 11
410.9915524026853
 21
-1235.009374172972
 31
0.0
  0
LINE
  5
DE
330
2
100
AcDbEntity
  8
HID
100
AcDbLine
 10
401.091552402685
 20
-1224.009374172972
 30
0.0
 11
410.7915524026855
 21
-1224.009374172972
 31
0.0
  0
LINE
  5
DF
330
2
100
AcDbEntity
  8
OUTLINE
100
AcDbLine
 10
410.7915524026855
 20
-1224.009374172972
 30
0.0
 11
410.9915524026853
 21
-1224.009374172972
 31
0.0
  0
LINE
  5
E0
330
2
100
AcDbEntity
  8
HID
100
AcDbLine
 10
411.7915524026856
 20
-1624.804293416084
 30
0.0
 11
410.9915524026853
 21
-1624.804293416084
 31
0.0
  0
LINE
  5
E1
330
2
100
AcDbEntity
  8
HID
100
AcDbLine
 10
411.7915524026856
 20
-1621.804293416084
 30
0.0
 11
410.9915524026853
 21
-1621.804293416084
 31
0.0
  0
LINE
  5
E2
330
2
100
AcDbEntity
  8
HID
100
AcDbLine
 10
395.7915524026857
 20
-977.0093741729686
 30
0.0
 11
395.7915524026857
 21
-1216.437945601545
 31
0.0
  0
LINE
  5
E3
330
2
100
AcDbEntity
  8
HID
100
AcDbLine
 10
395.7915524026857
 20
-1216.437945601545
 30
0.0
 11
401.091552402685
 21
-1224.009374172972
 31
0.0
  0
LINE
  5
E4
330
2
100
AcDbEntity
  8
HID
100
AcDbLine
 10
410.9915524026853
 20
-803.1899340621349
 30
0.0
 11
410.9915524026853
 21
-975.4712543883217
 31
0.0
  0
LINE
  5
E5
330
2
100
AcDbEntity
  8
OUTLINE
100
AcDbLine
 10
410.9915524026853
 20
-975.4712543883217
 30
0.0
 11
410.9915524026853
 21
-977.0093741729686
 31
0.0
  0
LINE
  5
E6
330
2
100
AcDbEntity
  8
HID
100
AcDbLine
 10
410.9915524026853
 20
-1224.009374172972
 30
0.0
 11
410.9915524026853
 21
-977.0093741729686
 31
0.0
  0
LINE
  5
E7
330
2
100
AcDbEntity
  8
OUTLINE
100
AcDbLine
 10
410.9915524026853
 20
-1224.009374172972
 30
0.0
 11
410.9915524026853
 21
-1235.009374172972
 31
0.0
  0
LINE
  5
E8
330
2
100
AcDbEntity
  8
OUTLINE
100
AcDbLine
 10
410.9915524026853
 20
-1235.009374172972
 30
0.0
 11
410.9915524026853
 21
-1253.093389849608
 31
0.0
  0
LINE
  5
E9
330
2
100
AcDbEntity
  8
OUTLINE
100
AcDbLine
 10
410.1915524026861
 20
-1253.093389849608
 30
0.0
 11
410.1915524026861
 21
-1662.162173631434
 31
0.0
  0
LINE
  5
EA
330
2
100
AcDbEntity
  8
HID
100
AcDbLine
 10
410.1915524026861
 20
-1648.217864389003
 30
0.0
 11
410.9915524026853
 21
-1648.217864389003
 31
0.0
  0
LINE
  5
EB
330
2
100
AcDbEntity
  8
HID
100
AcDbLine
 10
410.9915524026853
 20
-1648.217864389003
 30
0.0
 11
410.9915524026853
 21
-1255.056167804112
 31
0.0
  0
LINE
  5
EC
330
2
100
AcDbEntity
  8
HID
100
AcDbLine
 10
410.9915524026853
 20
-1255.056167804112
 30
0.0
 11
410.1915524026861
 21
-1255.056167804112
 31
0.0
  0
LINE
  5
ED
330
2
100
AcDbEntity
  8
HID
100
AcDbLine
 10
410.9915524026853
 20
-1255.056167804112
 30
0.0
 11
410.9915524026853
 21
-1253.093389849608
 31
0.0
  0
LINE
  5
EE
330
2
100
AcDbEntity
  8
OUTLINE
100
AcDbLine
 10
410.9915524026853
 20
-1253.093389849608
 30
0.0
 11
410.1915524026861
 21
-1253.093389849608
 31
0.0
  0
LINE
  5
EF
330
2
100
AcDbEntity
  8
OUTLINE
100
AcDbLine
 10
411.7915524026856
 20
-975.0093741729724
 30
0.0
 11
410.7915524026855
 21
-975.0093741729724
 31
0.0
  0
LINE
  5
F0
330
2
100
AcDbEntity
  8
HID
100
AcDbLine
 10
410.7915524026855
 20
-975.0093741729724
 30
0.0
 11
395.7915524026857
 21
-975.0093741729724
 31
0.0
  0
LINE
  5
F1
330
2
100
AcDbEntity
  8
HID
100
AcDbLine
 10
395.7915524026857
 20
-802.2661736314327
 30
0.0
 11
395.7915524026857
 21
-975.0093741729724
 31
0.0
  0
LINE
  5
F2
330
2
100
AcDbEntity
  8
OUTLINE
100
AcDbLine
 10
411.7915524026856
 20
-1235.009374172972
 30
0.0
 11
411.7915524026856
 21
-1663.304293416084
 31
0.0
  0
LINE
  5
F3
330
2
100
AcDbEntity
  8
OUTLINE
100
AcDbLine
 10
411.7915524026856
 20
-975.0093741729724
 30
0.0
 11
411.7915524026856
 21
-1235.009374172972
 31
0.0
  0
LINE
  5
F4
330
2
100
AcDbEntity
  8
OUTLINE
100
AcDbLine
 10
411.7915524026856
 20
-802.2661736314327
 30
0.0
 11
411.7915524026856
 21
-975.0093741729724
 31
0.0
  0
LINE
  5
F5
330
2
100
AcDbEntity
  8
OUTLINE
100
AcDbLine
 10
411.7915524026856
 20
-802.2661736314327
 30
0.0
 11
410.7915524026855
 21
-802.2661736314327
 31
0.0
  0
LINE
  5
F6
330
2
100
AcDbEntity
  8
HID
100
AcDbLine
 10
410.7915524026855
 20
-802.2661736314327
 30
0.0
 11
395.7915524026857
 21
-802.2661736314327
 31
0.0
  0
LINE
  5
F7
330
2
100
AcDbEntity
  8
HID
100
AcDbLine
 10
410.9915524026853
 20
-803.1899340621349
 30
0.0
 11
395.7915524026857
 21
-803.1899340621349
 31
0.0
  0
LINE
  5
F8
330
2
100
AcDbEntity
  8
HID
100
AcDbLine
 10
410.9915524026853
 20
-811.804293416084
 30
0.0
 11
392.7915524026857
 21
-811.804293416084
 31
0.0
  0
LINE
  5
F9
330
2
100
AcDbEntity
  8
HID
100
AcDbLine
 10
411.7915524026856
 20
-811.804293416084
 30
0.0
 11
410.9915524026853
 21
-811.804293416084
 31
0.0
  0
LINE
  5
FA
330
2
100
AcDbEntity
  8
HID
100
AcDbLine
 10
400.2915524026857
 20
-889.0093741729724
 30
0.0
 11
400.2915524026857
 21
-889.7021944959961
 31
0.0
  0
LINE
  5
FB
330
2
100
AcDbEntity
  8
HID
100
AcDbLine
 10
404.2915524026857
 20
-889.0093741729724
 30
0.0
 11
404.2915524026857
 21
-889.7021944959961
 31
0.0
  0
LINE
  5
FC
330
2
100
AcDbEntity
  8
HID
100
AcDbLine
 10
399.7915524026857
 20
-806.7593741729725
 30
0.0
 11
399.7915524026857
 21
-807.4521944959961
 31
0.0
  0
LINE
  5
FD
330
2
100
AcDbEntity
  8
HID
100
AcDbLine
 10
404.7915524026857
 20
-806.7593741729725
 30
0.0
 11
404.7915524026857
 21
-807.4521944959997
 31
0.0
  0
ELLIPSE
  5
FE
330
2
100
AcDbEntity
  8
OUTLINE
100
AcDbEllipse
 10
402.2915524026855
 20
-889.7021944959961
 30
0.0
 11
2.0
 21
0.0
 31
0.0
210
0.0
220
0.0
230
1.0
 40
0.5000000000000006
 41
0.3537416058897728
 42
2.78785104770002
  0
ELLIPSE
  5
FF
330
2
100
AcDbEntity
  8
HID
100
AcDbEllipse
 10
402.2915524026855
 20
-889.7021944959961
 30
0.0
 11
2.0
 21
0.0
 31
0.0
210
0.0
220
0.0
230
1.0
 40
0.5000000000000006
 41
2.78785104770002
 42
6.636926913069357
  0
ELLIPSE
  5
100
330
2
100
AcDbEntity
  8
HID
100
AcDbEllipse
 10
402.2915524026855
 20
-807.4521944959961
 30
0.0
 11
2.5
 21
0.0
 31
0.0
210
0.0
220
0.0
230
1.0
 40
0.5000000000000006
 41
0.0
 42
6.283185307179584
  0
CIRCLE
  5
101
330
2
100
AcDbEntity
  8
NOTE
100
AcDbCircle
 10
402.2915524026855
 20
-1044.804293416084
 30
0.0
 40
3.0
  0
ARC
  5
102
330
2
100
AcDbEntity
  8
HID
100
AcDbCircle
 10
402.2915524026855
 20
-892.8042934160803
 30
0.0
 40
3.0
100
AcDbArc
 50
94.2304147382536
 51
180.0
  0
ARC
  5
103
330
2
100
AcDbEntity
  8
OUTLINE
100
AcDbCircle
 10
402.2915524026855
 20
-892.8042934160803
 30
0.0
 40
3.0
100
AcDbArc
 50
85.76958526174641
 51
94.2304147382536
  0
ARC
  5
104
330
2
100
AcDbEntity
  8
HID
100
AcDbCircle
 10
402.2915524026855
 20
-892.8042934160803
 30
0.0
 40
3.0
100
AcDbArc
 50
0.0
 51
85.76958526174641
  0
ARC
  5
105
330
2
100
AcDbEntity
  8
HID
100
AcDbCircle
 10
402.2915524026855
 20
-906.304293416084
 30
0.0
 40
6.5
100
AcDbArc
 50
117.4864262503664
 51
62.51357374963345
  0
CIRCLE
  5
106
330
2
100
AcDbEntity
  8
OUTLINE
100
AcDbCircle
 10
402.2915524026855
 20
-1653.804293416084
 30
0.0
 40
3.0
  0
CIRCLE
  5
107
330
2
100
AcDbEntity
  8
OUTLINE
100
AcDbCircle
 10
402.2915524026855
 20
-1247.80429341608
 30
0.0
 40
3.0
  0
CIRCLE
  5
108
330
2
100
AcDbEntity
  8
OUTLINE
100
AcDbCircle
 10
402.2915524026855
 20
-1035.009374172972
 30
0.0
 40
2.0
  0
CIRCLE
  5
109
330
2
100
AcDbEntity
  8
OUTLINE
100
AcDbCircle
 10
402.2915524026855
 20
-1185.009374172972
 30
0.0
 40
2.0
  0
ELLIPSE
  5
10A
330
2
100
AcDbEntity
  8
HID
100
AcDbEllipse
 10
402.2915524026855
 20
-806.7593741729725
 30
0.0
 11
-2.5
 21
0.0
 31
0.0
210
0.0
220
0.0
230
1.0
 40
0.5000000000000006
 41
0.0000000000000002
 42
6.283185307179584
  0
ELLIPSE
  5
10B
330
2
100
AcDbEntity
  8
HID
100
AcDbEllipse
 10
402.2915524026855
 20
-889.0093741729724
 30
0.0
 11
-2.0
 21
0.0
 31
0.0
210
0.0
220
0.0
230
1.0
 40
0.5000000000000006
 41
0.5892042599936005
 42
2.552388393596189
  0
ELLIPSE
  5
10C
330
2
100
AcDbEntity
  8
OUTLINE
100
AcDbEllipse
 10
402.2915524026855
 20
-889.0093741729724
 30
0.0
 11
-2.0
 21
0.0
 31
0.0
210
0.0
220
0.0
230
1.0
 40
0.5000000000000006
 41
2.552388393596189
 42
6.872389567173184
  0
LINE
  5
10D
330
2
100
AcDbEntity
  8
OUTLINE
100
AcDbLine
 10
-318.2084475973143
 20
-801.804293416084
 30
0.0
 11
-318.2084475973143
 21
-975.0093741729724
 31
0.0
  0
LINE
  5
10E
330
2
100
AcDbEntity
  8
HID
100
AcDbLine
 10
-302.2084475973143
 20
-801.804293416084
 30
0.0
 11
-317.2084475973143
 21
-801.804293416084
 31
0.0
  0
LINE
  5
10F
330
2
100
AcDbEntity
  8
OUTLINE
100
AcDbLine
 10
-317.2084475973143
 20
-801.804293416084
 30
0.0
 11
-318.2084475973143
 21
-801.804293416084
 31
0.0
  0
LINE
  5
110
330
2
100
AcDbEntity
  8
OUTLINE
100
AcDbLine
 10
-290.2084475973143
 20
-1663.304293416084
 30
0.0
 11
-317.408447597315
 21
-1663.304293416084
 31
0.0
  0
LINE
  5
111
330
2
100
AcDbEntity
  8
HID
100
AcDbLine
 10
-302.2084475973143
 20
-845.3042934160803
 30
0.0
 11
-317.408447597315
 21
-845.3042934160803
 31
0.0
  0
LINE
  5
112
330
2
100
AcDbEntity
  8
HID
100
AcDbLine
 10
-302.2084475973143
 20
-845.3042934160803
 30
0.0
 11
-299.2084475973143
 21
-848.304293416084
 31
0.0
  0
LINE
  5
113
330
2
100
AcDbEntity
  8
HID
100
AcDbLine
 10
-299.2084475973143
 20
-848.304293416084
 30
0.0
 11
-299.2084475973143
 21
-1236.009374172969
 31
0.0
  0
LINE
  5
114
330
2
100
AcDbEntity
  8
OUTLINE
100
AcDbLine
 10
-299.2084475973143
 20
-1236.009374172969
 30
0.0
 11
-299.2084475973143
 21
-1237.80429341608
 31
0.0
  0
LINE
  5
115
330
2
100
AcDbEntity
  8
OUTLINE
100
AcDbLine
 10
-299.2084475973143
 20
-1237.80429341608
 30
0.0
 11
-290.2084475973143
 21
-1237.80429341608
 31
0.0
  0
LINE
  5
116
330
2
100
AcDbEntity
  8
OUTLINE
100
AcDbLine
 10
-290.2084475973143
 20
-1237.80429341608
 30
0.0
 11
-287.2084475973143
 21
-1240.804293416084
 31
0.0
  0
LINE
  5
117
330
2
100
AcDbEntity
  8
OUTLINE
100
AcDbLine
 10
-287.2084475973143
 20
-1240.804293416084
 30
0.0
 11
-287.2084475973143
 21
-1660.30429341608
 31
0.0
  0
LINE
  5
118
330
2
100
AcDbEntity
  8
OUTLINE
100
AcDbLine
 10
-287.2084475973143
 20
-1660.30429341608
 30
0.0
 11
-290.2084475973143
 21
-1663.304293416084
 31
0.0
  0
LINE
  5
119
330
2
100
AcDbEntity
  8
OUTLINE
100
AcDbLine
 10
-317.408447597315
 20
-1663.304293416084
 30
0.0
 11
-318.2084475973143
 21
-1663.304293416084
 31
0.0
  0
LINE
  5
11A
330
2
100
AcDbEntity
  8
OUTLINE
100
AcDbLine
 10
-318.2084475973143
 20
-1235.009374172972
 30
0.0
 11
-318.2084475973143
 21
-1663.304293416084
 31
0.0
  0
LINE
  5
11B
330
2
100
AcDbEntity
  8
OUTLINE
100
AcDbLine
 10
-317.408447597315
 20
-1662.485235429922
 30
0.0
 11
-316.6084475973139
 21
-1662.485235429922
 31
0.0
  0
LINE
  5
11C
330
2
100
AcDbEntity
  8
HID
100
AcDbLine
 10
-318.2084475973143
 20
-815.8042934160839
 30
0.0
 11
-317.408447597315
 21
-815.8042934160839
 31
0.0
  0
LINE
  5
11D
330
2
100
AcDbEntity
  8
HID
100
AcDbLine
 10
-305.7084475973143
 20
-869.3042934160839
 30
0.0
 11
-305.7084475973143
 21
-877.0380121187482
 31
0.0
  0
LINE
  5
11E
330
2
100
AcDbEntity
  8
HID
100
AcDbLine
 10
-311.7084475973143
 20
-877.0380121187482
 30
0.0
 11
-311.7084475973143
 21
-869.3042934160839
 31
0.0
  0
LINE
  5
11F
330
2
100
AcDbEntity
  8
HID
100
AcDbLine
 10
-317.408447597315
 20
-802.7280538467893
 30
0.0
 11
-302.2084475973143
 21
-802.7280538467893
 31
0.0
  0
LINE
  5
120
330
2
100
AcDbEntity
  8
HID
100
AcDbLine
 10
-302.2084475973143
 20
-975.0093741729724
 30
0.0
 11
-302.2084475973143
 21
-801.804293416084
 31
0.0
  0
LINE
  5
121
330
2
100
AcDbEntity
  8
OUTLINE
100
AcDbLine
 10
-317.408447597315
 20
-1235.009374172972
 30
0.0
 11
-318.2084475973143
 21
-1235.009374172972
 31
0.0
  0
LINE
  5
122
330
2
100
AcDbEntity
  8
OUTLINE
100
AcDbLine
 10
-318.2084475973143
 20
-975.0093741729724
 30
0.0
 11
-318.2084475973143
 21
-1235.009374172972
 31
0.0
  0
LINE
  5
123
330
2
100
AcDbEntity
  8
HID
100
AcDbLine
 10
-302.2084475973143
 20
-975.0093741729724
 30
0.0
 11
-317.2084475973143
 21
-975.0093741729724
 31
0.0
  0
LINE
  5
124
330
2
100
AcDbEntity
  8
OUTLINE
100
AcDbLine
 10
-317.2084475973143
 20
-975.0093741729724
 30
0.0
 11
-318.2084475973143
 21
-975.0093741729724
 31
0.0
  0
LINE
  5
125
330
2
100
AcDbEntity
  8
HID
100
AcDbLine
 10
-302.2084475973143
 20
-975.4712543883217
 30
0.0
 11
-302.2084475973143
 21
-975.0093741729724
 31
0.0
  0
LINE
  5
126
330
2
100
AcDbEntity
  8
OUTLINE
100
AcDbLine
 10
-317.408447597315
 20
-975.4712543883217
 30
0.0
 11
-317.2084475973143
 21
-975.4712543883217
 31
0.0
  0
LINE
  5
127
330
2
100
AcDbEntity
  8
HID
100
AcDbLine
 10
-317.2084475973143
 20
-975.4712543883217
 30
0.0
 11
-302.2084475973143
 21
-975.4712543883217
 31
0.0
  0
LINE
  5
128
330
2
100
AcDbEntity
  8
HID
100
AcDbLine
 10
-302.2084475973143
 20
-977.0093741729686
 30
0.0
 11
-317.2084475973143
 21
-977.0093741729686
 31
0.0
  0
LINE
  5
129
330
2
100
AcDbEntity
  8
OUTLINE
100
AcDbLine
 10
-317.2084475973143
 20
-977.0093741729686
 30
0.0
 11
-317.408447597315
 21
-977.0093741729686
 31
0.0
  0
LINE
  5
12A
330
2
100
AcDbEntity
  8
HID
100
AcDbLine
 10
-302.2084475973143
 20
-1216.437945601545
 30
0.0
 11
-302.2084475973143
 21
-977.0093741729686
 31
0.0
  0
LINE
  5
12B
330
2
100
AcDbEntity
  8
HID
100
AcDbLine
 10
-318.2084475973143
 20
-1621.804293416084
 30
0.0
 11
-317.408447597315
 21
-1621.804293416084
 31
0.0
  0
LINE
  5
12C
330
2
100
AcDbEntity
  8
HID
100
AcDbLine
 10
-318.2084475973143
 20
-1624.804293416084
 30
0.0
 11
-317.408447597315
 21
-1624.804293416084
 31
0.0
  0
LINE
  5
12D
330
2
100
AcDbEntity
  8
OUTLINE
100
AcDbLine
 10
-317.408447597315
 20
-1224.009374172972
 30
0.0
 11
-317.2084475973143
 21
-1224.009374172972
 31
0.0
  0
LINE
  5
12E
330
2
100
AcDbEntity
  8
HID
100
AcDbLine
 10
-317.2084475973143
 20
-1224.009374172972
 30
0.0
 11
-307.5084475973144
 21
-1224.009374172972
 31
0.0
  0
LINE
  5
12F
330
2
100
AcDbEntity
  8
HID
100
AcDbLine
 10
-307.5084475973144
 20
-1224.009374172972
 30
0.0
 11
-302.2084475973143
 21
-1216.437945601545
 31
0.0
  0
LINE
  5
130
330
2
100
AcDbEntity
  8
HID
100
AcDbLine
 10
-317.408447597315
 20
-1651.343085605887
 30
0.0
 11
-316.6084475973139
 21
-1651.343085605887
 31
0.0
  0
LINE
  5
131
330
2
100
AcDbEntity
  8
HID
100
AcDbLine
 10
-317.408447597315
 20
-977.0093741729686
 30
0.0
 11
-317.408447597315
 21
-1224.009374172972
 31
0.0
  0
LINE
  5
132
330
2
100
AcDbEntity
  8
OUTLINE
100
AcDbLine
 10
-317.408447597315
 20
-977.0093741729686
 30
0.0
 11
-317.408447597315
 21
-975.4712543883217
 31
0.0
  0
LINE
  5
133
330
2
100
AcDbEntity
  8
HID
100
AcDbLine
 10
-317.408447597315
 20
-802.7280538467893
 30
0.0
 11
-317.408447597315
 21
-975.4712543883217
 31
0.0
  0
LINE
  5
134
330
2
100
AcDbEntity
  8
OUTLINE
100
AcDbLine
 10
-317.408447597315
 20
-1663.304293416084
 30
0.0
 11
-317.408447597315
 21
-1662.485235429922
 31
0.0
  0
LINE
  5
135
330
2
100
AcDbEntity
  8
HID
100
AcDbLine
 10
-317.408447597315
 20
-1651.343085605887
 30
0.0
 11
-317.408447597315
 21
-1662.485235429922
 31
0.0
  0
LINE
  5
136
330
2
100
AcDbEntity
  8
HID
100
AcDbLine
 10
-317.408447597315
 20
-1252.77960110881
 30
0.0
 11
-317.408447597315
 21
-1651.343085605887
 31
0.0
  0
LINE
  5
137
330
2
100
AcDbEntity
  8
OUTLINE
100
AcDbLine
 10
-317.408447597315
 20
-1250.816823154306
 30
0.0
 11
-317.408447597315
 21
-1235.009374172972
 31
0.0
  0
LINE
  5
138
330
2
100
AcDbEntity
  8
OUTLINE
100
AcDbLine
 10
-317.408447597315
 20
-1235.009374172972
 30
0.0
 11
-317.408447597315
 21
-1224.009374172972
 31
0.0
  0
LINE
  5
139
330
2
100
AcDbEntity
  8
OUTLINE
100
AcDbLine
 10
-316.6084475973139
 20
-1662.485235429922
 30
0.0
 11
-316.6084475973139
 21
-1250.816823154306
 31
0.0
  0
LINE
  5
13A
330
2
100
AcDbEntity
  8
OUTLINE
100
AcDbLine
 10
-316.6084475973139
 20
-1250.816823154306
 30
0.0
 11
-317.408447597315
 21
-1250.816823154306
 31
0.0
  0
LINE
  5
13B
330
2
100
AcDbEntity
  8
HID
100
AcDbLine
 10
-317.408447597315
 20
-1250.816823154306
 30
0.0
 11
-317.408447597315
 21
-1252.77960110881
 31
0.0
  0
LINE
  5
13C
330
2
100
AcDbEntity
  8
HID
100
AcDbLine
 10
-316.6084475973139
 20
-1252.77960110881
 30
0.0
 11
-317.408447597315
 21
-1252.77960110881
 31
0.0
  0
LINE
  5
13D
330
2
100
AcDbEntity
  8
HID
100
AcDbLine
 10
-310.7084475973143
 20
-889.0093741729724
 30
0.0
 11
-310.7084475973143
 21
-889.7021944959961
 31
0.0
  0
LINE
  5
13E
330
2
100
AcDbEntity
  8
HID
100
AcDbLine
 10
-306.7084475973143
 20
-889.0093741729724
 30
0.0
 11
-306.7084475973143
 21
-889.7021944959961
 31
0.0
  0
LINE
  5
13F
330
2
100
AcDbEntity
  8
HID
100
AcDbLine
 10
-311.2084475973142
 20
-806.7593741729725
 30
0.0
 11
-311.2084475973142
 21
-807.4521944959997
 31
0.0
  0
LINE
  5
140
330
2
100
AcDbEntity
  8
HID
100
AcDbLine
 10
-306.2084475973143
 20
-806.7593741729725
 30
0.0
 11
-306.2084475973143
 21
-807.4521944959961
 31
0.0
  0
ELLIPSE
  5
141
330
2
100
AcDbEntity
  8
HID
100
AcDbEllipse
 10
-308.7084475973143
 20
-889.0093741729724
 30
0.0
 11
-2.0
 21
0.0
 31
0.0
210
0.0
220
0.0
230
1.0
 40
0.5
 41
0.5892042599923819
 42
2.552388393597272
  0
ELLIPSE
  5
142
330
2
100
AcDbEntity
  8
OUTLINE
100
AcDbEllipse
 10
-308.7084475973143
 20
-889.0093741729724
 30
0.0
 11
-2.0
 21
0.0
 31
0.0
210
0.0
220
0.0
230
1.0
 40
0.5
 41
2.552388393597273
 42
6.872389567171968
  0
CIRCLE
  5
143
330
2
100
AcDbEntity
  8
OUTLINE
100
AcDbCircle
 10
-296.7084475973143
 20
-1653.804293416084
 30
0.0
 40
3.0
  0
CIRCLE
  5
144
330
2
100
AcDbEntity
  8
OUTLINE
100
AcDbCircle
 10
-308.7084475973143
 20
-1275.30429341608
 30
0.0
 40
3.0
  0
ARC
  5
145
330
2
100
AcDbEntity
  8
NOTE
100
AcDbCircle
 10
-308.7084475973143
 20
-869.3042934160839
 30
0.0
 40
3.0
100
AcDbArc
 50
0.0
 51
180.0
  0
ELLIPSE
  5
146
330
2
100
AcDbEntity
  8
HID
100
AcDbEllipse
 10
-308.7084475973143
 20
-806.7593741729725
 30
0.0
 11
-2.5
 21
0.0
 31
0.0
210
0.0
220
0.0
230
1.0
 40
0.5
 41
0.0000000000000002
 42
6.283185307179584
  0
ARC
  5
147
330
2
100
AcDbEntity
  8
HID
100
AcDbCircle
 10
-308.7084475973143
 20
-882.8042934160803
 30
0.0
 40
6.5
100
AcDbArc
 50
284.270733987266
 51
62.51357374963345
  0
ARC
  5
148
330
2
100
AcDbEntity
  8
OUTLINE
100
AcDbCircle
 10
-308.7084475973143
 20
-882.8042934160803
 30
0.0
 40
6.5
100
AcDbArc
 50
255.729266012734
 51
284.270733987266
  0
ARC
  5
149
330
2
100
AcDbEntity
  8
HID
100
AcDbCircle
 10
-308.7084475973143
 20
-882.8042934160803
 30
0.0
 40
6.5
100
AcDbArc
 50
117.4864262503664
 51
255.729266012734
  0
ELLIPSE
  5
14A
330
2
100
AcDbEntity
  8
HID
100
AcDbEllipse
 10
-308.7084475973143
 20
-807.4521944959961
 30
0.0
 11
2.5
 21
0.0
 31
0.0
210
0.0
220
0.0
230
1.0
 40
0.5
 41
0.0
 42
6.283185307179584
  0
ELLIPSE
  5
14B
330
2
100
AcDbEntity
  8
OUTLINE
100
AcDbEllipse
 10
-308.7084475973143
 20
-889.7021944959961
 30
0.0
 11
2.0
 21
0.0
 31
0.0
210
0.0
220
0.0
230
1.0
 40
0.5
 41
0.3537416058896026
 42
2.787851047700188
  0
ELLIPSE
  5
14C
330
2
100
AcDbEntity
  8
HID
100
AcDbEllipse
 10
-308.7084475973143
 20
-889.7021944959961
 30
0.0
 11
2.0
 21
0.0
 31
0.0
210
0.0
220
0.0
230
1.0
 40
0.5
 41
2.787851047700188
 42
6.636926913069187
  0
CIRCLE
  5
14D
330
2
100
AcDbEntity
  8
OUTLINE
100
AcDbCircle
 10
-296.7084475973143
 20
-1247.304293416084
 30
0.0
 40
3.0
  0
CIRCLE
  5
14E
330
2
100
AcDbEntity
  8
OUTLINE
100
AcDbCircle
 10
-308.7084475973143
 20
-1035.009374172972
 30
0.0
 40
2.0
  0
CIRCLE
  5
14F
330
2
100
AcDbEntity
  8
OUTLINE
100
AcDbCircle
 10
-308.7084475973143
 20
-1185.009374172972
 30
0.0
 40
2.0
  0
LINE
  5
150
330
2
100
AcDbEntity
  8
OUTLINE
100
AcDbLine
 10
-317.2084475973143
 20
-974.5665538499416
 30
0.0
 11
410.7915524026855
 21
-974.5665538499416
 31
0.0
  0
LINE
  5
151
330
2
100
AcDbEntity
  8
HID
100
AcDbLine
 10
410.7915524026855
 20
-801.7593741729724
 30
0.0
 11
-317.2084475973143
 21
-801.7593741729724
 31
0.0
  0
LINE
  5
152
330
2
100
AcDbEntity
  8
OUTLINE
100
AcDbLine
 10
-317.2084475973143
 20
-975.2593741729723
 30
0.0
 11
-317.2084475973143
 21
-992.2593741729686
 31
0.0
  0
LINE
  5
153
330
2
100
AcDbEntity
  8
OUTLINE
100
AcDbLine
 10
410.7915524026855
 20
-992.2593741729686
 30
0.0
 11
410.7915524026855
 21
-975.2593741729723
 31
0.0
  0
LINE
  5
154
330
2
100
AcDbEntity
  8
OUTLINE
100
AcDbLine
 10
-317.2084475973143
 20
-975.2593741729723
 30
0.0
 11
410.7915524026855
 21
-975.2593741729723
 31
0.0
  0
LINE
  5
155
330
2
100
AcDbEntity
  8
OUTLINE
100
AcDbLine
 10
-314.2084475973143
 20
-995.2593741729724
 30
0.0
 11
-317.2084475973143
 21
-992.2593741729686
 31
0.0
  0
LINE
  5
156
330
2
100
AcDbEntity
  8
OUTLINE
100
AcDbLine
 10
-314.2084475973143
 20
-995.2593741729724
 30
0.0
 11
407.7915524026856
 21
-995.2593741729724
 31
0.0
  0
LINE
  5
157
330
2
100
AcDbEntity
  8
OUTLINE
100
AcDbLine
 10
410.7915524026855
 20
-992.2593741729686
 30
0.0
 11
407.7915524026856
 21
-995.2593741729724
 31
0.0
  0
LINE
  5
158
330
2
100
AcDbEntity
  8
OUTLINE
100
AcDbLine
 10
-317.2084475973143
 20
-801.2974939576197
 30
0.0
 11
-317.2084475973143
 21
-974.5665538499416
 31
0.0
  0
LINE
  5
159
330
2
100
AcDbEntity
  8
OUTLINE
100
AcDbLine
 10
-317.2084475973143
 20
-974.5665538499416
 30
0.0
 11
-317.2084475973143
 21
-975.2593741729723
 31
0.0
  0
LINE
  5
15A
330
2
100
AcDbEntity
  8
OUTLINE
100
AcDbLine
 10
-317.2084475973143
 20
-801.2974939576197
 30
0.0
 11
410.7915524026855
 21
-801.2974939576197
 31
0.0
  0
LINE
  5
15B
330
2
100
AcDbEntity
  8
OUTLINE
100
AcDbLine
 10
-317.2084475973143
 20
-801.2974939576197
 30
0.0
 11
-317.2084475973143
 21
-787.7593741729724
 31
0.0
  0
LINE
  5
15C
330
2
100
AcDbEntity
  8
OUTLINE
100
AcDbLine
 10
-317.2084475973143
 20
-787.7593741729724
 30
0.0
 11
-314.2084475973143
 21
-784.7593741729687
 31
0.0
  0
LINE
  5
15D
330
2
100
AcDbEntity
  8
OUTLINE
100
AcDbLine
 10
-314.2084475973143
 20
-784.7593741729687
 30
0.0
 11
407.7915524026856
 21
-784.7593741729687
 31
0.0
  0
LINE
  5
15E
330
2
100
AcDbEntity
  8
OUTLINE
100
AcDbLine
 10
410.7915524026855
 20
-975.2593741729723
 30
0.0
 11
410.7915524026855
 21
-974.5665538499416
 31
0.0
  0
LINE
  5
15F
330
2
100
AcDbEntity
  8
OUTLINE
100
AcDbLine
 10
410.7915524026855
 20
-974.5665538499416
 30
0.0
 11
410.7915524026855
 21
-801.2974939576197
 31
0.0
  0
LINE
  5
160
330
2
100
AcDbEntity
  8
OUTLINE
100
AcDbLine
 10
410.7915524026855
 20
-787.7593741729724
 30
0.0
 11
410.7915524026855
 21
-801.2974939576197
 31
0.0
  0
LINE
  5
161
330
2
100
AcDbEntity
  8
OUTLINE
100
AcDbLine
 10
407.7915524026856
 20
-784.7593741729687
 30
0.0
 11
410.7915524026855
 21
-787.7593741729724
 31
0.0
  0
LINE
  5
162
330
2
100
AcDbEntity
  8
HID
100
AcDbLine
 10
400.7915524026857
 20
-808.0093741729724
 30
0.0
 11
403.7915524026856
 21
-808.0093741729724
 31
0.0
  0
LINE
  5
163
330
2
100
AcDbEntity
  8
OUTLINE
100
AcDbLine
 10
403.7915524026856
 20
-807.3165538499452
 30
0.0
 11
400.7915524026857
 21
-807.3165538499452
 31
0.0
  0
LINE
  5
164
330
2
100
AcDbEntity
  8
HID
100
AcDbLine
 10
403.7915524026856
 20
-808.0093741729724
 30
0.0
 11
403.7915524026856
 21
-807.3165538499452
 31
0.0
  0
LINE
  5
165
330
2
100
AcDbEntity
  8
OUTLINE
100
AcDbLine
 10
403.7915524026856
 20
-805.8165538499416
 30
0.0
 11
403.7915524026856
 21
-807.3165538499452
 31
0.0
  0
LINE
  5
166
330
2
100
AcDbEntity
  8
OUTLINE
100
AcDbLine
 10
403.7915524026856
 20
-806.5093741729722
 30
0.0
 11
400.7915524026857
 21
-806.5093741729722
 31
0.0
  0
LINE
  5
167
330
2
100
AcDbEntity
  8
OUTLINE
100
AcDbLine
 10
400.7915524026857
 20
-805.8165538499416
 30
0.0
 11
403.7915524026856
 21
-805.8165538499416
 31
0.0
  0
LINE
  5
168
330
2
100
AcDbEntity
  8
HID
100
AcDbLine
 10
400.7915524026857
 20
-808.0093741729724
 30
0.0
 11
400.7915524026857
 21
-807.3165538499452
 31
0.0
  0
LINE
  5
169
330
2
100
AcDbEntity
  8
OUTLINE
100
AcDbLine
 10
400.7915524026857
 20
-807.3165538499452
 30
0.0
 11
400.7915524026857
 21
-805.8165538499416
 31
0.0
  0
LINE
  5
16A
330
2
100
AcDbEntity
  8
HID
100
AcDbLine
 10
-310.2084475973143
 20
-808.0093741729724
 30
0.0
 11
-307.2084475973142
 21
-808.0093741729724
 31
0.0
  0
LINE
  5
16B
330
2
100
AcDbEntity
  8
OUTLINE
100
AcDbLine
 10
-307.2084475973142
 20
-807.3165538499452
 30
0.0
 11
-310.2084475973143
 21
-807.3165538499452
 31
0.0
  0
LINE
  5
16C
330
2
100
AcDbEntity
  8
HID
100
AcDbLine
 10
-307.2084475973142
 20
-808.0093741729724
 30
0.0
 11
-307.2084475973142
 21
-807.3165538499452
 31
0.0
  0
LINE
  5
16D
330
2
100
AcDbEntity
  8
OUTLINE
100
AcDbLine
 10
-307.2084475973142
 20
-805.8165538499416
 30
0.0
 11
-307.2084475973142
 21
-807.3165538499452
 31
0.0
  0
LINE
  5
16E
330
2
100
AcDbEntity
  8
OUTLINE
100
AcDbLine
 10
-307.2084475973142
 20
-806.5093741729722
 30
0.0
 11
-310.2084475973143
 21
-806.5093741729722
 31
0.0
  0
LINE
  5
16F
330
2
100
AcDbEntity
  8
OUTLINE
100
AcDbLine
 10
-310.2084475973143
 20
-805.8165538499416
 30
0.0
 11
-307.2084475973142
 21
-805.8165538499416
 31
0.0
  0
LINE
  5
170
330
2
100
AcDbEntity
  8
HID
100
AcDbLine
 10
-310.2084475973143
 20
-808.0093741729724
 30
0.0
 11
-310.2084475973143
 21
-807.3165538499452
 31
0.0
  0
LINE
  5
171
330
2
100
AcDbEntity
  8
OUTLINE
100
AcDbLine
 10
-310.2084475973143
 20
-807.3165538499452
 30
0.0
 11
-310.2084475973143
 21
-805.8165538499416
 31
0.0
  0
LINE
  5
172
330
2
100
AcDbEntity
  8
HID
100
AcDbLine
 10
-305.7084475973143
 20
-889.0093741729724
 30
0.0
 11
-305.7084475973143
 21
-888.3165538499415
 31
0.0
  0
LINE
  5
173
330
2
100
AcDbEntity
  8
HID
100
AcDbLine
 10
-311.7084475973143
 20
-889.0093741729724
 30
0.0
 11
-311.7084475973143
 21
-888.3165538499415
 31
0.0
  0
LINE
  5
174
330
2
100
AcDbEntity
  8
HID
100
AcDbLine
 10
405.2915524026857
 20
-889.0093741729724
 30
0.0
 11
405.2915524026857
 21
-888.3165538499415
 31
0.0
  0
LINE
  5
175
330
2
100
AcDbEntity
  8
HID
100
AcDbLine
 10
399.2915524026857
 20
-889.0093741729724
 30
0.0
 11
399.2915524026857
 21
-888.3165538499415
 31
0.0
  0
ELLIPSE
  5
176
330
2
100
AcDbEntity
  8
HID
100
AcDbEllipse
 10
-308.7084475973143
 20
-889.0093741729724
 30
0.0
 11
3.0
 21
0.0
 31
0.0
210
0.0
220
0.0
230
1.0
 40
0.5000000000000002
 41
2.908548854600858
 42
6.516229106168512
  0
ELLIPSE
  5
177
330
2
100
AcDbEntity
  8
OUTLINE
100
AcDbEllipse
 10
-308.7084475973143
 20
-889.0093741729724
 30
0.0
 11
3.0
 21
0.0
 31
0.0
210
0.0
220
0.0
230
1.0
 40
0.5000000000000002
 41
0.2330437989889282
 42
2.908548854600858
  0
ELLIPSE
  5
178
330
2
100
AcDbEntity
  8
OUTLINE
100
AcDbEllipse
 10
-308.7084475973143
 20
-888.3165538499415
 30
0.0
 11
-3.0
 21
0.0
 31
0.0
210
0.0
220
0.0
230
1.0
 40
0.5000000000000002
 41
-0.0000000000000015
 42
6.28318530717958
  0
ELLIPSE
  5
179
330
2
100
AcDbEntity
  8
HID
100
AcDbEllipse
 10
402.2915524026855
 20
-889.0093741729724
 30
0.0
 11
3.0
 21
0.0
 31
0.0
210
0.0
220
0.0
230
1.0
 40
0.5000000000000002
 41
2.908548854600858
 42
6.516229106168502
  0
ELLIPSE
  5
17A
330
2
100
AcDbEntity
  8
OUTLINE
100
AcDbEllipse
 10
402.2915524026855
 20
-889.0093741729724
 30
0.0
 11
3.0
 21
0.0
 31
0.0
210
0.0
220
0.0
230
1.0
 40
0.5000000000000002
 41
0.2330437989889168
 42
2.908548854600858
  0
ELLIPSE
  5
17B
330
2
100
AcDbEntity
  8
OUTLINE
100
AcDbEllipse
 10
402.2915524026855
 20
-888.3165538499415
 30
0.0
 11
-3.0
 21
0.0
 31
0.0
210
0.0
220
0.0
230
1.0
 40
0.5000000000000002
 41
-0.0000000000000015
 42
6.28318530717958
  0
CIRCLE
  5
17C
330
2
100
AcDbEntity
  8
OUTLINE
100
AcDbCircle
 10
-108.2084475973142
 20
-985.2593741729725
 30
0.0
 40
2.2
  0
CIRCLE
  5
17D
330
2
100
AcDbEntity
  8
OUTLINE
100
AcDbCircle
 10
201.7915524026857
 20
-985.2593741729725
 30
0.0
 40
2.2
  0
CIRCLE
  5
17E
330
2
100
AcDbEntity
  8
OUTLINE
100
AcDbCircle
 10
104.2915524026857
 20
-789.2593741729724
 30
0.0
 40
3.0
  0
CIRCLE
  5
17F
330
2
100
AcDbEntity
  8
OUTLINE
100
AcDbCircle
 10
337.2915524026857
 20
-789.2593741729724
 30
0.0
 40
3.0
  0
CIRCLE
  5
180
330
2
100
AcDbEntity
  8
OUTLINE
100
AcDbCircle
 10
-243.7084475973143
 20
-789.2593741729724
 30
0.0
 40
3.0
  0
CIRCLE
  5
181
330
2
100
AcDbEntity
  8
OUTLINE
100
AcDbCircle
 10
-10.70844759731426
 20
-789.2593741729724
 30
0.0
 40
3.0
  0
LINE
  5
182
330
2
100
AcDbEntity
  8
HID
100
AcDbLine
 10
-309.2084475973142
 20
-1234.40937417297
 30
0.0
 11
-317.2084475973143
 21
-1234.40937417297
 31
0.0
  0
LINE
  5
183
330
2
100
AcDbEntity
  8
HID
100
AcDbLine
 10
-309.2084475973142
 20
-1235.209374172969
 30
0.0
 11
-309.2084475973142
 21
-1234.40937417297
 31
0.0
  0
LINE
  5
184
330
2
100
AcDbEntity
  8
HID
100
AcDbLine
 10
402.7915524026856
 20
-1234.40937417297
 30
0.0
 11
-309.2084475973142
 21
-1234.40937417297
 31
0.0
  0
LINE
  5
185
330
2
100
AcDbEntity
  8
HID
100
AcDbLine
 10
402.7915524026856
 20
-1234.40937417297
 30
0.0
 11
402.7915524026856
 21
-1235.209374172969
 31
0.0
  0
LINE
  5
186
330
2
100
AcDbEntity
  8
HID
100
AcDbLine
 10
410.7915524026855
 20
-1234.40937417297
 30
0.0
 11
402.7915524026856
 21
-1234.40937417297
 31
0.0
  0
LINE
  5
187
330
2
100
AcDbEntity
  8
OUTLINE
100
AcDbLine
 10
410.7915524026855
 20
-1236.009374172969
 30
0.0
 11
410.7915524026855
 21
-992.2593741729686
 31
0.0
  0
LINE
  5
188
330
2
100
AcDbEntity
  8
OUTLINE
100
AcDbLine
 10
-317.2084475973143
 20
-1236.009374172969
 30
0.0
 11
410.7915524026855
 21
-1236.009374172969
 31
0.0
  0
LINE
  5
189
330
2
100
AcDbEntity
  8
OUTLINE
100
AcDbLine
 10
-317.2084475973143
 20
-1236.009374172969
 30
0.0
 11
-317.2084475973143
 21
-992.2593741729686
 31
0.0
  0
LINE
  5
18A
330
2
100
AcDbEntity
  8
HID
100
AcDbLine
 10
-317.2084475973143
 20
-979.0093741729725
 30
0.0
 11
-314.2084475973143
 21
-976.0093741729686
 31
0.0
  0
LINE
  5
18B
330
2
100
AcDbEntity
  8
HID
100
AcDbLine
 10
-314.2084475973143
 20
-976.0093741729686
 30
0.0
 11
407.7915524026856
 21
-976.0093741729686
 31
0.0
  0
LINE
  5
18C
330
2
100
AcDbEntity
  8
HID
100
AcDbLine
 10
407.7915524026856
 20
-976.0093741729686
 30
0.0
 11
410.7915524026855
 21
-979.0093741729725
 31
0.0
  0
LINE
  5
18D
330
2
100
AcDbEntity
  8
OUTLINE
100
AcDbLine
 10
-306.2084475973143
 20
-1035.009374172972
 30
0.0
 11
-306.2084475973143
 21
-1041.110394687406
 31
0.0
  0
LINE
  5
18E
330
2
100
AcDbEntity
  8
OUTLINE
100
AcDbLine
 10
-311.2084475973142
 20
-1041.110394687406
 30
0.0
 11
-311.2084475973142
 21
-1035.009374172972
 31
0.0
  0
LINE
  5
18F
330
2
100
AcDbEntity
  8
HID
100
AcDbLine
 10
410.7915524026855
 20
-1235.209374172969
 30
0.0
 11
-317.2084475973143
 21
-1235.209374172969
 31
0.0
  0
LINE
  5
190
330
2
100
AcDbEntity
  8
OUTLINE
100
AcDbLine
 10
404.7915524026857
 20
-1035.009374172972
 30
0.0
 11
404.7915524026857
 21
-1041.110394687406
 31
0.0
  0
LINE
  5
191
330
2
100
AcDbEntity
  8
OUTLINE
100
AcDbLine
 10
399.7915524026857
 20
-1041.110394687406
 30
0.0
 11
399.7915524026857
 21
-1035.009374172972
 31
0.0
  0
CIRCLE
  5
192
330
2
100
AcDbEntity
  8
HID
100
AcDbCircle
 10
201.7915524026857
 20
-986.0093741729686
 30
0.0
 40
3.0
  0
CIRCLE
  5
193
330
2
100
AcDbEntity
  8
HID
100
AcDbCircle
 10
-108.2084475973142
 20
-986.0093741729686
 30
0.0
 40
3.0
  0
CIRCLE
  5
194
330
2
100
AcDbEntity
  8
OUTLINE
100
AcDbCircle
 10
402.2915524026855
 20
-1185.009374172972
 30
0.0
 40
2.5
  0
CIRCLE
  5
195
330
2
100
AcDbEntity
  8
OUTLINE
100
AcDbCircle
 10
-308.7084475973143
 20
-1185.009374172972
 30
0.0
 40
2.5
  0
ARC
  5
196
330
2
100
AcDbEntity
  8
OUTLINE
100
AcDbCircle
 10
-308.7084475973143
 20
-1035.009374172972
 30
0.0
 40
2.5
100
AcDbArc
 50
0.0
 51
180.0
  0
ARC
  5
197
330
2
100
AcDbEntity
  8
OUTLINE
100
AcDbCircle
 10
402.2915524026855
 20
-1035.009374172972
 30
0.0
 40
2.5
100
AcDbArc
 50
0.0
 51
180.0
  0
ARC
  5
198
330
2
100
AcDbEntity
  8
OUTLINE
100
AcDbCircle
 10
-308.7084475973143
 20
-1046.009374172969
 30
0.0
 40
5.5
100
AcDbArc
 50
117.0356917894048
 51
62.96430821059518
  0
ARC
  5
199
330
2
100
AcDbEntity
  8
OUTLINE
100
AcDbCircle
 10
402.2915524026855
 20
-1046.009374172969
 30
0.0
 40
5.5
100
AcDbArc
 50
117.0356917894048
 51
62.96430821059518
  0
LINE
  5
2B6
330
2
100
AcDbEntity
  8
NOTE
100
AcDbLine
 10
402.2365524026853
 20
-892.8042934160803
 30
0.0
 11
402.3465524026851
 21
-892.8042934160803
 31
0.0
  0
LINE
  5
2B7
330
2
100
AcDbEntity
  8
NOTE
100
AcDbLine
 10
402.2915524026855
 20
-892.8592934160842
 30
0.0
 11
402.2915524026855
 21
-892.7492934160836
 31
0.0
  0
LINE
  5
2B8
330
2
100
AcDbEntity
  8
NOTE
100
AcDbLine
 10
399.1815524026852
 20
-892.8042934160803
 30
0.0
 11
402.0805524026862
 21
-892.8042934160803
 31
0.0
  0
LINE
  5
2B9
330
2
100
AcDbEntity
  8
NOTE
100
AcDbLine
 10
402.5025524026856
 20
-892.8042934160803
 30
0.0
 11
405.4015524026863
 21
-892.8042934160803
 31
0.0
  0
LINE
  5
2BA
330
2
100
AcDbEntity
  8
NOTE
100
AcDbLine
 10
402.2915524026855
 20
-895.9142934160846
 30
0.0
 11
402.2915524026855
 21
-893.0152934160796
 31
0.0
  0
LINE
  5
2BB
330
2
100
AcDbEntity
  8
NOTE
100
AcDbLine
 10
402.2915524026855
 20
-892.5932934160808
 30
0.0
 11
402.2915524026855
 21
-889.6942934160833
 31
0.0
  0
LINE
  5
2BC
330
2
100
AcDbEntity
  8
NOTE
100
AcDbLine
 10
402.2365524026853
 20
-1653.804293416084
 30
0.0
 11
402.3465524026851
 21
-1653.804293416084
 31
0.0
  0
LINE
  5
2BD
330
2
100
AcDbEntity
  8
NOTE
100
AcDbLine
 10
402.2915524026855
 20
-1653.859293416084
 30
0.0
 11
402.2915524026855
 21
-1653.749293416083
 31
0.0
  0
LINE
  5
2BE
330
2
100
AcDbEntity
  8
NOTE
100
AcDbLine
 10
399.1815524026852
 20
-1653.804293416084
 30
0.0
 11
402.0805524026862
 21
-1653.804293416084
 31
0.0
  0
LINE
  5
2BF
330
2
100
AcDbEntity
  8
NOTE
100
AcDbLine
 10
402.5025524026856
 20
-1653.804293416084
 30
0.0
 11
405.4015524026863
 21
-1653.804293416084
 31
0.0
  0
LINE
  5
2C0
330
2
100
AcDbEntity
  8
NOTE
100
AcDbLine
 10
402.2915524026855
 20
-1656.914293416081
 30
0.0
 11
402.2915524026855
 21
-1654.015293416083
 31
0.0
  0
LINE
  5
2C1
330
2
100
AcDbEntity
  8
NOTE
100
AcDbLine
 10
402.2915524026855
 20
-1653.593293416081
 30
0.0
 11
402.2915524026855
 21
-1650.694293416083
 31
0.0
  0
LINE
  5
2C2
330
2
100
AcDbEntity
  8
NOTE
100
AcDbLine
 10
402.2365524026853
 20
-1247.80429341608
 30
0.0
 11
402.3465524026851
 21
-1247.80429341608
 31
0.0
  0
LINE
  5
2C3
330
2
100
AcDbEntity
  8
NOTE
100
AcDbLine
 10
402.2915524026855
 20
-1247.859293416084
 30
0.0
 11
402.2915524026855
 21
-1247.749293416084
 31
0.0
  0
LINE
  5
2C4
330
2
100
AcDbEntity
  8
NOTE
100
AcDbLine
 10
399.1815524026852
 20
-1247.80429341608
 30
0.0
 11
402.0805524026862
 21
-1247.80429341608
 31
0.0
  0
LINE
  5
2C5
330
2
100
AcDbEntity
  8
NOTE
100
AcDbLine
 10
402.5025524026856
 20
-1247.80429341608
 30
0.0
 11
405.4015524026863
 21
-1247.80429341608
 31
0.0
  0
LINE
  5
2C6
330
2
100
AcDbEntity
  8
NOTE
100
AcDbLine
 10
402.2915524026855
 20
-1250.914293416084
 30
0.0
 11
402.2915524026855
 21
-1248.015293416079
 31
0.0
  0
LINE
  5
2C7
330
2
100
AcDbEntity
  8
NOTE
100
AcDbLine
 10
402.2915524026855
 20
-1247.593293416081
 30
0.0
 11
402.2915524026855
 21
-1244.694293416083
 31
0.0
  0
LINE
  5
2C8
330
2
100
AcDbEntity
  8
NOTE
100
AcDbLine
 10
-296.7634475973147
 20
-1653.804293416084
 30
0.0
 11
-296.653447597314
 21
-1653.804293416084
 31
0.0
  0
LINE
  5
2C9
330
2
100
AcDbEntity
  8
NOTE
100
AcDbLine
 10
-296.7084475973143
 20
-1653.859293416084
 30
0.0
 11
-296.7084475973143
 21
-1653.749293416083
 31
0.0
  0
LINE
  5
2CA
330
2
100
AcDbEntity
  8
NOTE
100
AcDbLine
 10
-299.8184475973149
 20
-1653.804293416084
 30
0.0
 11
-296.9194475973145
 21
-1653.804293416084
 31
0.0
  0
LINE
  5
2CB
330
2
100
AcDbEntity
  8
NOTE
100
AcDbLine
 10
-296.497447597314
 20
-1653.804293416084
 30
0.0
 11
-293.5984475973137
 21
-1653.804293416084
 31
0.0
  0
LINE
  5
2CC
330
2
100
AcDbEntity
  8
NOTE
100
AcDbLine
 10
-296.7084475973143
 20
-1656.914293416081
 30
0.0
 11
-296.7084475973143
 21
-1654.015293416083
 31
0.0
  0
LINE
  5
2CD
330
2
100
AcDbEntity
  8
NOTE
100
AcDbLine
 10
-296.7084475973143
 20
-1653.593293416081
 30
0.0
 11
-296.7084475973143
 21
-1650.694293416083
 31
0.0
  0
LINE
  5
2CE
330
2
100
AcDbEntity
  8
NOTE
100
AcDbLine
 10
-308.7634475973147
 20
-1275.30429341608
 30
0.0
 11
-308.653447597314
 21
-1275.30429341608
 31
0.0
  0
LINE
  5
2CF
330
2
100
AcDbEntity
  8
NOTE
100
AcDbLine
 10
-308.7084475973143
 20
-1275.359293416084
 30
0.0
 11
-308.7084475973143
 21
-1275.249293416084
 31
0.0
  0
LINE
  5
2D0
330
2
100
AcDbEntity
  8
NOTE
100
AcDbLine
 10
-311.8184475973139
 20
-1275.30429341608
 30
0.0
 11
-308.9194475973136
 21
-1275.30429341608
 31
0.0
  0
LINE
  5
2D1
330
2
100
AcDbEntity
  8
NOTE
100
AcDbLine
 10
-308.497447597314
 20
-1275.30429341608
 30
0.0
 11
-305.5984475973147
 21
-1275.30429341608
 31
0.0
  0
LINE
  5
2D2
330
2
100
AcDbEntity
  8
NOTE
100
AcDbLine
 10
-308.7084475973143
 20
-1278.414293416084
 30
0.0
 11
-308.7084475973143
 21
-1275.515293416087
 31
0.0
  0
LINE
  5
2D3
330
2
100
AcDbEntity
  8
NOTE
100
AcDbLine
 10
-308.7084475973143
 20
-1275.093293416081
 30
0.0
 11
-308.7084475973143
 21
-1272.194293416083
 31
0.0
  0
LINE
  5
2D4
330
2
100
AcDbEntity
  8
NOTE
100
AcDbLine
 10
-308.7634475973147
 20
-882.8042934160803
 30
0.0
 11
-308.653447597314
 21
-882.8042934160803
 31
0.0
  0
LINE
  5
2D5
330
2
100
AcDbEntity
  8
NOTE
100
AcDbLine
 10
-308.7084475973143
 20
-882.8592934160843
 30
0.0
 11
-308.7084475973143
 21
-882.7492934160837
 31
0.0
  0
LINE
  5
2D6
330
2
100
AcDbEntity
  8
NOTE
100
AcDbLine
 10
-315.3184475973139
 20
-882.8042934160803
 30
0.0
 11
-308.9194475973136
 21
-882.8042934160803
 31
0.0
  0
LINE
  5
2D7
330
2
100
AcDbEntity
  8
NOTE
100
AcDbLine
 10
-308.497447597314
 20
-882.8042934160803
 30
0.0
 11
-302.0984475973137
 21
-882.8042934160803
 31
0.0
  0
LINE
  5
2D8
330
2
100
AcDbEntity
  8
NOTE
100
AcDbLine
 10
-308.7084475973143
 20
-889.4142934160809
 30
0.0
 11
-308.7084475973143
 21
-883.0152934160869
 31
0.0
  0
LINE
  5
2D9
330
2
100
AcDbEntity
  8
NOTE
100
AcDbLine
 10
-308.7084475973143
 20
-882.5932934160809
 30
0.0
 11
-308.7084475973143
 21
-876.1942934160833
 31
0.0
  0
LINE
  5
2DA
330
2
100
AcDbEntity
  8
NOTE
100
AcDbLine
 10
-296.7634475973147
 20
-1247.304293416084
 30
0.0
 11
-296.653447597314
 21
-1247.304293416084
 31
0.0
  0
LINE
  5
2DB
330
2
100
AcDbEntity
  8
NOTE
100
AcDbLine
 10
-296.7084475973143
 20
-1247.35929341608
 30
0.0
 11
-296.7084475973143
 21
-1247.249293416083
 31
0.0
  0
LINE
  5
2DC
330
2
100
AcDbEntity
  8
NOTE
100
AcDbLine
 10
-299.8184475973149
 20
-1247.304293416084
 30
0.0
 11
-296.9194475973145
 21
-1247.304293416084
 31
0.0
  0
LINE
  5
2DD
330
2
100
AcDbEntity
  8
NOTE
100
AcDbLine
 10
-296.497447597314
 20
-1247.304293416084
 30
0.0
 11
-293.5984475973137
 21
-1247.304293416084
 31
0.0
  0
LINE
  5
2DE
330
2
100
AcDbEntity
  8
NOTE
100
AcDbLine
 10
-296.7084475973143
 20
-1250.414293416081
 30
0.0
 11
-296.7084475973143
 21
-1247.515293416083
 31
0.0
  0
LINE
  5
2DF
330
2
100
AcDbEntity
  8
NOTE
100
AcDbLine
 10
-296.7084475973143
 20
-1247.093293416084
 30
0.0
 11
-296.7084475973143
 21
-1244.194293416083
 31
0.0
  0
LINE
  5
2E0
330
2
100
AcDbEntity
  8
NOTE
100
AcDbLine
 10
104.2365524026862
 20
-789.2593741729724
 30
0.0
 11
104.346552402686
 21
-789.2593741729724
 31
0.0
  0
LINE
  5
2E1
330
2
100
AcDbEntity
  8
NOTE
100
AcDbLine
 10
104.2915524026857
 20
-789.3143741729691
 30
0.0
 11
104.2915524026857
 21
-789.2043741729723
 31
0.0
  0
LINE
  5
2E2
330
2
100
AcDbEntity
  8
NOTE
100
AcDbLine
 10
101.1815524026851
 20
-789.2593741729724
 30
0.0
 11
104.0805524026855
 21
-789.2593741729724
 31
0.0
  0
LINE
  5
2E3
330
2
100
AcDbEntity
  8
NOTE
100
AcDbLine
 10
104.502552402685
 20
-789.2593741729724
 30
0.0
 11
107.4015524026854
 21
-789.2593741729724
 31
0.0
  0
LINE
  5
2E4
330
2
100
AcDbEntity
  8
NOTE
100
AcDbLine
 10
104.2915524026857
 20
-792.3693741729691
 30
0.0
 11
104.2915524026857
 21
-789.4703741729718
 31
0.0
  0
LINE
  5
2E5
330
2
100
AcDbEntity
  8
NOTE
100
AcDbLine
 10
104.2915524026857
 20
-789.0483741729695
 30
0.0
 11
104.2915524026857
 21
-786.1493741729717
 31
0.0
  0
LINE
  5
2E6
330
2
100
AcDbEntity
  8
NOTE
100
AcDbLine
 10
337.2365524026855
 20
-789.2593741729724
 30
0.0
 11
337.3465524026851
 21
-789.2593741729724
 31
0.0
  0
LINE
  5
2E7
330
2
100
AcDbEntity
  8
NOTE
100
AcDbLine
 10
337.2915524026857
 20
-789.3143741729691
 30
0.0
 11
337.2915524026857
 21
-789.2043741729723
 31
0.0
  0
LINE
  5
2E8
330
2
100
AcDbEntity
  8
NOTE
100
AcDbLine
 10
334.1815524026852
 20
-789.2593741729724
 30
0.0
 11
337.0805524026864
 21
-789.2593741729724
 31
0.0
  0
LINE
  5
2E9
330
2
100
AcDbEntity
  8
NOTE
100
AcDbLine
 10
337.502552402686
 20
-789.2593741729724
 30
0.0
 11
340.4015524026863
 21
-789.2593741729724
 31
0.0
  0
LINE
  5
2EA
330
2
100
AcDbEntity
  8
NOTE
100
AcDbLine
 10
337.2915524026857
 20
-792.3693741729691
 30
0.0
 11
337.2915524026857
 21
-789.4703741729718
 31
0.0
  0
LINE
  5
2EB
330
2
100
AcDbEntity
  8
NOTE
100
AcDbLine
 10
337.2915524026857
 20
-789.0483741729695
 30
0.0
 11
337.2915524026857
 21
-786.1493741729717
 31
0.0
  0
LINE
  5
2EC
330
2
100
AcDbEntity
  8
NOTE
100
AcDbLine
 10
-243.7634475973145
 20
-789.2593741729724
 30
0.0
 11
-243.6534475973139
 21
-789.2593741729724
 31
0.0
  0
LINE
  5
2ED
330
2
100
AcDbEntity
  8
NOTE
100
AcDbLine
 10
-243.7084475973133
 20
-789.3143741729691
 30
0.0
 11
-243.7084475973133
 21
-789.2043741729723
 31
0.0
  0
LINE
  5
2EE
330
2
100
AcDbEntity
  8
NOTE
100
AcDbLine
 10
-246.8184475973139
 20
-789.2593741729724
 30
0.0
 11
-243.9194475973136
 21
-789.2593741729724
 31
0.0
  0
LINE
  5
2EF
330
2
100
AcDbEntity
  8
NOTE
100
AcDbLine
 10
-243.497447597314
 20
-789.2593741729724
 30
0.0
 11
-240.5984475973146
 21
-789.2593741729724
 31
0.0
  0
LINE
  5
2F0
330
2
100
AcDbEntity
  8
NOTE
100
AcDbLine
 10
-243.7084475973133
 20
-792.3693741729691
 30
0.0
 11
-243.7084475973133
 21
-789.4703741729718
 31
0.0
  0
LINE
  5
2F1
330
2
100
AcDbEntity
  8
NOTE
100
AcDbLine
 10
-243.7084475973133
 20
-789.0483741729695
 30
0.0
 11
-243.7084475973133
 21
-786.1493741729717
 31
0.0
  0
LINE
  5
2F2
330
2
100
AcDbEntity
  8
NOTE
100
AcDbLine
 10
-10.76344759731364
 20
-789.2593741729724
 30
0.0
 11
-10.65344759731397
 21
-789.2593741729724
 31
0.0
  0
LINE
  5
2F3
330
2
100
AcDbEntity
  8
NOTE
100
AcDbLine
 10
-10.70844759731426
 20
-789.3143741729691
 30
0.0
 11
-10.70844759731426
 21
-789.2043741729723
 31
0.0
  0
LINE
  5
2F4
330
2
100
AcDbEntity
  8
NOTE
100
AcDbLine
 10
-13.81844759731484
 20
-789.2593741729724
 30
0.0
 11
-10.9194475973145
 21
-789.2593741729724
 31
0.0
  0
LINE
  5
2F5
330
2
100
AcDbEntity
  8
NOTE
100
AcDbLine
 10
-10.49744759731311
 20
-789.2593741729724
 30
0.0
 11
-7.598447597313678
 21
-789.2593741729724
 31
0.0
  0
LINE
  5
2F6
330
2
100
AcDbEntity
  8
NOTE
100
AcDbLine
 10
-10.70844759731426
 20
-792.3693741729691
 30
0.0
 11
-10.70844759731426
 21
-789.4703741729718
 31
0.0
  0
LINE
  5
2F7
330
2
100
AcDbEntity
  8
NOTE
100
AcDbLine
 10
-10.70844759731426
 20
-789.0483741729695
 30
0.0
 11
-10.70844759731426
 21
-786.1493741729717
 31
0.0
  0
LINE
  5
2F8
330
2
100
AcDbEntity
  8
NOTE
100
AcDbLine
 10
402.1815524026862
 20
-1044.804293416084
 30
0.0
 11
402.2915524026855
 21
-1044.804293416084
 31
0.0
  0
LINE
  5
2F9
330
2
100
AcDbEntity
  8
NOTE
100
AcDbLine
 10
402.2365524026863
 20
-1044.859293416084
 30
0.0
 11
402.2365524026863
 21
-1044.74929341608
 31
0.0
  0
LINE
  5
2FA
330
2
100
AcDbEntity
  8
NOTE
100
AcDbLine
 10
399.6265524026867
 20
-1044.804293416084
 30
0.0
 11
402.0255524026868
 21
-1044.804293416084
 31
0.0
  0
LINE
  5
2FB
330
2
100
AcDbEntity
  8
NOTE
100
AcDbLine
 10
402.4475524026866
 20
-1044.804293416084
 30
0.0
 11
404.8465524026868
 21
-1044.804293416084
 31
0.0
  0
LINE
  5
2FC
330
2
100
AcDbEntity
  8
NOTE
100
AcDbLine
 10
402.2365524026863
 20
-1047.414293416081
 30
0.0
 11
402.2365524026863
 21
-1045.015293416079
 31
0.0
  0
LINE
  5
2FD
330
2
100
AcDbEntity
  8
NOTE
100
AcDbLine
 10
402.2365524026863
 20
-1044.593293416081
 30
0.0
 11
402.2365524026863
 21
-1042.194293416083
 31
0.0
  0
MTEXT
  5
56F
330
2
100
AcDbEntity
  8
ETC
100
AcDbMText
 10
-155.9159270861537
 20
-524.413570238981
 30
0.0
 40
40.0
 41
559.6221514316071
 71
     1
 72
     5
  1
AGJS/AGJT-22B\P正面図
 73
     1
 44
1.0
1001
ACAD
1000
MTEXTBEGIN
1070
    73
1070
     1
1070
    44
1040
1.0
1070
    74
1070
     0
1000
MTEXTEND
  0
DIMENSION
  5
5AC
330
2
100
AcDbEntity
  8
SIZE
100
AcDbDimension
  2
*D2
 10
411.7915524026856
 20
-693.7496434007953
 30
0.0
 11
46.79155240268565
 21
-684.3746434007953
 31
0.0
 70
    32
 71
     5
 42
730.0
  3
ISO-25
100
AcDbAlignedDimension
 13
-318.2084475973143
 23
-801.804293416084
 33
0.0
 14
411.7915524026856
 24
-802.2661736314327
 34
0.0
100
AcDbRotatedDimension
1001
ACAD
1000
DSTYLE
1002
{
1070
    40
1040
5.0
1070
    90
1070
     1
1070
   271
1070
     1
1070
   272
1070
     1
1070
   341
1005
51
1070
   342
1005
4B
1002
}
  0
DIMENSION
  5
5BA
330
2
100
AcDbEntity
  8
SIZE
100
AcDbDimension
  2
*D3
 10
-589.2300756401147
 20
-1663.304293416083
 30
0.0
 11
-598.6050756401144
 21
-1224.031833794526
 31
0.0
 70
    32
 71
     5
 42
878.5449192431151
  3
ISO-25
100
AcDbAlignedDimension
 13
-314.2084475973143
 23
-784.7593741729687
 33
0.0
 14
-317.408447597315
 24
-1663.304293416084
 34
0.0
 50
90.0
100
AcDbRotatedDimension
1001
ACAD
1000
DSTYLE
1002
{
1070
    40
1040
5.0
1070
    90
1070
     1
1070
   271
1070
     1
1070
   272
1070
     1
1070
   341
1005
51
1070
   342
1005
4B
1002
}
  0
DIMENSION
  5
5C7
330
2
100
AcDbEntity
  8
SIZE
100
AcDbDimension
  2
*D4
 10
-10.70844759731426
 20
-758.9639849506237
 30
0.0
 11
-127.2084475973138
 21
-749.5889849506237
 31
0.0
 70
    32
 71
     5
 42
232.999999999999
  3
ISO-25
100
AcDbAlignedDimension
 13
-243.7084475973133
 23
-786.2593741729726
 33
0.0
 14
-10.70844759731426
 24
-786.2593741729726
 34
0.0
100
AcDbRotatedDimension
1001
ACAD
1000
DSTYLE
1002
{
1070
    40
1040
5.0
1070
    90
1070
     1
1070
   271
1070
     1
1070
   272
1070
     1
1070
   341
1005
51
1070
   342
1005
4B
1002
}
  0
DIMENSION
  5
5D4
330
2
100
AcDbEntity
  8
SIZE
100
AcDbDimension
  2
*D5
 10
104.2915524026857
 20
-758.9639849506237
 30
0.0
 11
46.79155240268571
 21
-749.5889849506237
 31
0.0
 70
    32
 71
     5
 42
114.9999999999999
  3
ISO-25
100
AcDbAlignedDimension
 13
-10.70844759731426
 23
-786.1493741729717
 33
0.0
 14
104.2915524026857
 24
-786.1493741729717
 34
0.0
100
AcDbRotatedDimension
1001
ACAD
1000
DSTYLE
1002
{
1070
    40
1040
5.0
1070
    90
1070
     1
1070
   271
1070
     1
1070
   272
1070
     1
1070
   341
1005
51
1070
   342
1005
4B
1002
}
  0
DIMENSION
  5
5E1
330
2
100
AcDbEntity
  8
SIZE
100
AcDbDimension
  2
*D6
 10
337.2915524026857
 20
-758.9639849506237
 30
0.0
 11
220.7915524026857
 21
-749.5889849506237
 31
0.0
 70
    32
 71
     5
 42
233.0
  3
ISO-25
100
AcDbAlignedDimension
 13
104.2915524026857
 23
-786.2593741729726
 33
0.0
 14
337.2915524026857
 24
-786.1493741729717
 34
0.0
100
AcDbRotatedDimension
1001
ACAD
1000
DSTYLE
1002
{
1070
    40
1040
5.0
1070
    90
1070
     1
1070
   271
1070
     1
1070
   272
1070
     1
1070
   341
1005
51
1070
   342
1005
4B
1002
}
  0
DIMENSION
  5
5EE
330
2
100
AcDbEntity
  8
SIZE
100
AcDbDimension
  2
*D7
 10
402.2915524026855
 20
-728.1363923704462
 30
0.0
 11
46.79155240268556
 21
-718.7613923704462
 31
0.0
 70
    32
 71
     5
 42
710.9999999999997
  3
ISO-25
100
AcDbAlignedDimension
 13
-308.7084475973143
 23
-866.1942934160832
 33
0.0
 14
402.2915524026855
 24
-890.0093741729724
 34
0.0
100
AcDbRotatedDimension
1001
ACAD
1000
DSTYLE
1002
{
1070
    40
1040
5.0
1070
    90
1070
     1
1070
   271
1070
     1
1070
   272
1070
     1
1070
   341
1005
51
1070
   342
1005
4B
1002
}
  0
DIMENSION
  5
615
330
2
100
AcDbEntity
  8
SIZE
100
AcDbDimension
  2
*D10
 10
402.2915524026854
 20
-1754.664516277136
 30
0.0
 11
52.79155240268551
 21
-1745.289516277136
 31
0.0
 70
    32
 71
     5
 42
698.9999999999997
  3
ISO-25
100
AcDbAlignedDimension
 13
-296.7084475973143
 23
-1250.304293416084
 33
0.0
 14
402.2915524026855
 24
-1250.304293416084
 34
0.0
100
AcDbRotatedDimension
1001
ACAD
1000
DSTYLE
1002
{
1070
    40
1040
5.0
1070
    90
1070
     1
1070
   271
1070
     1
1070
   272
1070
     1
1070
   341
1005
51
1070
   342
1005
4B
1002
}
  0
DIMENSION
  5
622
330
2
100
AcDbEntity
  8
SIZE
100
AcDbDimension
  2
*D11
 10
-308.7084475973143
 20
-1340.42455187629
 30
0.0
 11
-346.0596380735048
 21
-1331.04955187629
 31
0.0
 70
    32
 71
     5
 42
12.0
  3
ISO-25
100
AcDbAlignedDimension
 13
-296.7084475973143
 23
-1250.304293416084
 33
0.0
 14
-308.7084475973143
 24
-1278.30429341608
 34
0.0
100
AcDbRotatedDimension
1001
ACAD
1000
DSTYLE
1002
{
1070
    40
1040
5.0
1070
    90
1070
     1
1070
   271
1070
     1
1070
   272
1070
     1
1070
   341
1005
51
1070
   342
1005
4B
1002
}
  0
DIMENSION
  5
631
330
2
100
AcDbEntity
  8
SIZE
100
AcDbDimension
  2
*D12
 10
-558.5597864918534
 20
-1275.30429341608
 30
0.0
 11
-567.9347864918533
 21
-1464.554293416082
 31
0.0
 70
    32
 71
     5
 42
378.5000000000039
  3
ISO-25
100
AcDbAlignedDimension
 13
-299.8184475973149
 23
-1653.804293416084
 33
0.0
 14
-311.8184475973139
 24
-1275.30429341608
 34
0.0
 50
90.0
100
AcDbRotatedDimension
1001
ACAD
1000
DSTYLE
1002
{
1070
    40
1040
5.0
1070
    90
1070
     1
1070
   271
1070
     1
1070
   272
1070
     1
1070
   341
1005
51
1070
   342
1005
4B
1002
}
  0
DIMENSION
  5
63E
330
2
100
AcDbEntity
  8
SIZE
100
AcDbDimension
  2
*D13
 10
-558.5597864918536
 20
-1275.30429341608
 30
0.0
 11
-567.9347864918534
 21
-1261.304293416082
 31
0.0
 70
    32
 71
     5
 42
27.99999999999613
  3
ISO-25
100
AcDbAlignedDimension
 13
-299.7084475973143
 23
-1247.304293416084
 33
0.0
 14
-311.7084475973143
 24
-1275.30429341608
 34
0.0
 50
90.0
100
AcDbRotatedDimension
1001
ACAD
1000
DSTYLE
1002
{
1070
    40
1040
5.0
1070
    90
1070
     1
1070
   271
1070
     1
1070
   272
1070
     1
1070
   341
1005
51
1070
   342
1005
4B
1002
}
  0
DIMENSION
  5
674
330
2
100
AcDbEntity
  8
SIZE
100
AcDbDimension
  2
*D17
 10
-433.4320490868569
 20
-882.8042934160803
 30
0.0
 11
-433.4320490868568
 21
-929.0840553208424
 31
0.0
 70
   160
 71
     5
 42
13.49999999999647
  3
ISO-25
100
AcDbAlignedDimension
 13
-311.8184475973139
 23
-869.3042934160839
 33
0.0
 14
-315.3184475973139
 24
-882.8042934160803
 34
0.0
 50
90.0
100
AcDbRotatedDimension
1001
ACAD
1000
DSTYLE
1002
{
1070
    40
1040
5.0
1070
    90
1070
     1
1070
   271
1070
     1
1070
   272
1070
     1
1070
   341
1005
51
1070
   342
1005
4B
1002
}
  0
DIMENSION
  5
683
330
2
100
AcDbEntity
  8
SIZE
100
AcDbDimension
  2
*D18
 10
-558.5597864918536
 20
-882.8042934160803
 30
0.0
 11
-567.9347864918534
 21
-836.0318337945264
 31
0.0
 70
    32
 71
     5
 42
93.54491924310798
  3
ISO-25
100
AcDbAlignedDimension
 13
-246.8184475973139
 23
-789.2593741729724
 33
0.0
 14
-315.3184475973139
 24
-882.8042934160803
 34
0.0
 50
90.0
100
AcDbRotatedDimension
1001
ACAD
1000
DSTYLE
1002
{
1070
    40
1040
5.0
1070
    90
1070
     1
1070
   271
1070
     1
1070
   272
1070
     1
1070
   341
1005
51
1070
   342
1005
4B
1002
}
  0
DIMENSION
  5
690
330
2
100
AcDbEntity
  8
SIZE
100
AcDbDimension
  2
*D19
 10
486.844369121885
 20
-906.304293416084
 30
0.0
 11
477.4693691218852
 21
-847.7818337945281
 31
0.0
 70
    32
 71
     5
 42
117.0449192431115
  3
ISO-25
100
AcDbAlignedDimension
 13
340.4015524026863
 23
-789.2593741729724
 33
0.0
 14
408.9015524026863
 24
-906.304293416084
 34
0.0
 50
90.0
100
AcDbRotatedDimension
1001
ACAD
1000
DSTYLE
1002
{
1070
    40
1040
5.0
1070
    90
1070
     1
1070
   271
1070
     1
1070
   272
1070
     1
1070
   341
1005
51
1070
   342
1005
4B
1002
}
  0
DIMENSION
  5
6C4
330
2
100
AcDbEntity
  8
SIZE
100
AcDbDimension
  2
*D23
 10
486.8443691218848
 20
-1653.804293416084
 30
0.0
 11
477.469369121885
 21
-1450.804293416082
 31
0.0
 70
    32
 71
     5
 42
406.0000000000038
  3
ISO-25
100
AcDbAlignedDimension
 13
405.4015524026863
 23
-1247.80429341608
 33
0.0
 14
405.4015524026863
 24
-1653.804293416084
 34
0.0
 50
90.0
100
AcDbRotatedDimension
1001
ACAD
1000
DSTYLE
1002
{
1070
    40
1040
5.0
1070
    90
1070
     1
1070
   271
1070
     1
1070
   272
1070
     1
1070
   341
1005
51
1070
   342
1005
4B
1002
}
  0
MULTILEADER
  5
6D2
330
2
100
AcDbEntity
  8
NOTE
 92
      592
310
50020000110000000C000000100000000A0000000C00000016000000000000C00C00000013000000112700003C000000060000000200000055E9E17C615375C04B776FC50A9F9AC000000000000000004B123E0C245975C04B776FC50A9F9AC000000000000000000C00000013000000010000000C00000014000000010000
310
00540000000700000003000000E29CC9DEEA4173C0008D28AB11FF99C00000000000000000B9BA36440FAA72C0E527C494A0E099C00000000000000000AF52F388371273C01632217FBC099AC000000000000000000C00000013000000891300003C0000000600000002000000C977DE33112A73C08BDF241567049AC00000
310
00000000000055E9E17C615375C04B776FC50A9F9AC000000000000000000C000000130000009A3A00003C0000000600000002000000705BD0306DCB77C04B776FC50A9F9AC000000000000000004B123E0C245975C04B776FC50A9F9AC000000000000000000C00000016000000000000C00C00000012000000FF7F00000C
310
00000017000000FFFFFFFF0C00000016000000000000C00C00000013000000993A0000B00000000B00000058D56E18E7E977C04B776FC50A979AC0000000000000000000000000000000000000000000000000000000000000F03F000000000000F03F00000000000000000000000000000000362D5C552B32323035360000
310
0A000000010000000000000000002440000000000000F03F0000000000000000000000000000F03F0000000000000000000000000000000000000000726F6D616E732E7368780000626967666F6E742E73687800
100
AcDbMLeader
300
CONTEXT_DATA{
 40
1.0
 10
-382.7141578806831
 20
-1697.760518781334
 30
0.0
 41
10.0
140
12.0
145
2.0
174
     1
175
     6
176
     2
177
     0
290
     1
304
6-%%C6
 11
0.0
 21
0.0
 31
1.0
340
23
 12
-343.571300737826
 22
-1691.760518781334
 32
0.0
 13
1.0
 23
0.0
 33
0.0
 42
0.0
 43
0.0
 44
0.0
 45
1.0
170
     1
 90
-1073741824
171
     3
172
     5
 91
-1073741824
141
0.0
 92
        0
291
     0
292
     0
173
     0
293
     0
142
0.0
143
0.0
294
     0
295
     0
296
     0
110
-296.7084475973143
120
-1653.804293416084
130
0.0
111
1.0
121
0.0
131
0.0
112
0.0
122
1.0
132
0.0
297
     0
302
LEADER{
290
     1
291
     1
 10
-341.211300737826
 20
-1703.760518781334
 30
0.0
 11
-1.0
 21
0.0
 31
0.0
 90
        0
 40
0.36
304
LEADER_LINE{
 10
-298.6287271631113
 20
-1656.156817498145
 30
0.0
 91
        0
305
}
303
}
301
}
340
51E
 90
   345088
170
     1
 91
-1056964608
341
26
171
    -2
290
     1
291
     1
 41
0.36
 42
12.0
172
     2
343
23
173
     1
 95
        6
174
     1
175
     2
 92
-1056964608
292
     0
 93
-1056964608
 10
1.0
 20
1.0
 30
1.0
 43
0.0
176
     0
293
     0
294
     0
178
     0
179
     3
 45
1.0
1001
ACAD_MLEADERVER
1070
     2
  0
DIMENSION
  5
6DA
330
2
100
AcDbEntity
  8
SIZE
100
AcDbDimension
  2
*D24
 10
-558.5597864918536
 20
-1247.304293416084
 30
0.0
 11
-567.9347864918534
 21
-1065.054293416082
 31
0.0
 70
    32
 71
     5
 42
364.5000000000035
  3
ISO-25
100
AcDbAlignedDimension
 13
-311.8348027253329
 23
-882.8042934160803
 33
0.0
 14
-299.8184475973149
 24
-1247.304293416084
 34
0.0
 50
90.0
100
AcDbRotatedDimension
1001
ACAD
1000
DSTYLE
1002
{
1070
    40
1040
5.0
1070
    90
1070
     1
1070
   271
1070
     1
1070
   272
1070
     1
1070
   341
1005
51
1070
   342
1005
4B
1002
}
  0
DIMENSION
  5
706
330
2
100
AcDbEntity
  8
SIZE
100
AcDbDimension
  2
*D26
 10
486.844369121885
 20
-1044.804293416084
 30
0.0
 11
477.4693691218852
 21
-975.5542934160839
 31
0.0
 70
    32
 71
     5
 42
138.5000000000001
  3
ISO-25
100
AcDbAlignedDimension
 13
408.9015524026863
 23
-906.304293416084
 33
0.0
 14
403.3682060119923
 24
-1044.804293416084
 34
0.0
 50
90.0
100
AcDbRotatedDimension
1001
ACAD
1000
DSTYLE
1002
{
1070
    40
1040
5.0
1070
    90
1070
     1
1070
   271
1070
     1
1070
   272
1070
     1
1070
   341
1005
51
1070
   342
1005
4B
1002
}
  0
DIMENSION
  5
713
330
2
100
AcDbEntity
  8
SIZE
100
AcDbDimension
  2
*D27
 10
486.844369121885
 20
-1044.804293416084
 30
0.0
 11
477.4693691218852
 21
-1146.304293416082
 31
0.0
 70
    32
 71
     5
 42
202.9999999999961
  3
ISO-25
100
AcDbAlignedDimension
 13
405.4015524026863
 23
-1247.80429341608
 33
0.0
 14
404.8465524026868
 24
-1044.804293416084
 34
0.0
 50
90.0
100
AcDbRotatedDimension
1001
ACAD
1000
DSTYLE
1002
{
1070
    40
1040
5.0
1070
    90
1070
     1
1070
   271
1070
     1
1070
   272
1070
     1
1070
   341
1005
51
1070
   342
1005
4B
1002
}
  0
MULTILEADER
  5
735
330
2
100
AcDbEntity
  8
NOTE
 92
      588
310
4C020000110000000C000000100000000A0000000C00000016000000000000C00C00000013000000112700003C0000000600000002000000CC0A932AD35176C0F0B3083BE1D289C00000000000000000C233EFB9955776C0F0B3083BE1D289C000000000000000000C00000013000000010000000C00000014000000010000
310
005400000007000000030000006E6B935B64E873C05463825F74D18AC000000000000000009DD116EA976E73C00CCAEFED5E1D8BC00000000000000000118A87200D1374C0DAD4802D4FE98AC000000000000000000C00000013000000891300003C0000000600000002000000C07A0DBEB8FD73C0179C81C661DD8AC00000
310
000000000000CC0A932AD35176C0F0B3083BE1D289C000000000000000000C000000130000009A3A00003C000000060000000200000008C61303285C79C0F0B3083BE1D289C00000000000000000BF33EFB9955776C0F0B3083BE1D289C000000000000000000C00000016000000000000C00C00000012000000FF7F00000C
310
00000017000000FFFFFFFF0C00000016000000000000C00C00000013000000993A0000AC0000000B000000BE33EFB9957779C0BB80D507AEBF89C0000000000000000000000000000000000000000000000000000000000000F03F000000000000F03F00000000000000000000000000000000322D52330032323004000000
310
010000000000000000002840000000000000F03F0000000000000000000000000000F03F0000000000000000000000000000000000000000726F6D616E732E7368780073626967666F6E742E73687800
100
AcDbMLeader
300
CONTEXT_DATA{
 40
1.0
 10
-407.7597685596852
 20
-819.1599758796607
 30
0.0
 41
12.0
140
12.0
145
2.0
174
     1
175
     6
176
     2
177
     0
290
     1
304
2-R3
 11
0.0
 21
0.0
 31
1.0
340
23
 12
-359.4740542739708
 22
-811.9599758796606
 32
0.0
 13
1.0
 23
0.0
 33
0.0
 42
0.0
 43
0.0
 44
0.0
 45
1.0
170
     1
 90
-1073741824
171
     3
172
     5
 91
-1073741824
141
0.0
 92
 14999624
291
     0
292
     0
173
     0
293
     0
142
0.0
143
0.0
294
     0
295
     0
296
     0
110
-311.7084475973143
120
-869.3042934160839
130
0.0
111
1.0
121
0.0
131
0.0
112
0.0
122
1.0
132
0.0
297
     0
302
LEADER{
290
     1
291
     1
 10
-357.1140542739711
 20
-826.3599758796608
 30
0.0
 11
-1.0
 21
0.0
 31
0.0
 90
        0
 40
0.36
304
LEADER_LINE{
 10
-310.9120884791717
 20
-867.6713522656951
 30
0.0
 91
        0
305
}
303
}
301
}
340
51E
 90
   345088
170
     1
 91
-1056964608
341
26
171
    -2
290
     1
291
     1
 41
0.36
 42
12.0
172
     2
343
23
173
     1
 95
        6
174
     1
175
     2
 92
-1056964608
292
     0
 93
-1056964608
 10
1.0
 20
1.0
 30
1.0
 43
0.0
176
     0
293
     0
294
     0
178
     0
179
     3
 45
1.0
1001
ACAD_MLEADERVER
1070
     2
  0
MULTILEADER
  5
743
330
2
100
AcDbEntity
  8
NOTE
 92
      588
310
4C020000110000000C000000100000000A0000000C00000016000000000000C00C00000013000000112700003C000000060000000200000000D07ACAA6EE75C0AF5A71B42F6E8DC00000000000000000F6F8D65969F475C0AF5A71B42F6E8DC000000000000000000C00000013000000010000000C00000014000000010000
310
00540000000700000003000000D55F2F6A600E74C0E67C1D6743048CC00000000000000000BBF99D9D688473C04959B0479CBF8BC0000000000000000045E9252863DA73C05E995FEEEC168CC000000000000000000C00000013000000891300003C00000006000000020000008DA42AC961F473C0228BBE2A980D8CC00000
310
00000000000000D07ACAA6EE75C0AF5A71B42F6E8DC000000000000000000C000000130000009A3A00003C000000060000000200000063D48DC7440B7AC0B05A71B42F6E8DC00000000000000000F6F8D65969F475C0B05A71B42F6E8DC000000000000000000C00000016000000000000C00C00000012000000FF7F00000C
310
00000017000000FFFFFFFF0C00000016000000000000C00C00000013000000993A0000AC0000000B0000001A42697EB2267AC07C273E81FC5A8DC0000000000000000000000000000000000000000000000000000000000000F03F000000000000F03F00000000000000000000000000000000322D52362E35003006000000
310
010000000000000000002840000000000000F03F0000000000000000000000000000F03F0000000000000000000000000000000000000000726F6D616E732E7368780073626967666F6E742E73687800
100
AcDbMLeader
300
CONTEXT_DATA{
 40
1.0
 10
-418.7042918720455
 20
-934.5732933860588
 30
0.0
 41
12.0
140
12.0
145
2.0
174
     1
175
     6
176
     2
177
     0
290
     1
304
2-R6.5
 11
0.0
 21
0.0
 31
1.0
340
23
 12
-353.2757204434741
 22
-927.3732933860587
 32
0.0
 13
1.0
 23
0.0
 33
0.0
 42
0.0
 43
0.0
 44
0.0
 45
1.0
170
     1
 90
-1073741824
171
     3
172
     5
 91
-1073741824
141
0.0
 92
 14999624
291
     0
292
     0
173
     0
293
     0
142
0.0
143
0.0
294
     0
295
     0
296
     0
110
-310.3107237184926
120
-889.1037149158293
130
0.0
111
1.0
121
0.0
131
0.0
112
0.0
122
1.0
132
0.0
297
     0
302
LEADER{
290
     1
291
     1
 10
-350.9157204434741
 20
-941.7732933860587
 30
0.0
 11
-1.0
 21
0.0
 31
0.0
 90
        0
 40
0.36
304
LEADER_LINE{
 10
-312.2755409403723
 20
-887.9513086106536
 30
0.0
 91
        0
305
}
303
}
301
}
340
51E
 90
   345088
170
     1
 91
-1056964608
341
26
171
    -2
290
     1
291
     1
 41
0.36
 42
12.0
172
     2
343
23
173
     1
 95
        6
174
     1
175
     2
 92
-1056964608
292
     0
 93
-1056964608
 10
1.0
 20
1.0
 30
1.0
 43
0.0
176
     0
293
     0
294
     0
178
     0
179
     3
 45
1.0
1001
ACAD_MLEADERVER
1070
     2
  0
MULTILEADER
  5
761
330
2
100
AcDbEntity
  8
NOTE
 92
      592
310
50020000110000000C000000100000000A0000000C00000016000000000000C00C00000013000000112700003C0000000600000002000000C539786C7A0B70C05BEE6922B7EC87C00000000000000000BB62D4FB3C1170C05BEE6922B7EC87C000000000000000000C00000013000000010000000C00000014000000010000
310
0054000000070000000300000073923D26B59B6EC0F5270157898B88C00000000000000000FF3D3917EB6F6EC0C032C43213AA88C0000000000000000090B77149F5C06EC0E005B9D9BC9088C000000000000000000C00000013000000891300003C000000060000000200000002A5D73755AE6EC0EA165D18238E88C00000
310
000000000000C539786C7A0B70C05BEE6922B7EC87C000000000000000000C000000130000009A3A00003C0000000600000002000000E0AB6620860373C05CEE6922B7EC87C00000000000000000BC62D4FB3C1170C05CEE6922B7EC87C000000000000000000C00000016000000000000C00C00000012000000FF7F00000C
310
00000017000000FFFFFFFF0C00000016000000000000C00C00000013000000993A0000B00000000B000000961942D7F31E73C027BB36EF83D987C0000000000000000000000000000000000000000000000000000000000000F03F000000000000F03F00000000000000000000000000000000342D5C552B32323035360000
310
0A000000010000000000000000002840000000000000F03F0000000000000000000000000000F03F0000000000000000000000000000000000000000726F6D616E732E7368780066626967666F6E742E73687800
100
AcDbMLeader
300
CONTEXT_DATA{
 40
1.0
 10
-306.2202457438088
 20
-758.3894211078516
 30
0.0
 41
12.0
140
4.0
145
2.0
174
     1
175
     6
176
     2
177
     0
290
     1
304
4-%%C6
 11
0.0
 21
0.0
 31
1.0
340
23
 12
-259.0773886009517
 22
-751.1894211078514
 32
0.0
 13
1.0
 23
0.0
 33
0.0
 42
0.0
 43
0.0
 44
0.0
 45
1.0
170
     1
 90
-1073741824
171
     3
172
     5
 91
-1073741824
141
0.0
 92
  5890120
291
     0
292
     0
173
     0
293
     0
142
0.0
143
0.0
294
     0
295
     0
296
     0
110
-243.497447597314
120
-789.2593741729724
130
0.0
111
1.0
121
0.0
131
0.0
112
0.0
122
1.0
132
0.0
297
     0
302
LEADER{
290
     1
291
     1
 10
-256.7173886009517
 20
-765.5894211078515
 30
0.0
 11
-1.0
 21
0.0
 31
0.0
 90
        0
 40
0.36
304
LEADER_LINE{
 10
-243.497447597314
 20
-789.2593741729724
 30
0.0
 91
        0
305
}
303
}
301
}
340
51E
 90
   345088
170
     1
 91
-1056964608
341
26
171
    -2
290
     1
291
     1
 41
0.36
 42
4.0
172
     2
343
23
173
     1
 95
        6
174
     1
175
     2
 92
-1056964608
292
     0
 93
-1056964608
 10
1.0
 20
1.0
 30
1.0
 43
0.0
176
     0
293
     0
294
     0
178
     0
179
     3
 45
1.0
1001
ACAD_MLEADERVER
1070
     2
  0
LINE
  5
D3A
330
2
100
AcDbEntity
  8
BASIS
  6
DASHDOT
 62
     6
100
AcDbLine
 10
46.79155240268528
 20
-1693.882015874322
 30
0.0
 11
46.79155240268528
 21
-770.2827786673018
 31
0.0
  0
LINE
  5
D3B
330
2
100
AcDbEntity
  8
ARRANGE
  6
Continuous
 62
     1
100
AcDbLine
 10
30.10743483828174
 20
-1679.417351088163
 30
0.0
 11
63.47566996708929
 21
-1646.049115959355
 31
0.0
  0
LINE
  5
D3C
330
2
100
AcDbEntity
  8
ARRANGE
  6
Continuous
 62
     1
100
AcDbLine
 10
30.10743483828174
 20
-1646.049115959355
 30
0.0
 11
63.47566996708929
 21
-1679.417351088163
 31
0.0
  0
CIRCLE
  5
D3D
330
2
100
AcDbEntity
  8
ARRANGE
100
AcDbCircle
 10
46.79155240268528
 20
-1662.733233523759
 30
0.0
 40
15.0
  0
ENDSEC
  0
SECTION
  2
OBJECTS
  0
DICTIONARY
  5
9
330
0
100
AcDbDictionary
281
     1
  3
ACAD_2007HEADERVARS_RT
350
DE9
  3
ACAD_BACKGROUND
350
523
  3
ACAD_COLOR
350
46
  3
ACAD_GROUP
350
33
  3
ACAD_LAYOUT
350
16
  3
ACAD_MATERIAL
350
B
  3
ACAD_MLEADERSTYLE
350
51D
  3
ACAD_MLINESTYLE
350
34
  3
ACAD_PLOTSETTINGS
350
35
  3
ACAD_PLOTSTYLENAME
350
8
  3
ACAD_SCALELIST
350
47
  3
ACAD_TABLESTYLE
350
48
  3
ACAD_VISUALSTYLE
350
2D
  3
ACDB_RECOMPOSE_DATA
350
4F1
  3
AcDbVariableDictionary
350
506
  3
DWGPROPS
350
DE8
  0
DICTIONARY
  5
53B
330
2A
100
AcDbDictionary
280
     1
281
     1
  0
DICTIONARY
  5
1F
330
1E
100
AcDbDictionary
280
     1
281
     1
  3
ACAD_LAYERFILTERS
360
DE6
  3
ACAD_LAYERSTATES
360
20
  3
ACLYDICTIONARY
360
DE5
  3
AMLAYER_GROUPCOLORS
360
21
  0
DICTIONARY
  5
528
330
6
100
AcDbDictionary
280
     1
281
     1
  3
ADSK_XREC_LAYER_RECONCILED
360
529
  0
DICTIONARY
  5
52C
330
C5
100
AcDbDictionary
280
     1
281
     1
  3
ADSK_XREC_LAYER_RECONCILED
360
52D
  0
DICTIONARY
  5
52E
330
49
100
AcDbDictionary
280
     1
281
     1
  3
ADSK_XREC_LAYER_RECONCILED
360
52F
  0
DICTIONARY
  5
3
330
2
100
AcDbDictionary
280
     1
281
     1
  3
ACAD_LAYOUTSELFREF
360
4
  0
DICTIONARY
  5
DEF
330
7BA
100
AcDbDictionary
280
     1
281
     1
  3
ACAD_MTEXT_RT
360
DF0
  0
DICTIONARY
  5
DF1
330
7C4
100
AcDbDictionary
280
     1
281
     1
  3
ACAD_MTEXT_RT
360
DF2
  0
DICTIONARY
  5
DE9
102
{ACAD_REACTORS
330
9
102
}
330
9
100
AcDbDictionary
281
     1
  3
DIMARCSYM
350
DEA
  0
DICTIONARY
  5
523
102
{ACAD_REACTORS
330
9
102
}
330
9
100
AcDbDictionary
281
     1
  0
DICTIONARY
  5
46
102
{ACAD_REACTORS
330
9
102
}
330
9
100
AcDbDictionary
281
     1
  0
DICTIONARY
  5
33
102
{ACAD_REACTORS
330
9
102
}
330
9
100
AcDbDictionary
281
     1
  0
DICTIONARY
  5
16
102
{ACAD_REACTORS
330
9
102
}
330
9
100
AcDbDictionary
281
     1
  3
Model
350
15
  3
レイアウト1
350
1A
  0
DICTIONARY
  5
B
102
{ACAD_REACTORS
330
9
102
}
330
9
100
AcDbDictionary
281
     1
  3
ByBlock
350
3E
  3
ByLayer
350
36
  3
Global
350
A
  0
DICTIONARY
  5
51D
102
{ACAD_REACTORS
330
9
102
}
330
9
100
AcDbDictionary
281
     1
  3
Standard
350
51E
  0
DICTIONARY
  5
34
102
{ACAD_REACTORS
330
9
102
}
330
9
100
AcDbDictionary
281
     1
  3
Standard
350
58
  0
DICTIONARY
  5
35
102
{ACAD_REACTORS
330
9
102
}
330
9
100
AcDbDictionary
281
     1
  0
ACDBDICTIONARYWDFLT
  5
8
102
{ACAD_REACTORS
330
9
102
}
330
9
100
AcDbDictionary
281
     1
  3
Normal
350
7
100
AcDbDictionaryWithDefault
340
7
  0
DICTIONARY
  5
47
102
{ACAD_REACTORS
330
9
102
}
330
9
100
AcDbDictionary
281
     1
  3
A0
350
5C
  3
A1
350
5D
  3
A2
350
5E
  3
A3
350
5F
  3
A4
350
60
  3
A5
350
61
  3
A6
350
62
  3
A7
350
63
  3
A8
350
64
  3
A9
350
65
  3
B0
350
66
  3
B1
350
67
  3
B2
350
68
  3
B3
350
69
  3
B4
350
6A
  3
B5
350
6B
  3
B6
350
6C
  3
B7
350
6D
  3
B8
350
6E
  3
B9
350
6F
  3
C0
350
70
  3
C1
350
71
  3
C2
350
72
  3
C3
350
73
  3
C4
350
74
  3
C5
350
75
  3
C6
350
76
  3
C7
350
77
  3
C8
350
78
  3
C9
350
79
  3
D0
350
7A
  3
D1
350
7B
  3
D2
350
7C
  0
DICTIONARY
  5
48
102
{ACAD_REACTORS
330
9
102
}
330
9
100
AcDbDictionary
281
     1
  3
Standard
350
59
  0
DICTIONARY
  5
2D
102
{ACAD_REACTORS
330
9
102
}
330
9
100
AcDbDictionary
281
     1
  3
2dWireframe
350
514
  3
3D Hidden
350
515
  3
3dWireframe
350
5B
  3
Basic
350
513
  3
Brighten
350
518
  3
ColorChange
350
51C
  3
Conceptual
350
516
  3
Dim
350
517
  3
Facepattern
350
51B
  3
Flat
350
510
  3
FlatWithEdges
350
511
  3
Gouraud
350
2C
  3
GouraudWithEdges
350
512
  3
Linepattern
350
51A
  3
Realistic
350
5A
  3
Thicken
350
519
  0
XRECORD
  5
4F1
102
{ACAD_REACTORS
330
9
102
}
330
9
100
AcDbXrecord
280
     1
 90
        1
330
59
  0
DICTIONARY
  5
506
102
{ACAD_REACTORS
330
9
102
}
330
9
100
AcDbDictionary
281
     1
  3
CANNOSCALE
350
50A
  3
CMLEADERSTYLE
350
508
  3
CTABLESTYLE
350
507
  3
DIMASSOC
350
50E
  3
HIDETEXT
350
50D
  3
INDEXCTL
350
50C
  3
LIGHTINGUNITS
350
571
  3
MSLTSCALE
350
509
  3
SORTENTS
350
50B
  0
XRECORD
  5
DE8
102
{ACAD_REACTORS
330
9
102
}
330
9
100
AcDbXrecord
280
     1
  1
DWGPROPS COOKIE
  2

  3

  4

  6

  7

  8
W000135
  9

300
=
301
=
302
=
303
=
304
=
305
=
306
=
307
=
308
=
309
=
 40
1.93376880787037
 41
2451686.550481944
 42
2454985.549093009
  1

 90
        0
  0
DICTIONARY
  5
DE6
102
{ACAD_REACTORS
330
1F
102
}
330
1F
100
AcDbDictionary
281
     1
  0
DICTIONARY
  5
20
102
{ACAD_REACTORS
330
1F
102
}
330
1F
100
AcDbDictionary
281
     1
  0
DICTIONARY
  5
DE5
102
{ACAD_REACTORS
330
1F
102
}
330
1F
100
AcDbDictionary
281
     1
1001
ACAD
1000
<All
  0
DICTIONARY
  5
21
102
{ACAD_REACTORS
330
1F
102
}
330
1F
100
AcDbDictionary
280
     1
281
     1
  0
XRECORD
  5
529
102
{ACAD_REACTORS
330
528
102
}
330
528
100
AcDbXrecord
280
     1
290
     1
  0
XRECORD
  5
52D
102
{ACAD_REACTORS
330
52C
102
}
330
52C
100
AcDbXrecord
280
     1
290
     1
  0
XRECORD
  5
52F
102
{ACAD_REACTORS
330
52E
102
}
330
52E
100
AcDbXrecord
280
     1
290
     1
  0
XRECORD
  5
4
102
{ACAD_REACTORS
330
3
102
}
330
3
100
AcDbXrecord
280
     1
340
2
  0
XRECORD
  5
DF0
102
{ACAD_REACTORS
330
DEF
102
}
330
DEF
100
AcDbXrecord
280
     1
 40
1932.0
  1
\U+22056
  0
XRECORD
  5
DF2
102
{ACAD_REACTORS
330
DF1
102
}
330
DF1
100
AcDbXrecord
280
     1
 40
1932.0
  1
\U+22056
  0
XRECORD
  5
DEA
102
{ACAD_REACTORS
330
DE9
102
}
330
DE9
100
AcDbXrecord
280
     1
 70
     1
  0
LAYOUT
  5
15
102
{ACAD_XDICTIONARY
360
DEB
102
}
102
{ACAD_REACTORS
330
16
102
}
330
16
100
AcDbPlotSettings
  1

  2
\\ENGC3\QUE_LP1
  4

  6

 40
0.0
 41
0.0
 42
0.0
 43
0.0
 44
0.0
 45
0.0
 46
0.0
 47
0.0
 48
0.0
 49
0.0
140
0.0
141
0.0
142
1.0
143
1.0
 70
  1712
 72
     0
 73
     0
 74
     0
  7

 75
     0
147
1.0
148
0.0
149
0.0
100
AcDbLayout
  1
Model
 70
     1
 71
     0
 10
0.0
 20
0.0
 11
12.0
 21
9.0
 12
0.0
 22
0.0
 32
0.0
 14
0.0
 24
0.0
 34
0.0
 15
0.0
 25
0.0
 35
0.0
146
0.0
 13
0.0
 23
0.0
 33
0.0
 16
1.0
 26
0.0
 36
0.0
 17
0.0
 27
1.0
 37
0.0
 76
     0
330
2
331
7CC
  0
LAYOUT
  5
1A
102
{ACAD_XDICTIONARY
360
1B
102
}
102
{ACAD_REACTORS
330
16
102
}
330
16
100
AcDbPlotSettings
  1

  2
Microsoft XPS Document Writer
  4
A4
  6

 40
3.174999952316281
 41
3.174999952316281
 42
3.175003051757812
 43
3.17498779296875
 44
210.0156707763672
 45
297.0106506347656
 46
0.0
 47
0.0
 48
0.0
 49
0.0
140
0.0
141
0.0
142
1.0
143
1.0
 70
   688
 72
     1
 73
     1
 74
     5
  7

 75
    16
147
1.0
148
0.0
149
0.0
100
AcDbLayout
  1
レイアウト1
 70
     1
 71
     1
 10
0.0
 20
0.0
 11
12.0
 21
9.0
 12
0.0
 22
0.0
 32
0.0
 14
-982.0797161783586
 24
-834.8188083761055
 34
0.0
 15
2182.6505788904
 25
1202.797866695381
 35
0.0
146
0.0
 13
0.0
 23
0.0
 33
0.0
 16
1.0
 26
0.0
 36
0.0
 17
0.0
 27
1.0
 37
0.0
 76
     0
330
17
1001
ACAD_PSEXT
1000
Microsoft XPS Document Writer
1000
Microsoft XPS Document Writer
1000
XPSPort:
1000

1070
     0
  0
MATERIAL
  5
3E
102
{ACAD_XDICTIONARY
360
3F
102
}
102
{ACAD_REACTORS
330
B
102
}
330
B
100
AcDbMaterial
  1
ByBlock
 72
     0
 43
0.0008202099737533
 43
0.0
 43
0.0
 43
0.0
 43
0.0
 43
0.0008202099737533
 43
0.0
 43
0.0
 43
0.0
 43
0.0
 43
1.0
 43
0.0
 43
0.0
 43
0.0
 43
0.0
 43
1.0
 77
     0
 47
0.0008202099737533
 47
0.0
 47
0.0
 47
0.0
 47
0.0
 47
0.0008202099737533
 47
0.0
 47
0.0
 47
0.0
 47
0.0
 47
1.0
 47
0.0
 47
0.0
 47
0.0
 47
0.0
 47
1.0
171
     0
 49
0.0008202099737533
 49
0.0
 49
0.0
 49
0.0
 49
0.0
 49
0.0008202099737533
 49
0.0
 49
0.0
 49
0.0
 49
0.0
 49
1.0
 49
0.0
 49
0.0
 49
0.0
 49
0.0
 49
1.0
175
     0
142
0.0008202099737533
142
0.0
142
0.0
142
0.0
142
0.0
142
0.0008202099737533
142
0.0
142
0.0
142
0.0
142
0.0
142
1.0
142
0.0
142
0.0
142
0.0
142
0.0
142
1.0
179
     0
144
0.0008202099737533
144
0.0
144
0.0
144
0.0
144
0.0
144
0.0008202099737533
144
0.0
144
0.0
144
0.0
144
0.0
144
1.0
144
0.0
144
0.0
144
0.0
144
0.0
144
1.0
147
0.0008202099737533
147
0.0
147
0.0
147
0.0
147
0.0
147
0.0008202099737533
147
0.0
147
0.0
147
0.0
147
0.0
147
1.0
147
0.0
147
0.0
147
0.0
147
0.0
147
1.0
  0
MATERIAL
  5
36
102
{ACAD_XDICTIONARY
360
37
102
}
102
{ACAD_REACTORS
330
B
102
}
330
B
100
AcDbMaterial
  1
ByLayer
 72
     0
 43
0.0008202099737533
 43
0.0
 43
0.0
 43
0.0
 43
0.0
 43
0.0008202099737533
 43
0.0
 43
0.0
 43
0.0
 43
0.0
 43
1.0
 43
0.0
 43
0.0
 43
0.0
 43
0.0
 43
1.0
 77
     0
 47
0.0008202099737533
 47
0.0
 47
0.0
 47
0.0
 47
0.0
 47
0.0008202099737533
 47
0.0
 47
0.0
 47
0.0
 47
0.0
 47
1.0
 47
0.0
 47
0.0
 47
0.0
 47
0.0
 47
1.0
171
     0
 49
0.0008202099737533
 49
0.0
 49
0.0
 49
0.0
 49
0.0
 49
0.0008202099737533
 49
0.0
 49
0.0
 49
0.0
 49
0.0
 49
1.0
 49
0.0
 49
0.0
 49
0.0
 49
0.0
 49
1.0
175
     0
142
0.0008202099737533
142
0.0
142
0.0
142
0.0
142
0.0
142
0.0008202099737533
142
0.0
142
0.0
142
0.0
142
0.0
142
1.0
142
0.0
142
0.0
142
0.0
142
0.0
142
1.0
179
     0
144
0.0008202099737533
144
0.0
144
0.0
144
0.0
144
0.0
144
0.0008202099737533
144
0.0
144
0.0
144
0.0
144
0.0
144
1.0
144
0.0
144
0.0
144
0.0
144
0.0
144
1.0
147
0.0008202099737533
147
0.0
147
0.0
147
0.0
147
0.0
147
0.0008202099737533
147
0.0
147
0.0
147
0.0
147
0.0
147
1.0
147
0.0
147
0.0
147
0.0
147
0.0
147
1.0
  0
MATERIAL
  5
A
102
{ACAD_XDICTIONARY
360
C
102
}
102
{ACAD_REACTORS
330
B
102
}
330
B
100
AcDbMaterial
  1
Global
 72
     0
 43
0.0008202099737533
 43
0.0
 43
0.0
 43
0.0
 43
0.0
 43
0.0008202099737533
 43
0.0
 43
0.0
 43
0.0
 43
0.0
 43
1.0
 43
0.0
 43
0.0
 43
0.0
 43
0.0
 43
1.0
 77
     0
 47
0.0008202099737533
 47
0.0
 47
0.0
 47
0.0
 47
0.0
 47
0.0008202099737533
 47
0.0
 47
0.0
 47
0.0
 47
0.0
 47
1.0
 47
0.0
 47
0.0
 47
0.0
 47
0.0
 47
1.0
171
     0
 49
0.0008202099737533
 49
0.0
 49
0.0
 49
0.0
 49
0.0
 49
0.0008202099737533
 49
0.0
 49
0.0
 49
0.0
 49
0.0
 49
1.0
 49
0.0
 49
0.0
 49
0.0
 49
0.0
 49
1.0
175
     0
142
0.0008202099737533
142
0.0
142
0.0
142
0.0
142
0.0
142
0.0008202099737533
142
0.0
142
0.0
142
0.0
142
0.0
142
1.0
142
0.0
142
0.0
142
0.0
142
0.0
142
1.0
179
     0
144
0.0008202099737533
144
0.0
144
0.0
144
0.0
144
0.0
144
0.0008202099737533
144
0.0
144
0.0
144
0.0
144
0.0
144
1.0
144
0.0
144
0.0
144
0.0
144
0.0
144
1.0
147
0.0008202099737533
147
0.0
147
0.0
147
0.0
147
0.0
147
0.0008202099737533
147
0.0
147
0.0
147
0.0
147
0.0
147
1.0
147
0.0
147
0.0
147
0.0
147
0.0
147
1.0
  0
MLEADERSTYLE
  5
51E
102
{ACAD_REACTORS
330
51D
330
6D2
330
735
330
743
330
761
102
}
330
51D
100
AcDbMLeaderStyle
170
     2
171
     1
172
     0
 90
        2
 40
0.0
 41
0.0
173
     1
 91
-1056964608
340
26
 92
       -2
290
     1
 42
2.0
291
     1
 43
0.36
  3
Standard
 44
4.0
300

342
23
174
     1
178
     6
175
     1
176
     0
 93
-1056964608
 45
4.0
292
     0
297
     0
 46
4.0
 94
-1056964608
 47
1.0
 49
1.0
140
1.0
293
     1
141
0.0
294
     1
177
     0
142
1.0
295
     0
296
     0
143
0.125
1001
ACAD_MLEADERVER
1070
     2
  0
MLINESTYLE
  5
58
102
{ACAD_REACTORS
330
34
102
}
330
34
100
AcDbMlineStyle
  2
STANDARD
 70
     0
  3

 62
   256
 51
90.0
 52
90.0
 71
     2
 49
0.5
 62
   256
  6
BYLAYER
 49
-0.5
 62
   256
  6
BYLAYER
  0
ACDBPLACEHOLDER
  5
7
102
{ACAD_REACTORS
330
8
102
}
330
8
  0
SCALE
  5
5C
102
{ACAD_REACTORS
330
47
102
}
330
47
100
AcDbScale
 70
     0
300
1:1
140
1.0
141
1.0
290
     1
  0
SCALE
  5
5D
102
{ACAD_REACTORS
330
47
102
}
330
47
100
AcDbScale
 70
     0
300
1:2
140
1.0
141
2.0
290
     0
  0
SCALE
  5
5E
102
{ACAD_REACTORS
330
47
102
}
330
47
100
AcDbScale
 70
     0
300
1:4
140
1.0
141
4.0
290
     0
  0
SCALE
  5
5F
102
{ACAD_REACTORS
330
47
102
}
330
47
100
AcDbScale
 70
     0
300
1:5
140
1.0
141
5.0
290
     0
  0
SCALE
  5
60
102
{ACAD_REACTORS
330
47
102
}
330
47
100
AcDbScale
 70
     0
300
1:8
140
1.0
141
8.0
290
     0
  0
SCALE
  5
61
102
{ACAD_REACTORS
330
47
102
}
330
47
100
AcDbScale
 70
     0
300
1:10
140
1.0
141
10.0
290
     0
  0
SCALE
  5
62
102
{ACAD_REACTORS
330
47
102
}
330
47
100
AcDbScale
 70
     0
300
1:16
140
1.0
141
16.0
290
     0
  0
SCALE
  5
63
102
{ACAD_REACTORS
330
47
102
}
330
47
100
AcDbScale
 70
     0
300
1:20
140
1.0
141
20.0
290
     0
  0
SCALE
  5
64
102
{ACAD_REACTORS
330
47
102
}
330
47
100
AcDbScale
 70
     0
300
1:30
140
1.0
141
30.0
290
     0
  0
SCALE
  5
65
102
{ACAD_REACTORS
330
47
102
}
330
47
100
AcDbScale
 70
     0
300
1:40
140
1.0
141
40.0
290
     0
  0
SCALE
  5
66
102
{ACAD_REACTORS
330
47
102
}
330
47
100
AcDbScale
 70
     0
300
1:50
140
1.0
141
50.0
290
     0
  0
SCALE
  5
67
102
{ACAD_REACTORS
330
47
102
}
330
47
100
AcDbScale
 70
     0
300
1:100
140
1.0
141
100.0
290
     0
  0
SCALE
  5
68
102
{ACAD_REACTORS
330
47
102
}
330
47
100
AcDbScale
 70
     0
300
2:1
140
2.0
141
1.0
290
     0
  0
SCALE
  5
69
102
{ACAD_REACTORS
330
47
102
}
330
47
100
AcDbScale
 70
     0
300
4:1
140
4.0
141
1.0
290
     0
  0
SCALE
  5
6A
102
{ACAD_REACTORS
330
47
102
}
330
47
100
AcDbScale
 70
     0
300
8:1
140
8.0
141
1.0
290
     0
  0
SCALE
  5
6B
102
{ACAD_REACTORS
330
47
102
}
330
47
100
AcDbScale
 70
     0
300
10:1
140
10.0
141
1.0
290
     0
  0
SCALE
  5
6C
102
{ACAD_REACTORS
330
47
102
}
330
47
100
AcDbScale
 70
     0
300
100:1
140
100.0
141
1.0
290
     0
  0
SCALE
  5
6D
102
{ACAD_REACTORS
330
47
102
}
330
47
100
AcDbScale
 70
     0
300
1/128" = 1'-0"
140
0.0078125
141
12.0
290
     0
  0
SCALE
  5
6E
102
{ACAD_REACTORS
330
47
102
}
330
47
100
AcDbScale
 70
     0
300
1/64" = 1'-0"
140
0.015625
141
12.0
290
     0
  0
SCALE
  5
6F
102
{ACAD_REACTORS
330
47
102
}
330
47
100
AcDbScale
 70
     0
300
1/32" = 1'-0"
140
0.03125
141
12.0
290
     0
  0
SCALE
  5
70
102
{ACAD_REACTORS
330
47
102
}
330
47
100
AcDbScale
 70
     0
300
1/16" = 1'-0"
140
0.0625
141
12.0
290
     0
  0
SCALE
  5
71
102
{ACAD_REACTORS
330
47
102
}
330
47
100
AcDbScale
 70
     0
300
3/32" = 1'-0"
140
0.09375
141
12.0
290
     0
  0
SCALE
  5
72
102
{ACAD_REACTORS
330
47
102
}
330
47
100
AcDbScale
 70
     0
300
1/8" = 1'-0"
140
0.125
141
12.0
290
     0
  0
SCALE
  5
73
102
{ACAD_REACTORS
330
47
102
}
330
47
100
AcDbScale
 70
     0
300
3/16" = 1'-0"
140
0.1875
141
12.0
290
     0
  0
SCALE
  5
74
102
{ACAD_REACTORS
330
47
102
}
330
47
100
AcDbScale
 70
     0
300
1/4" = 1'-0"
140
0.25
141
12.0
290
     0
  0
SCALE
  5
75
102
{ACAD_REACTORS
330
47
102
}
330
47
100
AcDbScale
 70
     0
300
3/8" = 1'-0"
140
0.375
141
12.0
290
     0
  0
SCALE
  5
76
102
{ACAD_REACTORS
330
47
102
}
330
47
100
AcDbScale
 70
     0
300
1/2" = 1'-0"
140
0.5
141
12.0
290
     0
  0
SCALE
  5
77
102
{ACAD_REACTORS
330
47
102
}
330
47
100
AcDbScale
 70
     0
300
3/4" = 1'-0"
140
0.75
141
12.0
290
     0
  0
SCALE
  5
78
102
{ACAD_REACTORS
330
47
102
}
330
47
100
AcDbScale
 70
     0
300
1" = 1'-0"
140
1.0
141
12.0
290
     0
  0
SCALE
  5
79
102
{ACAD_REACTORS
330
47
102
}
330
47
100
AcDbScale
 70
     0
300
1-1/2" = 1'-0"
140
1.5
141
12.0
290
     0
  0
SCALE
  5
7A
102
{ACAD_REACTORS
330
47
102
}
330
47
100
AcDbScale
 70
     0
300
3" = 1'-0"
140
3.0
141
12.0
290
     0
  0
SCALE
  5
7B
102
{ACAD_REACTORS
330
47
102
}
330
47
100
AcDbScale
 70
     0
300
6" = 1'-0"
140
6.0
141
12.0
290
     0
  0
SCALE
  5
7C
102
{ACAD_REACTORS
330
47
102
}
330
47
100
AcDbScale
 70
     0
300
1'-0" = 1'-0"
140
12.0
141
12.0
290
     0
  0
TABLESTYLE
  5
59
102
{ACAD_XDICTIONARY
360
4EF
102
}
102
{ACAD_REACTORS
330
48
102
}
330
48
100
AcDbTableStyle
  3
Standard
 70
     0
 71
     0
 40
1.5
 41
1.5
280
     0
281
     0
  7
Standard
140
4.5
170
     2
 62
     0
 63
     7
283
     0
274
    -2
284
     1
 64
     0
275
    -2
285
     1
 65
     0
276
    -2
286
     1
 66
     0
277
    -2
287
     1
 67
     0
278
    -2
288
     1
 68
     0
279
    -2
289
     1
 69
     0
  7
Standard
140
6.0
170
     5
 62
     0
 63
     7
283
     0
274
    -2
284
     1
 64
     0
275
    -2
285
     1
 65
     0
276
    -2
286
     1
 66
     0
277
    -2
287
     1
 67
     0
278
    -2
288
     1
 68
     0
279
    -2
289
     1
 69
     0
  7
Standard
140
4.5
170
     5
 62
     0
 63
     7
283
     0
274
    -2
284
     1
 64
     0
275
    -2
285
     1
 65
     0
276
    -2
286
     1
 66
     0
277
    -2
287
     1
 67
     0
278
    -2
288
     1
 68
     0
279
    -2
289
     1
 69
     0
  0
VISUALSTYLE
  5
514
102
{ACAD_REACTORS
330
2D
102
}
330
2D
100
AcDbVisualStyle
  2
2dWireframe
 70
     4
 71
     0
 72
     2
 73
     0
 90
        0
 40
-0.6
 41
-30.0
 62
     5
 63
     7
 74
     1
 91
        4
 64
     7
 65
   257
 75
     1
175
     1
 42
1.0
 92
        0
 66
   257
 43
1.0
 76
     1
 77
     6
 78
     2
 67
     7
 79
     5
170
     0
171
     0
290
     0
174
     0
 93
        1
 44
0.0
173
     0
291
     0
 45
0.0
1001
ACAD
1000
AcDbSavedByObjectVersion
1070
     0
1000
AcDbSavedByObjectVersion
1070
     0
1000
AcDbSavedByObjectVersion
1070
     0
1000
AcDbSavedByObjectVersion
1070
     0
1000
AcDbSavedByObjectVersion
1070
     0
1000
AcDbSavedByObjectVersion
1070
     0
  0
VISUALSTYLE
  5
515
102
{ACAD_REACTORS
330
2D
102
}
330
2D
100
AcDbVisualStyle
  2
3D Hidden
 70
     6
 71
     1
 72
     2
 73
     2
 90
        0
 40
-0.6
 41
-30.0
 62
     5
 63
     7
 74
     2
 91
        2
 64
     7
 65
   257
 75
     2
175
     1
 42
40.0
 92
        0
 66
   257
 43
1.0
 76
     1
 77
     6
 78
     2
 67
     7
 79
     3
170
     0
171
     0
290
     0
174
     0
 93
        1
 44
0.0
173
     0
291
     0
 45
0.0
1001
ACAD
1000
AcDbSavedByObjectVersion
1070
     0
1000
AcDbSavedByObjectVersion
1070
     0
1000
AcDbSavedByObjectVersion
1070
     0
1000
AcDbSavedByObjectVersion
1070
     0
1000
AcDbSavedByObjectVersion
1070
     0
1000
AcDbSavedByObjectVersion
1070
     0
  0
VISUALSTYLE
  5
5B
102
{ACAD_REACTORS
330
2D
102
}
330
2D
100
AcDbVisualStyle
  2
3dWireframe
 70
     5
 71
     0
 72
     2
 73
     0
 90
        0
 40
-0.6
 41
-30.0
 62
     5
 63
     7
 74
     1
 91
        4
 64
     7
 65
   257
 75
     1
175
     1
 42
1.0
 92
        0
 66
   257
 43
1.0
 76
     1
 77
     6
 78
     2
 67
     7
 79
     5
170
     0
171
     0
290
     0
174
     0
 93
        1
 44
0.0
173
     0
291
     0
 45
0.0
1001
ACAD
1000
AcDbSavedByObjectVersion
1070
     0
1000
AcDbSavedByObjectVersion
1070
     0
1000
AcDbSavedByObjectVersion
1070
     0
1000
AcDbSavedByObjectVersion
1070
     0
1000
AcDbSavedByObjectVersion
1070
     0
1000
AcDbSavedByObjectVersion
1070
     0
  0
VISUALSTYLE
  5
513
102
{ACAD_REACTORS
330
2D
102
}
330
2D
100
AcDbVisualStyle
  2
Basic
 70
     7
 71
     1
 72
     0
 73
     1
 90
        0
 40
-0.6
 41
-30.0
 62
     5
 63
     7
 74
     0
 91
        4
 64
     7
 65
   257
 75
     1
175
     1
 42
1.0
 92
        8
 66
     7
 43
1.0
 76
     1
 77
     6
 78
     2
 67
     7
 79
     5
170
     0
171
     0
290
     0
174
     0
 93
        1
 44
0.0
173
     0
291
     1
 45
0.0
1001
ACAD
1000
AcDbSavedByObjectVersion
1070
     0
1000
AcDbSavedByObjectVersion
1070
     0
1000
AcDbSavedByObjectVersion
1070
     0
1000
AcDbSavedByObjectVersion
1070
     0
1000
AcDbSavedByObjectVersion
1070
     0
1000
AcDbSavedByObjectVersion
1070
     0
  0
VISUALSTYLE
  5
518
102
{ACAD_REACTORS
330
2D
102
}
330
2D
100
AcDbVisualStyle
  2
Brighten
 70
    12
 71
     2
 72
     2
 73
     0
 90
        0
 40
-0.6
 41
-30.0
 62
     5
 63
     7
 74
     1
 91
        4
 64
     7
 65
   257
 75
     1
175
     1
 42
1.0
 92
        8
 66
     7
 43
1.0
 76
     1
 77
     6
 78
     2
 67
     7
 79
     5
170
     0
171
     0
290
     0
174
     0
 93
        1
 44
50.0
173
     0
291
     1
 45
0.0
1001
ACAD
1000
AcDbSavedByObjectVersion
1070
     0
1000
AcDbSavedByObjectVersion
1070
     0
1000
AcDbSavedByObjectVersion
1070
     0
1000
AcDbSavedByObjectVersion
1070
     0
1000
AcDbSavedByObjectVersion
1070
     0
1000
AcDbSavedByObjectVersion
1070
     0
  0
VISUALSTYLE
  5
51C
102
{ACAD_REACTORS
330
2D
102
}
330
2D
100
AcDbVisualStyle
  2
ColorChange
 70
    16
 71
     2
 72
     2
 73
     3
 90
        0
 40
-0.6
 41
-30.0
 62
     5
 63
     8
 74
     1
 91
        4
 64
     7
 65
   257
 75
     1
175
     1
 42
1.0
 92
        8
 66
     8
 43
1.0
 76
     1
 77
     6
 78
     2
 67
     7
 79
     5
170
     0
171
     0
290
     0
174
     0
 93
        1
 44
0.0
173
     0
291
     1
 45
0.0
1001
ACAD
1000
AcDbSavedByObjectVersion
1070
     0
1000
AcDbSavedByObjectVersion
1070
     0
1000
AcDbSavedByObjectVersion
1070
     0
1000
AcDbSavedByObjectVersion
1070
     0
1000
AcDbSavedByObjectVersion
1070
     0
1000
AcDbSavedByObjectVersion
1070
     0
  0
VISUALSTYLE
  5
516
102
{ACAD_REACTORS
330
2D
102
}
330
2D
100
AcDbVisualStyle
  2
Conceptual
 70
     9
 71
     3
 72
     2
 73
     0
 90
        0
 40
-0.6
 41
-30.0
 62
     5
 63
     7
 74
     2
 91
        2
 64
     7
 65
   257
 75
     1
175
     1
 42
40.0
 92
        8
 66
     7
 43
1.0
 76
     1
 77
     6
 78
     2
 67
     7
 79
     3
170
     0
171
     0
290
     0
174
     0
 93
        1
 44
0.0
173
     0
291
     0
 45
0.0
1001
ACAD
1000
AcDbSavedByObjectVersion
1070
     0
1000
AcDbSavedByObjectVersion
1070
     0
1000
AcDbSavedByObjectVersion
1070
     0
1000
AcDbSavedByObjectVersion
1070
     0
1000
AcDbSavedByObjectVersion
1070
     0
1000
AcDbSavedByObjectVersion
1070
     0
  0
VISUALSTYLE
  5
517
102
{ACAD_REACTORS
330
2D
102
}
330
2D
100
AcDbVisualStyle
  2
Dim
 70
    11
 71
     2
 72
     2
 73
     0
 90
        0
 40
-0.6
 41
-30.0
 62
     5
 63
     7
 74
     1
 91
        4
 64
     7
 65
   257
 75
     1
175
     1
 42
1.0
 92
        8
 66
     7
 43
1.0
 76
     1
 77
     6
 78
     2
 67
     7
 79
     5
170
     0
171
     0
290
     0
174
     0
 93
        1
 44
-50.0
173
     0
291
     1
 45
0.0
1001
ACAD
1000
AcDbSavedByObjectVersion
1070
     0
1000
AcDbSavedByObjectVersion
1070
     0
1000
AcDbSavedByObjectVersion
1070
     0
1000
AcDbSavedByObjectVersion
1070
     0
1000
AcDbSavedByObjectVersion
1070
     0
1000
AcDbSavedByObjectVersion
1070
     0
  0
VISUALSTYLE
  5
51B
102
{ACAD_REACTORS
330
2D
102
}
330
2D
100
AcDbVisualStyle
  2
Facepattern
 70
    15
 71
     2
 72
     2
 73
     0
 90
        0
 40
-0.6
 41
-30.0
 62
     5
 63
     7
 74
     1
 91
        4
 64
     7
 65
   257
 75
     1
175
     1
 42
1.0
 92
        8
 66
     7
 43
1.0
 76
     1
 77
     6
 78
     2
 67
     7
 79
     5
170
     0
171
     0
290
     0
174
     0
 93
        1
 44
0.0
173
     0
291
     1
 45
0.0
1001
ACAD
1000
AcDbSavedByObjectVersion
1070
     0
1000
AcDbSavedByObjectVersion
1070
     0
1000
AcDbSavedByObjectVersion
1070
     0
1000
AcDbSavedByObjectVersion
1070
     0
1000
AcDbSavedByObjectVersion
1070
     0
1000
AcDbSavedByObjectVersion
1070
     0
  0
VISUALSTYLE
  5
510
102
{ACAD_REACTORS
330
2D
102
}
330
2D
100
AcDbVisualStyle
  2
Flat
 70
     0
 71
     2
 72
     1
 73
     1
 90
        2
 40
-0.6
 41
30.0
 62
     5
 63
     7
 74
     0
 91
        4
 64
     7
 65
   257
 75
     1
175
     1
 42
1.0
 92
        8
 66
     7
 43
1.0
 76
     1
 77
     6
 78
     2
 67
     7
 79
     5
170
     0
171
     0
290
     0
174
     0
 93
       13
 44
0.0
173
     0
291
     1
 45
0.0
1001
ACAD
1000
AcDbSavedByObjectVersion
1070
     0
1000
AcDbSavedByObjectVersion
1070
     0
1000
AcDbSavedByObjectVersion
1070
     0
1000
AcDbSavedByObjectVersion
1070
     0
1000
AcDbSavedByObjectVersion
1070
     0
1000
AcDbSavedByObjectVersion
1070
     0
  0
VISUALSTYLE
  5
511
102
{ACAD_REACTORS
330
2D
102
}
330
2D
100
AcDbVisualStyle
  2
FlatWithEdges
 70
     1
 71
     2
 72
     1
 73
     1
 90
        2
 40
-0.6
 41
30.0
 62
     5
 63
     7
 74
     1
 91
        4
 64
     7
 65
   257
 75
     1
175
     1
 42
1.0
 92
        0
 66
   257
 43
1.0
 76
     1
 77
     6
 78
     2
 67
     7
 79
     5
170
     0
171
     0
290
     0
174
     0
 93
       13
 44
0.0
173
     0
291
     1
 45
0.0
1001
ACAD
1000
AcDbSavedByObjectVersion
1070
     0
1000
AcDbSavedByObjectVersion
1070
     0
1000
AcDbSavedByObjectVersion
1070
     0
1000
AcDbSavedByObjectVersion
1070
     0
1000
AcDbSavedByObjectVersion
1070
     0
1000
AcDbSavedByObjectVersion
1070
     0
  0
VISUALSTYLE
  5
2C
102
{ACAD_REACTORS
330
2D
102
}
330
2D
100
AcDbVisualStyle
  2
Gouraud
 70
     2
 71
     2
 72
     2
 73
     1
 90
        2
 40
-0.6
 41
30.0
 62
     5
 63
     7
 74
     0
 91
        4
 64
     7
 65
   257
 75
     1
175
     1
 42
1.0
 92
        0
 66
     7
 43
1.0
 76
     1
 77
     6
 78
     2
 67
     7
 79
     5
170
     0
171
     0
290
     0
174
     0
 93
       13
 44
0.0
173
     0
291
     1
 45
0.0
1001
ACAD
1000
AcDbSavedByObjectVersion
1070
     0
1000
AcDbSavedByObjectVersion
1070
     0
1000
AcDbSavedByObjectVersion
1070
     0
1000
AcDbSavedByObjectVersion
1070
     0
1000
AcDbSavedByObjectVersion
1070
     0
1000
AcDbSavedByObjectVersion
1070
     0
  0
VISUALSTYLE
  5
512
102
{ACAD_REACTORS
330
2D
102
}
330
2D
100
AcDbVisualStyle
  2
GouraudWithEdges
 70
     3
 71
     2
 72
     2
 73
     1
 90
        2
 40
-0.6
 41
30.0
 62
     5
 63
     7
 74
     1
 91
        4
 64
     7
 65
   257
 75
     1
175
     1
 42
1.0
 92
        0
 66
   257
 43
1.0
 76
     1
 77
     6
 78
     2
 67
     7
 79
     5
170
     0
171
     0
290
     0
174
     0
 93
       13
 44
0.0
173
     0
291
     1
 45
0.0
1001
ACAD
1000
AcDbSavedByObjectVersion
1070
     0
1000
AcDbSavedByObjectVersion
1070
     0
1000
AcDbSavedByObjectVersion
1070
     0
1000
AcDbSavedByObjectVersion
1070
     0
1000
AcDbSavedByObjectVersion
1070
     0
1000
AcDbSavedByObjectVersion
1070
     0
  0
VISUALSTYLE
  5
51A
102
{ACAD_REACTORS
330
2D
102
}
330
2D
100
AcDbVisualStyle
  2
Linepattern
 70
    14
 71
     2
 72
     2
 73
     0
 90
        0
 40
-0.6
 41
-30.0
 62
     5
 63
     7
 74
     1
 91
        4
 64
     7
 65
   257
 75
     7
175
     7
 42
1.0
 92
        8
 66
     7
 43
1.0
 76
     1
 77
     6
 78
     2
 67
     7
 79
     5
170
     0
171
     0
290
     0
174
     0
 93
        1
 44
0.0
173
     0
291
     1
 45
0.0
1001
ACAD
1000
AcDbSavedByObjectVersion
1070
     0
1000
AcDbSavedByObjectVersion
1070
     0
1000
AcDbSavedByObjectVersion
1070
     0
1000
AcDbSavedByObjectVersion
1070
     0
1000
AcDbSavedByObjectVersion
1070
     0
1000
AcDbSavedByObjectVersion
1070
     0
  0
VISUALSTYLE
  5
5A
102
{ACAD_REACTORS
330
2D
102
}
330
2D
100
AcDbVisualStyle
  2
Realistic
 70
     8
 71
     2
 72
     2
 73
     0
 90
        0
 40
-0.6
 41
-30.0
 62
     5
 63
     7
 74
     1
 91
        0
 64
     7
 65
   257
 75
     1
175
     1
 42
1.0
 92
        8
 66
     8
 43
1.0
 76
     1
 77
     6
 78
     2
 67
     7
 79
     5
170
     0
171
     0
290
     0
174
     0
 93
       13
 44
0.0
173
     0
291
     0
 45
0.0
1001
ACAD
1000
AcDbSavedByObjectVersion
1070
     0
1000
AcDbSavedByObjectVersion
1070
     0
1000
AcDbSavedByObjectVersion
1070
     0
1000
AcDbSavedByObjectVersion
1070
     0
1000
AcDbSavedByObjectVersion
1070
     0
1000
AcDbSavedByObjectVersion
1070
     0
  0
VISUALSTYLE
  5
519
102
{ACAD_REACTORS
330
2D
102
}
330
2D
100
AcDbVisualStyle
  2
Thicken
 70
    13
 71
     2
 72
     2
 73
     0
 90
        0
 40
-0.6
 41
-30.0
 62
     5
 63
     7
 74
     1
 91
        4
 64
     7
 65
   257
 75
     1
175
     1
 42
1.0
 92
       12
 66
     7
 43
1.0
 76
     1
 77
     6
 78
     2
 67
     7
 79
     5
170
     0
171
     0
290
     0
174
     0
 93
        1
 44
0.0
173
     0
291
     1
 45
0.0
1001
ACAD
1000
AcDbSavedByObjectVersion
1070
     0
1000
AcDbSavedByObjectVersion
1070
     0
1000
AcDbSavedByObjectVersion
1070
     0
1000
AcDbSavedByObjectVersion
1070
     0
1000
AcDbSavedByObjectVersion
1070
     0
1000
AcDbSavedByObjectVersion
1070
     0
  0
DICTIONARYVAR
  5
50A
102
{ACAD_REACTORS
330
506
102
}
330
506
100
DictionaryVariables
280
     0
  1
1:1
  0
DICTIONARYVAR
  5
508
102
{ACAD_REACTORS
330
506
102
}
330
506
100
DictionaryVariables
280
     0
  1
STANDARD
  0
DICTIONARYVAR
  5
507
102
{ACAD_REACTORS
330
506
102
}
330
506
100
DictionaryVariables
280
     0
  1
STANDARD
  0
DICTIONARYVAR
  5
50E
102
{ACAD_REACTORS
330
506
102
}
330
506
100
DictionaryVariables
280
     0
  1
1
  0
DICTIONARYVAR
  5
50D
102
{ACAD_REACTORS
330
506
102
}
330
506
100
DictionaryVariables
280
     0
  1
1
  0
DICTIONARYVAR
  5
50C
102
{ACAD_REACTORS
330
506
102
}
330
506
100
DictionaryVariables
280
     0
  1
0
  0
DICTIONARYVAR
  5
571
102
{ACAD_REACTORS
330
506
102
}
330
506
100
DictionaryVariables
280
     0
  1
0
  0
DICTIONARYVAR
  5
509
102
{ACAD_REACTORS
330
506
102
}
330
506
100
DictionaryVariables
280
     0
  1
1
  0
DICTIONARYVAR
  5
50B
102
{ACAD_REACTORS
330
506
102
}
330
506
100
DictionaryVariables
280
     0
  1
127
  0
DICTIONARY
  5
DEB
330
15
100
AcDbDictionary
280
     1
281
     1
  3
ACAD_XREC_ROUNDTRIP
360
DEC
  0
DICTIONARY
  5
1B
330
1A
100
AcDbDictionary
280
     1
281
     1
  3
ACAD_XREC_ROUNDTRIP
360
DED
  3
ADSK_XREC_LAYOUTTHUMBNAIL
360
1C
  0
DICTIONARY
  5
3F
330
3E
100
AcDbDictionary
280
     1
281
     1
  3
ACAD_XREC_ROUNDTRIP
360
758
  3
BUMPTILE
360
40
  3
DIFFUSETILE
360
41
  3
OPACITYTILE
360
42
  3
REFLECTIONTILE
360
43
  3
REFRACTIONTILE
360
44
  3
SPECULARTILE
360
45
  0
DICTIONARY
  5
37
330
36
100
AcDbDictionary
280
     1
281
     1
  3
ACAD_XREC_ROUNDTRIP
360
757
  3
BUMPTILE
360
38
  3
DIFFUSETILE
360
39
  3
OPACITYTILE
360
3A
  3
REFLECTIONTILE
360
3B
  3
REFRACTIONTILE
360
3C
  3
SPECULARTILE
360
3D
  0
DICTIONARY
  5
C
330
A
100
AcDbDictionary
280
     1
281
     1
  3
ACAD_XREC_ROUNDTRIP
360
753
  3
BUMPTILE
360
D
  3
DIFFUSETILE
360
E
  3
OPACITYTILE
360
F
  3
REFLECTIONTILE
360
10
  3
REFRACTIONTILE
360
11
  3
SPECULARTILE
360
12
  0
DICTIONARY
  5
4EF
330
59
100
AcDbDictionary
280
     1
281
     1
  3
ACAD_ROUNDTRIP_2008_TABLESTYLE_CELLSTYLEMAP
360
DE7
  3
ACAD_XREC_ROUNDTRIP
360
DEE
  0
XRECORD
  5
DEC
102
{ACAD_REACTORS
330
DEB
102
}
330
DEB
100
AcDbXrecord
280
     1
102
SHADEPLOT
 70
     0
102
SHADEPLOTRESLEVEL
 70
     2
102
SHADEPLOTCUSTOMDPI
 70
   300
  0
XRECORD
  5
DED
102
{ACAD_REACTORS
330
1B
102
}
330
1B
100
AcDbXrecord
280
     1
102
SHADEPLOT
 70
     0
102
SHADEPLOTRESLEVEL
 70
     2
102
SHADEPLOTCUSTOMDPI
 70
   300
  0
XRECORD
  5
1C
102
{ACAD_REACTORS
330
1B
102
}
330
1B
100
AcDbXrecord
280
     1
310
28000000B4000000870000000100080000000000EC5E0000000000000000000000010000000000000000000000000000FFFFFF000000000000000000000000000000000000000000000000000000000000000000330000006600000099000000CC000000FF00000000330000333300006633000099330000CC330000FF3300
310
0000660000336600006666000099660000CC660000FF66000000990000339900006699000099990000CC990000FF99000000CC000033CC000066CC000099CC0000CCCC0000FFCC000000FF000033FF000066FF000099FF0000CCFF0000FFFF000000003300330033006600330099003300CC003300FF003300003333003333
310
33006633330099333300CC333300FF33330000663300336633006666330099663300CC663300FF66330000993300339933006699330099993300CC993300FF99330000CC330033CC330066CC330099CC3300CCCC3300FFCC330000FF330033FF330066FF330099FF3300CCFF3300FFFF330000006600330066006600660099
310
006600CC006600FF00660000336600333366006633660099336600CC336600FF33660000666600336666006666660099666600CC666600FF66660000996600339966006699660099996600CC996600FF99660000CC660033CC660066CC660099CC6600CCCC6600FFCC660000FF660033FF660066FF660099FF6600CCFF6600
310
FFFF660000009900330099006600990099009900CC009900FF00990000339900333399006633990099339900CC339900FF33990000669900336699006666990099669900CC669900FF66990000999900339999006699990099999900CC999900FF99990000CC990033CC990066CC990099CC9900CCCC9900FFCC990000FF99
310
0033FF990066FF990099FF9900CCFF9900FFFF99000000CC003300CC006600CC009900CC00CC00CC00FF00CC000033CC003333CC006633CC009933CC00CC33CC00FF33CC000066CC003366CC006666CC009966CC00CC66CC00FF66CC000099CC003399CC006699CC009999CC00CC99CC00FF99CC0000CCCC0033CCCC0066CC
310
CC0099CCCC00CCCCCC00FFCCCC0000FFCC0033FFCC0066FFCC0099FFCC00CCFFCC00FFFFCC000000FF003300FF006600FF009900FF00CC00FF00FF00FF000033FF003333FF006633FF009933FF00CC33FF00FF33FF000066FF003366FF006666FF009966FF00CC66FF00FF66FF000099FF003399FF006699FF009999FF00CC
310
99FF00FF99FF0000CCFF0033CCFF0066CCFF0099CCFF00CCCCFF00FFCCFF0000FFFF0033FFFF0066FFFF0099FFFF00CCFFFF00FFFFFF00000000000D0D0D001A1A1A00282828003535350043434300505050005D5D5D006B6B6B00787878008686860093939300A1A1A100AEAEAE00BBBBBB00C9C9C900D6D6D600E4E4E400
310
F1F1F100FFFFFF0000000000000000000000000000000000000000000000000000000000000000000000000000000000E2E2E2E2E2E2E2E2E2E2E2E2E2E2E2E2E2E2E2E2E2E2E2E2E2E2E2E2E2E2E2E2E2E2E2E2E2E2E2E2E2E2E2E2E2E2E2E2E2E2E2E2E2E2E2E2E2E2E2E2E2E2E2E2E2E2E2E2E2E2E2E2E2E2E2E2E2E2E2
310
E2E2E2E2E2E2E2E2E2E2E2E2E2E2E2E2E2E2E2E2E2E2E2E2E2E2E2E2E2E2E2E2E2E2E2E2E2E2E2E2E2E2E2E2E2E2E2E2E2E2E2E2E2E2E2E2E2E2E2E2E2E2E2E2E2E2E2E2E2E2E2E2E2E2E2E2E2E2E2E2E2E2E2E2E2E2E2E2E2E2E2E2E2E2E2E2E2E2E2E2E2E2E2E2E2E2E2E2E2E2E2E2E2E2E2E2E2E2E2E2E2E2E2E2E2E2E2
310
E2E2E2E2E2E2E2E2E2E2E2E2E2E2E2E2E2E2E2E2E2E2E2E2E2E2E2E2E2E2E2E2E2E2E2E2E2E2E2E2E2E2E2E2E2E2E2E2E2E2E2E2E2E2E2E2E2E2E2E2E2E2E2E2E2E2E2E2E2E2E2E2E2E2E2E2E2E2E2E2E2E2E2E2E2E2E2E2E2E2E2E2E2E2E2E2E2E2E2E2E2E2E2E2E2E2E2E2E2E2E2E2E2E2E2E2E2E2E2E2E2E2E2E2E2E2E2
310
E2E2E2E2E2E2E2E2E2E2E2E2E2E2E2E2E2E2E2E2E2E2E2E2E2E2E2E2E2E2E2E2E2E2E2E2E2E2E2E2E2E2E2E2E2E2E2E2E2E2E2E2E2E2E2E2E2E2E2E2E2E2E2E2E2E2E2E2E2E2E2E2E2E2E2E2E2E2E2E2E2E2E2E2E2E2E2E2E2E2E2E2E2E2E2E2E2E2E2E2E2E2E2E2E2E2E2E2E2E2E2E2E2E2E2E2E2E2E2E2E2E2E2E2E2E2E2
310
E2E2E2E2E2E2E2E2E2E2E2E2E2E2E2E2E2E2E2E2E2E2E2E2E2E2E2E2E2E2E2E2E2E2E2E2E2E2E2E2E2E2E2E2E2E2E2E2E2E2E2E2E2E2E2E2E2E2E2E2E2E2E2E2E2E2E2E2E2E2E2E2E2E2E2E2E2E2E2E2E2E2E2E2E2E2E2E2E2E2E2E2E2E2E2E2E2E2E2E2E2E2E2E2E2E2E2E2E2E2E2E2E2E2E2E2E2E2E2E2E2E2E2E2E2E2E2
310
E2E2E2E2E2E2E2E2E2E2E2E2E2E2E2E2E2E2E2E2E2E2E2E2E2E2E2E2E2E2E2E2E2E2E2E2E2E2E2E2E2E2E2E2E2E2E2E2E2E2E2E2E2E2E2E2E2E2E2E2E2E2E2E2E2E2E2E2E2E2E2E2E2E2E2E2E2E2E2E2E2E2E2E2E2E2E2E2E2E2E2E2E2E2E2E2E2E2E2E2E2E2E2E2E2E2E2E2E2E2E2E2E2E2E2E2E2E2E2E2E2E2E2E2E2E2E2
310
E2E2E2E2E2E2E2E2E2E2E2E2E2E2E2E2E2E2E2E2E2E2E2E2E2E2E2E2E2E2E2E2E2E2E2E2E2E2E2E2E2E2E2E2E2E2E2E2E2E2E2E2E2E2E2E2E2E2E2E2E2E2E2E2E2E2E2E2E2E2E2E2E2E2E2E2E2E2E2E2E2E2E2E2E2E2E2E2E2E2E2E2E2E2E2E2E2E2E2E2E2E2E2E2E2E2E2E2E2E2E2E2E2E2E2E2E2E2E2E2E2E2E2E2E2E2E2
310
E2E2E2E2E2E2E2E2E2E2E2E2E2E2E2E2E2E2E2E2E2E2E2E2E2E2E2E2E2E2E2E2E2E2E2E2E2E2E2E2E2E2E2E2E2E2E2E2E2E2E2E2E2E2E2E2E2E2E2E2E2E2E2E2E2E2E2E2E2E2E2E2E2E2E2E2E2E2E2E2E2E2E2E2E2E2E2E2E2E2E2E2E2E2E2E2E2E2E2E2E2E2E2E2E2E2E2E2E2E2E2E2E2E2E2E2E2E2E2E2E2E2E2E2E2E2E2
310
E2E2E2E2E2E2E2E2E2E2E2E2E2E2E2E2E2E2E2E2E2E2E2E2E2E2E2E2E2E2E2E2E2E2E2E2E2E2E2E2E2E2E2E2E2E2E2E2E2E2E2E2E2E2E2E2E2E2E2E2E2E2E2E2E2E2E2E2E2E2E2E2E2E2E2E2E2E2E2E2E2E2E2E2E2E2E2E2E2E2E2E2E2E2E2E2E2E2E2E2E2E2E2E2E2E2E2E2E2E2E2E2E2E2E2E2E2E2E2E2E2E2E2E2E2E2E2
310
E2E2E2E2E2E2E2E2E2E2E2E2E2E2E2E2E2E2E2E2E2E2E2E2E2E2E2E2E2E2E2E2E2E2E2E2E2E2E2E2E2E2E2E2E2E2E2E2E2E2E2E2E2E2E2E2E2E2E2E2E2E2E2E2E2E2E2E2E2E2E2E2E2E2E2E2E2E2E2E2E2E2E2E2E2E2E2E2E2E2E2E2E2E2E2E2E2E2E2E2E2E2E2E2E2E2E2E2E2E2E2E2E2E2E2E2E2E2E2E2E2E2E2E2E2E2E2
310
E2E2E2E2E2E2E2E2E2E2E2E2E2E2E2E2E2E2E2E2E2E2E2E2E2E2E2E2E2E2E2E2E2E2E2E2E2E2E2E2E2E2E2E2E2E2E2E2E2E2E2E2E2E2E2E2E2E2E2E2E2E2E2E2E2E2E2E2E2E2E2E2E2E2E2E2E2E2E2E2E2E2E2E2E2E2E2E2E2E2E2E2E2E2E2E2E2E2E2E2E2E2E2E2E2E2E2E2E2E2E2E2E2E2E2E2E2E2E2E2E2E2E2E2E2E2E2
310
E2E2E2E2E2E2E2E2E2E2E2E2E2E2E2E2E2E2E2E2E2E2E2E2E2E2E2E2E2E2E2E2E2E2E2E2E2E2E2E2E2E2E2E2E2E2E2E2E2E2E2E2E2E2E2E2E2E2E2E2E2E2E2E2E2E2E2E2E2E2E2E2E2E2E2E2E2E2E2E2E2E2E2E2E2E2E2E2E2E2E2E2E2E2E2E2E2E2E2E2E2E2E2E2E2E2E2E2E2E2E2E2E2E2E2E2E2E2E2E2E2E2E2E2E2E2E2
310
E2E2E2E2E2E2E2E2E2E2E2E2E2E2E2E2E2E2E2E2E2E2E2E2E2E2E2E2E2E2E2E2E2E2E2E2E2E2E2E2E2E2E2E2E2E2E2E2E2E2E2E2E2E2E2E2E2E2E2E2E2E2E2E2E2E2E2E2E2E2E2E2E2E2E2E2E2E2E2E2E2E2E2E2E2E2E2E2E2E2E2E2E2E2E2E2E2E2E2E2E2E2E2E2E2E2E2E2E2E2E2E2E2E2E2E2E2E2E2E2E2E2E2E2E2E2E2
310
E2E2E2E2E2E2E2E2E2E2E2E2E2E2E2E2E2E2E2E2E2E2E2E2E2E2E2E2E2E2E2E2E2E2E2E2E2E2E2E2E2E2E2E2E2E2E2E2E2E2E2E2E2E2E2E2E2E2E2E2E2E2E2E2E2E2E2E2E2E2E2E2E2E2E2E2E2E2E2E2E2E2E2E2E2E2E2E2E2E2E2E2E2E2E2E2E2E2E2E2E2E2E2E2E2E2E2E2E2E2E2E2E2E2E2E2E2E2E2E2E2E2E2E2E2E2E2
310
E2E2E2E2E2E2E2E2E2E2E2E2E2E2E2E2E2E2E2E2E2E2E2E2E2E2E2E2E2E2E2E2E2E2E2E2E2E2E2E2E2E2E2E2E2E2E2E2E2E2E2E2E2E2E2E2E2E2E2E2E2E2E2E2E2E2E2E2E2E2E2E2E2E2E2E2E2E2E2E2E2E2E2E2E2E2E2E2E2E2E2E2E2E2E2E2E2E2E2E2E2E2E2E2E2E2E2E2E2E2E2E2E2E2E2E2E2E2E2E2E2E2E2E2E2E2E2
310
E2E2E2E2E2E2E2E2E2E2E2E2E2E2E2E2E2E2E2E2E2E2E2E2E2E2E2E2E2E2E2E2E2E2E2E2E2E2E2E2E2E2E2E2E2E2E2E2E2E2E2E2E2E2E2E2E2E2E2E2E2E2E2E2E2E2E2E2E2E2E2E2E2E2E2E2E2E2E2E2E2E2E2E2E2E2E2E2E2E2E2E2E2E2E2E2E2E2E2E2E2E2E2E2E2E2E2E2E2E2E2E2E2E2E2E2E2E2E2E2E2E2E2E2E2E2E2
310
E2E2E2E2E2E2E2E2E2E2E2E2E2E2E2E2E2E2E2E2E2E2E2E2E2E2E2E2E2E2E2E2E2E2E2E2E2E2E2E2E2E2E2E2E2E2E2E2E2E2E2E2E2E2E2E2E2E2E2E2E2E2E2E2E2E2E2E2E2E2E2E2E2E2E2E2E2E2E2E2E2E2E2E2E2E2E2E2E2E2E2E2E2E2E2E2E2E2E2E2E2E2E2E2E2E2E2E2E2E2E2E2E2E2E2E2E2E2E2E2E2E2E2E2E2E2E2
310
E2E2E2E2E2E2E2E2E2E2E2E2E2E2E2E2E2E2E2E2E2E2E2E2E2E2E2E2E2E2E2E2E2E2E2E2E2E2E2E2E2E2E2E2E2E2E2E2E2E2E2E2E2E2E2E2E2E2E2E2E2E2E2E2E2E2E2E2E2E2E2E2E2E2E2E2E2E2E2E2E2E2E2E2E2E2E2E2E2E2E2E2E2E2E2E2E2E2E2E2E2E2E2E2E2E2E2E2E2E2E2E2E2E2E2E2E2E2E2E2E2E2E2E2E2E2E2
310
E2E2E2E2E2E2E2E2E2E2E2E2E2E2E2E2E2E2E2E2E2E2E2E2E2E2E2E2E2E2E2E2E2E2E2E2E2E2E2E2E2E2E2E2E2E2E2E2E2E2E2E2E2E2E2E2E2E2E2E2E2E2E2E2E2E2E2E2E2E2E2E2E2E2E2E2E2E2E2E2E2E2E2E2E2E2E2E2E2E2E2E2E2E2E2E2E2E2E2E2E2E2E2E2E2E2E2E2E2E2E2E2E2E2E2E2E2E2E2E2E2E2E2E2E2E2E2
310
E2E2E2E2E2E2E2E2E2E2E2E2E2E2E2E2E2E2E2E2E2E2E2E2E2E2E2E2E2E2E2E2E2E2E2E2E2E2E2E2E2E2E2E2E2E2E2E2E2E2E2E2E2E2E2E2E2E2E2E2E2E2E2E2E2E2E2E2E2E2E2E2E2E2E2E2E2E2E2E2E2E2E2E2E2E2E2E2E2E2E2E2E2E2E2E2E2E2E2E2E2E2E2E2E2E2E2E2E2E2E2E2E2E2E2E2E2E2E2E2E2E2E2E2E2E2E2
310
E2E2E2E2E2E2E2E2E2E2E2E2E2E2E2E2E2E2E2E2E2E2E2E2E2E2E2E2E2E2E2E2E2E2E2E2E2E2E2E2E2E2E2E2E2E2E2E2E2E2E2E2E2E2E2E2E2E2E2E2E2E2E2E2E2E2E2E2E2E2E2E2E2E2E2E2E2E2E2E2E2E2E2E2E2E2E2E2E2E2E2E2E2E2E2E2E2E2E2E2E2E2E2E2E2E2E2E2E2E2E2E2E2E2E2E2E2E2E2E2E2E2E2E2E2E2E2
310
E2E2E2E2E2E2E2E2E2E2E2E2E2E2E2E2E2E2E2E2E2E2E2E2E2E2E2E2E2E2E2E2E2E2E2E2E2E2E2E2E2E2E2E2E2E2E2E2E2E2E2E2E2E2E2E2E2E2E2E2E2E2E2E2E2E2E2E2E2E2E2E2E2E2E2E2E2E2E2E2E2E2E2E2E2E2E2E2E2E2E2E2E2E2E2E2E2E2E2E2E2E2E2E2E2E2E2E2E2E2E2E2E2E2E2E2E2E2E2E2E2E2E2E2E2E2E2
310
E2E2E2E2E2E2E2E2E2E2E2E2E2E2E2E2E2E2E2E2E2E2E2E2E2E2E2E2E2E2E2E2E2E2E2E2E2E2E2E2E2E2E2E2E2E2E2E2E2E2E2E2E2E2E2E2E2E2E2E2E2E2E2E2E2E2E2E2E2E2E2E2E2E2E2E2E2E2E2E2E2E2E2E2E2E2E2E2E2E2E2E2E2E2E2E2E2E2E2E2E2E2E2E2E2E2E2E2E2E2E2E2E2E2E2E2E2E2E2E2E2E2E2E2E2E2E2
310
E2E2E2E2E2E2E2E2E2E2E2E2E2E2E2E2E2E2E2E2E2E2E2E2E2E2E2E2E2E2E2E2E2E2E2E2E2E2E2E2E2E2E2E2E2E2E2E2E2E2E2E2E2E2E2E2E2E2E2E2E2E2E2E2E2E2E2E2E2E2E2E2E2E2E2E2E2E2E2E2E2E2E2E2E2E2E2E2E2E2E2E2E2E2E2E2E2E2E2E2E2E2E2E2E2E2E2E2E2E2E2E2E2E2E2E2E2E2E2E2E2E2E2E2E2E2E2
310
E2E2E2E2E2E2E2E2E2E2E2E2E2E2E2E2E2E2E2E2E2E2E2E2E2E2E2E2E2E2E2E2E2E2E2E2E2E2E2E2E2E2E2E2E2E2E2E2E2E2E2E2E2E2E2E2E2E2E2E2E2E2E2E2E2E2E2E2E2E2E2E2E2E2E2E2E2E2E2E2E2E2E2E2E2E2E2E2E2E2E2E2E2E2E2E2E2E2E2E2E2E2E2E2E2E2E2E2E2E2E2E2E2E2E2E2E2E2E2E2E2E2E2E2E2E2E2
310
E2E2E2E2E2E2E2E2E2E2E2E2E2E2E2E2E2E2E2E2E2E2E2E2E2E2E2E2E2E2E2E2E2E2E2E2E2E2E2E2E2E2E2E2E2E2E2E2E2E2E2E2E2E2E2E2E2E2E2E2E2E2E2E2E2E2E2E2E2E2E2E2E2E2E2E2E2E2E2E2E2E2E2E2E2E2E2E2E2E2E2E2E2E2E2E2E2E2E2E2E2E2E2E2E2E2E2E2E2E2E2E2E2E2E2E2E2E2E2E2E2E2E2E2E2E2E2
310
E2E2E2E2E2E2E2E2E2E2E2E2E2E2E2E2E2E2E2E2E2E2E2E2E2E2E2E2E2E2E2E2E2E2E2E2E2E2E2E2E2E2E2E2E2E2E2E2E2E2E2E2E2E2E2E2E2E2E2E2E2E2E2E2E2E2E2E2E2E2E2E2E2E2E2E2E2E2E2E2E2E2E2E2E2E2E2E2E2E2E2E2E2E2E2E2E2E2E2E2E2E2E2E2E2E2E2E2E2E2E2E2E2E2E2E2E2E2E2E2E2E2E2E2E2E2E2
310
E2E2E2E2E2E2E2E2E2E2E2E2E2E2E2E2E2E2E2E2E2E2E2E2E2E2E2E2E2E2E2E2E2E2E2E2E2E2E2E2E2E2E2E2E2E2E2E2E2E2E2E2E2E2E2E2E2E2E2E2E2E2E2E2E2E2E2E2E2E2E2E2E2E2E2E2E2E2E2E2E2E2E2E2E2E2E2E2E2E2E2E2E2E2E2E2E2E2E2E2E2E2E2E2E2E2E2E2E2E2E2E2E2E2E2E2E2E2E2E2E2E2E2E2E2E2E2
310
E2E2E2E2E2E2E2E2E2E2E2E2E2E2E2E2E2E2E2E2E2E2E2E2E2E2E2E2E2E2E2E2E2E2E2E2E2E2E2E2E2E2E2E2E2E2E2E2E2E2E2E2E2E2E2E2E2E2E2E2E2E2E2E2E2E2E2E2E2E2E2E2E2E2E2E2E2E2E2E2E2E2E2E2E2E2E2E2E2E2E2E2E2E2E2E2E2E2E2E2E2E2E2E2E2E2E2E2E2E2E2E2E2E2E2E2E2E2E2E2E2E2E2E2E2E2E2
310
E2E2E2E2E2E2E2E2E2E2E2E2E2E2E2E2E2E2E2E2E2E2E2E2E2E2E2E2E2E2E2E2E2E2E2E2E2E2E2E2E2E2E2E2E2E2E2E2E2E2E2E2E2E2E2E2E2E2E2E2E2E2E2E2E2E2E2E2E2E2E2E2E2E2E2E2E2E2E2E2E2E2E2E2E2E2E2E2E2E2E2E2E2E2E2E2E2E2E2E2E2E2E2E2E2E2E2E2E2E2E2E2E2E2E2E2E2E2E2E2E2E2E2E2E2E2E2
310
E2E2E2E2E2E2E2E2E2E2E2E2E2E2E2E2E2E2E2E2E2E2E2E2E2E2E2E2E2E2E2E2E2E2E2E2E2E2E2E2E2E2E2E2E2E2E2E2E2E2E2E2E2E2E2E2E2E2E2E2E2E2E2E2E2E2E2E2E2E2E2E2E2E2E2E2E2E2E2E2E2E2E2E2E2E2E2E2E2E2E2E2E2E2E2E2E2E2E2E2E2E2E2E2E2E2E2E2E2E2E2E2E2E2E2E2E2E2E2E2E2E2E2E2E2E2E2
310
E2E2E2E2E2E2E2E2E2E2E2E2E2E2E2E2E2E2E2E2E2E2E2E2E2E2E2E2E2E2E2E2E2E2E2E2E2E2E2E2E2E2E2E2E2E2E2E2E2E2E2E2E2E2E2E2E2E2E2E2E2E2E2E2E2E2E2E2E2E2E2E2E2E2E2E2E2E2E2E2E2E2E2E2E2E2E2E2E2E2E2E2E2E2E2E2E2E2E2E2E2E2E2E2E2E2E2E2E2E2E2E2E2E2E2E2E2E2E2E2E2E2E2E2E2E2E2
310
E2E2E2E2E2E2E2E2E2E2E2E2E2E2E2E2E2E2E2E2E2E2E2E2E2E2E2E2E2E2E2E2E2E2E2E2E2E2E2E2E2E2E2E2E2E2E2E2E2E2E2E2E2E2E2E2E2E2E2E2E2E2E2E2E2E2E2E2E2E2E2E2E2E2E2E2E2E2E2E2E2E2E2E2E2E2E2E2E2E2E2E2E2E2E2E2E2E2E2E2E2E2E2E2E2E2E2E2E2E2E2E2E2E2E2E2E2E2E2E2E2E2E2E2E2E2E2
310
E2E2E2E2E2E2E2E2E2E2E2E2E2E2E2E2E2E2E2E2E2E2E2E2E2E2E2E2E2E2E2E2E2E2E2E2E2E2E2E2E2E2E2E2E2E2E2E2E2E2E2E2E2E2E2E2E2E2E2E2E2E2E2E2E2E2E2E2E2E2E2E2E2E2E2E2E2E2E2E2E2E2E2E2E2E2E2E2E2E2E2E2E2E2E2E2E2E2E2E2E2E2E2E2E2E2E2E2E2E2E2E2E2E2E2E2E2E2E2E2E2E2E2E2E2E2E2
310
E2E2E2E2E2E2E2E2E2E2E2E2E2E2E2E2E2E2E2E2E2E2E2E2E2E2E2E2E2E2E2E2E2E2E2E2E2E2E2E2E2E2E2E2E2E2E2E2E2E2E2E2E2E2E2E2E2E2E2E2E2E2E2E2E2E2E2E2E2E2E2E2E2E2E2E2E2E2E2E2E2E2E2E2E2E2E2E2E2E2E2E2E2E2E2E2E2E2E2E2E2E2E2E2E2E2E2E2E2E2E2E2E2E2E2E2E2E2E2E2E2E2E2E2E2E2E2
310
E2E2E2E2E2E2E2E2E2E2E2E2E2E2E2E2E2E2E2E2E2E2E2E2E2E2E2E2E2E2E2E2E2E2E2E2E2E2E2E2E2E2E2E2E2E2E2E2E2E2E2E2E2E2E2E2E2E2E2E2E2E2E2E2E2E2E2E2E2E2E2E2E2E2E2E2E2E2E2E2E2E2E2E2E2E2E2E2E2E2E2E2E2E2E2E2E2E2E2E2E2E2E2E2E2E2E2E2E2E2E2E2E2E2E2E2E2E2E2E2E2E2E2E2E2E2E2
310
E2E2E2E2E2E2E2E2E2E2E2E2E2E2E2E2E2E2E2E2E2E2E2E2E2E2E2E2E2E2E2E2E2E2E2E2E2E2E2E2E2E2E2E2E2E2E2E2E2E2E2E2E2E2E2E2E2E2E2E2E2E2E2E2E2E2E2E2E2E2E2E2E2E2E2E2E2E2E2E2E2E2E2E2E2E2E2E2E2E2E2E2E2E2E2E2E2E2E2E2E2E2E2E2E2E2E2E2E2E2E2E2E2E2E2E2E2E2E2E2E2E2E2E2E2E2E2
310
E2E2E2E2E2E2E2E2E2E2E2E2E2E2E2E2E2E2E2E2E2E2E2E2E2E2E2E2E2E2E2E2E2E2E2E2E2E2E2E2E2E2E2E2E2E2E2E2E2E2E2E2E2E2E2E2E2E2E2E2E2E2E2E2E2E2E2E2E2E2E2E2E2E2E2E2E2E2E2E2E2E2E2E2E2E2E2E2E2E2E2E2E2E2E2E2E2E2E2E2E2E2E2E2E2E2E2E2E2E2E2E2E2E2E2E2E2E2E2E2E2E2E2E2E2E2E2
310
E2E2E2E2E2E2E2E2E2E2E2E2E2E2E2E2E2E2E2E2E2E2E2E2E2E2E2E2E2E2E2E2E2E2E2E2E2E2E2E2E2E2E2E2E2E2E2E2E2E2E2E2E2E2E2E2E2E2E2E2E2E2E2E2E2E2E2E2E2E2E2E2E2E2E2E2E2E2E2E2E2E2E2E2E2E2E2E2E2E2E2E2E2E2E2E2E2E2E2E2E2E2E2E2E2E2E2E2E2E2E2E2E2E2E2E2E2E2E2E2E2E2E2E2E2E2E2
310
E2E2E2E2E2E2E2E2E2E2E2E2E2E2E2E2E2E2E2E2E2E2E2E2E2E2E2E2E2E2E2E2E2E2E2E2E2E2E2E2E2E2E2E2E2E2E2E2E2E2E2E2E2E2E2E2E2E2E2E2E2E2E2E2E2E2E2E2E2E2E2E2E2E2E2E2E2E2E2E2E2E2E2E2E2E2E2E2E2E2E2E2E2E2E2E2E2E2E2E2E2E2E2E2E2E2E2E2E2E2E2E2E2E2E2E2E2E2E2E2E2E2E2E2E2E2E2
310
E2E2E2E2E2E2E2E2E2E2E2E2E2E2E2E2E2E2E2E2E2E2E2E2E2E2E2E2E2E2E2E2E2E2E2E2E2E2E2E2E2E2E2E2E2E2E2E2E2E2E2E2E2E2E2E2E2E2E2E2E2E2E2E2E2E2E2E2E2E2E2E2E2E2E2E2E2E2E2E2E2E2E2E2E2E2E2E2E2E2E2E2E2E2E2E2E2E2E2E2E2E2E2E2E2E2E2E2E2E2E2E2E2E2E2E2E2E2E2E2E2E2E2E2E2E2E2
310
E2E2E2E2E2E2E2E2E2E2E2E2E2E2E2E2E2E2E2E2E2E2E2E2E2E2E2E2E2E2E2E2E2E2E2E2E2E2E2E2E2E2E2E2E2E2E2E2E2E2E2E2E2E2E2E2E2E2E2E2E2E2E2E2E2E2E2E2E2E2E2E2E2E2E2E2E2E2E2E2E2E2E2E2E2E2E2E2E2E2E2E2E2E2E2E2E2E2E2E2E2E2E2E2E2E2E2E2E2E2E2E2E2E2E2E2E2E2E2E2E2E2E2E2E2E2E2
310
E2E2E2E2E2E2E2E2E2E2E2E2E2E2E2E2E2E2E2E2E2E2E2E2E2E2E2E2E2E2E2E2E2E2E2E2E2E2E2E2E2E2E2E2E2E2E2E2E2E2E2E2E2E2E2E2E2E2E2E2E2E2E2E2E2E2E2E2E2E2E2E2E2E2E2E2E2E2E2E2E2E2E2E2E2E2E2E2E2E2E2E2E2E2E2E2E2E2E2E2E2E2E2E2E2E2E2E2E2E2E2E2E2E2E2E2E2E2E2E2E2E2E2E2E2E2E2
310
E2E2E2E2E2E2E2E2E2E2E2E2E2E2E2E2E2E2E2E2E2E2E2E2E2E2E2E2E2E2E2E2E2E2E2E2E2E2E2E2E2E2E2E2E2E2E2E2E2E2E2E2E2E2E2E2E2E2E2E2E2E2E2E2E2E2E2E2E2E2E2E2E2E2E2E2E2E2E2E2E2E2E2E2E2E2E2E2E2E2E2E2E2E2E2E2E2E2E2E2E2E2E2E2E2E2E2E2E2E2E2E2E2E2E2E2E2E2E2E2E2E2E2E2E2E2E2
310
E2E2E2E2E2E2E2E2E2E2E2E2E2E2E2E2E2E2E2E2E2E2E2E2E2E2E2E2E2E2E2E2E2E2E2E2E2E2E2E2E2E2E2E2E2E2E2E2E2E2E2E2E2E2E2E2E2E2E2E2E2E2E2E2E2E2E2E2E2E2E2E2E2E2E2E2E2E2E2E2E2E2E2E2E2E2E2E2E2E2E2E2E2E2E2E2E2E2E2E2E2E2E2E2E2E2E2E2E2E2E2E2E2E2E2E2E2E2E2E2E2E2E2E2E2E2E2
310
E2E2E2E2E2E2E2E2E2E2E2E2E2E2E2E2E2E2E2E2E2E2E2E2E2E2E2E2E2E2E2E2E2E2E2E2E2E2E2E2E2E2E2E2E2E2E2E2E2E2E2E2E2E2E2E2E2E2E2E2E2E2E2E2E2E2E2E2E2E2E2E2E2E2E2E2E2E2E2E2E2E2E2E2E2E2E2E2E2E2E2E2E2E2E2E2E2E2E2E2E2E2E2E2E2E2E2E2E2E2E2E2E2E2E2E2E2E2E2E2E2E2E2E2E2E2E2
310
E2E2E2E2E2E2E2E2E2E2E2E2E2E2E2E2E2E2E2E2E2E2E2E2E2E2E2E2E2E2E2E2E2E2E2E2E2E2E2E2E2E2E2E2E2E2E2E2E2E2E2E2E2E2E2E2E2E2E2E2E2E2E2E2E2E2E2E2E2E2E2E2E2E2E2E2E2E2E2E2E2E2E2E2E2E2E2E2E2E2E2E2E2E2E2E2E2E2E2E2E2E2E2E2E2E2E2E2E2E2E2E2E2E2E2E2E2E2E2E2E2E2E2E2E2E2E2
310
E2E2E2E2E2E2E2E2E2E2E2E2E2E2E2E2E2E2E2E2E2E2E2E2E2E2E2E2E2E2E2E2E2E2E2E2E2E2E2E2E2E2E2E2E2E2E2E2E2E2E2E2E2E2E2E2E2E2E2E2E2E2E2E2E2E2E2E2E2E2E2E2E2E2E2E2E2E2E2E2E2E2E2E2E2E2E2E2E2E2E2E2E2E2E2E2E2E2E2E2E2E2E2E2E2E2E2E2E2E2E2E2E2E2E2E2E2E2E2E2E2E2E2E2E2E2E2
310
E2E2E2E2E2E2E2E2E2E2E2E2E2E2E2E2E2E2E2E2E2E2E2E2E2E2E2E2E2E2E2E2E2E2E2E2E2E2E2E2E2E2E2E2E2E2E2E2E2E2E2E2E2E2E2E2E2E2E2E2E2E2E2E2E2E2E2E2E2E2E2E2E2E2E2E2E2E2E2E2E2E2E2E2E2E2E2E2E2E2E2E2E2E2E2E2E2E2E2E2E2E2E2E2E2E2E2E2E2E2E2E2E2E2E2E2E2E2E2E2E2E2E2E2E2E2E2
310
E2E2E2E2E2E2E2E2E2E2E2E2E2E2E2E2E2E2E2E2E2E2E2E2E2E2E2E2E2E2E2E2E2E2E2E2E2E2E2E2E2E2E2E2E2E2E2E2E2E2E2E2E2E2E2E2E2E2E2E2E2E2E2E2E2E2E2E2E2E2E2E2E2E2E2E2E2E2E2E2E2E2E2E2E2E2E2E2E2E2E2E2E2E2E2E2E2E2E2E2E2E2E2E2E2E2E2E2E2E2E2E2E2E2E2E2E2E2E2E2E2E2E2E2E2E2E2
310
E2E2E2E2E2E2E2E2E2E2E2E2E2E2E2E2E2E2E2E2E2E2E2E2E2E2E2E2E2E2E2E2E2E2E2E2E2E2E2E2E2E2E2E2E2E2E2E2E2E2E2E2E2E2E2E2E2E2E2E2E2E2E2E2E2E2E2E2E2E2E2E2E2E2E2E2E2E2E2E2E2E2E2E2E2E2E2E2E2E2E2E2E2E2E2E2E2E2E2E2E2E2E2E2E2E2E2E2E2E2E2E2E2E2E2E2E2E2E2E2E2E2E2E2E2E2E2
310
E2E2E2E2E2E2E2E2E2E2E2E2E2E2E2E2E2E2E2E2E2E2E2E2E2E2E2E2E2E2E2E2E2E2E2E2E2E2E2E2E2E2E2E2E2E2E2E2E2E2E2E2E2E2E2E2E2E2E2E2E2E2E2E2E2E2E2E2E2E2E2E2E2E2E2E2E2E2E2E2E2E2E2E2E2E2E2E2E2E2E2E2E2E2E2E2E2E2E2E2E2E2E2E2E2E2E2E2E2E2E2E2E2E2E2E2E2E2E2E2E2E2E2E2E2E2E2
310
E2E2E2E2E2E2E2E2E2E2E2E2E2E2E2E2E2E2E2E2E2E2E2E2E2E2E2E2E2E2E2E2E2E2E2E2E2E2E2E2E2E2E2E2E2E2E2E2E2E2E2E2E2E2E2E2E2E2E2E2E2E2E2E2E2E2E2E2E2E2E2E2E2E2E2E2E2E2E2E2E2E2E2E2E2E2E2E2E2E2E2E2E2E2E2E2E2E2E2E2E2E2E2E2E2E2E2E2E2E2E2E2E2E2E2E2E2E2E2E2E2E2E2E2E2E2E2
310
E2E2E2E2E2E2E2E2E2E2E2E2E2E2E2E2E2E2E2E2E2E2E2E2E2E2E2E2E2E2E2E2E2E2E2E2E2E2E2E2E2E2E2E2E2E2E2E2E2E2E2E2E2E2E2E2E2E2E2E2E2E2E2E2E2E2E2E2E2E2E2E2E2E2E2E2E2E2E2E2E2E2E2E2E2E2E2E2E2E2E2E2E2E2E2E2E2E2E2E2E2E2E2E2E2E2E2E2E2E2E2E2E2E2E2E2E2E2E2E2E2E2E2E2E2E2E2
310
E2E2E2E2E2E2E2E2E2E2E2E2E2E2E2E2E2E2E2E2E2E2E2E2E2E2E2E2E2E2E2E2E2E2E2E2E2E2E2E2E2E2E2E2E2E2E2E2E2E2E2E2E2E2E2E2E2E2E2E2E2E2E2E2E2E2E2E2E2E2E2E2E2E2E2E2E2E2E2E2E2E2E2E2E2E2E2E2E2E2E2E2E2E2E2E2E2E2E2E2E2E2E2E2E2E2E2E2E2E2E2E2E2E2E2E2E2E2E2E2E2E2E2E2E2E2E2
310
E2E2E2E2E2E2E2E2E2E2E2E2E2E2E2E2E2E2E2E2E2E2E2E2E2E2E2E2E2E2E2E2E2E2E2E2E2E2E2E2E2E2E2E2E2E2E2E2E2E2E2E2E2E2E2E2E2E2E2E2E2E2E2E2E2E2E2E2E2E2E2E2E2E2E2E2E2E2E2E2E2E2E2E2E2E2E2E2E2E2E2E2E2E2E2E2E2E2E2E2E2E2E2E2E2E2E2E2E2E2E2E2E2E2E2E2E2E2E2E2E2E2E2E2E2E2E2
310
E2E2E2E2E2E2E2E2E2E2E2E2E2E2E2E2E2E2E2E2E2E2E2E2E2E2E2E2E2E2E2E2E2E2E2E2E2E2E2E2E2E2E2E2E2E2E2E2E2E2E2E2E2E2E2E2E2E2E2E2E2E2E2E2E2E2E2E2E2E2E2E2E2E2E2E2E2E2E2E2E2E2E2E2E2E2E2E2E2E2E2E2E2E2E2E2E2E2E2E2E2E2E2E2E2E2E2E2E2E2E2E2E2E2E2E2E2E2E2E2E2E2E2E2E2E2E2
310
E2E2E2E2E2E2E2E2E2E2E2E2E2E2E2E2E2E2E2E2E2E2E2E2E2E2E2E2E2E2E2E2E2E2E2E2E2E2E2E2E2E2E2E2E2E2E2E2E2E2E2E2E2E2E2E2E2E2E2E2E2E2E2E2E2E2E2E2E2E2E2E2E2E2E2E2E2E2E2E2E2E2E2E2E2E2E2E2E2E2E2E2E2E2E2E2E2E2E2E2E2E2E2E2E2E2E2E2E2E2E2E2E2E2E2E2E2E2E2E2E2E2E2E2E2E2E2
310
E2E2E2E2E2E2E2E2E2E2E2E2E2E2E2E2E2E2E2E2E2E2E2E2E2E2E2E2E2E2E2E2E2E2E2E2E2E2E2E2E2E2E2E2E2E2E2E2E2E2E2E2E2E2E2E2E2E2E2E2E2E2E2E2E2E2E2E2E2E2E2E2E2E2E2E2E2E2E2E2E2E2E2E2E2E2E2E2E2E2E2E2E2E2E2E2E2E2E2E2E2E2E2E2E2E2E2E2E2E2E2E2E2E2E2E2E2E2E2E2E2E2E2E2E2E2E2
310
E2E2E2E2E2E2E2E2E2E2E2E2E2E2E2E2E2E2E2E2E2E2E2E2E2E2E2E2E2E2E2E2E2E2E2E2E2E2E2E2E2E2E2E2E2E2E2E2E2E2E2E2E2E2E2E2E2E2E2E2E2E2E2E2E2E2E2E2E2E2E2E2E2E2E2E2E2E2E2E2E2E2E2E2E2E2E2E2E2E2E2E2E2E2E2E2E2E2E2E2E2E2E2E2E2E2E2E2E2E2E2E2E2E2E2E2E2E2E2E2E2E2E2E2E2E2E2
310
E2E2E2E2E2E2E2E2E2E2E2E2E2E2E2E2E2E2E2E2E2E2E2E2E2E2E2E2E2E2E2E2E2E2E2E2E2E2E2E2E2E2E2E2E2E2E2E2E2E2E2E2E2E2E2E2E2E2E2E2E2E2E2E2E2E2E2E2E2E2E2E2E2E2E2E2E2E2E2E2E2E2E2E2E2E2E2E2E2E2E2E2E2E2E2E2E2E2E2E2E2E2E2E2E2E2E2E2E2E2E2E2E2E2E2E2E2E2E2E2E2E2E2E2E2E2E2
310
E2E2E2E2E2E2E2E2E2E2E2E2E2E2E2E2E2E2E2E2E2E2E2E2E2E2E2E2E2E2E2E2E2E2E2E2E2E2E2E2E2E2E2E2E2E2E2E2E2E2E2E2E2E2E2E2E2E2E2E2E2E2E2E2E2E2E2E2E2E2E2E2E2E2E2E2E2E2E2E2E2E2E2E2E2E2E2E2E2E2E2E2E2E2E2E2E2E2E2E2E2E2E2E2E2E2E2E2E2E2E2E2E2E2E2E2E2E2E2E2E2E2E2E2E2E2E2
310
E2E2E2E2E2E2E2E2E2E2E2E2E2E2E2E2E2E2E2E2E2E2E2E2E2E2E2E2E2E2E2E2E2E2E2E2E2E2E2E2E2E2E2E2E2E2E2E2E2E2E2E2E2E2E2E2E2E2E2E2E2E2E2E2E2E2E2E2E2E2E2E2E2E2E2E2E2E2E2E2E2E2E2E2E2E2E2E2E2E2E2E2E2E2E2E2E2E2E2E2E2E2E2E2E2E2E2E2E2E2E2E2E2E2E2E2E2E2E2E2E2E2E2E2E2E2E2
310
E2E2E2E2E2E2E2E2E2E2E2E2E2E2E2E2E2E2E2E2E2E2E2E2E2E2E2E2E2E2E2E2E2E2E2E2E2E2E2E2E2E2E2E2E2E2E2E2E2E2E2E2E2E2E2E2E2E2E2E2E2E2E2E2E2E2E2E2E2E2E2E2E2E2E2E2E2E2E2E2E2E2E2E2E2E2E2E2E2E2E2E2E2E2E2E2E2E2E2E2E2E2E2E2E2E2E2E2E2E2E2E2E2E2E2E2E2E2E2E2E2E2E2E2E2E2E2
310
E2E2E2E2E2E2E2E2E2E2E2E2E2E2E2E2E2E2E2E2E2E2E2E2E2E2E2E2E2E2E2E2E2E2E2E2E2E2E2E2E2E2E2E2E2E2E2E2E2E2E2E2E2E2E2E2E2E2E2E2E2E2E2E2E2E2E2E2E2E2E2E2E2E2E2E2E2E2E2E2E2E2E2E2E2E2E2E2E2E2E2E2E2E2E2E2E2E2E2E2E2E2E2E2E2E2E2E2E2E2E2E2E2E2E2E2E2E2E2E2E2E2E2E2E2E2E2
310
E2E2E2E2E2E2E2E2E2E2E2E2E2E2E2E2E2E2E2E2E2E2E2E2E2E2E2E2E2E2E2E2E2E2E2E2E2E2E2E2E2E2E2E2E2E2E2E2E2E2E2E2E2E2E2E2E2E2E2E2E2E2E2E2E2E2E2E2E2E2E2E2E2E2E2E2E2E2E2E2E2E2E2E2E2E2E2E2E2E2E2E2E2E2E2E2E2E2E2E2E2E2E2E2E2E2E2E2E2E2E2E2E2E2E2E2E2E2E2E2E2E2E2E2E2E2E2
310
E2E2E2E2E2E2E2E2E2E2E2E2E2E2E2E2E2E2E2E2E2E2E2E2E2E2E2E2E2E2E2E2E2E2E2E2E2E2E2E2E2E2E2E2E2E2E2E2E2E2E2E2E2E2E2E2E2E2E2E2E2E2E2E2E2E2E2E2E2E2E2E2E2E2E2E2E2E2E2E2E2E2E2E2E2E2E2E2E2E2E2E2E2E2E2E2E2E2E2E2E2E2E2E2E2E2E2E2E2E2E2E2E2E2E2E2E2E2E2E2E2E2E2E2E2E2E2
310
E2E2E2E2E2E2E2E2E2E2E2E2E2E2E2E2E2E2E2E2E2E2E2E2E2E2E2E2E2E2E2E2E2E2E2E2E2E2E2E2E2E2E2E2E2E2E2E2E2E2E2E2E2E2E2E2E2E2E2E2E2E2E2E2E2E2E2E2E2E2E2E2E2E2E2E2E2E2E2E2E2E2E2E2E2E2E2E2E2E2E2E2E2E2E2E2E2E2E2E2E2E2E2E2E2E2E2E2E2E2E2E2E2E2E2E2E2E2E2E2E2E2E2E2E2E2E2
310
E2E2E2E2E2E2E2E2E2E2E2E2E2E2E2E2E2E2E2E2E2E2E2E2E2E2E2E2E2E2E2E2E2E2E2E2E2E2E2E2E2E2E2E2E2E2E2E2E2E2E2E2E2E2E2E2E2E2E2E2E2E2E2E2E2E2E2E2E2E2E2E2E2E2E2E2E2E2E2E2E2E2E2E2E2E2E2E2E2E2E2E2E2E2E2E2E2E2E2E2E2E2E2E2E2E2E2E2E2E2E2E2E2E2E2E2E2E2E2E2E2E2E2E2E2E2E2
310
E2E2E2E2E2E2E2E2E2E2E2E2E2E2E2E2E2E2E2E2E2E2E2E2E2E2E2E2E2E2E2E2E2E2E2E2E2E2E2E2E2E2E2E2E2E2E2E2E2E2E2E2E2E2E2E2E2E2E2E2E2E2E2E2E2E2E2E2E2E2E2E2E2E2E2E2E2E2E2E2E2E2E2E2E2E2E2E2E2E2E2E2E2E2E2E2E2E2E2E2E2E2E2E2E2E2E2E2E2E2E2E2E2E2E2E2E2E2E2E2E2E2E2E2E2E2E2
310
E2E2E2E2E2E2E2E2E2E2E2E2E2E2E2E2E2E2E2E2E2E2E2E2E2E2E2E2E2E2E2E2E2E2E2E2E2E2E2E2E2E2E2E2E2E2E2E2E2E2E2E2E2E2E2E2E2E2E2E2E2E2E2E2E2E2E2E2E2E2E2E2E2E2E2E2E2E2E2E2E2E2E2E2E2E2E2E2E2E2E2E2E2E2E2E2E2E2E2E2E2E2E2E2E2E2E2E2E2E2E2E2E2E2E2E2E2E2E2E2E2E2E2E2E2E2E2
310
E2E2E2E2E2E2E2E2E2E2E2E2E2E2E2E2E2E2E2E2E2E2E2E2E2E2E2E2E2E2E2E2E2E2E2E2E2E2E2E2E2E2E2E2E2E2E2E2E2E2E2E2E2E2E2E2E2E2E2E2E2E2E2E2E2E2E2E2E2E2E2E2E2E2E2E2E2E2E2E2E2E2E2E2E2E2E2E2E2E2E2E2E2E2E2E2E2E2E2E2E2E2E2E2E2E2E2E2E2E2E2E2E2E2E2E2E2E2E2E2E2E2E2E2E2E2E2
310
E2E2E2E2E2E2E2E2E2E2E2E2E2E2E2E2E2E2E2E2E2E2E2E2E2E2E2E2E2E2E2E2E2E2E2E2E2E2E2E2E2E2E2E2E2E2E2E2E2E2E2E2E2E2E2E2E2E2E2E2E2E2E2E2E2E2E2E2E2E2E2E2E2E2E2E2E2E2E2E2E2E2E2E2E2E2E2E2E2E2E2E2E2E2E2E2E2E2E2E2E2E2E2E2E2E2E2E2E2E2E2E2E2E2E2E2E2E2E2E2E2E2E2E2E2E2E2
310
E2E2E2E2E2E2E2E2E2E2E2E2E2E2E2E2E2E2E2E2E2E2E2E2E2E2E2E2E2E2E2E2E2E2E2E2E2E2E2E2E2E2E2E2E2E2E2E2E2E2E2E2E2E2E2E2E2E2E2E2E2E2E2E2E2E2E2E2E2E2E2E2E2E2E2E2E2E2E2E2E2E2E2E2E2E2E2E2E2E2E2E2E2E2E2E2E2E2E2E2E2E2E2E2E2E2E2E2E2E2E2E2E2E2E2E2E2E2E2E2E2E2E2E2E2E2E2
310
E2E2E2E2E2E2E2E2E2E2E2E2E2E2E2E2E2E2E2E2E2E2E2E2E2E2E2E2E2E2E2E2E2E2E2E2E2E2E2E2E2E2E2E2E2E2E2E2E2E2E2E2E2E2E2E2E2E2E2E2E2E2E2E2E2E2E2E2E2E2E2E2E2E2E2E2E2E2E2E2E2E2E2E2E2E2E2E2E2E2E2E2E2E2E2E2E2E2E2E2E2E2E2E2E2E2E2E2E2E2E2E2E2E2E2E2E2E2E2E2E2E2E2E2E2E2E2
310
E2E2E2E2E2E2E2E2E2E2E2E2E2E2E2E2E2E2E2E2E2E2E2E2E2E2E2E2E2E2E2E2E2E2E2E2E2E2E2E2E2E2E2E2E2E2E2E2E2E2E2E2E2E2E2E2E2E2E2E2E2E2E2E2E2E2E2E2E2E2E2E2E2E2E2E2E2E2E2E2E2E2E2E2E2E2E2E2E2E2E2E2E2E2E2E2E2E2E2E2E2E2E2E2E2E2E2E2E2E2E2E2E2E2E2E2E2E2E2E2E2E2E2E2E2E2E2
310
E2E2E2E2E2E2E2E2E2E2E2E2E2E2E2E2E2E2E2E2E2E2E2E2E2E2E2E2E2E2E2E2E2E2E2E2E2E2E2E2E2E2E2E2E2E2E2E2E2E2E2E2E2E2E2E2E2E2E2E2E2E2E2E2E2E2E2E2E2E2E2E2E2E2E2E2E2E2E2E2E2E2E2E2E2E2E2E2E2E2E2E2E2E2E2E2E2E2E2E2E2E2E2E2E2E2E2E2E2E2E2E2E2E2E2E2E2E2E2E2E2E2E2E2E2E2E2
310
E2E2E2E2E2E2E2E2E2E2E2E2E2E2E2E2E2E2E2E2E2E2E2E2E2E2E2E2E2E2E2E2E2E2E2E2E2E2E2E2E2E2E2E2E2E2E2E2E2E2E2E2E2E2E2E2E2E2E2E2E2E2E2E2E2E2E2E2E2E2E2E2E2E2E2E2E2E2E2E2E2E2E2E2E2E2E2E2E2E2E2E2E2E2E2E2E2E2E2E2E2E2E2E2E2E2E2E2E2E2E2E2E2E2E2E2E2E2E2E2E2E2E2E2E2E2E2
310
E2E2E2E2E2E2E2E2E2E2E2E2E2E2E2E2E2E2E2E2E2E2E2E2E2E2E2E2E2E2E2E2E2E2E2E2E2E2E2E2E2E2E2E2E2E2E2E2E2E2E2E2E2E2E2E2E2E2E2E2E2E2E2E2E2E2E2E2E2E2E2E2E2E2E2E2E2E2E2E2E2E2E2E2E2E2E2E2E2E2E2E2E2E2E2E2E2E2E2E2E2E2E2E2E2E2E2E2E2E2E2E2E2E2E2E2E2E2E2E2E2E2E2E2E2E2E2
310
E2E2E2E2E2E2E2E2E2E2E2E2E2E2E2E2E2E2E2E2E2E2E2E2E2E2E2E2E2E2E2E2E2E2E2E2E2E2E2E2E2E2E2E2E2E2E2E2E2E2E2E2E2E2E2E2E2E2E2E2E2E2E2E2E2E2E2E2E2E2E2E2E2E2E2E2E2E2E2E2E2E2E2E2E2E2E2E2E2E2E2E2E2E2E2E2E2E2E2E2E2E2E2E2E2E2E2E2E2E2E2E2E2E2E2E2E2E2E2E2E2E2E2E2E2E2E2
310
E2E2E2E2E2E2E2E2E2E2E2E2E2E2E2E2E2E2E2E2E2E2E2E2E2E2E2E2E2E2E2E2E2E2E2E2E2E2E2E2E2E2E2E2E2E2E2E2E2E2E2E2E2E2E2E2E2E2E2E2E2E2E2E2E2E2E2E2E2E2E2E2E2E2E2E2E2E2E2E2E2E2E2E2E2E2E2E2E2E2E2E2E2E2E2E2E2E2E2E2E2E2E2E2E2E2E2E2E2E2E2E2E2E2E2E2E2E2E2E2E2E2E2E2E2E2E2
310
E2E2E2E2E2E2E2E2E2E2E2E2E2E2E2E2E2E2E2E2E2E2E2E2E2E2E2E2E2E2E2E2E2E2E2E2E2E2E2E2E2E2E2E2E2E2E2E2E2E2E2E2E2E2E2E2E2E2E2E2E2E2E2E2E2E2E2E2E2E2E2E2E2E2E2E2E2E2E2E2E2E2E2E2E2E2E2E2E2E2E2E2E2E2E2E2E2E2E2E2E2E2E2E2E2E2E2E2E2E2E2E2E2E2E2E2E2E2E2E2E2E2E2E2E2E2E2
310
E2E2E2E2E2E2E2E2E2E2E2E2E2E2E2E2E2E2E2E2E2E2E2E2E2E2E2E2E2E2E2E2E2E2E2E2E2E2E2E2E2E2E2E2E2E2E2E2E2E2E2E2E2E2E2E2E2E2E2E2E2E2E2E2E2E2E2E2E2E2E2E2E2E2E2E2E2E2E2E2E2E2E2E2E2E2E2E2E2E2E2E2E2E2E2E2E2E2E2E2E2E2E2E2E2E2E2E2E2E2E2E2E2E2E2E2E2E2E2E2E2E2E2E2E2E2E2
310
E2E2E2E2E2E2E2E2E2E2E2E2E2E2E2E2E2E2E2E2E2E2E2E2E2E2E2E2E2E2E2E2E2E2E2E2E2E2E2E2E2E2E2E2E2E2E2E2E2E2E2E2E2E2E2E2E2E2E2E2E2E2E2E2E2E2E2E2E2E2E2E2E2E2E2E2E2E2E2E2E2E2E2E2E2E2E2E2E2E2E2E2E2E2E2E2E2E2E2E2E2E2E2E2E2E2E2E2E2E2E2E2E2E2E2E2E2E2E2E2E2E2E2E2E2E2E2
310
E2E2E2E2E2E2E2E2E2E2E2E2E2E2E2E2E2E2E2E2E2E2E2E2E2E2E2E2E2E2E2E2E2E2E2E2E2E2E2E2E2E2E2E2E2E2E2E2E2E2E2E2E2E2E2E2E2E2E2E2E2E2E2E2E2E2E2E2E2E2E2E2E2E2E2E2E2E2E2E2E2E2E2E2E2E2E2E2E2E2E2E2E2E2E2E2E2E2E2E2E2E2E2E2E2E2E2E2E2E2E2E2E2E2E2E2E2E2E2E2E2E2E2E2E2E2E2
310
E2E2E2E2E2E2E2E2E2E2E2E2E2E2E2E2E2E2E2E2E2E2E2E2E2E2E2E2E2E2E2E2E2E2E2E2E2E2E2E2E2E2E2E2E2E2E2E2E2E2E2E2E2E2E2E2E2E2E2E2E2E2E2E2E2E2E2E2E2E2E2E2E2E2E2E2E2E2E2E2E2E2E2E2E2E2E2E2E2E2E2E2E2E2E2E2E2E2E2E2E2E2E2E2E2E2E2E2E2E2E2E2E2E2E2E2E2E2E2E2E2E2E2E2E2E2E2
310
E2E2E2E2E2E2E2E2E2E2E2E2E2E2E2E2E2E2E2E2E2E2E2E2E2E2E2E2E2E2E2E2E2E2E2E2E2E2E2E2E2E2E2E2E2E2E2E2E2E2E2E2E2E2E2E2E2E2E2E2E2E2E2E2E2E2E2E2E2E2E2E2E2E2E2E2E2E2E2E2E2E2E2E2E2E2E2E2E2E2E2E2E2E2E2E2E2E2E2E2E2E2E2E2E2E2E2E2E2E2E2E2E2E2E2E2E2E2E2E2E2E2E2E2E2E2E2
310
E2E2E2E2E2E2E2E2E2E2E2E2E2E2E2E2E2E2E2E2E2E2E2E2E2E2E2E2E2E2E2E2E2E2E2E2E2E2E2E2E2E2E2E2E2E2E2E2E2E2E2E2E2E2E2E2E2E2E2E2E2E2E2E2E2E2E2E2E2E2E2E2E2E2E2E2E2E2E2E2E2E2E2E2E2E2E2E2E2E2E2E2E2E2E2E2E2E2E2E2E2E2E2E2E2E2E2E2E2E2E2E2E2E2E2E2E2E2E2E2E2E2E2E2E2E2E2
310
E2E2E2E2E2E2E2E2E2E2E2E2E2E2E2E2E2E2E2E2E2E2E2E2E2E2E2E2E2E2E2E2E2E2E2E2E2E2E2E2E2E2E2E2E2E2E2E2E2E2E2E2E2E2E2E2E2E2E2E2E2E2E2E2E2E2E2E2E2E2E2E2E2E2E2E2E2E2E2E2E2E2E2E2E2E2E2E2E2E2E2E2E2E2E2E2E2E2E2E2E2E2E2E2E2E2E2E2E2E2E2E2E2E2E2E2E2E2E2E2E2E2E2E2E2E2E2
310
E2E2E2E2E2E2E2E2E2E2E2E2E2E2E2E2E2E2E2E2E2E2E2E2E2E2E2E2E2E2E2E2E2E2E2E2E2E2E2E2E2E2E2E2E2E2E2E2E2E2E2E2E2E2E2E2E2E2E2E2E2E2E2E2E2E2E2E2E2E2E2E2E2E2E2E2E2E2E2E2E2E2E2E2E2E2E2E2E2E2E2E2E2E2E2E2E2E2E2E2E2E2E2E2E2E2E2E2E2E2E2E2E2E2E2E2E2E2E2E2E2E2E2E2E2E2E2
310
E2E2E2E2E2E2E2E2E2E2E2E2E2E2E2E2E2E2E2E2E2E2E2E2E2E2E2E2E2E2E2E2E2E2E2E2E2E2E2E2E2E2E2E2E2E2E2E2E2E2E2E2E2E2E2E2E2E2E2E2E2E2E2E2E2E2E2E2E2E2E2E2E2E2E2E2E2E2E2E2E2E2E2E2E2E2E2E2E2E2E2E2E2E2E2E2E2E2E2E2E2E2E2E2E2E2E2E2E2E2E2E2E2E2E2E2E2E2E2E2E2E2E2E2E2E2E2
310
E2E2E2E2E2E2E2E2E2E2E2E2E2E2E2E2E2E2E2E2E2E2E2E2E2E2E2E2E2E2E2E2E2E2E2E2E2E2E2E2E2E2E2E2E2E2E2E2E2E2E2E2E2E2E2E2E2E2E2E2E2E2E2E2E2E2E2E2E2E2E2E2E2E2E2E2E2E2E2E2E2E2E2E2E2E2E2E2E2E2E2E2E2E2E2E2E2E2E2E2E2E2E2E2E2E2E2E2E2E2E2E2E2E2E2E2E2E2E2E2E2E2E2E2E2E2E2
310
E2E2E2E2E2E2E2E2E2E2E2E2E2E2E2E2E2E2E2E2E2E2E2E2E2E2E2E2E2E2E2E2E2E2E2E2E2E2E2E2E2E2E2E2E2E2E2E2E2E2E2E2E2E2E2E2E2E2E2E2E2E2E2E2E2E2E2E2E2E2E2E2E2E2E2E2E2E2E2E2E2E2E2E2E2E2E2E2E2E2E2E2E2E2E2E2E2E2E2E2E2E2E2E2E2E2E2E2E2E2E2E2E2E2E2E2E2E2E2E2E2E2E2E2E2E2E2
310
E2E2E2E2E2E2E2E2E2E2E2E2E2E2E2E2E2E2E2E2E2E2E2E2E2E2E2E2E2E2E2E2E2E2E2E2E2E2E2E2E2E2E2E2E2E2E2E2E2E2E2E2E2E2E2E2E2E2E2E2E2E2E2E2E2E2E2E2E2E2E2E2E2E2E2E2E2E2E2E2E2E2E2E2E2E2E2E2E2E2E2E2E2E2E2E2E2E2E2E2E2E2E2E2E2E2E2E2E2E2E2E2E2E2E2E2E2E2E2E2E2E2E2E2E2E2E2
310
E2E2E2E2E2E2E2E2E2E2E2E2E2E2E2E2E2E2E2E2E2E2E2E2E2E2E2E2E2E2E2E2E2E2E2E2E2E2E2E2E2E2E2E2E2E2E2E2E2E2E2E2E2E2E2E2E2E2E2E2E2E2E2E2E2E2E2E2E2E2E2E2E2E2E2E2E2E2E2E2E2E2E2E2E2E2E2E2E2E2E2E2E2E2E2E2E2E2E2E2E2E2E2E2E2E2E2E2E2E2E2E2E2E2E2E2E2E2E2E2E2E2E2E2E2E2E2
310
E2E2E2E2E2E2E2E2E2E2E2E2E2E2E2E2E2E2E2E2E2E2E2E2E2E2E2E2E2E2E2E2E2E2E2E2E2E2E2E2E2E2E2E2E2E2E2E2E2E2E2E2E2E2E2E2E2E2E2E2E2E2E2E2E2E2E2E2E2E2E2E2E2E2E2E2E2E2E2E2E2E2E2E2E2E2E2E2E2E2E2E2E2E2E2E2E2E2E2E2E2E2E2E2E2E2E2E2E2E2E2E2E2E2E2E2E2E2E2E2E2E2E2E2E2E2E2
310
E2E2E2E2E2E2E2E2E2E2E2E2E2E2E2E2E2E2E2E2E2E2E2E2E2E2E2E2E2E2E2E2E2E2E2E2E2E2E2E2E2E2E2E2E2E2E2E2E2E2E2E2E2E2E2E2E2E2E2E2E2E2E2E2E2E2E2E2E2E2E2E2E2E2E2E2E2E2E2E2E2E2E2E2E2E2E2E2E2E2E2E2E2E2E2E2E2E2E2E2E2E2E2E2E2E2E2E2E2E2E2E2E2E2E2E2E2E2E2E2E2E2E2E2E2E2E2
310
E2E2E2E2E2E2E2E2E2E2E2E2E2E2E2E2E2E2E2E2E2E2E2E2E2E2E2E2E2E2E2E2E2E2E2E2E2E2E2E2E2E2E2E2E2E2E2E2E2E2E2E2E2E2E2E2E2E2E2E2E2E2E2E2E2E2E2E2E2E2E2E2E2E2E2E2E2E2E2E2E2E2E2E2E2E2E2E2E2E2E2E2E2E2E2E2E2E2E2E2E2E2E2E2E2E2E2E2E2E2E2E2E2E2E2E2E2E2E2E2E2E2E2E2E2E2E2
310
E2E2E2E2E2E2E2E2E2E2E2E2E2E2E2E2E2E2E2E2E2E2E2E2E2E2E2E2E2E2E2E2E2E2E2E2E2E2E2E2E2E2E2E2E2E2E2E2E2E2E2E2E2E2E2E2E2E2E2E2E2E2E2E2E2E2E2E2E2E2E2E2E2E2E2E2E2E2E2E2E2E2E2E2E2E2E2E2E2E2E2E2E2E2E2E2E2E2E2E2E2E2E2E2E2E2E2E2E2E2E2E2E2E2E2E2E2E2E2E2E2E2E2E2E2E2E2
310
E2E2E2E2E2E2E2E2E2E2E2E2E2E2E2E2E2E2E2E2E2E2E2E2E2E2E2E2E2E2E2E2E2E2E2E2E2E2E2E2E2E2E2E2E2E2E2E2E2E2E2E2E2E2E2E2E2E2E2E2E2E2E2E2E2E2E2E2E2E2E2E2E2E2E2E2E2E2E2E2E2E2E2E2E2E2E2E2E2E2E2E2E2E2E2E2E2E2E2E2E2E2E2E2E2E2E2E2E2E2E2E2E2E2E2E2E2E2E2E2E2E2E2E2E2E2E2
310
E2E2E2E2E2E2E2E2E2E2E2E2E2E2E2E2E2E2E2E2E2E2E2E2E2E2E2E2E2E2E2E2E2E2E2E2E2E2E2E2E2E2E2E2E2E2E2E2E2E2E2E2E2E2E2E2E2E2E2E2E2E2E2E2E2E2E2E2E2E2E2E2E2E2E2E2E2E2E2E2E2E2E2E2E2E2E2E2E2E2E2E2E2E2E2E2E2E2E2E2E2E2E2E2E2E2E2E2E2E2E2E2E2E2E2E2E2E2E2E2E2E2E2E2E2E2E2
310
E2E2E2E2E2E2E2E2E2E2E2E2E2E2E2E2E2E2E2E2E2E2E2E2E2E2E2E2E2E2E2E2E2E2E2E2E2E2E2E2E2E2E2E2E2E2E2E2E2E2E2E2E2E2E2E2E2E2E2E2E2E2E2E2E2E2E2E2E2E2E2E2E2E2E2E2E2E2E2E2E2E2E2E2E2E2E2E2E2E2E2E2E2E2E2E2E2E2E2E2E2E2E2E2E2E2E2E2E2E2E2E2E2E2E2E2E2E2E2E2E2E2E2E2E2E2E2
310
E2E2E2E2E2E2E2E2E2E2E2E2E2E2E2E2E2E2E2E2E2E2E2E2E2E2E2E2E2E2E2E2E2E2E2E2E2E2E2E2E2E2E2E2E2E2E2E2E2E2E2E2E2E2E2E2E2E2E2E2E2E2E2E2E2E2E2E2E2E2E2E2E2E2E2E2E2E2E2E2E2E2E2E2E2E2E2E2E2E2E2E2E2E2E2E2E2E2E2E2E2E2E2E2E2E2E2E2E2E2E2E2E2E2E2E2E2E2E2E2E2E2E2E2E2E2E2
310
E2E2E2E2E2E2E2E2E2E2E2E2E2E2E2E2E2E2E2E2E2E2E2E2E2E2E2E2E2E2E2E2E2E2E2E2E2E2E2E2E2E2E2E2E2E2E2E2E2E2E2E2E2E2E2E2E2E2E2E2E2E2E2E2E2E2E2E2E2E2E2E2E2E2E2E2E2E2E2E2E2E2E2E2E2E2E2E2E2E2E2E2E2E2E2E2E2E2E2E2E2E2E2E2E2E2E2E2E2E2E2E2E2E2E2E2E2E2E2E2E2E2E2E2E2E2E2
310
E2E2E2E2E2E2E2E2E2E2E2E2E2E2E2E2E2E2E2E2E2E2E2E2E2E2E2E2E2E2E2E2E2E2E2E2E2E2E2E2E2E2E2E2E2E2E2E2E2E2E2E2E2E2E2E2E2E2E2E2E2E2E2E2E2E2E2E2E2E2E2E2E2E2E2E2E2E2E2E2E2E2E2E2E2E2E2E2E2E2E2E2E2E2E2E2E2E2E2E2E2E2E2E2E2E2E2E2E2E2E2E2E2E2E2E2E2E2E2E2E2E2E2E2E2E2E2
310
E2E2E2E2E2E2E2E2E2E2E2E2E2E2E2E2E2E2E2E2E2E2E2E2E2E2E2E2E2E2E2E2E2E2E2E2E2E2E2E2E2E2E2E2E2E2E2E2E2E2E2E2E2E2E2E2E2E2E2E2E2E2E2E2E2E2E2E2E2E2E2E2E2E2E2E2E2E2E2E2E2E2E2E2E2E2E2E2E2E2E2E2E2E2E2E2E2E2E2E2E2E2E2E2E2E2E2E2E2E2E2E2E2E2E2E2E2E2E2E2E2E2E2E2E2E2E2
310
E2E2E2E2E2E2E2E2E2E2E2E2E2E2E2E2E2E2E2E2E2E2E2E2E2E2E2E2E2E2E2E2E2E2E2E2E2E2E2E2E2E2E2E2E2E2E2E2E2E2E2E2E2E2E2E2E2E2E2E2E2E2E2E2E2E2E2E2E2E2E2E2E2E2E2E2E2E2E2E2E2E2E2E2E2E2E2E2E2E2E2E2E2E2E2E2E2E2E2E2E2E2E2E2E2E2E2E2E2E2E2E2E2E2E2E2E2E2E2E2E2E2E2E2E2E2E2
310
E2E2E2E2E2E2E2E2E2E2E2E2E2E2E2E2E2E2E2E2E2E2E2E2E2E2E2E2E2E2E2E2E2E2E2E2E2E2E2E2E2E2E2E2E2E2E2E2E2E2E2E2E2E2E2E2E2E2E2E2E2E2E2E2E2E2E2E2E2E2E2E2E2E2E2E2E2E2E2E2E2E2E2E2E2E2E2E2E2E2E2E2E2E2E2E2E2E2E2E2E2E2E2E2E2E2E2E2E2E2E2E2E2E2E2E2E2E2E2E2E2E2E2E2E2E2E2
310
E2E2E2E2E2E2E2E2E2E2E2E2E2E2E2E2E2E2E2E2E2E2E2E2E2E2E2E2E2E2E2E2E2E2E2E2E2E2E2E2E2E2E2E2E2E2E2E2E2E2E2E2E2E2E2E2E2E2E2E2E2E2E2E2E2E2E2E2E2E2E2E2E2E2E2E2E2E2E2E2E2E2E2E2E2E2E2E2E2E2E2E2E2E2E2E2E2E2E2E2E2E2E2E2E2E2E2E2E2E2E2E2E2E2E2E2E2E2E2E2E2E2E2E2E2E2E2
310
E2E2E2E2E2E2E2E2E2E2E2E2E2E2E2E2E2E2E2E2E2E2E2E2E2E2E2E2E2E2E2E2E2E2E2E2E2E2E2E2E2E2E2E2E2E2E2E2E2E2E2E2E2E2E2E2E2E2E2E2E2E2E2E2E2E2E2E2E2E2E2E2E2E2E2E2E2E2E2E2E2E2E2E2E2E2E2E2E2E2E2E2E2E2E2E2E2E2E2E2E2E2E2E2E2E2E2E2E2E2E2E2E2E2E2E2E2E2E2E2E2E2E2E2E2E2E2
310
E2E2E2E2E2E2E2E2E2E2E2E2E2E2E2E2E2E2E2E2E2E2E2E2E2E2E2E2E2E2E2E2E2E2E2E2E2E2E2E2E2E2E2E2E2E2E2E2E2E2E2E2E2E2E2E2E2E2E2E2E2E2E2E2E2E2E2E2E2E2E2E2E2E2E2E2E2E2E2E2E2E2E2E2E2E2E2E2E2E2E2E2E2E2E2E2E2E2E2E2E2E2E2E2E2E2E2E2E2E2E2E2E2E2E2E2E2E2E2E2E2E2E2E2E2E2E2
310
E2E2E2E2E2E2E2E2E2E2E2E2E2E2E2E2E2E2E2E2E2E2E2E2E2E2E2E2E2E2E2E2E2E2E2E2E2E2E2E2E2E2E2E2E2E2E2E2E2E2E2E2E2E2E2E2E2E2E2E2E2E2E2E2E2E2E2E2E2E2E2E2E2E2E2E2E2E2E2E2E2E2E2E2E2E2E2E2E2E2E2E2E2E2E2E2E2E2E2E2E2E2E2E2E2E2E2E2E2E2E2E2E2E2E2E2E2E2E2E2E2E2E2E2E2E2E2
310
E2E2E2E2E2E2E2E2E2E2E2E2E2E2E2E2E2E2E2E2E2E2E2E2E2E2E2E2E2E2E2E2E2E2E2E2E2E2E2E2E2E2E2E2E2E2E2E2E2E2E2E2E2E2E2E2E2E2E2E2E2E2E2E2E2E2E2E2E2E2E2E2E2E2E2E2E2E2E2E2E2E2E2E2E2E2E2E2E2E2E2E2E2E2E2E2E2E2E2E2E2E2E2E2E2E2E2E2E2E2E2E2E2E2E2E2E2E2E2E2E2E2E2E2E2E2E2
310
E2E2E2E2E2E2E2E2E2E2E2E2E2E2E2E2E2E2E2E2E2E2E2E2E2E2E2E2E2E2E2E2E2E2E2E2E2E2E2E2E2E2E2E2E2E2E2E2E2E2E2E2E2E2E2E2E2E2E2E2E2E2E2E2E2E2E2E2E2E2E2E2E2E2E2E2E2E2E2E2E2E2E2E2E2E2E2E2E2E2E2E2E2E2E2E2E2E2E2E2E2E2E2E2E2E2E2E2E2E2E2E2E2E2E2E2E2E2E2E2E2E2E2E2E2E2E2
310
E2E2E2E2E2E2E2E2E2E2E2E2E2E2E2E2E2E2E2E2E2E2E2E2E2E2E2E2E2E2E2E2E2E2E2E2E2E2E2E2E2E2E2E2E2E2E2E2E2E2E2E2E2E2E2E2E2E2E2E2E2E2E2E2E2E2E2E2E2E2E2E2E2E2E2E2E2E2E2E2E2E2E2E2E2E2E2E2E2E2E2E2E2E2E2E2E2E2E2E2E2E2E2E2E2E2E2E2E2E2E2E2E2E2E2E2E2E2E2E2E2E2E2E2E2E2E2
310
E2E2E2E2E2E2E2E2E2E2E2E2E2E2E2E2E2E2E2E2E2E2E2E2E2E2E2E2E2E2E2E2E2E2E2E2E2E2E2E2E2E2E2E2E2E2E2E2E2E2E2E2E2E2E2E2E2E2E2E2E2E2E2E2E2E2E2E2E2E2E2E2E2E2E2E2E2E2E2E2E2E2E2E2E2E2E2E2E2E2E2E2E2E2E2E2E2E2E2E2E2E2E2E2E2E2E2E2E2E2E2E2E2E2E2E2E2E2E2E2E2E2E2E2E2E2E2
310
E2E2E2E2E2E2E2E2E2E2E2E2E2E2E2E2E2E2E2E2E2E2E2E2E2E2E2E2E2E2E2E2E2E2E2E2E2E2E2E2E2E2E2E2E2E2E2E2E2E2E2E2E2E2E2E2E2E2E2E2E2E2E2E2E2E2E2E2E2E2E2E2E2E2E2E2E2E2E2E2E2E2E2E2E2E2E2E2E2E2E2E2E2E2E2E2E2E2E2E2E2E2E2E2E2E2E2E2E2E2E2E2E2E2E2E2E2E2E2E2E2E2E2E2E2E2E2
310
E2E2E2E2E2E2E2E2E2E2E2E2E2E2E2E2E2E2E2E2E2E2E2E2E2E2E2E2E2E2E2E2E2E2E2E2E2E2E2E2E2E2E2E2E2E2E2E2E2E2E2E2E2E2E2E2E2E2E2E2E2E2E2E2E2E2E2E2E2E2E2E2E2E2E2E2E2E2E2E2E2E2E2E2E2E2E2E2E2E2E2E2E2E2E2E2E2E2E2E2E2E2E2E2E2E2E2E2E2E2E2E2E2E2E2E2E2E2E2E2E2E2E2E2E2E2E2
310
E2E2E2E2E2E2E2E2E2E2E2E2E2E2E2E2E2E2E2E2E2E2E2E2E2E2E2E2E2E2E2E2E2E2E2E2E2E2E2E2E2E2E2E2E2E2E2E2E2E2E2E2E2E2E2E2E2E2E2E2E2E2E2E2E2E2E2E2E2E2E2E2E2E2E2E2E2E2E2E2E2E2E2E2E2E2E2E2E2E2E2E2E2E2E2E2E2E2E2E2E2E2E2E2E2E2E2E2E2E2E2E2E2E2E2E2E2E2E2E2E2E2E2E2E2E2E2
310
E2E2E2E2E2E2E2E2E2E2E2E2E2E2E2E2E2E2E2E2E2E2E2E2E2E2E2E2E2E2E2E2E2E2E2E2E2E2E2E2E2E2E2E2E2E2E2E2E2E2E2E2E2E2E2E2E2E2E2E2E2E2E2E2E2E2E2E2E2E2E2E2E2E2E2E2E2E2E2E2E2E2E2E2E2E2E2E2E2E2E2E2E2E2E2E2E2E2E2E2E2E2E2E2E2E2E2E2E2E2E2E2E2E2E2E2E2E2E2E2E2E2E2E2E2E2E2
310
E2E2E2E2E2E2E2E2E2E2E2E2E2E2E2E2E2E2E2E2E2E2E2E2E2E2E2E2E2E2E2E2E2E2E2E2E2E2E2E2E2E2E2E2E2E2E2E2E2E2E2E2E2E2E2E2E2E2E2E2E2E2E2E2E2E2E2E2E2E2E2E2E2E2E2E2E2E2E2E2E2E2E2E2E2E2E2E2E2E2E2E2E2E2E2E2E2E2E2E2E2E2E2E2E2E2E2E2E2E2E2E2E2E2E2E2E2E2E2E2E2E2E2E2E2E2E2
310
E2E2E2E2E2E2E2E2E2E2E2E2E2E2E2E2E2E2E2E2E2E2E2E2E2E2E2E2E2E2E2E2E2E2E2E2E2E2E2E2E2E2E2E2E2E2E2E2E2E2E2E2E2E2E2E2E2E2E2E2E2E2E2E2E2E2E2E2E2E2E2E2E2E2E2E2E2E2E2E2E2E2E2E2E2E2E2E2E2E2E2E2E2E2E2E2E2E2E2E2E2E2E2E2E2E2E2E2E2E2E2E2E2E2E2E2E2E2E2E2E2E2E2E2E2E2E2
310
E2E2E2E2E2E2E2E2E2E2E2E2E2E2E2E2E2E2E2E2E2E2E2E2E2E2E2E2E2E2E2E2E2E2E2E2E2E2E2E2E2E2E2E2E2E2E2E2E2E2E2E2E2E2E2E2E2E2E2E2E2E2E2E2E2E2E2E2E2E2E2E2E2E2E2E2E2E2E2E2E2E2E2E2E2E2E2E2E2E2E2E2E2E2E2E2E2E2E2E2E2E2E2E2E2E2E2E2E2E2E2E2E2E2E2E2E2E2E2E2E2E2E2E2E2E2E2
310
E2E2E2E2E2E2E2E2E2E2E2E2E2E2E2E2E2E2E2E2E2E2E2E2E2E2E2E2E2E2E2E2E2E2E2E2E2E2E2E2E2E2E2E2E2E2E2E2E2E2E2E2E2E2E2E2E2E2E2E2E2E2E2E2E2E2E2E2E2E2E2E2E2E2E2E2E2E2E2E2E2E2E2E2E2E2E2E2E2E2E2E2E2E2E2E2E2E2E2E2E2E2E2E2E2E2E2E2E2E2E2E2E2E2E2E2E2E2E2E2E2E2E2E2E2E2E2
310
E2E2E2E2E2E2E2E2E2E2E2E2E2E2E2E2E2E2E2E2E2E2E2E2E2E2E2E2E2E2E2E2E2E2E2E2E2E2E2E2E2E2E2E2E2E2E2E2E2E2E2E2E2E2E2E2E2E2E2E2E2E2E2E2E2E2E2E2E2E2E2E2E2E2E2E2E2E2E2E2E2E2E2E2E2E2E2E2E2E2E2E2E2E2E2E2E2E2E2E2E2E2E2E2E2E2E2E2E2E2E2E2E2E2E2E2E2E2E2E2E2E2E2E2E2E2E2
310
E2E2E2E2E2E2E2E2E2E2E2E2E2E2E2E2E2E2E2E2E2E2E2E2E2E2E2E2E2E2E2E2E2E2E2E2E2E2E2E2E2E2E2E2E2E2E2E2E2E2E2E2E2E2E2E2E2E2E2E2E2E2E2E2E2E2E2E2E2E2E2E2E2E2E2E2E2E2E2E2E2E2E2E2E2E2E2E2E2E2E2E2E2E2E2E2E2E2E2E2E2E2E2E2E2E2E2E2E2E2E2E2E2E2E2E2E2E2E2E2E2E2E2E2E2E2E2
310
E2E2E2E2E2E2E2E2E2E2E2E2E2E2E2E2E2E2E2E2E2E2E2E2E2E2E2E2E2E2E2E2E2E2E2E2E2E2E2E2E2E2E2E2E2E2E2E2E2E2E2E2E2E2E2E2E2E2E2E2E2E2E2E2E2E2E2E2E2E2E2E2E2E2E2E2E2E2E2E2E2E2E2E2E2E2E2E2E2E2E2E2E2E2E2E2E2E2E2E2E2E2E2E2E2E2E2E2E2E2E2E2E2E2E2E2E2E2E2E2E2E2E2E2E2E2E2
310
E2E2E2E2E2E2E2E2E2E2E2E2E2E2E2E2E2E2E2E2E2E2E2E2E2E2E2E2E2E2E2E2E2E2E2E2E2E2E2E2E2E2E2E2E2E2E2E2E2E2E2E2E2E2E2E2E2E2E2E2E2E2E2E2E2E2E2E2E2E2E2E2E2E2E2E2E2E2E2E2E2E2E2E2E2E2E2E2E2E2E2E2E2E2E2E2E2E2E2E2E2E2E2E2E2E2E2E2E2E2E2E2E2E2E2E2E2E2E2E2E2E2E2E2E2E2E2
310
E2E2E2E2E2E2E2E2E2E2E2E2E2E2E2E2E2E2E2E2E2E2E2E2E2E2E2E2E2E2E2E2E2E2E2E2E2E2E2E2E2E2E2E2E2E2E2E2E2E2E2E2E2E2E2E2E2E2E2E2E2E2E2E2E2E2E2E2E2E2E2E2E2E2E2E2E2E2E2E2E2E2E2E2E2E2E2E2E2E2E2E2E2E2E2E2E2E2E2E2E2E2E2E2E2E2E2E2E2E2E2E2E2E2E2E2E2E2E2E2E2E2E2E2E2E2E2
310
E2E2E2E2E2E2E2E2E2E2E2E2E2E2E2E2E2E2E2E2E2E2E2E2E2E2E2E2E2E2E2E2E2E2E2E2E2E2E2E2E2E2E2E2E2E2E2E2E2E2E2E2E2E2E2E2E2E2E2E2E2E2E2E2E2E2E2E2E2E2E2E2E2E2E2E2E2E2E2E2E2E2E2E2E2E2E2E2E2E2E2E2E2E2E2E2E2E2E2E2E2E2E2E2E2E2E2E2E2E2E2E2E2E2E2E2E2E2E2E2E2E2E2E2E2E2E2
310
E2E2E2E2E2E2E2E2E2E2E2E2E2E2E2E2E2E2E2E2E2E2E2E2E2E2E2E2E2E2E2E2E2E2E2E2E2E2E2E2E2E2E2E2E2E2E2E2E2E2E2E2E2E2E2E2E2E2E2E2E2E2E2E2E2E2E2E2E2E2E2E2E2E2E2E2E2E2E2E2E2E2E2E2E2E2E2E2E2E2E2E2E2E2E2E2E2E2E2E2E2E2E2E2E2E2E2E2E2E2E2E2E2E2E2E2E2E2E2E2E2E2E2E2E2E2E2
310
E2E2E2E2E2E2E2E2E2E2E2E2E2E2E2E2E2E2E2E2E2E2E2E2E2E2E2E2E2E2E2E2E2E2E2E2E2E2E2E2E2E2E2E2E2E2E2E2E2E2E2E2E2E2E2E2E2E2E2E2E2E2E2E2E2E2E2E2E2E2E2E2E2E2E2E2E2E2E2E2E2E2E2E2E2E2E2E2E2E2E2E2E2E2E2E2E2E2E2E2E2E2E2E2E2E2E2E2E2E2E2E2E2E2E2E2E2E2E2E2E2E2E2E2E2E2E2
310
E2E2E2E2E2E2E2E2E2E2E2E2E2E2E2E2E2E2E2E2E2E2E2E2E2E2E2E2E2E2E2E2E2E2E2E2E2E2E2E2E2E2E2E2E2E2E2E2E2E2E2E2E2E2E2E2E2E2E2E2E2E2E2E2E2E2E2E2E2E2E2E2E2E2E2E2E2E2E2E2E2E2E2E2E2E2E2E2E2E2E2E2E2E2E2E2E2E2E2E2E2E2E2E2E2E2E2E2E2E2E2E2E2E2E2E2E2E2E2E2E2E2E2E2E2E2E2
310
E2E2E2E2E2E2E2E2E2E2E2E2E2E2E2E2E2E2E2E2E2E2E2E2E2E2E2E2E2E2E2E2E2E2E2E2E2E2E2E2E2E2E2E2E2E2E2E2E2E2E2E2E2E2E2E2E2E2E2E2E2E2E2E2E2E2E2E2E2E2E2E2E2E2E2E2E2E2E2E2E2E2E2E2E2E2E2E2E2E2E2E2E2E2E2E2E2E2E2E2E2E2E2E2E2E2E2E2E2E2E2E2E2E2E2E2E2E2E2E2E2E2E2E2E2E2E2
310
E2E2E2E2E2E2E2E2E2E2E2E2E2E2E2E2E2E2E2E2E2E2E2E2E2E2E2E2E2E2E2E2E2E2E2E2E2E2E2E2E2E2E2E2E2E2E2E2E2E2E2E2E2E2E2E2E2E2E2E2E2E2E2E2E2E2E2E2E2E2E2E2E2E2E2E2E2E2E2E2E2E2E2E2E2E2E2E2E2E2E2E2E2E2E2E2E2E2E2E2E2E2E2E2E2E2E2E2E2E2E2E2E2E2E2E2E2E2E2E2E2E2E2E2E2E2E2
310
E2E2E2E2E2E2E2E2E2E2E2E2E2E2E2E2E2E2E2E2E2E2E2E2E2E2E2E2E2E2E2E2E2E2E2E2E2E2E2E2E2E2E2E2E2E2E2E2E2E2E2E2E2E2E2E2E2E2E2E2E2E2E2E2E2E2E2E2E2E2E2E2E2E2E2E2E2E2E2E2E2E2E2E2E2E2E2E2E2E2E2E2E2E2E2E2E2E2E2E2E2E2E2E2E2E2E2E2E2E2E2E2E2E2E2E2E2E2E2E2E2E2E2E2E2E2E2
310
E2E2E2E2E2E2E2E2E2E2E2E2E2E2E2E2E2E2E2E2E2E2E2E2E2E2E2E2E2E2E2E2E2E2E2E2E2E2E2E2E2E2E2E2E2E2E2E2E2E2E2E2E2E2E2E2E2E2E2E2E2E2E2E2E2E2E2E2E2E2E2E2E2E2E2E2E2E2E2E2E2E2E2E2E2E2E2E2E2E2E2E2E2E2E2E2E2E2E2E2E2E2E2E2E2E2E2E2E2E2E2E2E2E2E2E2E2E2E2E2E2E2E2E2E2E2E2
310
E2E2E2E2E2E2E2E2E2E2E2E2E2E2E2E2E2E2E2E2E2E2E2E2E2E2E2E2E2E2E2E2E2E2E2E2E2E2E2E2E2E2E2E2E2E2E2E2E2E2E2E2E2E2E2E2E2E2E2E2E2E2E2E2E2E2E2E2E2E2E2E2E2E2E2E2E2E2E2E2E2E2E2E2E2E2E2E2E2E2E2E2E2E2E2E2E2E2E2E2E2E2E2E2E2E2E2E2E2E2E2E2E2E2E2E2E2E2E2E2E2E2E2E2E2E2E2
310
E2E2E2E2E2E2E2E2E2E2E2E2E2E2E2E2E2E2E2E2E2E2E2E2E2E2E2E2E2E2E2E2E2E2E2E2E2E2E2E2E2E2E2E2E2E2E2E2E2E2E2E2E2E2E2E2E2E2E2E2E2E2E2E2E2E2E2E2E2E2E2E2E2E2E2E2E2E2E2E2E2E2E2E2E2E2E2E2E2E2E2E2E2E2E2E2E2E2E2E2E2E2E2E2E2E2E2E2E2E2E2E2E2E2E2E2E2E2E2E2E2E2E2E2E2E2E2
310
E2E2E2E2E2E2E2E2E2E2E2E2E2E2E2E2E2E2E2E2E2E2E2E2E2E2E2E2E2E2E2E2E2E2E2E2E2E2E2E2E2E2E2E2E2E2E2E2E2E2E2E2E2E2E2E2E2E2E2E2E2E2E2E2E2E2E2E2E2E2E2E2E2E2E2E2E2E2E2E2E2E2E2E2E2E2E2E2E2E2E2E2E2E2E2E2E2E2E2E2E2E2E2E2E2E2E2E2E2E2E2E2E2E2E2E2E2E2E2E2E2E2E2E2E2E2E2
310
E2E2E2E2E2E2E2E2E2E2E2E2E2E2E2E2E2E2E2E2E2E2E2E2E2E2E2E2E2E2E2E2E2E2E2E2E2E2E2E2E2E2E2E2E2E2E2E2E2E2E2E2E2E2E2E2E2E2E2E2E2E2E2E2E2E2E2E2E2E2E2E2E2E2E2E2E2E2E2E2E2E2E2E2E2E2E2E2E2E2E2E2E2E2E2E2E2E2E2E2E2E2E2E2E2E2E2E2E2E2E2E2E2E2E2E2E2E2E2E2E2E2E2E2E2E2E2
310
E2E2E2E2E2E2E2E2E2E2E2E2E2E2E2E2E2E2E2E2E2E2E2E2E2E2E2E2E2E2E2E2E2E2E2E2E2E2E2E2E2E2E2E2E2E2E2E2E2E2E2E2E2E2E2E2E2E2E2E2E2E2E2E2E2E2E2E2E2E2E2E2E2E2E2E2E2E2E2E2E2E2E2E2E2E2E2E2E2E2E2E2E2E2E2E2E2E2E2E2E2E2E2E2E2E2E2E2E2E2E2E2E2E2E2E2E2E2E2E2E2E2E2E2E2E2E2
310
E2E2E2E2E2E2E2E2E2E2E2E2E2E2E2E2E2E2E2E2E2E2E2E2E2E2E2E2E2E2E2E2E2E2E2E2E2E2E2E2E2E2E2E2E2E2E2E2E2E2E2E2E2E2E2E2E2E2E2E2E2E2E2E2E2E2E2E2E2E2E2E2E2E2E2E2E2E2E2E2E2E2E2E2E2E2E2E2E2E2E2E2E2E2E2E2E2E2E2E2E2E2E2E2E2E2E2E2E2E2E2E2E2E2E2E2E2E2E2E2E2E2E2E2E2E2E2
310
E2E2E2E2E2E2E2E2E2E2E2E2E2E2E2E2E2E2E2E2E2E2E2E2E2E2E2E2E2E2E2E2E2E2E2E2E2E2E2E2E2E2E2E2E2E2E2E2E2E2E2E2E2E2E2E2E2E2E2E2E2E2E2E2E2E2E2E2E2E2E2E2E2E2E2E2E2E2E2E2E2E2E2E2E2E2E2E2E2E2E2E2E2E2E2E2E2E2E2E2E2E2E2E2E2E2E2E2E2E2E2E2E2E2E2E2E2E2E2E2E2E2E2E2E2E2E2
310
E2E2E2E2E2E2E2E2E2E2E2E2E2E2E2E2E2E2E2E2E2E2E2E2E2E2E2E2E2E2E2E2E2E2E2E2E2E2E2E2E2E2E2E2E2E2E2E2E2E2E2E2E2E2E2E2E2E2E2E2E2E2E2E2E2E2E2E2E2E2E2E2E2E2E2E2E2E2E2E2E2E2E2E2E2E2E2E2E2E2E2E2E2E2E2E2E2E2E2E2E2E2E2E2E2E2E2E2E2E2E2E2E2E2E2E2E2E2E2E2E2E2E2E2E2E2E2
310
E2E2E2E2E2E2E2E2E2E2E2E2E2E2E2E2E2E2E2E2E2E2E2E2E2E2E2E2E2E2E2E2E2E2E2E2E2E2E2E2E2E2E2E2E2E2E2E2E2E2E2E2E2E2E2E2E2E2E2E2E2E2E2E2E2E2E2E2E2E2E2E2E2E2E2E2E2E2E2E2E2E2E2E2E2E2E2E2E2E2E2E2E2E2E2E2E2E2E2E2E2E2E2E2E2E2E2E2E2E2E2E2E2E2E2E2E2E2E2E2E2E2E2E2E2E2E2
310
E2E2E2E2E2E2E2E2E2E2E2E2E2E2E2E2E2E2E2E2E2E2E2E2E2E2E2E2E2E2E2E2E2E2E2E2E2E2E2E2E2E2E2E2E2E2E2E2E2E2E2E2E2E2E2E2E2E2E2E2E2E2E2E2E2E2E2E2E2E2E2E2E2E2E2E2E2E2E2E2E2E2E2E2E2E2E2E2E2E2E2E2E2E2E2E2E2E2E2E2E2E2E2E2E2E2E2E2E2E2E2E2E2E2E2E2E2E2E2E2E2E2E2E2E2E2E2
310
E2E2E2E2E2E2E2E2E2E2E2E2E2E2E2E2E2E2E2E2E2E2E2E2E2E2E2E2E2E2E2E2E2E2E2E2E2E2E2E2E2E2E2E2E2E2E2E2E2E2E2E2E2E2E2E2E2E2E2E2E2E2E2E2E2E2E2E2E2E2E2E2E2E2E2E2E2E2E2E2E2E2E2E2E2E2E2E2E2E2E2E2E2E2E2E2E2E2E2E2E2E2E2E2E2E2E2E2E2E2E2E2E2E2E2E2E2E2E2E2E2E2E2E2E2E2E2
310
E2E2E2E2E2E2E2E2E2E2E2E2E2E2E2E2E2E2E2E2E2E2E2E2E2E2E2E2E2E2E2E2E2E2E2E2E2E2E2E2E2E2E2E2E2E2E2E2E2E2E2E2E2E2E2E2E2E2E2E2E2E2E2E2E2E2E2E2E2E2E2E2E2E2E2E2E2E2E2E2E2E2E2E2E2E2E2E2E2E2E2E2E2E2E2E2E2E2E2E2E2E2E2E2E2E2E2E2E2E2E2E2E2E2E2E2E2E2E2E2E2E2E2E2E2E2E2
310
E2E2E2E2E2E2E2E2E2E2E2E2E2E2E2E2E2E2E2E2E2E2E2E2E2E2E2E2E2E2E2E2E2E2E2E2E2E2E2E2E2E2E2E2E2E2E2E2E2E2E2E2E2E2E2E2E2E2E2E2E2E2E2E2E2E2E2E2E2E2E2E2E2E2E2E2E2E2E2E2E2E2E2E2E2E2E2E2E2E2E2E2E2E2E2E2E2E2E2E2E2E2E2E2E2E2E2E2E2E2E2E2E2E2E2E2E2E2E2E2E2E2E2E2E2E2E2
310
E2E2E2E2E2E2E2E2E2E2E2E2E2E2E2E2E2E2E2E2E2E2E2E2E2E2E2E2E2E2E2E2E2E2E2E2E2E2E2E2E2E2E2E2E2E2E2E2E2E2E2E2E2E2E2E2E2E2E2E2E2E2E2E2E2E2E2E2E2E2E2E2E2E2E2E2E2E2E2E2E2E2E2E2E2E2E2E2E2E2E2E2E2E2E2E2E2E2E2E2E2E2E2E2E2E2E2E2E2E2E2E2E2E2E2E2E2E2E2E2E2E2E2E2E2E2E2
310
E2E2E2E2E2E2E2E2E2E2E2E2E2E2E2E2E2E2E2E2E2E2E2E2E2E2E2E2E2E2E2E2E2E2E2E2E2E2E2E2E2E2E2E2E2E2E2E2E2E2E2E2E2E2E2E2E2E2E2E2E2E2E2E2E2E2E2E2E2E2E2E2E2E2E2E2E2E2E2E2E2E2E2E2E2E2E2E2E2E2E2E2E2E2E2E2E2E2E2E2E2E2E2E2E2E2E2E2E2E2E2E2E2E2E2E2E2E2E2E2E2E2E2E2E2E2E2
310
E2E2E2E2E2E2E2E2E2E2E2E2E2E2E2E2E2E2E2E2E2E2E2E2E2E2E2E2E2E2E2E2E2E2E2E2E2E2E2E2E2E2E2E2E2E2E2E2E2E2E2E2E2E2E2E2E2E2E2E2E2E2E2E2E2E2E2E2E2E2E2E2E2E2E2E2E2E2E2E2E2E2E2E2E2E2E2E2E2E2E2E2E2E2E2E2E2E2E2E2E2E2E2E2E2E2E2E2E2E2E2E2E2E2E2E2E2E2E2E2E2E2E2E2E2E2E2
310
E2E2E2E2E2E2E2E2E2E2E2E2E2E2E2E2E2E2E2E2E2E2E2E2E2E2E2E2E2E2E2E2E2E2E2E2E2E2E2E2E2E2E2E2E2E2E2E2E2E2E2E2E2E2E2E2E2E2E2E2E2E2E2E2E2E2E2E2E2E2E2E2E2E2E2E2E2E2E2E2E2E2E2E2E2E2E2E2E2E2E2E2E2E2E2E2E2E2E2E2E2E2E2E2E2E2E2E2E2E2E2E2E2E2E2E2E2E2E2E2E2E2E2E2E2E2E2
310
E2E2E2E2E2E2E2E2E2E2E2E2E2E2E2E2E2E2E2E2E2E2E2E2E2E2E2E2E2E2E2E2E2E2E2E2E2E2E2E2E2E2E2E2E2E2E2E2E2E2E2E2E2E2E2E2E2E2E2E2E2E2E2E2E2E2E2E2E2E2E2E2E2E2E2E2E2E2E2E2E2E2E2E2E2E2E2E2E2E2E2E2E2E2E2E2E2E2E2E2E2E2E2E2E2E2E2E2E2E2E2E2E2E2E2E2E2E2E2E2E2E2E2E2E2E2E2
310
E2E2E2E2E2E2E2E2E2E2E2E2E2E2E2E2E2E2E2E2E2E2E2E2E2E2E2E2E2E2E2E2E2E2E2E2E2E2E2E2E2E2E2E2E2E2E2E2E2E2E2E2E2E2E2E2E2E2E2E2E2E2E2E2E2E2E2E2E2E2E2E2E2E2E2E2E2E2E2E2E2E2E2E2E2E2E2E2E2E2E2E2E2E2E2E2E2E2E2E2E2E2E2E2E2E2E2E2E2E2E2E2E2E2E2E2E2E2E2E2E2E2E2E2E2E2E2
310
E2E2E2E2E2E2E2E2E2E2E2E2E2E2E2E2E2E2E2E2E2E2E2E2E2E2E2E2E2E2E2E2E2E2E2E2E2E2E2E2E2E2E2E2E2E2E2E2E2E2E2E2E2E2E2E2E2E2E2E2E2E2E2E2E2E2E2E2E2E2E2E2E2E2E2E2E2E2E2E2E2E2E2E2E2E2E2E2E2E2E2E2E2E2E2E2E2E2E2E2E2E2E2E2E2E2E2E2E2E2E2E2E2E2E2E2E2E2E2E2E2E2E2E2E2E2E2
310
E2E2E2E2E2E2E2E2E2E2E2E2E2E2E2E2E2E2E2E2E2E2E2E2E2E2E2E2E2E2E2E2E2E2E2E2E2E2E2E2E2E2E2E2E2E2E2E2E2E2E2E2E2E2E2E2E2E2E2E2E2E2E2E2E2E2E2E2E2E2E2E2E2E2E2E2E2E2E2E2E2E2E2E2E2E2E2E2E2E2E2E2E2E2E2E2E2E2E2E2E2E2E2E2E2E2E2E2E2E2E2E2E2E2E2E2E2E2E2E2E2E2E2E2E2E2E2
310
E2E2E2E2E2E2E2E2E2E2E2E2E2E2E2E2E2E2E2E2E2E2E2E2E2E2E2E2E2E2E2E2E2E2E2E2E2E2E2E2E2E2E2E2E2E2E2E2E2E2E2E2E2E2E2E2E2E2E2E2E2E2E2E2E2E2E2E2E2E2E2E2E2E2E2E2E2E2E2E2E2E2E2E2E2E2E2E2E2E2E2E2E2E2E2E2E2E2E2E2E2E2E2E2E2E2E2E2E2E2E2E2E2E2E2E2E2E2E2E2E2E2E2E2E2E2E2
310
E2E2E2E2E2E2E2E2E2E2E2E2E2E2E2E2E2E2E2E2E2E2E2E2E2E2E2E2E2E2E2E2E2E2E2E2E2E2E2E2E2E2E2E2E2E2E2E2E2E2E2E2E2E2E2E2E2E2E2E2E2E2E2E2E2E2E2E2E2E2E2E2E2E2E2E2E2E2E2E2E2E2E2E2E2E2E2E2E2E2E2E2E2E2E2E2E2E2E2E2E2E2E2E2E2E2E2E2E2E2E2E2E2E2E2E2E2E2E2E2E2E2E2E2E2E2E2
310
E2E2E2E2E2E2E2E2E2E2E2E2E2E2E2E2E2E2E2E2E2E2E2E2E2E2E2E2E2E2E2E2E2E2E2E2E2E2E2E2E2E2E2E2E2E2E2E2E2E2E2E2E2E2E2E2E2E2E2E2E2E2E2E2E2E2E2E2E2E2E2E2E2E2E2E2E2E2E2E2E2E2E2E2E2E2E2E2E2E2E2E2E2E2E2E2E2E2E2E2E2E2E2E2E2E2E2E2E2E2E2E2E2E2E2E2E2E2E2E2E2E2E2E2E2E2E2
310
E2E2E2E2E2E2E2E2E2E2E2E2E2E2E2E2E2E2E2E2E2E2E2E2E2E2E2E2E2E2E2E2E2E2E2E2E2E2E2E2E2E2E2E2E2E2E2E2E2E2E2E2E2E2E2E2E2E2E2E2E2E2E2E2E2E2E2E2E2E2E2E2E2E2E2E2E2E2E2E2E2E2E2E2E2E2E2E2E2E2E2E2E2E2E2E2E2E2E2E2E2E2E2E2E2E2E2E2E2E2E2E2E2E2E2E2E2E2E2E2E2E2E2E2E2E2E2
310
E2E2E2E2E2E2E2E2E2E2E2E2E2E2E2E2E2E2E2E2E2E2E2E2E2E2E2E2E2E2E2E2E2E2E2E2E2E2E2E2E2E2E2E2E2E2E2E2E2E2E2E2E2E2E2E2E2E2E2E2E2E2E2E2E2E2E2E2E2E2E2E2E2E2E2E2E2E2E2E2E2E2E2E2E2E2E2E2E2E2E2E2E2E2E2E2E2E2E2E2E2E2E2E2E2E2E2E2E2E2E2E2E2E2E2E2E2E2E2E2E2E2E2E2E2E2E2
310
E2E2E2E2E2E2E2E2E2E2E2E2E2E2E2E2E2E2E2E2E2E2E2E2E2E2E2E2E2E2E2E2E2E2E2E2E2E2E2E2E2E2E2E2E2E2E2E2E2E2E2E2E2E2E2E2E2E2E2E2E2E2E2E2E2E2E2E2E2E2E2E2E2E2E2E2E2E2E2E2E2E2E2E2E2E2E2E2E2E2E2E2E2E2E2E2E2E2E2E2E2E2E2E2E2E2E2E2E2E2E2E2E2E2E2E2E2E2E2E2E2E2E2E2E2E2E2
310
E2E2E2E2E2E2E2E2E2E2E2E2E2E2E2E2E2E2E2E2E2E2E2E2E2E2E2E2E2E2E2E2E2E2E2E2E2E2E2E2E2E2E2E2E2E2E2E2E2E2E2E2E2E2E2E2E2E2E2E2E2E2E2E2E2E2E2E2E2E2E2E2E2E2E2E2E2E2E2E2E2E2E2E2E2E2E2E2E2E2E2E2E2E2E2E2E2E2E2E2E2E2E2E2E2E2E2E2E2E2E2E2E2E2E2E2E2E2E2E2E2E2E2E2E2E2E2
310
E2E2E2E2E2E2E2E2E2E2E2E2E2E2E2E2E2E2E2E2E2E2E2E2E2E2E2E2E2E2E2E2E2E2E2E2E2E2E2E2E2E2E2E2E2E2E2E2E2E2E2E2E2E2E2E2E2E2E2E2E2E2E2E2E2E2E2E2E2E2E2E2E2E2E2E2E2E2E2E2E2E2E2E2E2E2E2E2E2E2E2E2E2E2E2E2E2E2E2E2E2E2E2E2E2E2E2E2E2E2E2E2E2E2E2E2E2E2E2E2E2E2E2E2E2E2E2
310
E2E2E2E2E2E2E2E2E2E2E2E2E2E2E2E2E2E2E2E2E2E2E2E2E2E2E2E2E2E2E2E2E2E2E2E2E2E2E2E2E2E2E2E2E2E2E2E2E2E2E2E2E2E2E2E2E2E2E2E2E2E2E2E2E2E2E2E2E2E2E2E2E2E2E2E2E2E2E2E2E2E2E2E2E2E2E2E2E2E2E2E2E2E2E2E2E2E2E2E2E2E2E2E2E2E2E2E2E2E2E2E2E2E2E2E2E2E2E2E2E2E2E2E2E2E2E2
310
E2E2E2E2E2E2E2E2E2E2E2E2E2E2E2E2E2E2E2E2E2E2E2E2E2E2E2E2E2E2E2E2E2E2E2E2E2E2E2E2E2E2E2E2E2E2E2E2E2E2E2E2E2E2E2E2E2E2E2E2E2E2E2E2E2E2E2E2E2E2E2E2E2E2E2E2E2E2E2E2E2E2E2E2E2E2E2E2E2E2E2E2E2E2E2E2E2E2E2E2E2E2E2E2E2E2E2E2E2E2E2E2E2E2E2E2E2E2E2E2E2E2E2E2E2E2E2
310
E2E2E2E2E2E2E2E2E2E2E2E2E2E2E2E2E2E2E2E2E2E2E2E2E2E2E2E2E2E2E2E2E2E2E2E2E2E2E2E2E2E2E2E2E2E2E2E2E2E2E2E2E2E2E2E2E2E2E2E2E2E2E2E2E2E2E2E2E2E2E2E2E2E2E2E2E2E2E2E2E2E2E2E2E2E2E2E2E2E2E2E2E2E2E2E2E2E2E2E2E2E2E2E2E2E2E2E2E2E2E2E2E2E2E2E2E2E2E2E2E2E2E2E2E2E2E2
310
E2E2E2E2E2E2E2E2E2E2E2E2E2E2E2E2E2E2E2E2E2E2E2E2E2E2E2E2E2E2E2E2E2E2E2E2E2E2E2E2E2E2E2E2E2E2E2E2E2E2E2E2E2E2E2E2E2E2E2E2E2E2E2E2E2E2E2E2E2E2E2E2E2E2E2E2E2E2E2E2E2E2E2E2E2E2E2E2E2E2E2E2E2E2E2E2E2E2E2E2E2E2E2E2E2E2E2E2E2E2E2E2E2E2E2E2E2E2E2E2E2E2E2E2E2E2E2
310
E2E2E2E2E2E2E2E2E2E2E2E2E2E2E2E2E2E2E2E2E2E2E2E2E2E2E2E2E2E2E2E2E2E2E2E2E2E2E2E2E2E2E2E2E2E2E2E2E2E2E2E2E2E2E2E2E2E2E2E2E2E2E2E2E2E2E2E2E2E2E2E2E2E2E2E2E2E2E2E2E2E2E2E2E2E2E2E2E2E2E2E2E2E2E2E2E2E2E2E2E2E2E2E2E2E2E2E2E2E2E2E2E2E2E2E2E2E2E2E2E2E2E2E2E2E2E2
310
E2E2E2E2E2E2E2E2E2E2E2E2E2E2E2E2E2E2E2E2E2E2E2E2E2E2E2E2E2E2E2E2E2E2E2E2E2E2E2E2E2E2E2E2E2E2E2E2E2E2E2E2E2E2E2E2E2E2E2E2E2E2E2E2E2E2E2E2E2E2E2E2E2E2E2E2E2E2E2E2E2E2E2E2E2E2E2E2E2E2E2E2E2E2E2E2E2E2E2E2E2E2E2E2E2E2E2E2E2E2E2E2E2E2E2E2E2E2E2E2E2E2E2E2E2E2E2
310
E2E2E2E2E2E2E2E2E2E2E2E2E2E2E2E2E2E2E2E2E2E2E2E2E2E2E2E2E2E2E2E2E2E2E2E2E2E2E2E2E2E2E2E2E2E2E2E2E2E2E2E2E2E2E2E2E2E2E2E2E2E2E2E2E2E2E2E2E2E2E2E2E2E2E2E2E2E2E2E2E2E2E2E2E2E2E2E2E2E2E2E2E2E2E2E2E2E2E2E2E2E2E2E2E2E2E2E2E2E2E2E2E2E2E2E2E2E2E2E2E2E2E2E2E2E2E2
310
E2E2E2E2E2E2E2E2E2E2E2E2E2E2E2E2E2E2E2E2E2E2E2E2E2E2E2E2E2E2E2E2E2E2E2E2E2E2E2E2E2E2E2E2E2E2E2E2E2E2E2E2E2E2E2E2E2E2E2E2E2E2E2E2E2E2E2E2E2E2E2E2E2E2E2E2E2E2E2E2E2E2E2E2E2E2E2E2E2E2E2E2E2E2E2E2E2E2E2E2E2E2E2E2E2E2E2E2E2E2E2E2E2E2E2E2E2E2E2E2E2E2E2E2E2E2E2
310
E2E2E2E2E2E2E2E2E2E2E2E2E2E2E2E2E2E2E2E2E2E2E2E2E2E2E2E2E2E2E2E2E2E2E2E2E2E2E2E2E2E2E2E2E2E2E2E2E2E2E2E2E2E2E2E2E2E2E2E2E2E2E2E2E2E2E2E2E2E2E2E2E2E2E2E2E2E2E2E2E2E2E2E2E2E2E2E2E2E2E2E2E2E2E2E2E2E2E2E2E2E2E2E2E2E2E2E2E2E2E2E2E2E2E2E2E2E2E2E2E2E2E2E2E2E2E2
310
E2E2E2E2E2E2E2E2E2E2E2E2E2E2E2E2E2E2E2E2E2E2E2E2E2E2E2E2E2E2E2E2E2E2E2E2E2E2E2E2E2E2E2E2E2E2E2E2E2E2E2E2E2E2E2E2E2E2E2E2E2E2E2E2E2E2E2E2E2E2E2E2E2E2E2E2E2E2E2E2E2E2E2E2E2E2E2E2E2E2E2E2E2E2E2E2E2E2E2E2E2E2E2E2E2E2E2E2E2E2E2E2E2E2E2E2E2E2E2E2E2E2E2E2E2E2E2
310
E2E2E2E2E2E2E2E2E2E2E2E2E2E2E2E2E2E2E2E2E2E2E2E2E2E2E2E2E2E2E2E2E2E2E2E2E2E2E2E2E2E2E2E2E2E2E2E2E2E2E2E2E2E2E2E2E2E2E2E2E2E2E2E2E2E2E2E2E2E2E2E2E2E2E2E2E2E2E2E2E2E2E2E2E2E2E2E2E2E2E2E2E2E2E2E2E2E2E2E2E2E2E2E2E2E2E2E2E2E2E2E2E2E2E2E2E2E2E2E2E2E2E2E2E2E2E2
310
E2E2E2E2E2E2E2E2E2E2E2E2E2E2E2E2E2E2E2E2E2E2E2E2E2E2E2E2E2E2E2E2E2E2E2E2E2E2E2E2E2E2E2E2E2E2E2E2E2E2E2E2E2E2E2E2E2E2E2E2E2E2E2E2E2E2E2E2E2E2E2E2E2E2E2E2E2E2E2E2E2E2E2E2E2E2E2E2E2E2E2E2E2E2E2E2E2E2E2E2E2E2E2E2E2E2E2E2E2E2E2E2E2E2E2E2E2E2E2E2E2E2E2E2E2E2E2
310
E2E2E2E2E2E2E2E2E2E2E2E2E2E2E2E2E2E2E2E2E2E2E2E2E2E2E2E2E2E2E2E2E2E2E2E2E2E2E2E2E2E2E2E2E2E2E2E2E2E2E2E2E2E2E2E2E2E2E2E2E2E2E2E2E2E2E2E2E2E2E2E2E2E2E2E2E2E2E2E2E2E2E2E2E2E2E2E2E2E2E2E2E2E2E2E2E2E2E2E2E2E2E2E2E2E2E2E2E2E2E2E2E2E2E2E2E2E2E2E2E2E2E2E2E2E2E2
310
E2E2E2E2E2E2E2E2E2E2E2E2E2E2E2E2E2E2E2E2E2E2E2E2E2E2E2E2E2E2E2E2E2E2E2E2E2E2E2E2E2E2E2E2E2E2E2E2E2E2E2E2E2E2E2E2E2E2E2E2E2E2E2E2E2E2E2E2E2E2E2E2E2E2E2E2E2E2E2E2E2E2E2E2E2E2E2E2E2E2E2E2E2E2E2E2E2E2E2E2E2E2E2E2E2E2E2E2E2E2E2E2E2E2E2E2E2E2E2E2E2E2E2E2E2E2E2
310
E2E2E2E2E2E2E2E2E2E2E2E2E2E2E2E2E2E2E2E2E2E2E2E2E2E2E2E2E2E2E2E2E2E2E2E2E2E2E2E2E2E2E2E2E2E2E2E2E2E2E2E2E2E2E2E2E2E2E2E2E2E2E2E2E2E2E2E2E2E2E2E2E2E2E2E2E2E2E2E2E2E2E2E2E2E2E2E2E2E2E2E2E2E2E2E2E2E2E2E2E2E2E2E2E2E2E2E2E2E2E2E2E2E2E2E2E2E2E2E2E2E2E2E2E2E2E2
310
E2E2E2E2E2E2E2E2E2E2E2E2E2E2E2E2E2E2E2E2E2E2E2E2E2E2E2E2E2E2E2E2E2E2E2E2E2E2E2E2E2E2E2E2E2E2E2E2E2E2E2E2E2E2E2E2E2E2E2E2E2E2E2E2E2E2E2E2E2E2E2E2E2E2E2E2E2E2E2E2E2E2E2E2E2E2E2E2E2E2E2E2E2E2E2E2E2E2E2E2E2E2E2E2E2E2E2E2E2E2E2E2E2E2E2E2E2E2E2E2E2E2E2E2E2E2E2
310
E2E2E2E2E2E2E2E2E2E2E2E2E2E2E2E2E2E2E2E2E2E2E2E2E2E2E2E2E2E2E2E2E2E2E2E2E2E2E2E2E2E2E2E2E2E2E2E2E2E2E2E2E2E2E2E2E2E2E2E2E2E2E2E2E2E2E2E2E2E2E2E2E2E2E2E2E2E2E2E2E2E2E2E2E2E2E2E2E2E2E2E2E2E2E2E2E2E2E2E2E2E2E2E2E2E2E2E2E2E2E2E2E2E2E2E2E2E2E2E2E2E2E2E2E2E2E2
310
E2E2E2E2E2E2E2E2E2E2E2E2E2E2E2E2E2E2E2E2E2E2E2E2E2E2E2E2E2E2E2E2E2E2E2E2E2E2E2E2E2E2E2E2E2E2E2E2E2E2E2E2E2E2E2E2E2E2E2E2E2E2E2E2E2E2E2E2E2E2E2E2E2E2E2E2E2E2E2E2E2E2E2E2E2E2E2E2E2E2E2E2E2E2E2E2E2E2E2E2E2E2E2E2E2E2E2E2E2E2E2E2E2E2E2E2E2E2E2E2E2E2E2E2E2E2E2
310
E2E2E2E2E2E2E2E2E2E2E2E2E2E2E2E2E2E2E2E2E2E2E2E2E2E2E2E2E2E2E2E2E2E2E2E2E2E2E2E2E2E2E2E2E2E2E2E2E2E2E2E2E2E2E2E2E2E2E2E2E2E2E2E2E2E2E2E2E2E2E2E2E2E2E2E2E2E2E2E2E2E2E2E2E2E2E2E2E2E2E2E2E2E2E2E2E2E2E2E2E2E2E2E2E2E2E2E2E2E2E2E2E2E2E2E2E2E2E2E2E2E2E2E2E2E2E2
310
E2E2E2E2E2E2E2E2E2E2E2E2E2E2E2E2E2E2E2E2E2E2E2E2E2E2E2E2E2E2E2E2E2E2E2E2E2E2E2E2E2E2E2E2E2E2E2E2E2E2E2E2E2E2E2E2E2E2E2E2E2E2E2E2E2E2E2E2E2E2E2E2E2E2E2E2E2E2E2E2E2E2E2E2E2E2E2E2E2E2E2E2E2E2E2E2E2E2E2E2E2E2E2E2E2E2E2E2E2E2E2E2E2E2E2E2E2E2E2E2E2E2E2E2E2E2E2
310
E2E2E2E2E2E2E2E2E2E2E2E2E2E2E2E2E2E2E2E2E2E2E2E2E2E2E2E2E2E2E2E2E2E2E2E2E2E2E2E2E2E2E2E2E2E2E2E2E2E2E2E2E2E2E2E2E2E2E2E2E2E2E2E2E2E2E2E2E2E2E2E2E2E2E2E2E2E2E2E2E2E2E2E2E2E2E2E2E2E2E2E2E2E2E2E2E2E2E2E2E2E2E2E2E2E2E2E2E2E2E2E2E2E2E2E2E2E2E2E2E2E2E2E2E2E2E2
310
E2E2E2E2E2E2E2E2E2E2E2E2E2E2E2E2E2E2E2E2E2E2E2E2E2E2E2E2E2E2E2E2E2E2E2E2E2E2E2E2E2E2E2E2E2E2E2E2E2E2E2E2E2E2E2E2E2E2E2E2E2E2E2E2E2E2E2E2E2E2E2E2E2E2E2E2E2E2E2E2E2E2E2E2E2E2E2E2E2E2E2E2E2E2E2E2E2E2E2E2E2E2E2E2E2E2E2E2E2E2E2E2E2E2E2E2E2E2E2E2E2E2E2E2E2E2E2
310
E2E2E2E2E2E2E2E2E2E2E2E2E2E2E2E2E2E2E2E2E2E2E2E2E2E2E2E2E2E2E2E2E2E2E2E2E2E2E2E2E2E2E2E2E2E2E2E2E2E2E2E2E2E2E2E2E2E2E2E2E2E2E2E2E2E2E2E2E2E2E2E2E2E2E2E2E2E2E2E2E2E2E2E2E2E2E2E2E2E2E2E2E2E2E2E2E2E2E2E2E2E2E2E2E2E2E2E2E2E2E2E2E2E2E2E2E2E2E2E2E2E2E2E2E2E2E2
310
E2E2E2E2E2E2E2E2E2E2E2E2E2E2E2E2E2E2E2E2E2E2E2E2E2E2E2E2E2E2E2E2E2E2E2E2E2E2E2E2E2E2E2E2E2E2E2E2E2E2E2E2E2E2E2E2E2E2E2E2E2E2E2E2E2E2E2E2E2E2E2E2E2E2E2E2E2E2E2E2E2E2E2E2E2E2E2E2E2E2E2E2E2E2E2E2E2E2E2E2E2E2E2E2E2E2E2E2E2E2E2E2E2E2E2E2E2E2E2E2E2E2E2E2E2E2E2
310
E2E2E2E2E2E2E2E2E2E2E2E2E2E2E2E2E2E2E2E2E2E2E2E2E2E2E2E2E2E2E2E2E2E2E2E2E2E2E2E2E2E2E2E2E2E2E2E2E2E2E2E2E2E2E2E2E2E2E2E2E2E2E2E2E2E2E2E2E2E2E2E2E2E2E2E2E2E2E2E2E2E2E2E2E2E2E2E2E2E2E2E2E2E2E2E2E2E2E2E2E2E2E2E2E2E2E2E2E2E2E2E2E2E2E2E2E2E2E2E2E2E2E2E2E2E2E2
310
E2E2E2E2E2E2E2E2E2E2E2E2E2E2E2E2E2E2E2E2E2E2E2E2E2E2E2E2E2E2E2E2E2E2E2E2E2E2E2E2E2E2E2E2E2E2E2E2E2E2E2E2E2E2E2E2E2E2E2E2E2E2E2E2E2E2E2E2E2E2E2E2E2E2E2E2E2E2E2E2E2E2E2E2E2E2E2E2E2E2E2
  0
XRECORD
  5
758
102
{ACAD_REACTORS
330
3F
102
}
330
3F
100
AcDbXrecord
280
     1
102
MATERIAL
148
0.0
149
0.0
149
0.0
 93
        0
 94
      127
282
     0
 72
     0
 77
     0
171
     0
175
     0
179
     0
273
     0
  0
XRECORD
  5
40
102
{ACAD_REACTORS
330
3F
102
}
330
3F
100
AcDbXrecord
280
     1
270
     1
271
     1
  0
XRECORD
  5
41
102
{ACAD_REACTORS
330
3F
102
}
330
3F
100
AcDbXrecord
280
     1
270
     1
271
     1
  0
XRECORD
  5
42
102
{ACAD_REACTORS
330
3F
102
}
330
3F
100
AcDbXrecord
280
     1
270
     1
271
     1
  0
XRECORD
  5
43
102
{ACAD_REACTORS
330
3F
102
}
330
3F
100
AcDbXrecord
280
     1
270
     1
271
     1
  0
XRECORD
  5
44
102
{ACAD_REACTORS
330
3F
102
}
330
3F
100
AcDbXrecord
280
     1
270
     1
271
     1
  0
XRECORD
  5
45
102
{ACAD_REACTORS
330
3F
102
}
330
3F
100
AcDbXrecord
280
     1
270
     1
271
     1
  0
XRECORD
  5
757
102
{ACAD_REACTORS
330
37
102
}
330
37
100
AcDbXrecord
280
     1
102
MATERIAL
148
0.0
149
0.0
149
0.0
 93
        0
 94
      127
282
     0
 72
     0
 77
     0
171
     0
175
     0
179
     0
273
     0
  0
XRECORD
  5
38
102
{ACAD_REACTORS
330
37
102
}
330
37
100
AcDbXrecord
280
     1
270
     1
271
     1
  0
XRECORD
  5
39
102
{ACAD_REACTORS
330
37
102
}
330
37
100
AcDbXrecord
280
     1
270
     1
271
     1
  0
XRECORD
  5
3A
102
{ACAD_REACTORS
330
37
102
}
330
37
100
AcDbXrecord
280
     1
270
     1
271
     1
  0
XRECORD
  5
3B
102
{ACAD_REACTORS
330
37
102
}
330
37
100
AcDbXrecord
280
     1
270
     1
271
     1
  0
XRECORD
  5
3C
102
{ACAD_REACTORS
330
37
102
}
330
37
100
AcDbXrecord
280
     1
270
     1
271
     1
  0
XRECORD
  5
3D
102
{ACAD_REACTORS
330
37
102
}
330
37
100
AcDbXrecord
280
     1
270
     1
271
     1
  0
XRECORD
  5
753
102
{ACAD_REACTORS
330
C
102
}
330
C
100
AcDbXrecord
280
     1
102
MATERIAL
148
0.0
149
0.0
149
0.0
 93
        0
 94
      127
282
     0
 72
     0
 77
     0
171
     0
175
     0
179
     0
273
     0
  0
XRECORD
  5
D
102
{ACAD_REACTORS
330
C
102
}
330
C
100
AcDbXrecord
280
     1
270
     1
271
     1
  0
XRECORD
  5
E
102
{ACAD_REACTORS
330
C
102
}
330
C
100
AcDbXrecord
280
     1
270
     1
271
     1
  0
XRECORD
  5
F
102
{ACAD_REACTORS
330
C
102
}
330
C
100
AcDbXrecord
280
     1
270
     1
271
     1
  0
XRECORD
  5
10
102
{ACAD_REACTORS
330
C
102
}
330
C
100
AcDbXrecord
280
     1
270
     1
271
     1
  0
XRECORD
  5
11
102
{ACAD_REACTORS
330
C
102
}
330
C
100
AcDbXrecord
280
     1
270
     1
271
     1
  0
XRECORD
  5
12
102
{ACAD_REACTORS
330
C
102
}
330
C
100
AcDbXrecord
280
     1
270
     1
271
     1
  0
CELLSTYLEMAP
  5
DE7
102
{ACAD_REACTORS
330
4EF
102
}
330
4EF
100
AcDbCellStyleMap
 90
        3
300
CELLSTYLE
  1
TABLEFORMAT_BEGIN
 90
        5
170
     1
 91
        0
 92
    32768
 62
   257
 93
        1
300
CONTENTFORMAT
  1
CONTENTFORMAT_BEGIN
 90
        0
 91
        0
 92
        4
 93
        0
300

 40
0.0
140
1.0
 94
        5
 62
     0
340
23
144
6.0
309
CONTENTFORMAT_END
171
     1
301
MARGIN
  1
CELLMARGIN_BEGIN
 40
1.5
 40
1.5
 40
1.5
 40
1.5
 40
0.18
 40
0.18
309
CELLMARGIN_END
 94
        6
 95
        1
302
GRIDFORMAT
  1
GRIDFORMAT_BEGIN
 90
        0
 91
        1
 62
     0
 92
       -2
340
0
 93
        0
 40
0.045
309
GRIDFORMAT_END
 95
        2
302
GRIDFORMAT
  1
GRIDFORMAT_BEGIN
 90
        0
 91
        1
 62
     0
 92
       -2
340
0
 93
        0
 40
0.045
309
GRIDFORMAT_END
 95
        4
302
GRIDFORMAT
  1
GRIDFORMAT_BEGIN
 90
        0
 91
        1
 62
     0
 92
       -2
340
0
 93
        0
 40
0.045
309
GRIDFORMAT_END
 95
        8
302
GRIDFORMAT
  1
GRIDFORMAT_BEGIN
 90
        0
 91
        1
 62
     0
 92
       -2
340
0
 93
        0
 40
0.045
309
GRIDFORMAT_END
 95
       16
302
GRIDFORMAT
  1
GRIDFORMAT_BEGIN
 90
        0
 91
        1
 62
     0
 92
       -2
340
0
 93
        0
 40
0.045
309
GRIDFORMAT_END
 95
       32
302
GRIDFORMAT
  1
GRIDFORMAT_BEGIN
 90
        0
 91
        1
 62
     0
 92
       -2
340
0
 93
        0
 40
0.045
309
GRIDFORMAT_END
309
TABLEFORMAT_END
  1
CELLSTYLE_BEGIN
 90
        1
 91
        1
300
_TITLE
309
CELLSTYLE_END
300
CELLSTYLE
  1
TABLEFORMAT_BEGIN
 90
        5
170
     1
 91
        0
 92
        0
 62
   257
 93
        1
300
CONTENTFORMAT
  1
CONTENTFORMAT_BEGIN
 90
        0
 91
        0
 92
        4
 93
        0
300

 40
0.0
140
1.0
 94
        5
 62
     0
340
23
144
4.5
309
CONTENTFORMAT_END
171
     1
301
MARGIN
  1
CELLMARGIN_BEGIN
 40
1.5
 40
1.5
 40
1.5
 40
1.5
 40
0.18
 40
0.18
309
CELLMARGIN_END
 94
        6
 95
        1
302
GRIDFORMAT
  1
GRIDFORMAT_BEGIN
 90
        0
 91
        1
 62
     0
 92
       -2
340
0
 93
        0
 40
0.045
309
GRIDFORMAT_END
 95
        2
302
GRIDFORMAT
  1
GRIDFORMAT_BEGIN
 90
        0
 91
        1
 62
     0
 92
       -2
340
0
 93
        0
 40
0.045
309
GRIDFORMAT_END
 95
        4
302
GRIDFORMAT
  1
GRIDFORMAT_BEGIN
 90
        0
 91
        1
 62
     0
 92
       -2
340
0
 93
        0
 40
0.045
309
GRIDFORMAT_END
 95
        8
302
GRIDFORMAT
  1
GRIDFORMAT_BEGIN
 90
        0
 91
        1
 62
     0
 92
       -2
340
0
 93
        0
 40
0.045
309
GRIDFORMAT_END
 95
       16
302
GRIDFORMAT
  1
GRIDFORMAT_BEGIN
 90
        0
 91
        1
 62
     0
 92
       -2
340
0
 93
        0
 40
0.045
309
GRIDFORMAT_END
 95
       32
302
GRIDFORMAT
  1
GRIDFORMAT_BEGIN
 90
        0
 91
        1
 62
     0
 92
       -2
340
0
 93
        0
 40
0.045
309
GRIDFORMAT_END
309
TABLEFORMAT_END
  1
CELLSTYLE_BEGIN
 90
        2
 91
        1
300
_HEADER
309
CELLSTYLE_END
300
CELLSTYLE
  1
TABLEFORMAT_BEGIN
 90
        5
170
     1
 91
        0
 92
        0
 62
   257
 93
        1
300
CONTENTFORMAT
  1
CONTENTFORMAT_BEGIN
 90
        0
 91
        0
 92
        4
 93
        0
300

 40
0.0
140
1.0
 94
        2
 62
     0
340
23
144
4.5
309
CONTENTFORMAT_END
171
     1
301
MARGIN
  1
CELLMARGIN_BEGIN
 40
1.5
 40
1.5
 40
1.5
 40
1.5
 40
0.18
 40
0.18
309
CELLMARGIN_END
 94
        6
 95
        1
302
GRIDFORMAT
  1
GRIDFORMAT_BEGIN
 90
        0
 91
        1
 62
     0
 92
       -2
340
0
 93
        0
 40
0.045
309
GRIDFORMAT_END
 95
        2
302
GRIDFORMAT
  1
GRIDFORMAT_BEGIN
 90
        0
 91
        1
 62
     0
 92
       -2
340
0
 93
        0
 40
0.045
309
GRIDFORMAT_END
 95
        4
302
GRIDFORMAT
  1
GRIDFORMAT_BEGIN
 90
        0
 91
        1
 62
     0
 92
       -2
340
0
 93
        0
 40
0.045
309
GRIDFORMAT_END
 95
        8
302
GRIDFORMAT
  1
GRIDFORMAT_BEGIN
 90
        0
 91
        1
 62
     0
 92
       -2
340
0
 93
        0
 40
0.045
309
GRIDFORMAT_END
 95
       16
302
GRIDFORMAT
  1
GRIDFORMAT_BEGIN
 90
        0
 91
        1
 62
     0
 92
       -2
340
0
 93
        0
 40
0.045
309
GRIDFORMAT_END
 95
       32
302
GRIDFORMAT
  1
GRIDFORMAT_BEGIN
 90
        0
 91
        1
 62
     0
 92
       -2
340
0
 93
        0
 40
0.045
309
GRIDFORMAT_END
309
TABLEFORMAT_END
  1
CELLSTYLE_BEGIN
 90
        3
 91
        2
300
_DATA
309
CELLSTYLE_END
  0
XRECORD
  5
DEE
102
{ACAD_REACTORS
330
4EF
102
}
330
4EF
100
AcDbXrecord
280
     1
102
ACAD_ROUNDTRIP_PRE2007_TABLESTYLE
 90
        4
 91
        0
  1

 92
        4
 93
        0
  2

 94
        4
 95
        0
  3

  0
ENDSEC
  0
EOF
