  0
SECTION
  2
HEADER
  9
$ACADVER
  1
AC1015
  9
$ACADMAINTVER
 70
    20
  9
$DWGCODEPAGE
  3
ANSI_932
  9
$INSBASE
 10
0.0
 20
0.0
 30
0.0
  9
$EXTMIN
 10
-343.6006689173961
 20
-400.5777054593138
 30
-0.00000001
  9
$EXTMAX
 10
568.3275661284673
 20
767.1730484153177
 30
0.00000001
  9
$LIMMIN
 10
0.0
 20
0.0
  9
$LIMMAX
 10
420.0
 20
297.0
  9
$ORTHOMODE
 70
     1
  9
$REGENMODE
 70
     1
  9
$FILLMODE
 70
     1
  9
$QTEXTMODE
 70
     0
  9
$MIRRTEXT
 70
     1
  9
$LTSCALE
 40
1.0
  9
$ATTMODE
 70
     1
  9
$TEXTSIZE
 40
43.66586864911549
  9
$TRACEWID
 40
1.0
  9
$TEXTSTYLE
  7
Standard
  9
$CLAYER
  8
0
  9
$CELTYPE
  6
ByLayer
  9
$CECOLOR
 62
   256
  9
$CELTSCALE
 40
1.0
  9
$DISPSILH
 70
     0
  9
$DIMSCALE
 40
5.0
  9
$DIMASZ
 40
2.5
  9
$DIMEXO
 40
0.625
  9
$DIMDLI
 40
3.75
  9
$DIMRND
 40
0.5
  9
$DIMDLE
 40
0.0
  9
$DIMEXE
 40
1.25
  9
$DIMTP
 40
0.0
  9
$DIMTM
 40
0.0
  9
$DIMTXT
 40
2.5
  9
$DIMCEN
 40
2.5
  9
$DIMTSZ
 40
0.0
  9
$DIMTOL
 70
     0
  9
$DIMLIM
 70
     0
  9
$DIMTIH
 70
     0
  9
$DIMTOH
 70
     0
  9
$DIMSE1
 70
     0
  9
$DIMSE2
 70
     0
  9
$DIMTAD
 70
     1
  9
$DIMZIN
 70
     8
  9
$DIMBLK
  1
OPEN30
  9
$DIMASO
 70
     1
  9
$DIMSHO
 70
     1
  9
$DIMPOST
  1

  9
$DIMAPOST
  1

  9
$DIMALT
 70
     0
  9
$DIMALTD
 70
     3
  9
$DIMALTF
 40
0.03937007874016
  9
$DIMLFAC
 40
1.0
  9
$DIMTOFL
 70
     1
  9
$DIMTVP
 40
0.0
  9
$DIMTIX
 70
     0
  9
$DIMSOXD
 70
     0
  9
$DIMSAH
 70
     0
  9
$DIMBLK1
  1

  9
$DIMBLK2
  1

  9
$DIMSTYLE
  2
ISO-25
  9
$DIMCLRD
 70
     0
  9
$DIMCLRE
 70
     0
  9
$DIMCLRT
 70
     0
  9
$DIMTFAC
 40
1.0
  9
$DIMGAP
 40
0.625
  9
$DIMJUST
 70
     0
  9
$DIMSD1
 70
     0
  9
$DIMSD2
 70
     0
  9
$DIMTOLJ
 70
     0
  9
$DIMTZIN
 70
     8
  9
$DIMALTZ
 70
     0
  9
$DIMALTTZ
 70
     0
  9
$DIMUPT
 70
     0
  9
$DIMDEC
 70
     1
  9
$DIMTDEC
 70
     1
  9
$DIMALTU
 70
     2
  9
$DIMALTTD
 70
     3
  9
$DIMTXSTY
  7
Standard
  9
$DIMAUNIT
 70
     0
  9
$DIMADEC
 70
     0
  9
$DIMALTRND
 40
0.0
  9
$DIMAZIN
 70
     0
  9
$DIMDSEP
 70
    46
  9
$DIMATFIT
 70
     3
  9
$DIMFRAC
 70
     0
  9
$DIMLDRBLK
  1
DOTSMALL
  9
$DIMLUNIT
 70
     2
  9
$DIMLWD
 70
    -2
  9
$DIMLWE
 70
    -2
  9
$DIMTMOVE
 70
     0
  9
$LUNITS
 70
     2
  9
$LUPREC
 70
     4
  9
$SKETCHINC
 40
1.0
  9
$FILLETRAD
 40
10.0
  9
$AUNITS
 70
     0
  9
$AUPREC
 70
     0
  9
$MENU
  1
.
  9
$ELEVATION
 40
0.0
  9
$PELEVATION
 40
0.0
  9
$THICKNESS
 40
0.0
  9
$LIMCHECK
 70
     0
  9
$CHAMFERA
 40
10.0
  9
$CHAMFERB
 40
10.0
  9
$CHAMFERC
 40
20.0
  9
$CHAMFERD
 40
0.0
  9
$SKPOLY
 70
     0
  9
$TDCREATE
 40
2451686.550481944
  9
$TDUCREATE
 40
2451686.175481945
  9
$TDUPDATE
 40
2454985.609358010
  9
$TDUUPDATE
 40
2454985.234358010
  9
$TDINDWG
 40
1.8847786921
  9
$TDUSRTIMER
 40
1.8847767014
  9
$USRTIMER
 70
     1
  9
$ANGBASE
 50
0.0
  9
$ANGDIR
 70
     0
  9
$PDMODE
 70
     0
  9
$PDSIZE
 40
0.0
  9
$PLINEWID
 40
0.0
  9
$SPLFRAME
 70
     0
  9
$SPLINETYPE
 70
     6
  9
$SPLINESEGS
 70
     8
  9
$HANDSEED
  5
C54
  9
$SURFTAB1
 70
     6
  9
$SURFTAB2
 70
     6
  9
$SURFTYPE
 70
     6
  9
$SURFU
 70
     6
  9
$SURFV
 70
     6
  9
$UCSBASE
  2

  9
$UCSNAME
  2

  9
$UCSORG
 10
0.0
 20
0.0
 30
0.0
  9
$UCSXDIR
 10
1.0
 20
0.0
 30
0.0
  9
$UCSYDIR
 10
0.0
 20
1.0
 30
0.0
  9
$UCSORTHOREF
  2

  9
$UCSORTHOVIEW
 70
     0
  9
$UCSORGTOP
 10
0.0
 20
0.0
 30
0.0
  9
$UCSORGBOTTOM
 10
0.0
 20
0.0
 30
0.0
  9
$UCSORGLEFT
 10
0.0
 20
0.0
 30
0.0
  9
$UCSORGRIGHT
 10
0.0
 20
0.0
 30
0.0
  9
$UCSORGFRONT
 10
0.0
 20
0.0
 30
0.0
  9
$UCSORGBACK
 10
0.0
 20
0.0
 30
0.0
  9
$PUCSBASE
  2

  9
$PUCSNAME
  2

  9
$PUCSORG
 10
0.0
 20
0.0
 30
0.0
  9
$PUCSXDIR
 10
1.0
 20
0.0
 30
0.0
  9
$PUCSYDIR
 10
0.0
 20
1.0
 30
0.0
  9
$PUCSORTHOREF
  2

  9
$PUCSORTHOVIEW
 70
     0
  9
$PUCSORGTOP
 10
0.0
 20
0.0
 30
0.0
  9
$PUCSORGBOTTOM
 10
0.0
 20
0.0
 30
0.0
  9
$PUCSORGLEFT
 10
0.0
 20
0.0
 30
0.0
  9
$PUCSORGRIGHT
 10
0.0
 20
0.0
 30
0.0
  9
$PUCSORGFRONT
 10
0.0
 20
0.0
 30
0.0
  9
$PUCSORGBACK
 10
0.0
 20
0.0
 30
0.0
  9
$USERI1
 70
     0
  9
$USERI2
 70
     0
  9
$USERI3
 70
     0
  9
$USERI4
 70
     0
  9
$USERI5
 70
     0
  9
$USERR1
 40
0.0
  9
$USERR2
 40
0.0
  9
$USERR3
 40
0.0
  9
$USERR4
 40
0.0
  9
$USERR5
 40
0.0
  9
$WORLDVIEW
 70
     1
  9
$SHADEDGE
 70
     3
  9
$SHADEDIF
 70
    70
  9
$TILEMODE
 70
     1
  9
$MAXACTVP
 70
    48
  9
$PINSBASE
 10
0.0
 20
0.0
 30
0.0
  9
$PLIMCHECK
 70
     0
  9
$PEXTMIN
 10
-815.9135211830465
 20
-980.133112773913
 30
0.0
  9
$PEXTMAX
 10
2204.729934292723
 20
1154.006057895479
 30
0.0
  9
$PLIMMIN
 10
0.0
 20
0.0
  9
$PLIMMAX
 10
12.0
 20
9.0
  9
$UNITMODE
 70
     0
  9
$VISRETAIN
 70
     1
  9
$PLINEGEN
 70
     0
  9
$PSLTSCALE
 70
     1
  9
$TREEDEPTH
 70
  3020
  9
$CMLSTYLE
  2
Standard
  9
$CMLJUST
 70
     0
  9
$CMLSCALE
 40
20.0
  9
$PROXYGRAPHICS
 70
     1
  9
$MEASUREMENT
 70
     1
  9
$CELWEIGHT
370
    -1
  9
$ENDCAPS
280
     0
  9
$JOINSTYLE
280
     0
  9
$LWDISPLAY
290
     0
  9
$INSUNITS
 70
     4
  9
$HYPERLINKBASE
  1

  9
$STYLESHEET
  1

  9
$XEDIT
290
     1
  9
$CEPSNTYPE
380
     0
  9
$PSTYLEMODE
290
     1
  9
$FINGERPRINTGUID
  2
{95382B6A-2DDB-466A-B776-D040F9466E90}
  9
$VERSIONGUID
  2
{5F034EE6-0B15-42CB-A8FB-9345D0D8D952}
  9
$EXTNAMES
290
     1
  9
$PSVPSCALE
 40
0.0
  9
$OLESTARTUP
290
     0
  0
ENDSEC
  0
SECTION
  2
CLASSES
  0
CLASS
  1
ACDBDICTIONARYWDFLT
  2
AcDbDictionaryWithDefault
  3
ObjectDBX Classes
 90
        0
280
     0
281
     0
  0
CLASS
  1
ACDBPLACEHOLDER
  2
AcDbPlaceHolder
  3
ObjectDBX Classes
 90
        0
280
     0
281
     0
  0
CLASS
  1
LAYOUT
  2
AcDbLayout
  3
ObjectDBX Classes
 90
        0
280
     0
281
     0
  0
CLASS
  1
ACME_DOCUMENT
  2
AcMeDoc
  3
AcMeServices
 90
    32768
280
     1
281
     0
  0
CLASS
  1
ACMESTATEMGR
  2
AcMeStateMgr
  3
AcMeServices
 90
    33792
280
     0
281
     0
  0
CLASS
  1
ACMESCOPE
  2
AcMeScope
  3
AcMeServices
 90
    33792
280
     0
281
     0
  0
CLASS
  1
ACMECOMMANDHISTORY
  2
AcMeCommandHistory
  3
AcMeServices
 90
    33792
280
     0
281
     0
  0
CLASS
  1
ACRFINSADJUSTERMGR
  2
AcRfInsAdjusterMgr
  3
AcMeServices
 90
    33792
280
     0
281
     0
  0
CLASS
  1
DICTIONARYVAR
  2
AcDbDictionaryVar
  3
ObjectDBX Classes
 90
        0
280
     0
281
     0
  0
CLASS
  1
ACIMSYSVARMAN
  2
AcImSysVarManager
  3
AcMeServices
 90
    33792
280
     0
281
     0
  0
CLASS
  1
ACIMREALSYSVAR
  2
AcImRealSysVar
  3
AcMeServices
 90
    33792
280
     0
281
     0
  0
CLASS
  1
ACIMINTSYSVAR
  2
AcImIntSysVar
  3
AcMeServices
 90
    33792
280
     0
281
     0
  0
CLASS
  1
ACMEDRAWINGMAN
  2
AcMeDrawingMan
  3
AcMeServices
 90
    33792
280
     0
281
     0
  0
CLASS
  1
ACMEVIEW
  2
AcMeView
  3
AcMeServices
 90
    33792
280
     0
281
     0
  0
CLASS
  1
ACDBENTITYCACHE
  2
AcMeEntityCache
  3
AcMeServices
 90
    33792
280
     0
281
     0
  0
CLASS
  1
ACGREFMASTER
  2
AcGrefMaster
  3
AcAttribServices
 90
    33792
280
     0
281
     0
  0
CLASS
  1
AMIMASTER
  2
AmiMaster
  3
AmiServices
 90
    33792
280
     0
281
     0
  0
CLASS
  1
ACASGREFMASTER
  2
AcAsGrefMaster
  3
AutoSurfResolverServices
 90
    33792
280
     0
281
     0
  0
CLASS
  1
ADAPPL
  2
AcAdAppl
  3
DesignerServices
 90
    33792
280
     0
281
     0
  0
CLASS
  1
DEPMGR
  2
AcAdDepMgr
  3
DesignerServices
 90
    33792
280
     0
281
     0
  0
CLASS
  1
PARAMMGR
  2
AcAdParamMgr
  3
DesignerServices
 90
    33792
280
     0
281
     0
  0
CLASS
  1
PARAMSCOPE
  2
AcAdParamScope
  3
DesignerServices
 90
    33792
280
     0
281
     0
  0
CLASS
  1
ACIMSTRSYSVAR
  2
AcImStrSysVar
  3
AcMeServices
 90
    33792
280
     0
281
     0
  0
CLASS
  1
NAMEDAPPL
  2
AcAdNamedAppl
  3
DesignerServices
 90
    33792
280
     0
281
     0
  0
CLASS
  1
ADHNTMPLT
  2
AdHoleNoteTemplateMgr
  3
DesignerServices
 90
    33792
280
     0
281
     0
  0
CLASS
  1
AM_HNTEMPLATE_MGR_NAME
  2
AdHoleNoteTemplateMgrName
  3
DesignerServices
 90
    33792
280
     0
281
     0
  0
CLASS
  1
ACADGREFMODULE
  2
AcAdGrefModule
  3
AdGrefServices
 90
    33792
280
     0
281
     0
  0
CLASS
  1
AM_DRAWING_MGR
  2
AcDmDwgMgr
  3
AcMechDwgViewMgmt
 90
    33792
280
     0
281
     0
  0
CLASS
  1
AM_DWG_DOCUMENT
  2
AcDmDwgDocument
  3
AcMechDwgViewMgmt
 90
    33792
280
     0
281
     0
  0
CLASS
  1
AM_DWG_SHEET
  2
AcDmSheet
  3
AcMechDwgViewMgmt
 90
    33792
280
     0
281
     0
  0
CLASS
  1
AM_VIEWDIMPARMAP
  2
AcDmViewDimParMap
  3
AcMechDwgViewMgmt
 90
    33792
280
     0
281
     0
  0
CLASS
  1
AM_DWGMGR_NAME
  2
AcDmDwgMgrName
  3
AcMechDwgViewMgmt
 90
    33792
280
     0
281
     0
  0
CLASS
  1
ACAMPROJECT
  2
AcAmProject
  3
DesignerAssemblies
 90
    33792
280
     0
281
     0
  0
CLASS
  1
ACAMGRCOMPSET
  2
AcAmGrCompSet
  3
DesignerAssemblies
 90
    32768
280
     1
281
     0
  0
CLASS
  1
ACAMGRCOMPDEFSET
  2
AcAmGrCompDefSet
  3
DesignerAssemblies
 90
    33792
280
     0
281
     0
  0
CLASS
  1
ACAMGRCOMPDEF
  2
AcAmGrCompDef
  3
DesignerAssemblies
 90
    33792
280
     0
281
     0
  0
CLASS
  1
ACCMCONTEXT
  2
AcCmContext
  3
DesignerAssemblies
 90
    33792
280
     0
281
     0
  0
CLASS
  1
ACAMCOMPDEF
  2
AcAmCompDef
  3
DesignerAssemblies
 90
    33792
280
     0
281
     0
  0
CLASS
  1
ACAMCOMPDEFMGR
  2
AcAmCompDefMgr
  3
DesignerAssemblies
 90
    33792
280
     0
281
     0
  0
CLASS
  1
AMCONTEXTMGR
  2
AcAmContextMgr
  3
DesignerAssemblies
 90
    33792
280
     0
281
     0
  0
CLASS
  1
ACAMCONTEXTMODELER
  2
AcAmContextModeler
  3
DesignerAssemblies
 90
    33792
280
     0
281
     0
  0
CLASS
  1
ACMDATADICTIONARY
  2
AcmDataDictionary
  3
"AcmSymBB|Product Description: AutoCAD Mechanical|Company: Autodesk, Inc."
 90
    33792
280
     0
281
     0
  0
CLASS
  1
ACMDATAENTRYBLOCK
  2
AcmDataEntryBlock
  3
AcmSymBB|Product Description: AutoCAD Mechanical|Company: Autodesk, Inc.
 90
    33792
280
     0
281
     0
  0
CLASS
  1
ACDMVIEWGEOM
  2
AcDmViewGeometry
  3
AcMechDwgViewMgmt
 90
    33792
280
     0
281
     1
  0
CLASS
  1
CBROWSERAPPOBJECT
  2
CBrowserAppObject
  3
McadcomServices
 90
    33792
280
     0
281
     0
  0
CLASS
  1
IM_STATIC_MAN
  2
AcImStaticVarManager
  3
AcMeServices
 90
    33792
280
     0
281
     0
  0
CLASS
  1
ASAPP
  2
AcAsAppObject
  3
AutoSurfServices
 90
    33792
280
     0
281
     0
  0
CLASS
  1
ACIMDBLSTATICVAR
  2
AcImDblStaticVar
  3
AcMeServices
 90
    33792
280
     0
281
     0
  0
CLASS
  1
ACIMSTRSTATICVAR
  2
AcImStrStaticVar
  3
AcMeServices
 90
    33792
280
     0
281
     0
  0
CLASS
  1
ACIMINTSTATICVAR
  2
AcImIntStaticVar
  3
AcMeServices
 90
    33792
280
     0
281
     0
  0
CLASS
  1
CATALOGSTATE
  2
AcAmCatalogState
  3
DesignerAssemblies
 90
    33792
280
     0
281
     0
  0
CLASS
  1
DM_PLACEHOLDER
  2
AcDmSelsetPlaceholder
  3
AcMechDwgViewMgmt
 90
    33792
280
     0
281
     0
  0
CLASS
  1
LAYER_INDEX
  2
AcDbLayerIndex
  3
ObjectDBX Classes
 90
    32768
280
     0
281
     0
  0
CLASS
  1
IDBUFFER
  2
AcDbIdBuffer
  3
ObjectDBX Classes
 90
    32768
280
     0
281
     0
  0
CLASS
  1
ACAMEXTERNALCOMPDEF
  2
AcAmExternalCompDef
  3
DesignerAssemblies
 90
    33792
280
     0
281
     0
  0
CLASS
  1
ACCMBODY
  2
AcCmBody
  3
DesignerAssemblies
 90
    33792
280
     0
281
     0
  0
CLASS
  1
ACAMGRCOMP
  2
AcAmGrComp
  3
DesignerAssemblies
 90
    33792
280
     0
281
     0
  0
CLASS
  1
ACAMCOMPFEEDBACK
  2
AcAmCompFeedback
  3
DesignerAssemblies
 90
    33792
280
     0
281
     0
  0
CLASS
  1
ACAMCOMP
  2
AcAmComp
  3
DesignerAssemblies
 90
    33792
280
     0
281
     0
  0
CLASS
  1
ACAMGRCOMPCLONE
  2
AcAmGrCompClone
  3
DesignerAssemblies
 90
    33792
280
     0
281
     0
  0
CLASS
  1
ACAMCLONEREACTOR
  2
AcAmGrCompCloneReactor
  3
DesignerAssemblies
 90
    33792
280
     0
281
     0
  0
CLASS
  1
AGDICTIONARY
  2
AgDictionary
  3
AccelView
 90
    33793
280
     0
281
     0
  0
CLASS
  1
EDGEID
  2
AcAdEdgeId
  3
DesignerServices
 90
    33792
280
     0
281
     0
  0
CLASS
  1
ACADPARTLINEDGRES
  2
AcAdPartLinEdgRes
  3
AdGrefServices
 90
    33792
280
     0
281
     0
  0
CLASS
  1
ACRFINSADJ
  2
AcRfInsAdjuster
  3
AcMeServices
 90
    33792
280
     0
281
     0
  0
CLASS
  1
STREFID
  2
AcAdStraightRefId
  3
DesignerServices
 90
    33792
280
     0
281
     0
  0
CLASS
  1
ACMEAXIS
  2
AcImAxisDisplay
  3
AcMeServices
 90
    33792
280
     0
281
     1
  0
CLASS
  1
FACEID
  2
AcAdFaceId
  3
DesignerServices
 90
    33792
280
     0
281
     0
  0
CLASS
  1
DEPEDGESECONDARYDEPID
  2
AcAdDepEdgeSecondaryDepId
  3
DesignerServices
 90
    33792
280
     0
281
     0
  0
CLASS
  1
ACADPARTPLANARFACERES
  2
AcAdPartPlanarFaceRes
  3
AdGrefServices
 90
    33792
280
     0
281
     0
  0
CLASS
  1
ACMEPOINT
  2
AcImPointDisplay
  3
AcMeServices
 90
    33792
280
     0
281
     1
  0
CLASS
  1
ACMELINEARARROW
  2
AcImLinearArrowDisplay
  3
AcMeServices
 90
    33792
280
     0
281
     1
  0
CLASS
  1
ACAMEXPR
  2
AcAmExpr
  3
DesignerAssemblies
 90
    33792
280
     0
281
     0
  0
CLASS
  1
ACCMDISTPLPL
  2
AcCmDistPlPl
  3
DesignerAssemblies
 90
    33792
280
     0
281
     0
  0
CLASS
  1
ACCMCONSTREACTOR
  2
AcCmConstraintReactor
  3
DesignerAssemblies
 90
    33792
280
     0
281
     0
  0
CLASS
  1
ACAMVIEWENTITYFILTER
  2
AcAmViewEntityFilter
  3
DesignerAssemblies
 90
    33792
280
     0
281
     0
  0
CLASS
  1
ACAMGRBLOCKRECORD
  2
AcAmGrBlockRecord
  3
DesignerAssemblies
 90
    33792
280
     0
281
     0
  0
CLASS
  1
ACAMVIEWREACTOR
  2
AcAmViewReactor
  3
DesignerAssemblies
 90
    33792
280
     0
281
     0
  0
CLASS
  1
AMVIEW
  2
AcAmView
  3
DesignerAssemblies
 90
    33792
280
     0
281
     0
  0
CLASS
  1
ACAMVIEWCONTEXT
  2
AcAmViewContext
  3
DesignerAssemblies
 90
    33792
280
     0
281
     0
  0
CLASS
  1
ACAMCOMPVIEWREACTOR
  2
AcAmGrCompViewReactor
  3
DesignerAssemblies
 90
    33792
280
     0
281
     0
  0
CLASS
  1
ACAMGRCOMPVIEW
  2
AcAmGrCompView
  3
DesignerAssemblies
 90
    33792
280
     0
281
     0
  0
CLASS
  1
SURFACEID
  2
AcAdSurfaceId
  3
DesignerServices
 90
    33792
280
     0
281
     0
  0
CLASS
  1
AM_GREF_PLANE
  2
AcDmGrefPlnDef
  3
AcMechDwgViewMgmt
 90
    33792
280
     0
281
     0
  0
CLASS
  1
AM_GREF_AXIS
  2
AcDmGrefAxisDef
  3
AcMechDwgViewMgmt
 90
    33792
280
     0
281
     0
  0
CLASS
  1
AM_BASE_VIEW_ORIENT
  2
AcDmBaseViewOr
  3
AcMechDwgViewMgmt
 90
    33792
280
     0
281
     0
  0
CLASS
  1
AM_DWG_VIEWPORT
  2
AcDmViewport
  3
AcMechDwgViewMgmt
 90
    33792
280
     0
281
     0
  0
CLASS
  1
AM_VIEW_DISPLAY
  2
AcDmDwgViewDisplay
  3
AcMechDwgViewMgmt
 90
    33792
280
     0
281
     0
  0
CLASS
  1
AM_BASE_VIEW
  2
AcDmBaseView
  3
AcMechDwgViewMgmt
 90
    33792
280
     0
281
     0
  0
CLASS
  1
ACDMVWEDLINE
  2
AcDmViewEdgeLine
  3
AcMechDwgViewMgmt
 90
    33792
280
     0
281
     1
  0
CLASS
  1
ACDMVWEDARC
  2
AcDmViewEdgeArc
  3
AcMechDwgViewMgmt
 90
    33792
280
     0
281
     1
  0
CLASS
  1
ACDMVWEDCIRC
  2
AcDmViewEdgeCircle
  3
AcMechDwgViewMgmt
 90
    33792
280
     0
281
     1
  0
CLASS
  1
AM_ORTHO_VIEW_ORIENT
  2
AcDmOrthoViewOr
  3
AcMechDwgViewMgmt
 90
    33792
280
     0
281
     0
  0
CLASS
  1
AM_ORTHO_VIEW
  2
AcDmOrthoView
  3
AcMechDwgViewMgmt
 90
    33792
280
     0
281
     0
  0
CLASS
  1
CNRREFID
  2
AcAdCornerId
  3
DesignerServices
 90
    33792
280
     0
281
     0
  0
CLASS
  1
ACADPARTPOINTRES
  2
AcAdPartPointRes
  3
AdGrefServices
 90
    33792
280
     0
281
     0
  0
CLASS
  1
AM_VIEWDIMLINEAR
  2
AcDmViewDimLinear
  3
AcMechDwgViewMgmt
 90
    33792
280
     0
281
     0
  0
CLASS
  1
ACADPARTCIRCEDGRES
  2
AcAdPartCircEdgRes
  3
AdGrefServices
 90
    33792
280
     0
281
     0
  0
CLASS
  1
CIRREFID
  2
AcAdCircleRefId
  3
DesignerServices
 90
    33792
280
     0
281
     0
  0
CLASS
  1
ACADPARTCYLINDERFACERES
  2
AcAdPartCylinderFaceRes
  3
AdGrefServices
 90
    33792
280
     0
281
     0
  0
CLASS
  1
ACCMDISTLNLN
  2
AcCmDistLnLn
  3
DesignerAssemblies
 90
    33792
280
     0
281
     0
  0
CLASS
  1
ACMECIRCARC
  2
AcImCircArcDisplay
  3
AcMeServices
 90
    33792
280
     0
281
     1
  0
CLASS
  1
ACCMDISTPTLN
  2
AcCmDistPtLn
  3
DesignerAssemblies
 90
    33792
280
     0
281
     0
  0
CLASS
  1
ACRFATTGENMGR
  2
AcRfAttGeneralMgr
  3
AcAttribServices
 90
    33792
280
     0
281
     0
  0
CLASS
  1
FEEDBACK
  2
AcAmFeedback
  3
DesignerAssemblies
 90
    33792
280
     0
281
     1
  0
CLASS
  1
ACAMTRIAXISSYMBOL
  2
AcAmTriAxisSymbol
  3
DesignerAssemblies
 90
    33792
280
     0
281
     0
  0
CLASS
  1
ACAMROTAXISSYMBOL
  2
AcAmRotAxisSymbol
  3
DesignerAssemblies
 90
    33792
280
     0
281
     0
  0
CLASS
  1
ACAMTEXTCIRCLESYMBOL
  2
AcAmTextCircleSymbol
  3
DesignerAssemblies
 90
    33792
280
     0
281
     0
  0
CLASS
  1
ACCMTANCLCL
  2
AcCmTanClCl
  3
AcCmServices
 90
    33792
280
     0
281
     0
  0
CLASS
  1
ACCMANGVECVEC
  2
AcCmAngVecVec
  3
DesignerAssemblies
 90
    33792
280
     0
281
     0
  0
CLASS
  1
ACMEROTATIONARROW
  2
AcImRotationArrowDisplay
  3
AcMeServices
 90
    33792
280
     0
281
     1
  0
CLASS
  1
ACDMVWEDSPLINE
  2
AcDmViewEdgeSpline
  3
AcMechDwgViewMgmt
 90
    33792
280
     0
281
     1
  0
CLASS
  1
SILEDGEID
  2
AcAdSilhouetteEdgeId
  3
DesignerServices
 90
    33792
280
     0
281
     0
  0
CLASS
  1
ACAMVECTORSYMBOL
  2
AcAmVectorSymbol
  3
DesignerAssemblies
 90
    33792
280
     0
281
     0
  0
CLASS
  1
ACCMTANCLPL
  2
AcCmTanClPl
  3
AcCmServices
 90
    33792
280
     0
281
     0
  0
CLASS
  1
AM_VIEW_SELECT_FILTER
  2
AcDmSelectViewEntFilter
  3
AcMechDwgViewMgmt
 90
    33792
280
     0
281
     0
  0
CLASS
  1
ACME_DATABASE
  2
AcMeDbDatabase
  3
AcMeServices
 90
    33792
280
     0
281
     0
  0
CLASS
  1
ACME_DOCUMENT
  2
AcMeDbDoc
  3
AcMeServices
 90
    33792
280
     0
281
     0
  0
CLASS
  1
AMGSETTINGSOBJ
  2
AmgSettingsObj
  3
"AcadM|Product Description: AutoCAD Mechanical|Company: Autodesk, Inc."
 90
    33792
280
     0
281
     0
  0
CLASS
  1
GSMANAGER
  2
AcMeGSManager
  3
AcMeServices
 90
    33792
280
     0
281
     0
  0
CLASS
  1
AMDTINTERNALREACTOR
  2
AmdtInternalReactor
  3
AcMeServices
 90
    33792
280
     0
281
     0
  0
CLASS
  1
ACGREFACADMASTER
  2
AcGrefacadMaster
  3
AcGrefServices
 90
    33792
280
     0
281
     0
  0
CLASS
  1
AMDTMENUSTATEMGR
  2
AmdtMenuStateMgr
  3
McadcomServices
 90
    33792
280
     0
281
     0
  0
CLASS
  1
AMDTMCOMMENUSTATE
  2
AmdtMcomMenuState
  3
McadcomServices
 90
    33792
280
     0
281
     0
  0
CLASS
  1
MAPIAMMOUDLE
  2
MApiAmModule
  3
MApiAmServices
 90
    33792
280
     0
281
     0
  0
CLASS
  1
AMDTDMMENUSTATE
  2
AmdtDmMenuState
  3
AcMechDwgViewMgmt
 90
    33792
280
     0
281
     0
  0
CLASS
  1
AMDTADMENUSTATE
  2
AmdtAdMenuState
  3
DesignerServices
 90
    33792
280
     0
281
     0
  0
CLASS
  1
AMDTAMMENUSTATE
  2
AmdtAmMenuState
  3
DesignerAssemblies
 90
    33792
280
     0
281
     0
  0
CLASS
  1
MAPIADMODULE
  2
MApiAdModule
  3
MApiAdServices
 90
    33792
280
     0
281
     0
  0
CLASS
  1
ACAMCOMPENT
  2
AcAmCompEnt
  3
DesignerAssemblies
 90
    33792
280
     0
281
     1
  0
CLASS
  1
ACAMCOMPENTCLONE
  2
AcAmCompEntClone
  3
DesignerAssemblies
 90
    33792
280
     0
281
     1
  0
CLASS
  1
ACAMCOMPENTVIEW
  2
AcAmCompEntView
  3
DesignerAssemblies
 90
    33792
280
     0
281
     1
  0
CLASS
  1
AM_CLDFLTS
  2
AcDmClDflts
  3
AcMechDwgViewMgmt
 90
    33792
280
     0
281
     0
  0
CLASS
  1
AMDTBROWSERDBTAB
  2
AmdtBrowserDbTab
  3
McadcomServices
 90
    33792
280
     0
281
     0
  0
CLASS
  1
AMGOBJPROPCFG
  2
AmgObjPropCfg
  3
"AmgLay|Product Description: AutoCAD Mechanical|Company: Autodesk, Inc."
 90
    33793
280
     0
281
     0
  0
CLASS
  1
ACDMVWEDELLIPSE
  2
AcDmViewEdgeEllipse
  3
AcMechDwgViewMgmt
 90
    33792
280
     0
281
     1
  0
CLASS
  1
ACAMGFILTERDAT
  2
AcAmgFilterDat
  3
"AcadM|Product Description: AutoCAD Mechanical|Company: Autodesk, Inc."
 90
    33792
280
     0
281
     0
  0
CLASS
  1
AMDTMAPISURFMOUDULE
  2
AmdtMApiSurfModule
  3
MApiSurfServices
 90
    33792
280
     0
281
     0
  0
CLASS
  1
ACDMPARTVIEWDATA
  2
AcDmPartViewData
  3
AcMechDwgViewMgmt
 90
    33792
280
     0
281
     0
  0
CLASS
  1
ACDMDISPLAYATTRIBS
  2
AcDmDisplayAttribs
  3
AcMechDwgViewMgmt
 90
    33792
280
     0
281
     0
  0
CLASS
  1
ACDMBODYINSTANCEDATA
  2
AcDmBodyInstanceData
  3
AcMechDwgViewMgmt
 90
    33792
280
     0
281
     0
  0
CLASS
  1
ACMSTANDARDISO
  2
AcmStandardISO
  3
"Amdt_StdImp|Product Description: AutoCAD Mechanical|Company: Autodesk, Inc."
 90
    33792
280
     0
281
     0
  0
CLASS
  1
AMDTEDGESTANDARDISO
  2
AmdtEdgeStdISO
  3
"Amdt_StdImp|Product Description: AutoCAD Mechanical|Company: Autodesk, Inc."
 90
    33792
280
     0
281
     0
  0
CLASS
  1
ACMSURFSTANDARDISO
  2
AcmSurfTextStdISO
  3
"Amdt_StdImp|Product Description: AutoCAD Mechanical|Company: Autodesk, Inc."
 90
    33792
280
     0
281
     0
  0
CLASS
  1
ACMFCFSTANDARDISO
  2
AcmFCFStdISO
  3
"Amdt_StdImp|Product Description: AutoCAD Mechanical|Company: Autodesk, Inc."
 90
    33792
280
     0
281
     0
  0
CLASS
  1
ACMWELDSTANDARDISO
  2
AcmWeldingStdISO
  3
"Amdt_StdImp|Product Description: AutoCAD Mechanical|Company: Autodesk, Inc."
 90
    33792
280
     0
281
     0
  0
CLASS
  1
ACMIDSTANDARDISO
  2
AcmIdStdISO
  3
"Amdt_StdImp|Product Description: AutoCAD Mechanical|Company: Autodesk, Inc."
 90
    33792
280
     0
281
     0
  0
CLASS
  1
ACMDATUMSTANDARDISO
  2
AcmDatumStdISO
  3
"Amdt_StdImp|Product Description: AutoCAD Mechanical|Company: Autodesk, Inc."
 90
    33792
280
     0
281
     0
  0
CLASS
  1
ACMBOMSTANDARDISO
  2
AcmBOMStdISO
  3
"Amdt_StdImp|Product Description: AutoCAD Mechanical|Company: Autodesk, Inc."
 90
    33792
280
     0
281
     0
  0
CLASS
  1
ACMDETAILSTANDARDISO
  2
AmdtDetailSymStdISO
  3
"Amdt_StdImp|Product Description: AutoCAD Mechanical|Company: Autodesk, Inc."
 90
    33792
280
     0
281
     0
  0
CLASS
  1
ACMSECTIONSTANDARDISO
  2
AmdtSectionSymStdISO
  3
"Amdt_StdImp|Product Description: AutoCAD Mechanical|Company: Autodesk, Inc."
 90
    33792
280
     0
281
     0
  0
CLASS
  1
ACMCENTERLINESTANDARDISO
  2
AmdtCenterLineStdISO
  3
"Amdt_StdImp|Product Description: AutoCAD Mechanical|Company: Autodesk, Inc."
 90
    33792
280
     0
281
     0
  0
CLASS
  1
ACMTHREADLINESTANDARDISO
  2
AmdtThreadLineStdISO
  3
"Amdt_StdImp|Product Description: AutoCAD Mechanical|Company: Autodesk, Inc."
 90
    33792
280
     0
281
     0
  0
CLASS
  1
ACAMGLAYSTD
  2
AcAmgLayStd
  3
"AmgLay|Product Description: AutoCAD Mechanical|Company: Autodesk, Inc."
 90
    33792
280
     0
281
     0
  0
CLASS
  1
ACAMGDIMSTD
  2
AcAmgDimStd
  3
"AmgDim|Product Description: AutoCAD Mechanical|Company: Autodesk, Inc."
 90
    33792
280
     0
281
     0
  0
CLASS
  1
ACAMGTITLESTD
  2
AcAmgTitleStd
  3
"AmgTitle|Product Description: AutoCAD Mechanical|Company: Autodesk, Inc."
 90
    36863
280
     0
281
     0
  0
CLASS
  1
AMDTFORMULAUPDATEDISPATCHER
  2
AmdtFormulaUpdateDispatcher
  3
AcMeServices
 90
    33792
280
     0
281
     0
  0
CLASS
  1
PARAM
  2
AcAdParam
  3
DesignerServices
 90
    33792
280
     0
281
     0
  0
CLASS
  1
ACMEPLINE
  2
AcImPlineDisplay
  3
AcMeServices
 90
    33792
280
     0
281
     1
  0
CLASS
  1
ACCMDISTLNPL
  2
AcCmDistLnPl
  3
AcCmServices
 90
    33792
280
     0
281
     0
  0
CLASS
  1
ACCMDISTPTPL
  2
AcCmDistPtPl
  3
DesignerAssemblies
 90
    33792
280
     0
281
     0
  0
CLASS
  1
ACMNOTESTANDARDISO
  2
AmdtNoteStdISO
  3
"Amdt_StdImp|Product Description: AutoCAD Mechanical|Company: Autodesk, Inc."
 90
    33792
280
     0
281
     0
  0
CLASS
  1
AMDTNOTETEMPLATEDB
  2
AmdtNoteTemplateDB
  3
AcmSymBB|Product Description: AutoCAD Mechanical|Company: Autodesk, Inc.
 90
    33792
280
     0
281
     0
  0
CLASS
  1
TABLESTYLE
  2
AcDbTableStyle
  3
ObjectDBX Classes
 90
     4095
280
     0
281
     0
  0
CLASS
  1
AM_VIEW_GROUP_FILTER
  2
AcDmGroupViewEntFilter
  3
AcMechDwgViewMgmt
 90
    33792
280
     0
281
     0
  0
CLASS
  1
MATERIAL
  2
AcDbMaterial
  3
ObjectDBX Classes
 90
     1153
280
     0
281
     0
  0
CLASS
  1
VISUALSTYLE
  2
AcDbVisualStyle
  3
ObjectDBX Classes
 90
     4095
280
     0
281
     0
  0
CLASS
  1
SCALE
  2
AcDbScale
  3
ObjectDBX Classes
 90
     1153
280
     0
281
     0
  0
CLASS
  1
MLEADERSTYLE
  2
AcDbMLeaderStyle
  3
ACDB_MLEADERSTYLE_CLASS
 90
     4095
280
     0
281
     0
  0
CLASS
  1
EXACTERMXREFMAP
  2
ExAcTermXrefMap
  3
EXAC_SERVICE
 90
    33793
280
     0
281
     0
  0
CLASS
  1
NPOCOLLECTION
  2
AcDbImpNonPersistentObjectsCollection
  3
ObjectDBX Classes
 90
     1153
280
     0
281
     0
  0
CLASS
  1
ACMTAPERSTANDARDISO
  2
AcmTaperStdISO
  3
"Amdt_StdImp|Product Description: AutoCAD Mechanical|Company: Autodesk, Inc."
 90
    33792
280
     0
281
     0
  0
CLASS
  1
ACMANOOTATIONVIEWSTANDARDISO
  2
AmdtAnViewStdISO
  3
"Amdt_StdImp|Product Description: AutoCAD Mechanical|Company: Autodesk, Inc."
 90
    33792
280
     0
281
     0
  0
CLASS
  1
LIGHT
  2
AcDbLight
  3
SCENEOE
 90
    33793
280
     0
281
     1
  0
CLASS
  1
SOLID_BACKGROUND
  2
AcDbSolidBackground
  3
SCENEOE
 90
     4095
280
     0
281
     0
  0
CLASS
  1
AM_ABS_AXIS
  2
AcDmAbsAxisDef
  3
AcMechDwgViewMgmt
 90
    33792
280
     0
281
     0
  0
CLASS
  1
AM_ABS_PLANE
  2
AcDmAbsPlnDef
  3
AcMechDwgViewMgmt
 90
    33792
280
     0
281
     0
  0
CLASS
  1
AM_ADCIRCTRLINE
  2
AcAdBullsEyeCl
  3
DesignerServices
 90
    33792
280
     0
281
     0
  0
CLASS
  1
AM_ADLINCTRLINE
  2
AcAdLineCl
  3
DesignerServices
 90
    33792
280
     0
281
     0
  0
CLASS
  1
CELLSTYLEMAP
  2
AcDbCellStyleMap
  3
ObjectDBX Classes
 90
     1152
280
     0
281
     0
  0
CLASS
  1
MULTILEADER
  2
AcDbMLeader
  3
ACDB_MLEADER_CLASS
 90
     1025
280
     0
281
     1
  0
ENDSEC
  0
SECTION
  2
TABLES
  0
TABLE
  2
VPORT
  5
2B
102
{ACAD_XDICTIONARY
360
4F8
102
}
330
0
100
AcDbSymbolTable
 70
     1
  0
VPORT
  5
628
330
2B
100
AcDbSymbolTableRecord
100
AcDbViewportTableRecord
  2
*Active
 70
     0
 10
0.0
 20
0.0
 11
1.0
 21
1.0
 12
-161.2934317317136
 22
-26.27037271902498
 13
0.0
 23
0.0
 14
10.0
 24
10.0
 15
10.0
 25
10.0
 16
0.0
 26
0.0
 36
8864.969197547654
 17
273.6568803372494
 27
209.5680441970269
 37
0.0
 40
1176.768134213431
 41
1.807989690721649
 42
50.0
 43
0.0
 44
0.0
 50
0.0
 51
0.0
 71
     0
 72
   100
 73
     1
 74
     2
 75
     0
 76
     0
 77
     0
 78
     0
281
     6
 65
     0
110
0.0
120
0.0
130
0.0
111
1.0
121
0.0
131
0.0
112
0.0
122
1.0
132
0.0
 79
     0
146
0.0
  0
ENDTAB
  0
TABLE
  2
LTYPE
  5
26
330
0
100
AcDbSymbolTable
 70
     5
  0
LTYPE
  5
27
330
26
100
AcDbSymbolTableRecord
100
AcDbLinetypeTableRecord
  2
ByBlock
 70
     0
  3

 72
    65
 73
     0
 40
0.0
  0
LTYPE
  5
28
330
26
100
AcDbSymbolTableRecord
100
AcDbLinetypeTableRecord
  2
ByLayer
 70
     0
  3

 72
    65
 73
     0
 40
0.0
  0
LTYPE
  5
15
330
26
100
AcDbSymbolTableRecord
100
AcDbLinetypeTableRecord
  2
Continuous
 70
     0
  3
Solid line
 72
    65
 73
     0
 40
0.0
  0
LTYPE
  5
154
330
26
100
AcDbSymbolTableRecord
100
AcDbLinetypeTableRecord
  2
HIDDEN
 70
     0
  3
Hidden __ __ __ __ __ __ __ __ __ __ __ __ __ _
 72
    65
 73
     2
 40
9.524999999999996
 49
6.349999999999997
 74
     0
 49
-3.174999999999998
 74
     0
  0
LTYPE
  5
7F
330
26
100
AcDbSymbolTableRecord
100
AcDbLinetypeTableRecord
  2
AM_ISO08W050
 70
     0
  3
____ . ____ . ____ . ____ . ____ . ____ . ____
 72
    65
 73
     4
 40
18.0
 49
12.0
 74
     0
 49
-1.5
 74
     0
 49
3.0
 74
     0
 49
-1.5
 74
     0
  0
LTYPE
  5
647
330
26
100
AcDbSymbolTableRecord
100
AcDbLinetypeTableRecord
  2
DASHDOT
 70
     0
  3
____ _ ____ _ ____ _ ____ _ ____ _ ____ _ ____
 72
    65
 73
     4
 40
5.5
 49
4.0
 74
     0
 49
-0.6
 74
     0
 49
0.3
 74
     0
 49
-0.6
 74
     0
  0
ENDTAB
  0
TABLE
  2
LAYER
  5
20
102
{ACAD_XDICTIONARY
360
21
102
}
330
0
100
AcDbSymbolTable
 70
    12
  0
LAYER
  5
6
102
{ACAD_XDICTIONARY
360
7
102
}
330
20
100
AcDbSymbolTableRecord
100
AcDbLayerTableRecord
  2
0
 70
     0
 62
     7
  6
Continuous
370
    -3
390
9
  0
LAYER
  5
151
102
{ACAD_XDICTIONARY
360
152
102
}
330
20
100
AcDbSymbolTableRecord
100
AcDbLayerTableRecord
  2
HID
 70
     0
 62
     3
  6
HIDDEN
370
    -3
390
9
  0
LAYER
  5
50C
330
20
100
AcDbSymbolTableRecord
100
AcDbLayerTableRecord
  2
Defpoints
 70
     0
 62
     7
  6
Continuous
290
     0
370
    -3
390
9
  0
LAYER
  5
648
330
20
100
AcDbSymbolTableRecord
100
AcDbLayerTableRecord
  2
SIZE
 70
     0
 62
    30
  6
Continuous
370
    -3
390
9
  0
LAYER
  5
649
330
20
100
AcDbSymbolTableRecord
100
AcDbLayerTableRecord
  2
OUTLINE
 70
     0
 62
     3
  6
Continuous
370
    -3
390
9
  0
LAYER
  5
64A
330
20
100
AcDbSymbolTableRecord
100
AcDbLayerTableRecord
  2
DETAIL
 70
     0
 62
     5
  6
Continuous
370
    -3
390
9
  0
LAYER
  5
64B
330
20
100
AcDbSymbolTableRecord
100
AcDbLayerTableRecord
  2
BASIS
 70
     0
 62
     6
  6
DASHDOT
370
    -3
390
9
  0
LAYER
  5
64C
330
20
100
AcDbSymbolTableRecord
100
AcDbLayerTableRecord
  2
NOTE
 70
     0
 62
     4
  6
Continuous
370
    -3
390
9
  0
LAYER
  5
64D
330
20
100
AcDbSymbolTableRecord
100
AcDbLayerTableRecord
  2
ARRANGE
 70
     0
 62
     1
  6
Continuous
370
    -3
390
9
  0
LAYER
  5
64E
330
20
100
AcDbSymbolTableRecord
100
AcDbLayerTableRecord
  2
ETC
 70
     0
 62
    61
  6
Continuous
370
    -3
390
9
  0
ENDTAB
  0
TABLE
  2
STYLE
  5
23
330
0
100
AcDbSymbolTable
 70
     2
  0
STYLE
  5
24
330
23
100
AcDbSymbolTableRecord
100
AcDbTextStyleTableRecord
  2
Standard
 70
     0
 40
0.0
 41
1.0
 50
0.0
 71
     0
 42
43.66586864911549
  3
romans.shx
  4
bigfont.shx
  0
STYLE
  5
64F
330
23
100
AcDbSymbolTableRecord
100
AcDbTextStyleTableRecord
  2
STANDARD1
 70
     0
 40
0.0
 41
1.0
 50
0.0
 71
     0
 42
3.5
  3
MONOTXT
  4
BIGFONT
  0
ENDTAB
  0
TABLE
  2
VIEW
  5
29
330
0
100
AcDbSymbolTable
 70
     0
  0
ENDTAB
  0
TABLE
  2
UCS
  5
2A
330
0
100
AcDbSymbolTable
 70
     0
  0
ENDTAB
  0
TABLE
  2
APPID
  5
2F
330
0
100
AcDbSymbolTable
 70
     7
  0
APPID
  5
30
330
2F
100
AcDbSymbolTableRecord
100
AcDbRegAppTableRecord
  2
ACAD
 70
     0
  0
APPID
  5
1F
330
2F
100
AcDbSymbolTableRecord
100
AcDbRegAppTableRecord
  2
ACAD_PSEXT
 70
     0
  0
APPID
  5
80
330
2F
100
AcDbSymbolTableRecord
100
AcDbRegAppTableRecord
  2
AcAecLayerStandard
 70
     0
  0
APPID
  5
4C8
330
2F
100
AcDbSymbolTableRecord
100
AcDbRegAppTableRecord
  2
ACATTRIBSERVICES
 70
     0
  0
APPID
  5
4E2
330
2F
100
AcDbSymbolTableRecord
100
AcDbRegAppTableRecord
  2
ACAD_MLEADERVER
 70
     0
  0
APPID
  5
4EA
330
2F
100
AcDbSymbolTableRecord
100
AcDbRegAppTableRecord
  2
ACAD_DSTYLE_DIMJAG
 70
     0
  0
APPID
  5
4EB
330
2F
100
AcDbSymbolTableRecord
100
AcDbRegAppTableRecord
  2
ACAD_DSTYLE_DIMTALN
 70
     0
  0
ENDTAB
  0
TABLE
  2
DIMSTYLE
  5
31
330
0
100
AcDbSymbolTable
 70
     3
100
AcDbDimStyleTable
 71
     1
340
32
  0
DIMSTYLE
105
32
102
{ACAD_REACTORS
330
50B
330
519
330
526
330
533
330
540
330
54D
330
55C
330
574
330
581
330
58E
330
59B
330
5A8
330
5B5
330
5C2
330
5CF
330
5DC
330
5E9
330
60B
102
}
330
31
100
AcDbSymbolTableRecord
100
AcDbDimStyleTableRecord
  2
ISO-25
 70
     0
 41
2.5
 42
0.625
 43
3.75
 44
1.25
 73
     0
 74
     0
 77
     1
 78
     8
140
2.5
141
2.5
143
0.03937007874016
147
0.625
171
     3
172
     1
271
     2
272
     2
274
     3
283
     0
284
     8
340
24
  0
DIMSTYLE
105
650
330
31
100
AcDbSymbolTableRecord
100
AcDbDimStyleTableRecord
  2
STANDARD
 70
     0
275
     1
279
     2
284
     8
285
     8
286
     8
340
24
  0
ENDTAB
  0
TABLE
  2
BLOCK_RECORD
  5
1
330
0
100
AcDbSymbolTable
 70
    23
  0
BLOCK_RECORD
  5
2
102
{ACAD_XDICTIONARY
360
3
102
}
330
1
100
AcDbSymbolTableRecord
100
AcDbBlockTableRecord
  2
*Model_Space
340
17
  0
BLOCK_RECORD
  5
19
330
1
100
AcDbSymbolTableRecord
100
AcDbBlockTableRecord
  2
*Paper_Space
340
1C
  0
BLOCK_RECORD
  5
4A
330
1
100
AcDbSymbolTableRecord
100
AcDbBlockTableRecord
  2
_OPEN30
340
0
102
{BLKREFS
331
BA1
331
BA2
331
BAA
331
BAB
331
BB3
331
BB4
331
BBC
331
BBD
331
BC5
331
BC6
331
BCE
331
BCF
331
BD7
331
BD8
331
BE0
331
BE1
331
BE9
331
BEA
331
BF2
331
BF3
331
BFB
331
BFC
331
C04
331
C05
331
C0D
331
C0E
331
C16
331
C17
331
C21
331
C22
331
C2A
331
C2B
331
C33
331
C34
331
C3E
331
C3F
102
}
  0
BLOCK_RECORD
  5
50
330
1
100
AcDbSymbolTableRecord
100
AcDbBlockTableRecord
  2
_DOTSMALL
340
0
  0
BLOCK_RECORD
  5
50D
330
1
100
AcDbSymbolTableRecord
100
AcDbBlockTableRecord
  2
*D2
340
0
  0
BLOCK_RECORD
  5
51A
330
1
100
AcDbSymbolTableRecord
100
AcDbBlockTableRecord
  2
*D3
340
0
  0
BLOCK_RECORD
  5
527
330
1
100
AcDbSymbolTableRecord
100
AcDbBlockTableRecord
  2
*D4
340
0
  0
BLOCK_RECORD
  5
534
330
1
100
AcDbSymbolTableRecord
100
AcDbBlockTableRecord
  2
*D5
340
0
  0
BLOCK_RECORD
  5
541
330
1
100
AcDbSymbolTableRecord
100
AcDbBlockTableRecord
  2
*D6
340
0
  0
BLOCK_RECORD
  5
54E
330
1
100
AcDbSymbolTableRecord
100
AcDbBlockTableRecord
  2
*D7
340
0
  0
BLOCK_RECORD
  5
55D
330
1
100
AcDbSymbolTableRecord
100
AcDbBlockTableRecord
  2
*D8
340
0
  0
BLOCK_RECORD
  5
575
330
1
100
AcDbSymbolTableRecord
100
AcDbBlockTableRecord
  2
*D9
340
0
  0
BLOCK_RECORD
  5
582
330
1
100
AcDbSymbolTableRecord
100
AcDbBlockTableRecord
  2
*D10
340
0
  0
BLOCK_RECORD
  5
58F
330
1
100
AcDbSymbolTableRecord
100
AcDbBlockTableRecord
  2
*D11
340
0
  0
BLOCK_RECORD
  5
59C
330
1
100
AcDbSymbolTableRecord
100
AcDbBlockTableRecord
  2
*D12
340
0
  0
BLOCK_RECORD
  5
5A9
330
1
100
AcDbSymbolTableRecord
100
AcDbBlockTableRecord
  2
*D13
340
0
  0
BLOCK_RECORD
  5
5B6
330
1
100
AcDbSymbolTableRecord
100
AcDbBlockTableRecord
  2
*D14
340
0
  0
BLOCK_RECORD
  5
5C3
330
1
100
AcDbSymbolTableRecord
100
AcDbBlockTableRecord
  2
*D15
340
0
  0
BLOCK_RECORD
  5
5D0
330
1
100
AcDbSymbolTableRecord
100
AcDbBlockTableRecord
  2
*D16
340
0
  0
BLOCK_RECORD
  5
5DD
330
1
100
AcDbSymbolTableRecord
100
AcDbBlockTableRecord
  2
*D17
340
0
  0
BLOCK_RECORD
  5
5EA
330
1
100
AcDbSymbolTableRecord
100
AcDbBlockTableRecord
  2
*D18
340
0
  0
BLOCK_RECORD
  5
60C
330
1
100
AcDbSymbolTableRecord
100
AcDbBlockTableRecord
  2
*D19
340
0
  0
BLOCK_RECORD
  5
642
330
1
100
AcDbSymbolTableRecord
100
AcDbBlockTableRecord
  2
_DOTBLANK
340
0
  0
ENDTAB
  0
ENDSEC
  0
SECTION
  2
BLOCKS
  0
BLOCK
  5
5
330
2
100
AcDbEntity
  8
0
100
AcDbBlockBegin
  2
*Model_Space
 70
     0
 10
0.0
 20
0.0
 30
0.0
  3
*Model_Space
  1

  0
ENDBLK
  5
16
330
2
100
AcDbEntity
  8
0
100
AcDbBlockEnd
  0
BLOCK
  5
1A
330
19
100
AcDbEntity
 67
     1
  8
0
100
AcDbBlockBegin
  2
*Paper_Space
 70
     0
 10
0.0
 20
0.0
 30
0.0
  3
*Paper_Space
  1

  0
ENDBLK
  5
1B
330
19
100
AcDbEntity
 67
     1
  8
0
100
AcDbBlockEnd
  0
BLOCK
  5
4B
330
4A
100
AcDbEntity
  8
0
100
AcDbBlockBegin
  2
_OPEN30
 70
     0
 10
0.0
 20
0.0
 30
0.0
  3
_OPEN30
  1

  0
LINE
  5
4C
330
4A
100
AcDbEntity
  8
0
  6
ByBlock
 62
     0
100
AcDbLine
 10
-1.0
 20
0.26794919
 30
0.0
 11
0.0
 21
0.0
 31
0.0
  0
LINE
  5
4D
330
4A
100
AcDbEntity
  8
0
  6
ByBlock
 62
     0
100
AcDbLine
 10
0.0
 20
0.0
 30
0.0
 11
-1.0
 21
-0.26794919
 31
0.0
  0
LINE
  5
4E
330
4A
100
AcDbEntity
  8
0
  6
ByBlock
 62
     0
100
AcDbLine
 10
0.0
 20
0.0
 30
0.0
 11
-1.0
 21
0.0
 31
0.0
  0
ENDBLK
  5
4F
330
4A
100
AcDbEntity
  8
0
100
AcDbBlockEnd
  0
BLOCK
  5
51
330
50
100
AcDbEntity
  8
0
100
AcDbBlockBegin
  2
_DOTSMALL
 70
     0
 10
0.0
 20
0.0
 30
0.0
  3
_DOTSMALL
  1

  0
POLYLINE
  5
52
330
50
100
AcDbEntity
  8
0
  6
ByBlock
 62
     0
100
AcDb2dPolyline
 66
     1
 10
0.0
 20
0.0
 30
0.0
 70
     1
 40
0.5
 41
0.5
  0
VERTEX
  5
53
330
52
100
AcDbEntity
  8
0
  6
ByBlock
 62
     0
100
AcDbVertex
100
AcDb2dVertex
 10
-0.0625
 20
0.0
 30
0.0
 42
1.0
  0
VERTEX
  5
54
330
52
100
AcDbEntity
  8
0
  6
ByBlock
 62
     0
100
AcDbVertex
100
AcDb2dVertex
 10
0.0625
 20
0.0
 30
0.0
 42
1.0
  0
SEQEND
  5
55
330
52
100
AcDbEntity
  8
0
  6
ByBlock
 62
     0
  0
ENDBLK
  5
56
330
50
100
AcDbEntity
  8
0
100
AcDbBlockEnd
  0
BLOCK
  5
50E
330
50D
100
AcDbEntity
  8
0
100
AcDbBlockBegin
  2
*D2
 70
     1
 10
0.0
 20
0.0
 30
0.0
  3
*D2
  1

  0
LINE
  5
BE6
330
50D
100
AcDbEntity
  8
SIZE
 62
     0
370
    -2
100
AcDbLine
 10
-225.6817343623487
 20
460.2163168170863
 30
0.0
 11
-225.6817343623487
 21
575.3740354349774
 31
0.0
  0
LINE
  5
BE7
330
50D
100
AcDbEntity
  8
SIZE
 62
     0
370
    -2
100
AcDbLine
 10
-160.6817343623497
 20
540.8263168170898
 30
0.0
 11
-160.6817343623497
 21
575.3740354349774
 31
0.0
  0
LINE
  5
BE8
330
50D
100
AcDbEntity
  8
SIZE
 62
     0
370
    -2
100
AcDbLine
 10
-213.1817343623487
 20
569.1240354349774
 30
0.0
 11
-173.1817343623497
 21
569.1240354349774
 31
0.0
  0
INSERT
  5
BE9
330
50D
100
AcDbEntity
  8
SIZE
 62
     0
370
    -2
100
AcDbBlockReference
  2
_OPEN30
 10
-225.6817343623487
 20
569.1240354349774
 30
0.0
 41
12.5
 42
12.5
 43
12.5
 50
180.0
  0
INSERT
  5
BEA
330
50D
100
AcDbEntity
  8
SIZE
 62
     0
370
    -2
100
AcDbBlockReference
  2
_OPEN30
 10
-160.6817343623497
 20
569.1240354349774
 30
0.0
 41
12.5
 42
12.5
 43
12.5
  0
MTEXT
  5
BEB
330
50D
100
AcDbEntity
  8
SIZE
 62
     0
100
AcDbMText
 10
-193.1817343623492
 20
578.4990354349774
 30
0.0
 40
12.5
 41
0.0
 71
     5
 72
     1
  1
65
 73
     1
 44
1.0
1001
ACAD
1000
MTEXTBEGIN
1070
    73
1070
     1
1070
    44
1040
1.0
1070
    74
1070
     0
1000
MTEXTEND
  0
POINT
  5
BEC
330
50D
100
AcDbEntity
  8
Defpoints
 62
     0
100
AcDbPoint
 10
-225.6817343623487
 20
457.0913168170863
 30
0.0
  0
POINT
  5
BED
330
50D
100
AcDbEntity
  8
Defpoints
 62
     0
100
AcDbPoint
 10
-160.6817343623497
 20
537.7013168170898
 30
0.0
  0
POINT
  5
BEE
330
50D
100
AcDbEntity
  8
Defpoints
 62
     0
100
AcDbPoint
 10
-160.6817343623497
 20
569.1240354349774
 30
0.0
  0
ENDBLK
  5
50F
330
50D
100
AcDbEntity
  8
0
100
AcDbBlockEnd
  0
BLOCK
  5
51B
330
51A
100
AcDbEntity
  8
0
100
AcDbBlockBegin
  2
*D3
 70
     1
 10
0.0
 20
0.0
 30
0.0
  3
*D3
  1

  0
LINE
  5
BDD
330
51A
100
AcDbEntity
  8
SIZE
 62
     0
370
    -2
100
AcDbLine
 10
-160.6817343623497
 20
540.8263168170898
 30
0.0
 11
-160.6817343623497
 21
575.3740354349774
 31
0.0
  0
LINE
  5
BDE
330
51A
100
AcDbEntity
  8
SIZE
 62
     0
370
    -2
100
AcDbLine
 10
72.31826563765022
 20
540.7163168170893
 30
0.0
 11
72.31826563765022
 21
575.3740354349774
 31
0.0
  0
LINE
  5
BDF
330
51A
100
AcDbEntity
  8
SIZE
 62
     0
370
    -2
100
AcDbLine
 10
-148.1817343623497
 20
569.1240354349774
 30
0.0
 11
59.81826563765022
 21
569.1240354349774
 31
0.0
  0
INSERT
  5
BE0
330
51A
100
AcDbEntity
  8
SIZE
 62
     0
370
    -2
100
AcDbBlockReference
  2
_OPEN30
 10
-160.6817343623497
 20
569.1240354349774
 30
0.0
 41
12.5
 42
12.5
 43
12.5
 50
180.0
  0
INSERT
  5
BE1
330
51A
100
AcDbEntity
  8
SIZE
 62
     0
370
    -2
100
AcDbBlockReference
  2
_OPEN30
 10
72.31826563765022
 20
569.1240354349774
 30
0.0
 41
12.5
 42
12.5
 43
12.5
  0
MTEXT
  5
BE2
330
51A
100
AcDbEntity
  8
SIZE
 62
     0
100
AcDbMText
 10
-44.18173436234972
 20
578.4990354349774
 30
0.0
 40
12.5
 41
0.0
 71
     5
 72
     1
  1
233
 73
     1
 44
1.0
1001
ACAD
1000
MTEXTBEGIN
1070
    73
1070
     1
1070
    44
1040
1.0
1070
    74
1070
     0
1000
MTEXTEND
  0
POINT
  5
BE3
330
51A
100
AcDbEntity
  8
Defpoints
 62
     0
100
AcDbPoint
 10
-160.6817343623497
 20
537.7013168170898
 30
0.0
  0
POINT
  5
BE4
330
51A
100
AcDbEntity
  8
Defpoints
 62
     0
100
AcDbPoint
 10
72.31826563765022
 20
537.5913168170893
 30
0.0
  0
POINT
  5
BE5
330
51A
100
AcDbEntity
  8
Defpoints
 62
     0
100
AcDbPoint
 10
72.31826563765022
 20
569.1240354349774
 30
0.0
  0
ENDBLK
  5
51C
330
51A
100
AcDbEntity
  8
0
100
AcDbBlockEnd
  0
BLOCK
  5
528
330
527
100
AcDbEntity
  8
0
100
AcDbBlockBegin
  2
*D4
 70
     1
 10
0.0
 20
0.0
 30
0.0
  3
*D4
  1

  0
LINE
  5
BD4
330
527
100
AcDbEntity
  8
SIZE
 62
     0
370
    -2
100
AcDbLine
 10
72.31826563765022
 20
540.7163168170893
 30
0.0
 11
72.31826563765022
 21
575.3740354349774
 31
0.0
  0
LINE
  5
BD5
330
527
100
AcDbEntity
  8
SIZE
 62
     0
370
    -2
100
AcDbLine
 10
187.3182656376501
 20
540.8263168170896
 30
0.0
 11
187.3182656376501
 21
575.3740354349774
 31
0.0
  0
LINE
  5
BD6
330
527
100
AcDbEntity
  8
SIZE
 62
     0
370
    -2
100
AcDbLine
 10
84.81826563765023
 20
569.1240354349774
 30
0.0
 11
174.8182656376501
 21
569.1240354349774
 31
0.0
  0
INSERT
  5
BD7
330
527
100
AcDbEntity
  8
SIZE
 62
     0
370
    -2
100
AcDbBlockReference
  2
_OPEN30
 10
72.31826563765022
 20
569.1240354349774
 30
0.0
 41
12.5
 42
12.5
 43
12.5
 50
180.0
  0
INSERT
  5
BD8
330
527
100
AcDbEntity
  8
SIZE
 62
     0
370
    -2
100
AcDbBlockReference
  2
_OPEN30
 10
187.3182656376501
 20
569.1240354349774
 30
0.0
 41
12.5
 42
12.5
 43
12.5
  0
MTEXT
  5
BD9
330
527
100
AcDbEntity
  8
SIZE
 62
     0
100
AcDbMText
 10
129.8182656376501
 20
578.4990354349774
 30
0.0
 40
12.5
 41
0.0
 71
     5
 72
     1
  1
115
 73
     1
 44
1.0
1001
ACAD
1000
MTEXTBEGIN
1070
    73
1070
     1
1070
    44
1040
1.0
1070
    74
1070
     0
1000
MTEXTEND
  0
POINT
  5
BDA
330
527
100
AcDbEntity
  8
Defpoints
 62
     0
100
AcDbPoint
 10
72.31826563765022
 20
537.5913168170893
 30
0.0
  0
POINT
  5
BDB
330
527
100
AcDbEntity
  8
Defpoints
 62
     0
100
AcDbPoint
 10
187.3182656376501
 20
537.7013168170896
 30
0.0
  0
POINT
  5
BDC
330
527
100
AcDbEntity
  8
Defpoints
 62
     0
100
AcDbPoint
 10
187.3182656376501
 20
569.1240354349774
 30
0.0
  0
ENDBLK
  5
529
330
527
100
AcDbEntity
  8
0
100
AcDbBlockEnd
  0
BLOCK
  5
535
330
534
100
AcDbEntity
  8
0
100
AcDbBlockBegin
  2
*D5
 70
     1
 10
0.0
 20
0.0
 30
0.0
  3
*D5
  1

  0
LINE
  5
BCB
330
534
100
AcDbEntity
  8
SIZE
 62
     0
370
    -2
100
AcDbLine
 10
187.3182656376501
 20
540.8263168170896
 30
0.0
 11
187.3182656376501
 21
575.3740354349774
 31
0.0
  0
LINE
  5
BCC
330
534
100
AcDbEntity
  8
SIZE
 62
     0
370
    -2
100
AcDbLine
 10
420.3182656376501
 20
539.3768168170894
 30
0.0
 11
420.3182656376501
 21
575.3740354349774
 31
0.0
  0
LINE
  5
BCD
330
534
100
AcDbEntity
  8
SIZE
 62
     0
370
    -2
100
AcDbLine
 10
199.8182656376501
 20
569.1240354349774
 30
0.0
 11
407.8182656376501
 21
569.1240354349774
 31
0.0
  0
INSERT
  5
BCE
330
534
100
AcDbEntity
  8
SIZE
 62
     0
370
    -2
100
AcDbBlockReference
  2
_OPEN30
 10
187.3182656376501
 20
569.1240354349774
 30
0.0
 41
12.5
 42
12.5
 43
12.5
 50
180.0
  0
INSERT
  5
BCF
330
534
100
AcDbEntity
  8
SIZE
 62
     0
370
    -2
100
AcDbBlockReference
  2
_OPEN30
 10
420.3182656376501
 20
569.1240354349774
 30
0.0
 41
12.5
 42
12.5
 43
12.5
  0
MTEXT
  5
BD0
330
534
100
AcDbEntity
  8
SIZE
 62
     0
100
AcDbMText
 10
303.8182656376501
 20
578.4990354349774
 30
0.0
 40
12.5
 41
0.0
 71
     5
 72
     1
  1
233
 73
     1
 44
1.0
1001
ACAD
1000
MTEXTBEGIN
1070
    73
1070
     1
1070
    44
1040
1.0
1070
    74
1070
     0
1000
MTEXTEND
  0
POINT
  5
BD1
330
534
100
AcDbEntity
  8
Defpoints
 62
     0
100
AcDbPoint
 10
187.3182656376501
 20
537.7013168170896
 30
0.0
  0
POINT
  5
BD2
330
534
100
AcDbEntity
  8
Defpoints
 62
     0
100
AcDbPoint
 10
420.3182656376501
 20
536.2518168170894
 30
0.0
  0
POINT
  5
BD3
330
534
100
AcDbEntity
  8
Defpoints
 62
     0
100
AcDbPoint
 10
420.3182656376501
 20
569.1240354349774
 30
0.0
  0
ENDBLK
  5
536
330
534
100
AcDbEntity
  8
0
100
AcDbBlockEnd
  0
BLOCK
  5
542
330
541
100
AcDbEntity
  8
0
100
AcDbBlockBegin
  2
*D6
 70
     1
 10
0.0
 20
0.0
 30
0.0
  3
*D6
  1

  0
LINE
  5
BC2
330
541
100
AcDbEntity
  8
SIZE
 62
     0
370
    -2
100
AcDbLine
 10
420.3182656376501
 20
539.3768168170894
 30
0.0
 11
420.3182656376501
 21
575.3740354349774
 31
0.0
  0
LINE
  5
BC3
330
541
100
AcDbEntity
  8
SIZE
 62
     0
370
    -2
100
AcDbLine
 10
485.3182656376501
 20
437.3263168170892
 30
0.0
 11
485.3182656376501
 21
575.3740354349774
 31
0.0
  0
LINE
  5
BC4
330
541
100
AcDbEntity
  8
SIZE
 62
     0
370
    -2
100
AcDbLine
 10
432.8182656376501
 20
569.1240354349774
 30
0.0
 11
472.8182656376501
 21
569.1240354349774
 31
0.0
  0
INSERT
  5
BC5
330
541
100
AcDbEntity
  8
SIZE
 62
     0
370
    -2
100
AcDbBlockReference
  2
_OPEN30
 10
420.3182656376501
 20
569.1240354349774
 30
0.0
 41
12.5
 42
12.5
 43
12.5
 50
180.0
  0
INSERT
  5
BC6
330
541
100
AcDbEntity
  8
SIZE
 62
     0
370
    -2
100
AcDbBlockReference
  2
_OPEN30
 10
485.3182656376501
 20
569.1240354349774
 30
0.0
 41
12.5
 42
12.5
 43
12.5
  0
MTEXT
  5
BC7
330
541
100
AcDbEntity
  8
SIZE
 62
     0
100
AcDbMText
 10
452.8182656376501
 20
578.4990354349774
 30
0.0
 40
12.5
 41
0.0
 71
     5
 72
     1
  1
65
 73
     1
 44
1.0
1001
ACAD
1000
MTEXTBEGIN
1070
    73
1070
     1
1070
    44
1040
1.0
1070
    74
1070
     0
1000
MTEXTEND
  0
POINT
  5
BC8
330
541
100
AcDbEntity
  8
Defpoints
 62
     0
100
AcDbPoint
 10
420.3182656376501
 20
536.2518168170894
 30
0.0
  0
POINT
  5
BC9
330
541
100
AcDbEntity
  8
Defpoints
 62
     0
100
AcDbPoint
 10
485.3182656376501
 20
434.2013168170892
 30
0.0
  0
POINT
  5
BCA
330
541
100
AcDbEntity
  8
Defpoints
 62
     0
100
AcDbPoint
 10
485.3182656376501
 20
569.1240354349774
 30
0.0
  0
ENDBLK
  5
543
330
541
100
AcDbEntity
  8
0
100
AcDbBlockEnd
  0
BLOCK
  5
54F
330
54E
100
AcDbEntity
  8
0
100
AcDbBlockBegin
  2
*D7
 70
     1
 10
0.0
 20
0.0
 30
0.0
  3
*D7
  1

  0
LINE
  5
C39
330
54E
100
AcDbEntity
  8
SIZE
 62
     0
370
    -2
100
AcDbLine
 10
-225.6817343623493
 20
43.30581681708649
 30
0.0
 11
-225.6817343623493
 21
-400.5777054593138
 31
0.0
  0
LINE
  5
C3A
330
54E
100
AcDbEntity
  8
SIZE
 62
     0
370
    -2
100
AcDbLine
 10
-213.6817343623497
 20
-336.0336831829136
 30
0.0
 11
-213.6817343623497
 21
-400.5777054593138
 31
0.0
  0
LINE
  5
C3B
330
54E
100
AcDbEntity
  8
SIZE
 62
     0
370
    -2
100
AcDbLine
 10
-201.1817343623497
 20
-394.3277054593138
 30
0.0
 11
-188.6817343623497
 21
-394.3277054593138
 31
0.0
  0
LINE
  5
C3C
330
54E
100
AcDbEntity
  8
SIZE
 62
     0
370
    -2
100
AcDbLine
 10
-238.1817343623493
 20
-394.3277054593138
 30
0.0
 11
-275.3841153147303
 21
-394.3277054593138
 31
0.0
  0
LINE
  5
C3D
330
54E
100
AcDbEntity
  8
SIZE
 62
     0
370
    -2
100
AcDbLine
 10
-213.6817343623497
 20
-394.3277054593138
 30
0.0
 11
-225.6817343623493
 21
-394.3277054593138
 31
0.0
  0
INSERT
  5
C3E
330
54E
100
AcDbEntity
  8
SIZE
 62
     0
370
    -2
100
AcDbBlockReference
  2
_OPEN30
 10
-213.6817343623497
 20
-394.3277054593138
 30
0.0
 41
12.5
 42
12.5
 43
12.5
 50
180.0
  0
INSERT
  5
C3F
330
54E
100
AcDbEntity
  8
SIZE
 62
     0
370
    -2
100
AcDbBlockReference
  2
_OPEN30
 10
-225.6817343623493
 20
-394.3277054593138
 30
0.0
 41
12.5
 42
12.5
 43
12.5
  0
MTEXT
  5
C40
330
54E
100
AcDbEntity
  8
SIZE
 62
     0
100
AcDbMText
 10
-263.0329248385398
 20
-384.9527054593138
 30
0.0
 40
12.5
 41
0.0
 71
     5
 72
     1
  1
12
 73
     1
 44
1.0
1001
ACAD
1000
MTEXTBEGIN
1070
    73
1070
     1
1070
    44
1040
1.0
1070
    74
1070
     0
1000
MTEXTEND
  0
POINT
  5
C41
330
54E
100
AcDbEntity
  8
Defpoints
 62
     0
100
AcDbPoint
 10
-225.6817343623493
 20
46.43081681708649
 30
0.0
  0
POINT
  5
C42
330
54E
100
AcDbEntity
  8
Defpoints
 62
     0
100
AcDbPoint
 10
-213.6817343623497
 20
-332.9086831829136
 30
0.0
  0
POINT
  5
C43
330
54E
100
AcDbEntity
  8
Defpoints
 62
     0
100
AcDbPoint
 10
-213.6817343623497
 20
-394.3277054593138
 30
0.0
  0
ENDBLK
  5
550
330
54E
100
AcDbEntity
  8
0
100
AcDbBlockEnd
  0
BLOCK
  5
55E
330
55D
100
AcDbEntity
  8
0
100
AcDbBlockBegin
  2
*D8
 70
     1
 10
0.0
 20
0.0
 30
0.0
  3
*D8
  1

  0
LINE
  5
C30
330
55D
100
AcDbEntity
  8
SIZE
 62
     0
370
    -2
100
AcDbLine
 10
-213.6817343623497
 20
-336.0336831829136
 30
0.0
 11
-213.6817343623497
 21
-400.5777054593138
 31
0.0
  0
LINE
  5
C31
330
55D
100
AcDbEntity
  8
SIZE
 62
     0
370
    -2
100
AcDbLine
 10
485.3182656376501
 20
-336.1436831829105
 30
0.0
 11
485.3182656376501
 21
-400.5777054593138
 31
0.0
  0
LINE
  5
C32
330
55D
100
AcDbEntity
  8
SIZE
 62
     0
370
    -2
100
AcDbLine
 10
-201.1817343623497
 20
-394.3277054593138
 30
0.0
 11
472.8182656376501
 21
-394.3277054593138
 31
0.0
  0
INSERT
  5
C33
330
55D
100
AcDbEntity
  8
SIZE
 62
     0
370
    -2
100
AcDbBlockReference
  2
_OPEN30
 10
-213.6817343623497
 20
-394.3277054593138
 30
0.0
 41
12.5
 42
12.5
 43
12.5
 50
180.0
  0
INSERT
  5
C34
330
55D
100
AcDbEntity
  8
SIZE
 62
     0
370
    -2
100
AcDbBlockReference
  2
_OPEN30
 10
485.3182656376501
 20
-394.3277054593138
 30
0.0
 41
12.5
 42
12.5
 43
12.5
  0
MTEXT
  5
C35
330
55D
100
AcDbEntity
  8
SIZE
 62
     0
100
AcDbMText
 10
135.8182656376502
 20
-384.9527054593138
 30
0.0
 40
12.5
 41
0.0
 71
     5
 72
     1
  1
699
 73
     1
 44
1.0
1001
ACAD
1000
MTEXTBEGIN
1070
    73
1070
     1
1070
    44
1040
1.0
1070
    74
1070
     0
1000
MTEXTEND
  0
POINT
  5
C36
330
55D
100
AcDbEntity
  8
Defpoints
 62
     0
100
AcDbPoint
 10
-213.6817343623497
 20
-332.9086831829136
 30
0.0
  0
POINT
  5
C37
330
55D
100
AcDbEntity
  8
Defpoints
 62
     0
100
AcDbPoint
 10
485.3182656376501
 20
-333.0186831829105
 30
0.0
  0
POINT
  5
C38
330
55D
100
AcDbEntity
  8
Defpoints
 62
     0
100
AcDbPoint
 10
485.3182656376501
 20
-394.3277054593138
 30
0.0
  0
ENDBLK
  5
55F
330
55D
100
AcDbEntity
  8
0
100
AcDbBlockEnd
  0
BLOCK
  5
576
330
575
100
AcDbEntity
  8
0
100
AcDbBlockBegin
  2
*D9
 70
     1
 10
0.0
 20
0.0
 30
0.0
  3
*D9
  1

  0
LINE
  5
C27
330
575
100
AcDbEntity
  8
SIZE
 62
     0
370
    -2
100
AcDbLine
 10
-166.9167343623497
 20
534.5913168170898
 30
0.0
 11
-296.7361434907173
 21
534.5913168170899
 31
0.0
  0
LINE
  5
C28
330
575
100
AcDbEntity
  8
SIZE
 62
     0
370
    -2
100
AcDbLine
 10
-235.4167343623487
 20
440.5913168170863
 30
0.0
 11
-296.7361434907173
 21
440.5913168170863
 31
0.0
  0
LINE
  5
C29
330
575
100
AcDbEntity
  8
SIZE
 62
     0
370
    -2
100
AcDbLine
 10
-290.4861434907173
 20
522.0913168170899
 30
0.0
 11
-290.4861434907173
 21
453.0913168170863
 31
0.0
  0
INSERT
  5
C2A
330
575
100
AcDbEntity
  8
SIZE
 62
     0
370
    -2
100
AcDbBlockReference
  2
_OPEN30
 10
-290.4861434907173
 20
534.5913168170899
 30
0.0
 41
12.5
 42
12.5
 43
12.5
 50
90.0
  0
INSERT
  5
C2B
330
575
100
AcDbEntity
  8
SIZE
 62
     0
370
    -2
100
AcDbBlockReference
  2
_OPEN30
 10
-290.4861434907173
 20
440.5913168170863
 30
0.0
 41
12.5
 42
12.5
 43
12.5
 50
270.0
  0
MTEXT
  5
C2C
330
575
100
AcDbEntity
  8
SIZE
 62
     0
100
AcDbMText
 10
-299.8611434907174
 20
487.591316817088
 30
0.0
 40
12.5
 41
0.0
 71
     5
 72
     1
  1
94
 11
0.0000000000000001
 21
1.0
 31
0.0
 73
     1
 44
1.0
1001
ACAD
1000
MTEXTBEGIN
1070
    73
1070
     1
1070
    44
1040
1.0
1070
    74
1070
     0
1000
MTEXTEND
  0
POINT
  5
C2D
330
575
100
AcDbEntity
  8
Defpoints
 62
     0
100
AcDbPoint
 10
-163.7917343623497
 20
534.5913168170898
 30
0.0
  0
POINT
  5
C2E
330
575
100
AcDbEntity
  8
Defpoints
 62
     0
100
AcDbPoint
 10
-232.2917343623487
 20
440.5913168170863
 30
0.0
  0
POINT
  5
C2F
330
575
100
AcDbEntity
  8
Defpoints
 62
     0
100
AcDbPoint
 10
-290.4861434907173
 20
440.5913168170863
 30
0.0
  0
ENDBLK
  5
577
330
575
100
AcDbEntity
  8
0
100
AcDbBlockEnd
  0
BLOCK
  5
583
330
582
100
AcDbEntity
  8
0
100
AcDbBlockBegin
  2
*D10
 70
     1
 10
0.0
 20
0.0
 30
0.0
  3
*D10
  1

  0
LINE
  5
C13
330
582
100
AcDbEntity
  8
SIZE
 62
     0
370
    -2
100
AcDbLine
 10
-235.4167343623487
 20
440.5913168170863
 30
0.0
 11
-296.7361434907173
 21
440.5913168170863
 31
0.0
  0
LINE
  5
C14
330
582
100
AcDbEntity
  8
SIZE
 62
     0
370
    -2
100
AcDbLine
 10
-231.9167343623493
 20
48.09131681708649
 30
0.0
 11
-296.7361434907174
 21
48.09131681708652
 31
0.0
  0
LINE
  5
C15
330
582
100
AcDbEntity
  8
SIZE
 62
     0
370
    -2
100
AcDbLine
 10
-290.4861434907173
 20
428.0913168170863
 30
0.0
 11
-290.4861434907174
 21
60.59131681708652
 31
0.0
  0
INSERT
  5
C16
330
582
100
AcDbEntity
  8
SIZE
 62
     0
370
    -2
100
AcDbBlockReference
  2
_OPEN30
 10
-290.4861434907173
 20
440.5913168170863
 30
0.0
 41
12.5
 42
12.5
 43
12.5
 50
90.0
  0
INSERT
  5
C17
330
582
100
AcDbEntity
  8
SIZE
 62
     0
370
    -2
100
AcDbBlockReference
  2
_OPEN30
 10
-290.4861434907174
 20
48.09131681708652
 30
0.0
 41
12.5
 42
12.5
 43
12.5
 50
270.0
  0
MTEXT
  5
C18
330
582
100
AcDbEntity
  8
SIZE
 62
     0
100
AcDbMText
 10
-299.8611434907174
 20
244.3413168170864
 30
0.0
 40
12.5
 41
0.0
 71
     5
 72
     1
  1
392.5
 11
0.0000000000000001
 21
1.0
 31
0.0
 73
     1
 44
1.0
1001
ACAD
1000
MTEXTBEGIN
1070
    73
1070
     1
1070
    44
1040
1.0
1070
    74
1070
     0
1000
MTEXTEND
  0
POINT
  5
C19
330
582
100
AcDbEntity
  8
Defpoints
 62
     0
100
AcDbPoint
 10
-232.2917343623487
 20
440.5913168170863
 30
0.0
  0
POINT
  5
C1A
330
582
100
AcDbEntity
  8
Defpoints
 62
     0
100
AcDbPoint
 10
-228.7917343623493
 20
48.09131681708649
 30
0.0
  0
POINT
  5
C1B
330
582
100
AcDbEntity
  8
Defpoints
 62
     0
100
AcDbPoint
 10
-290.4861434907174
 20
48.09131681708652
 30
0.0
  0
ENDBLK
  5
584
330
582
100
AcDbEntity
  8
0
100
AcDbBlockEnd
  0
BLOCK
  5
590
330
58F
100
AcDbEntity
  8
0
100
AcDbBlockBegin
  2
*D11
 70
     1
 10
0.0
 20
0.0
 30
0.0
  3
*D11
  1

  0
LINE
  5
C0A
330
58F
100
AcDbEntity
  8
SIZE
 62
     0
370
    -2
100
AcDbLine
 10
-231.9167343623493
 20
48.09131681708649
 30
0.0
 11
-296.7361434907174
 21
48.09131681708652
 31
0.0
  0
LINE
  5
C0B
330
58F
100
AcDbEntity
  8
SIZE
 62
     0
370
    -2
100
AcDbLine
 10
-219.8067343623496
 20
-126.9086831829135
 30
0.0
 11
-296.7361434907174
 21
-126.9086831829134
 31
0.0
  0
LINE
  5
C0C
330
58F
100
AcDbEntity
  8
SIZE
 62
     0
370
    -2
100
AcDbLine
 10
-290.4861434907174
 20
35.59131681708652
 30
0.0
 11
-290.4861434907174
 21
-114.4086831829134
 31
0.0
  0
INSERT
  5
C0D
330
58F
100
AcDbEntity
  8
SIZE
 62
     0
370
    -2
100
AcDbBlockReference
  2
_OPEN30
 10
-290.4861434907174
 20
48.09131681708652
 30
0.0
 41
12.5
 42
12.5
 43
12.5
 50
90.0
  0
INSERT
  5
C0E
330
58F
100
AcDbEntity
  8
SIZE
 62
     0
370
    -2
100
AcDbBlockReference
  2
_OPEN30
 10
-290.4861434907174
 20
-126.9086831829134
 30
0.0
 41
12.5
 42
12.5
 43
12.5
 50
270.0
  0
MTEXT
  5
C0F
330
58F
100
AcDbEntity
  8
SIZE
 62
     0
100
AcDbMText
 10
-299.8611434907174
 20
-39.40868318291352
 30
0.0
 40
12.5
 41
0.0
 71
     5
 72
     1
  1
175
 11
0.0000000000000001
 21
1.0
 31
0.0
 73
     1
 44
1.0
1001
ACAD
1000
MTEXTBEGIN
1070
    73
1070
     1
1070
    44
1040
1.0
1070
    74
1070
     0
1000
MTEXTEND
  0
POINT
  5
C10
330
58F
100
AcDbEntity
  8
Defpoints
 62
     0
100
AcDbPoint
 10
-228.7917343623493
 20
48.09131681708649
 30
0.0
  0
POINT
  5
C11
330
58F
100
AcDbEntity
  8
Defpoints
 62
     0
100
AcDbPoint
 10
-216.6817343623496
 20
-126.9086831829135
 30
0.0
  0
POINT
  5
C12
330
58F
100
AcDbEntity
  8
Defpoints
 62
     0
100
AcDbPoint
 10
-290.4861434907174
 20
-126.9086831829134
 30
0.0
  0
ENDBLK
  5
591
330
58F
100
AcDbEntity
  8
0
100
AcDbBlockEnd
  0
BLOCK
  5
59D
330
59C
100
AcDbEntity
  8
0
100
AcDbBlockBegin
  2
*D12
 70
     1
 10
0.0
 20
0.0
 30
0.0
  3
*D12
  1

  0
LINE
  5
C01
330
59C
100
AcDbEntity
  8
SIZE
 62
     0
370
    -2
100
AcDbLine
 10
-219.8067343623496
 20
-126.9086831829135
 30
0.0
 11
-296.7361434907175
 21
-126.9086831829134
 31
0.0
  0
LINE
  5
C02
330
59C
100
AcDbEntity
  8
SIZE
 62
     0
370
    -2
100
AcDbLine
 10
-219.9167343623498
 20
-329.9086831829135
 30
0.0
 11
-296.7361434907175
 21
-329.9086831829135
 31
0.0
  0
LINE
  5
C03
330
59C
100
AcDbEntity
  8
SIZE
 62
     0
370
    -2
100
AcDbLine
 10
-290.4861434907175
 20
-139.4086831829135
 30
0.0
 11
-290.4861434907175
 21
-317.4086831829135
 31
0.0
  0
INSERT
  5
C04
330
59C
100
AcDbEntity
  8
SIZE
 62
     0
370
    -2
100
AcDbBlockReference
  2
_OPEN30
 10
-290.4861434907175
 20
-126.9086831829134
 30
0.0
 41
12.5
 42
12.5
 43
12.5
 50
90.0
  0
INSERT
  5
C05
330
59C
100
AcDbEntity
  8
SIZE
 62
     0
370
    -2
100
AcDbBlockReference
  2
_OPEN30
 10
-290.4861434907175
 20
-329.9086831829135
 30
0.0
 41
12.5
 42
12.5
 43
12.5
 50
270.0
  0
MTEXT
  5
C06
330
59C
100
AcDbEntity
  8
SIZE
 62
     0
100
AcDbMText
 10
-299.8611434907175
 20
-228.4086831829135
 30
0.0
 40
12.5
 41
0.0
 71
     5
 72
     1
  1
203
 11
0.0000000000000001
 21
1.0
 31
0.0
 73
     1
 44
1.0
1001
ACAD
1000
MTEXTBEGIN
1070
    73
1070
     1
1070
    44
1040
1.0
1070
    74
1070
     0
1000
MTEXTEND
  0
POINT
  5
C07
330
59C
100
AcDbEntity
  8
Defpoints
 62
     0
100
AcDbPoint
 10
-216.6817343623496
 20
-126.9086831829135
 30
0.0
  0
POINT
  5
C08
330
59C
100
AcDbEntity
  8
Defpoints
 62
     0
100
AcDbPoint
 10
-216.7917343623498
 20
-329.9086831829135
 30
0.0
  0
POINT
  5
C09
330
59C
100
AcDbEntity
  8
Defpoints
 62
     0
100
AcDbPoint
 10
-290.4861434907175
 20
-329.9086831829135
 30
0.0
  0
ENDBLK
  5
59E
330
59C
100
AcDbEntity
  8
0
100
AcDbBlockEnd
  0
BLOCK
  5
5AA
330
5A9
100
AcDbEntity
  8
0
100
AcDbBlockBegin
  2
*D13
 70
     1
 10
0.0
 20
0.0
 30
0.0
  3
*D13
  1

  0
LINE
  5
BB9
330
5A9
100
AcDbEntity
  8
SIZE
 62
     0
370
    -2
100
AcDbLine
 10
426.4432656376501
 20
534.5913168170896
 30
0.0
 11
568.3275661284673
 21
534.5913168170896
 31
0.0
  0
LINE
  5
BBA
330
5A9
100
AcDbEntity
  8
SIZE
 62
     0
370
    -2
100
AcDbLine
 10
495.0532656376502
 20
417.5913168170891
 30
0.0
 11
568.3275661284673
 21
417.5913168170891
 31
0.0
  0
LINE
  5
BBB
330
5A9
100
AcDbEntity
  8
SIZE
 62
     0
370
    -2
100
AcDbLine
 10
562.0775661284673
 20
522.0913168170896
 30
0.0
 11
562.0775661284673
 21
430.0913168170891
 31
0.0
  0
INSERT
  5
BBC
330
5A9
100
AcDbEntity
  8
SIZE
 62
     0
370
    -2
100
AcDbBlockReference
  2
_OPEN30
 10
562.0775661284673
 20
534.5913168170896
 30
0.0
 41
12.5
 42
12.5
 43
12.5
 50
90.0
  0
INSERT
  5
BBD
330
5A9
100
AcDbEntity
  8
SIZE
 62
     0
370
    -2
100
AcDbBlockReference
  2
_OPEN30
 10
562.0775661284673
 20
417.5913168170891
 30
0.0
 41
12.5
 42
12.5
 43
12.5
 50
270.0
  0
MTEXT
  5
BBE
330
5A9
100
AcDbEntity
  8
SIZE
 62
     0
100
AcDbMText
 10
552.7025661284672
 20
476.0913168170894
 30
0.0
 40
12.5
 41
0.0
 71
     5
 72
     1
  1
117
 11
0.0000000000000001
 21
1.0
 31
0.0
 73
     1
 44
1.0
1001
ACAD
1000
MTEXTBEGIN
1070
    73
1070
     1
1070
    44
1040
1.0
1070
    74
1070
     0
1000
MTEXTEND
  0
POINT
  5
BBF
330
5A9
100
AcDbEntity
  8
Defpoints
 62
     0
100
AcDbPoint
 10
423.3182656376501
 20
534.5913168170896
 30
0.0
  0
POINT
  5
BC0
330
5A9
100
AcDbEntity
  8
Defpoints
 62
     0
100
AcDbPoint
 10
491.9282656376502
 20
417.5913168170891
 30
0.0
  0
POINT
  5
BC1
330
5A9
100
AcDbEntity
  8
Defpoints
 62
     0
100
AcDbPoint
 10
562.0775661284673
 20
417.5913168170891
 30
0.0
  0
ENDBLK
  5
5AB
330
5A9
100
AcDbEntity
  8
0
100
AcDbBlockEnd
  0
BLOCK
  5
5B7
330
5B6
100
AcDbEntity
  8
0
100
AcDbBlockBegin
  2
*D14
 70
     1
 10
0.0
 20
0.0
 30
0.0
  3
*D14
  1

  0
LINE
  5
BB0
330
5B6
100
AcDbEntity
  8
SIZE
 62
     0
370
    -2
100
AcDbLine
 10
495.0532656376502
 20
417.5913168170891
 30
0.0
 11
568.3275661284673
 21
417.5913168170891
 31
0.0
  0
LINE
  5
BB1
330
5B6
100
AcDbEntity
  8
SIZE
 62
     0
370
    -2
100
AcDbLine
 10
491.5532656376502
 20
25.09131681708951
 30
0.0
 11
568.3275661284672
 21
25.09131681708949
 31
0.0
  0
LINE
  5
BB2
330
5B6
100
AcDbEntity
  8
SIZE
 62
     0
370
    -2
100
AcDbLine
 10
562.0775661284673
 20
405.0913168170891
 30
0.0
 11
562.0775661284672
 21
37.59131681708949
 31
0.0
  0
INSERT
  5
BB3
330
5B6
100
AcDbEntity
  8
SIZE
 62
     0
370
    -2
100
AcDbBlockReference
  2
_OPEN30
 10
562.0775661284673
 20
417.5913168170891
 30
0.0
 41
12.5
 42
12.5
 43
12.5
 50
90.0
  0
INSERT
  5
BB4
330
5B6
100
AcDbEntity
  8
SIZE
 62
     0
370
    -2
100
AcDbBlockReference
  2
_OPEN30
 10
562.0775661284672
 20
25.09131681708949
 30
0.0
 41
12.5
 42
12.5
 43
12.5
 50
270.0
  0
MTEXT
  5
BB5
330
5B6
100
AcDbEntity
  8
SIZE
 62
     0
100
AcDbMText
 10
552.7025661284672
 20
221.3413168170894
 30
0.0
 40
12.5
 41
0.0
 71
     5
 72
     1
  1
392.5
 11
0.0000000000000001
 21
1.0
 31
0.0
 73
     1
 44
1.0
1001
ACAD
1000
MTEXTBEGIN
1070
    73
1070
     1
1070
    44
1040
1.0
1070
    74
1070
     0
1000
MTEXTEND
  0
POINT
  5
BB6
330
5B6
100
AcDbEntity
  8
Defpoints
 62
     0
100
AcDbPoint
 10
491.9282656376502
 20
417.5913168170891
 30
0.0
  0
POINT
  5
BB7
330
5B6
100
AcDbEntity
  8
Defpoints
 62
     0
100
AcDbPoint
 10
488.4282656376502
 20
25.09131681708951
 30
0.0
  0
POINT
  5
BB8
330
5B6
100
AcDbEntity
  8
Defpoints
 62
     0
100
AcDbPoint
 10
562.0775661284672
 20
25.09131681708949
 30
0.0
  0
ENDBLK
  5
5B8
330
5B6
100
AcDbEntity
  8
0
100
AcDbBlockEnd
  0
BLOCK
  5
5C4
330
5C3
100
AcDbEntity
  8
0
100
AcDbBlockBegin
  2
*D15
 70
     1
 10
0.0
 20
0.0
 30
0.0
  3
*D15
  1

  0
LINE
  5
BA7
330
5C3
100
AcDbEntity
  8
SIZE
 62
     0
370
    -2
100
AcDbLine
 10
491.5532656376502
 20
25.09131681708951
 30
0.0
 11
568.3275661284672
 21
25.09131681708949
 31
0.0
  0
LINE
  5
BA8
330
5C3
100
AcDbEntity
  8
SIZE
 62
     0
370
    -2
100
AcDbLine
 10
491.5532656376502
 20
-126.9086831829105
 30
0.0
 11
568.3275661284672
 21
-126.9086831829105
 31
0.0
  0
LINE
  5
BA9
330
5C3
100
AcDbEntity
  8
SIZE
 62
     0
370
    -2
100
AcDbLine
 10
562.0775661284672
 20
12.59131681708949
 30
0.0
 11
562.0775661284672
 21
-114.4086831829105
 31
0.0
  0
INSERT
  5
BAA
330
5C3
100
AcDbEntity
  8
SIZE
 62
     0
370
    -2
100
AcDbBlockReference
  2
_OPEN30
 10
562.0775661284672
 20
25.09131681708949
 30
0.0
 41
12.5
 42
12.5
 43
12.5
 50
90.0
  0
INSERT
  5
BAB
330
5C3
100
AcDbEntity
  8
SIZE
 62
     0
370
    -2
100
AcDbBlockReference
  2
_OPEN30
 10
562.0775661284672
 20
-126.9086831829105
 30
0.0
 41
12.5
 42
12.5
 43
12.5
 50
270.0
  0
MTEXT
  5
BAC
330
5C3
100
AcDbEntity
  8
SIZE
 62
     0
100
AcDbMText
 10
552.7025661284672
 20
-50.90868318291041
 30
0.0
 40
12.5
 41
0.0
 71
     5
 72
     1
  1
152
 11
0.0000000000000001
 21
1.0
 31
0.0
 73
     1
 44
1.0
1001
ACAD
1000
MTEXTBEGIN
1070
    73
1070
     1
1070
    44
1040
1.0
1070
    74
1070
     0
1000
MTEXTEND
  0
POINT
  5
BAD
330
5C3
100
AcDbEntity
  8
Defpoints
 62
     0
100
AcDbPoint
 10
488.4282656376502
 20
25.09131681708951
 30
0.0
  0
POINT
  5
BAE
330
5C3
100
AcDbEntity
  8
Defpoints
 62
     0
100
AcDbPoint
 10
488.4282656376502
 20
-126.9086831829105
 30
0.0
  0
POINT
  5
BAF
330
5C3
100
AcDbEntity
  8
Defpoints
 62
     0
100
AcDbPoint
 10
562.0775661284672
 20
-126.9086831829105
 30
0.0
  0
ENDBLK
  5
5C5
330
5C3
100
AcDbEntity
  8
0
100
AcDbBlockEnd
  0
BLOCK
  5
5D1
330
5D0
100
AcDbEntity
  8
0
100
AcDbBlockBegin
  2
*D16
 70
     1
 10
0.0
 20
0.0
 30
0.0
  3
*D16
  1

  0
LINE
  5
B9E
330
5D0
100
AcDbEntity
  8
SIZE
 62
     0
370
    -2
100
AcDbLine
 10
491.5532656376502
 20
-126.9086831829105
 30
0.0
 11
568.3275661284668
 21
-126.9086831829105
 31
0.0
  0
LINE
  5
B9F
330
5D0
100
AcDbEntity
  8
SIZE
 62
     0
370
    -2
100
AcDbLine
 10
491.5532656376502
 20
-329.9086831829105
 30
0.0
 11
568.3275661284667
 21
-329.9086831829105
 31
0.0
  0
LINE
  5
BA0
330
5D0
100
AcDbEntity
  8
SIZE
 62
     0
370
    -2
100
AcDbLine
 10
562.0775661284668
 20
-139.4086831829105
 30
0.0
 11
562.0775661284667
 21
-317.4086831829105
 31
0.0
  0
INSERT
  5
BA1
330
5D0
100
AcDbEntity
  8
SIZE
 62
     0
370
    -2
100
AcDbBlockReference
  2
_OPEN30
 10
562.0775661284668
 20
-126.9086831829105
 30
0.0
 41
12.5
 42
12.5
 43
12.5
 50
90.0
  0
INSERT
  5
BA2
330
5D0
100
AcDbEntity
  8
SIZE
 62
     0
370
    -2
100
AcDbBlockReference
  2
_OPEN30
 10
562.0775661284667
 20
-329.9086831829105
 30
0.0
 41
12.5
 42
12.5
 43
12.5
 50
270.0
  0
MTEXT
  5
BA3
330
5D0
100
AcDbEntity
  8
SIZE
 62
     0
100
AcDbMText
 10
552.7025661284668
 20
-228.4086831829104
 30
0.0
 40
12.5
 41
0.0
 71
     5
 72
     1
  1
203
 11
0.0000000000000001
 21
1.0
 31
0.0
 73
     1
 44
1.0
1001
ACAD
1000
MTEXTBEGIN
1070
    73
1070
     1
1070
    44
1040
1.0
1070
    74
1070
     0
1000
MTEXTEND
  0
POINT
  5
BA4
330
5D0
100
AcDbEntity
  8
Defpoints
 62
     0
100
AcDbPoint
 10
488.4282656376502
 20
-126.9086831829105
 30
0.0
  0
POINT
  5
BA5
330
5D0
100
AcDbEntity
  8
Defpoints
 62
     0
100
AcDbPoint
 10
488.4282656376502
 20
-329.9086831829105
 30
0.0
  0
POINT
  5
BA6
330
5D0
100
AcDbEntity
  8
Defpoints
 62
     0
100
AcDbPoint
 10
562.0775661284667
 20
-329.9086831829105
 30
0.0
  0
ENDBLK
  5
5D2
330
5D0
100
AcDbEntity
  8
0
100
AcDbBlockEnd
  0
BLOCK
  5
5DE
330
5DD
100
AcDbEntity
  8
0
100
AcDbBlockBegin
  2
*D17
 70
     1
 10
0.0
 20
0.0
 30
0.0
  3
*D17
  1

  0
LINE
  5
BEF
330
5DD
100
AcDbEntity
  8
SIZE
 62
     0
370
    -2
100
AcDbLine
 10
-235.1817343623487
 20
525.2163168170864
 30
0.0
 11
-235.1817343623487
 21
602.7378103440802
 31
0.0
  0
LINE
  5
BF0
330
5DD
100
AcDbEntity
  8
SIZE
 62
     0
370
    -2
100
AcDbLine
 10
494.8182656376501
 20
524.7544366017375
 30
0.0
 11
494.8182656376501
 21
602.7378103440802
 31
0.0
  0
LINE
  5
BF1
330
5DD
100
AcDbEntity
  8
SIZE
 62
     0
370
    -2
100
AcDbLine
 10
-222.6817343623487
 20
596.4878103440802
 30
0.0
 11
482.3182656376501
 21
596.4878103440802
 31
0.0
  0
INSERT
  5
BF2
330
5DD
100
AcDbEntity
  8
SIZE
 62
     0
370
    -2
100
AcDbBlockReference
  2
_OPEN30
 10
-235.1817343623487
 20
596.4878103440802
 30
0.0
 41
12.5
 42
12.5
 43
12.5
 50
180.0
  0
INSERT
  5
BF3
330
5DD
100
AcDbEntity
  8
SIZE
 62
     0
370
    -2
100
AcDbBlockReference
  2
_OPEN30
 10
494.8182656376501
 20
596.4878103440802
 30
0.0
 41
12.5
 42
12.5
 43
12.5
  0
MTEXT
  5
BF4
330
5DD
100
AcDbEntity
  8
SIZE
 62
     0
100
AcDbMText
 10
129.8182656376507
 20
605.8628103440802
 30
0.0
 40
12.5
 41
0.0
 71
     5
 72
     1
  1
730
 73
     1
 44
1.0
1001
ACAD
1000
MTEXTBEGIN
1070
    73
1070
     1
1070
    44
1040
1.0
1070
    74
1070
     0
1000
MTEXTEND
  0
POINT
  5
BF5
330
5DD
100
AcDbEntity
  8
Defpoints
 62
     0
100
AcDbPoint
 10
-235.1817343623487
 20
522.0913168170864
 30
0.0
  0
POINT
  5
BF6
330
5DD
100
AcDbEntity
  8
Defpoints
 62
     0
100
AcDbPoint
 10
494.8182656376501
 20
521.6294366017375
 30
0.0
  0
POINT
  5
BF7
330
5DD
100
AcDbEntity
  8
Defpoints
 62
     0
100
AcDbPoint
 10
494.8182656376501
 20
596.4878103440802
 30
0.0
  0
ENDBLK
  5
5DF
330
5DD
100
AcDbEntity
  8
0
100
AcDbBlockEnd
  0
BLOCK
  5
5EB
330
5EA
100
AcDbEntity
  8
0
100
AcDbBlockBegin
  2
*D18
 70
     1
 10
0.0
 20
0.0
 30
0.0
  3
*D18
  1

  0
LINE
  5
BF8
330
5EA
100
AcDbEntity
  8
SIZE
 62
     0
370
    -2
100
AcDbLine
 10
-234.3067343623498
 20
539.0913168170896
 30
0.0
 11
-334.225668917396
 21
539.0913168170897
 31
0.0
  0
LINE
  5
BF9
330
5EA
100
AcDbEntity
  8
SIZE
 62
     0
370
    -2
100
AcDbLine
 10
-237.5067343623499
 20
-339.4086831829134
 30
0.0
 11
-334.2256689173961
 21
-339.4086831829134
 31
0.0
  0
LINE
  5
BFA
330
5EA
100
AcDbEntity
  8
SIZE
 62
     0
370
    -2
100
AcDbLine
 10
-327.975668917396
 20
526.5913168170897
 30
0.0
 11
-327.9756689173961
 21
-326.9086831829134
 31
0.0
  0
INSERT
  5
BFB
330
5EA
100
AcDbEntity
  8
SIZE
 62
     0
370
    -2
100
AcDbBlockReference
  2
_OPEN30
 10
-327.975668917396
 20
539.0913168170897
 30
0.0
 41
12.5
 42
12.5
 43
12.5
 50
90.0
  0
INSERT
  5
BFC
330
5EA
100
AcDbEntity
  8
SIZE
 62
     0
370
    -2
100
AcDbBlockReference
  2
_OPEN30
 10
-327.9756689173961
 20
-339.4086831829134
 30
0.0
 41
12.5
 42
12.5
 43
12.5
 50
270.0
  0
MTEXT
  5
BFD
330
5EA
100
AcDbEntity
  8
SIZE
 62
     0
100
AcDbMText
 10
-337.3506689173961
 20
99.84131681708809
 30
0.0
 40
12.5
 41
0.0
 71
     5
 72
     1
  1
878.5
 11
0.0000000000000001
 21
1.0
 31
0.0
 73
     1
 44
1.0
1001
ACAD
1000
MTEXTBEGIN
1070
    73
1070
     1
1070
    44
1040
1.0
1070
    74
1070
     0
1000
MTEXTEND
  0
POINT
  5
BFE
330
5EA
100
AcDbEntity
  8
Defpoints
 62
     0
100
AcDbPoint
 10
-231.1817343623498
 20
539.0913168170896
 30
0.0
  0
POINT
  5
BFF
330
5EA
100
AcDbEntity
  8
Defpoints
 62
     0
100
AcDbPoint
 10
-234.3817343623499
 20
-339.4086831829134
 30
0.0
  0
POINT
  5
C00
330
5EA
100
AcDbEntity
  8
Defpoints
 62
     0
100
AcDbPoint
 10
-327.9756689173961
 20
-339.4086831829134
 30
0.0
  0
ENDBLK
  5
5EC
330
5EA
100
AcDbEntity
  8
0
100
AcDbBlockEnd
  0
BLOCK
  5
60D
330
60C
100
AcDbEntity
  8
0
100
AcDbBlockBegin
  2
*D19
 70
     1
 10
0.0
 20
0.0
 30
0.0
  3
*D19
  1

  0
LINE
  5
C1C
330
60C
100
AcDbEntity
  8
SIZE
 62
     0
370
    -2
100
AcDbLine
 10
-231.8067343623488
 20
454.0913168170864
 30
0.0
 11
-271.1763978524998
 21
454.0913168170864
 31
0.0
  0
LINE
  5
C1D
330
60C
100
AcDbEntity
  8
SIZE
 62
     0
370
    -2
100
AcDbLine
 10
-235.4167343623487
 20
440.5913168170863
 30
0.0
 11
-271.1763978524998
 21
440.5913168170863
 31
0.0
  0
LINE
  5
C1E
330
60C
100
AcDbEntity
  8
SIZE
 62
     0
370
    -2
100
AcDbLine
 10
-264.9263978524998
 20
466.5913168170864
 30
0.0
 11
-264.9263978524998
 21
479.0913168170864
 31
0.0
  0
LINE
  5
C1F
330
60C
100
AcDbEntity
  8
SIZE
 62
     0
370
    -2
100
AcDbLine
 10
-264.9263978524998
 20
428.0913168170863
 30
0.0
 11
-264.9263978524999
 21
373.0317930075626
 31
0.0
  0
LINE
  5
C20
330
60C
100
AcDbEntity
  8
SIZE
 62
     0
370
    -2
100
AcDbLine
 10
-264.9263978524998
 20
454.0913168170864
 30
0.0
 11
-264.9263978524998
 21
440.5913168170863
 31
0.0
  0
INSERT
  5
C21
330
60C
100
AcDbEntity
  8
SIZE
 62
     0
370
    -2
100
AcDbBlockReference
  2
_OPEN30
 10
-264.9263978524998
 20
454.0913168170864
 30
0.0
 41
12.5
 42
12.5
 43
12.5
 50
270.0
  0
INSERT
  5
C22
330
60C
100
AcDbEntity
  8
SIZE
 62
     0
370
    -2
100
AcDbBlockReference
  2
_OPEN30
 10
-264.9263978524998
 20
440.5913168170863
 30
0.0
 41
12.5
 42
12.5
 43
12.5
 50
90.0
  0
MTEXT
  5
C23
330
60C
100
AcDbEntity
  8
SIZE
 62
     0
100
AcDbMText
 10
-274.3013978524999
 20
394.3115549123244
 30
0.0
 40
12.5
 41
0.0
 71
     5
 72
     1
  1
13.5
 11
0.0000000000000001
 21
1.0
 31
0.0
 73
     1
 44
1.0
1001
ACAD
1000
MTEXTBEGIN
1070
    73
1070
     1
1070
    44
1040
1.0
1070
    74
1070
     0
1000
MTEXTEND
  0
POINT
  5
C24
330
60C
100
AcDbEntity
  8
Defpoints
 62
     0
100
AcDbPoint
 10
-228.6817343623488
 20
454.0913168170864
 30
0.0
  0
POINT
  5
C25
330
60C
100
AcDbEntity
  8
Defpoints
 62
     0
100
AcDbPoint
 10
-232.2917343623487
 20
440.5913168170863
 30
0.0
  0
POINT
  5
C26
330
60C
100
AcDbEntity
  8
Defpoints
 62
     0
100
AcDbPoint
 10
-264.9263978524998
 20
440.5913168170863
 30
0.0
  0
ENDBLK
  5
60E
330
60C
100
AcDbEntity
  8
0
100
AcDbBlockEnd
  0
BLOCK
  5
643
330
642
100
AcDbEntity
  8
0
100
AcDbBlockBegin
  2
_DOTBLANK
 70
     0
 10
0.0
 20
0.0
 30
0.0
  3
_DOTBLANK
  1

  0
CIRCLE
  5
644
330
642
100
AcDbEntity
  8
0
  6
Continuous
 62
     7
100
AcDbCircle
 10
0.0
 20
0.0
 30
0.0
 40
0.5
  0
LINE
  5
645
330
642
100
AcDbEntity
  8
0
  6
Continuous
 62
     7
100
AcDbLine
 10
-0.5
 20
0.0
 30
0.0
 11
-1.0
 21
0.0
 31
0.0
  0
ENDBLK
  5
646
330
642
100
AcDbEntity
  8
0
100
AcDbBlockEnd
  0
ENDSEC
  0
SECTION
  2
ENTITIES
  0
LINE
  5
D4
330
2
100
AcDbEntity
  8
NOTE
100
AcDbLine
 10
485.2632656376502
 20
-329.9086831829105
 30
0.0
 11
485.3732656376502
 21
-329.9086831829105
 31
0.0
  0
LINE
  5
D5
330
2
100
AcDbEntity
  8
NOTE
100
AcDbLine
 10
485.3182656376501
 20
-329.9636831829105
 30
0.0
 11
485.3182656376501
 21
-329.8536831829105
 31
0.0
  0
LINE
  5
D6
330
2
100
AcDbEntity
  8
NOTE
100
AcDbLine
 10
482.2082656376501
 20
-329.9086831829105
 30
0.0
 11
485.10726563765
 21
-329.9086831829105
 31
0.0
  0
LINE
  5
D7
330
2
100
AcDbEntity
  8
NOTE
100
AcDbLine
 10
485.5292656376501
 20
-329.9086831829105
 30
0.0
 11
488.4282656376502
 21
-329.9086831829105
 31
0.0
  0
LINE
  5
D8
330
2
100
AcDbEntity
  8
NOTE
100
AcDbLine
 10
485.3182656376501
 20
-333.0186831829105
 30
0.0
 11
485.3182656376501
 21
-330.1196831829105
 31
0.0
  0
LINE
  5
D9
330
2
100
AcDbEntity
  8
NOTE
100
AcDbLine
 10
485.3182656376501
 20
-329.6976831829105
 30
0.0
 11
485.3182656376501
 21
-326.7986831829105
 31
0.0
  0
LINE
  5
DA
330
2
100
AcDbEntity
  8
NOTE
100
AcDbLine
 10
485.2632656376502
 20
25.09131681708951
 30
0.0
 11
485.3732656376502
 21
25.09131681708951
 31
0.0
  0
LINE
  5
DB
330
2
100
AcDbEntity
  8
NOTE
100
AcDbLine
 10
485.3182656376501
 20
25.03631681708951
 30
0.0
 11
485.3182656376501
 21
25.14631681708951
 31
0.0
  0
LINE
  5
DC
330
2
100
AcDbEntity
  8
NOTE
100
AcDbLine
 10
482.2082656376501
 20
25.09131681708951
 30
0.0
 11
485.10726563765
 21
25.09131681708951
 31
0.0
  0
LINE
  5
DD
330
2
100
AcDbEntity
  8
NOTE
100
AcDbLine
 10
485.5292656376501
 20
25.09131681708951
 30
0.0
 11
488.4282656376502
 21
25.09131681708951
 31
0.0
  0
LINE
  5
DE
330
2
100
AcDbEntity
  8
NOTE
100
AcDbLine
 10
485.3182656376501
 20
21.98131681708951
 30
0.0
 11
485.3182656376501
 21
24.88031681708951
 31
0.0
  0
LINE
  5
DF
330
2
100
AcDbEntity
  8
NOTE
100
AcDbLine
 10
485.3182656376501
 20
25.30231681708951
 30
0.0
 11
485.3182656376501
 21
28.2013168170895
 31
0.0
  0
LINE
  5
E0
330
2
100
AcDbEntity
  8
NOTE
100
AcDbLine
 10
485.2632656376502
 20
-126.9086831829105
 30
0.0
 11
485.3732656376502
 21
-126.9086831829105
 31
0.0
  0
LINE
  5
E1
330
2
100
AcDbEntity
  8
NOTE
100
AcDbLine
 10
485.3182656376501
 20
-126.9636831829105
 30
0.0
 11
485.3182656376501
 21
-126.8536831829105
 31
0.0
  0
LINE
  5
E2
330
2
100
AcDbEntity
  8
NOTE
100
AcDbLine
 10
482.2082656376501
 20
-126.9086831829105
 30
0.0
 11
485.10726563765
 21
-126.9086831829105
 31
0.0
  0
LINE
  5
E3
330
2
100
AcDbEntity
  8
NOTE
100
AcDbLine
 10
485.5292656376501
 20
-126.9086831829105
 30
0.0
 11
488.4282656376502
 21
-126.9086831829105
 31
0.0
  0
LINE
  5
E4
330
2
100
AcDbEntity
  8
NOTE
100
AcDbLine
 10
485.3182656376501
 20
-130.0186831829105
 30
0.0
 11
485.3182656376501
 21
-127.1196831829105
 31
0.0
  0
LINE
  5
E5
330
2
100
AcDbEntity
  8
NOTE
100
AcDbLine
 10
485.3182656376501
 20
-126.6976831829105
 30
0.0
 11
485.3182656376501
 21
-123.7986831829105
 31
0.0
  0
LINE
  5
E6
330
2
100
AcDbEntity
  8
NOTE
100
AcDbLine
 10
485.2632656376502
 20
431.0913168170895
 30
0.0
 11
485.3732656376502
 21
431.0913168170895
 31
0.0
  0
LINE
  5
E7
330
2
100
AcDbEntity
  8
NOTE
100
AcDbLine
 10
485.3182656376501
 20
431.0363168170891
 30
0.0
 11
485.3182656376501
 21
431.1463168170893
 31
0.0
  0
LINE
  5
E8
330
2
100
AcDbEntity
  8
NOTE
100
AcDbLine
 10
482.2082656376501
 20
431.0913168170895
 30
0.0
 11
485.10726563765
 21
431.0913168170895
 31
0.0
  0
LINE
  5
E9
330
2
100
AcDbEntity
  8
NOTE
100
AcDbLine
 10
485.5292656376501
 20
431.0913168170895
 30
0.0
 11
488.4282656376502
 21
431.0913168170895
 31
0.0
  0
LINE
  5
EA
330
2
100
AcDbEntity
  8
NOTE
100
AcDbLine
 10
485.3182656376501
 20
427.9813168170893
 30
0.0
 11
485.3182656376501
 21
430.8803168170895
 31
0.0
  0
LINE
  5
EB
330
2
100
AcDbEntity
  8
NOTE
100
AcDbLine
 10
485.3182656376501
 20
431.3023168170895
 30
0.0
 11
485.3182656376501
 21
434.2013168170892
 31
0.0
  0
LINE
  5
EC
330
2
100
AcDbEntity
  8
NOTE
100
AcDbLine
 10
485.2632656376502
 20
417.5913168170891
 30
0.0
 11
485.3732656376502
 21
417.5913168170891
 31
0.0
  0
LINE
  5
ED
330
2
100
AcDbEntity
  8
NOTE
100
AcDbLine
 10
485.3182656376501
 20
417.5363168170894
 30
0.0
 11
485.3182656376501
 21
417.6463168170895
 31
0.0
  0
LINE
  5
EE
330
2
100
AcDbEntity
  8
NOTE
100
AcDbLine
 10
478.7082656376502
 20
417.5913168170891
 30
0.0
 11
485.10726563765
 21
417.5913168170891
 31
0.0
  0
LINE
  5
EF
330
2
100
AcDbEntity
  8
NOTE
100
AcDbLine
 10
485.5292656376501
 20
417.5913168170891
 30
0.0
 11
491.9282656376502
 21
417.5913168170891
 31
0.0
  0
LINE
  5
F0
330
2
100
AcDbEntity
  8
NOTE
100
AcDbLine
 10
485.3182656376501
 20
410.9813168170894
 30
0.0
 11
485.3182656376501
 21
417.3803168170894
 31
0.0
  0
LINE
  5
F1
330
2
100
AcDbEntity
  8
NOTE
100
AcDbLine
 10
485.3182656376501
 20
417.8023168170893
 30
0.0
 11
485.3182656376501
 21
424.2013168170894
 31
0.0
  0
LINE
  5
F2
330
2
100
AcDbEntity
  8
NOTE
100
AcDbLine
 10
-213.7367343623497
 20
-329.9086831829135
 30
0.0
 11
-213.6267343623497
 21
-329.9086831829135
 31
0.0
  0
LINE
  5
F3
330
2
100
AcDbEntity
  8
NOTE
100
AcDbLine
 10
-213.6817343623497
 20
-329.9636831829135
 30
0.0
 11
-213.6817343623497
 21
-329.8536831829135
 31
0.0
  0
LINE
  5
F4
330
2
100
AcDbEntity
  8
NOTE
100
AcDbLine
 10
-216.7917343623498
 20
-329.9086831829135
 30
0.0
 11
-213.8927343623497
 21
-329.9086831829135
 31
0.0
  0
LINE
  5
F5
330
2
100
AcDbEntity
  8
NOTE
100
AcDbLine
 10
-213.4707343623497
 20
-329.9086831829135
 30
0.0
 11
-210.5717343623497
 21
-329.9086831829135
 31
0.0
  0
LINE
  5
F6
330
2
100
AcDbEntity
  8
NOTE
100
AcDbLine
 10
-213.6817343623497
 20
-333.0186831829136
 30
0.0
 11
-213.6817343623497
 21
-330.1196831829135
 31
0.0
  0
LINE
  5
F7
330
2
100
AcDbEntity
  8
NOTE
100
AcDbLine
 10
-213.6817343623497
 20
-329.6976831829135
 30
0.0
 11
-213.6817343623497
 21
-326.7986831829135
 31
0.0
  0
LINE
  5
F8
330
2
100
AcDbEntity
  8
NOTE
100
AcDbLine
 10
-225.7367343623493
 20
48.09131681708649
 30
0.0
 11
-225.6267343623493
 21
48.09131681708649
 31
0.0
  0
LINE
  5
F9
330
2
100
AcDbEntity
  8
NOTE
100
AcDbLine
 10
-225.6817343623493
 20
48.03631681708649
 30
0.0
 11
-225.6817343623493
 21
48.14631681708649
 31
0.0
  0
LINE
  5
FA
330
2
100
AcDbEntity
  8
NOTE
100
AcDbLine
 10
-228.7917343623493
 20
48.09131681708649
 30
0.0
 11
-225.8927343623494
 21
48.09131681708649
 31
0.0
  0
LINE
  5
FB
330
2
100
AcDbEntity
  8
NOTE
100
AcDbLine
 10
-225.4707343623493
 20
48.09131681708649
 30
0.0
 11
-222.5717343623493
 21
48.09131681708649
 31
0.0
  0
LINE
  5
FC
330
2
100
AcDbEntity
  8
NOTE
100
AcDbLine
 10
-225.6817343623493
 20
44.98131681708649
 30
0.0
 11
-225.6817343623493
 21
47.88031681708649
 31
0.0
  0
LINE
  5
FD
330
2
100
AcDbEntity
  8
NOTE
100
AcDbLine
 10
-225.6817343623493
 20
48.30231681708649
 30
0.0
 11
-225.6817343623493
 21
51.20131681708649
 31
0.0
  0
LINE
  5
FE
330
2
100
AcDbEntity
  8
NOTE
100
AcDbLine
 10
-225.7367343623487
 20
454.0913168170864
 30
0.0
 11
-225.6267343623487
 21
454.0913168170864
 31
0.0
  0
LINE
  5
FF
330
2
100
AcDbEntity
  8
NOTE
100
AcDbLine
 10
-225.6817343623487
 20
454.0363168170864
 30
0.0
 11
-225.6817343623487
 21
454.1463168170865
 31
0.0
  0
LINE
  5
100
330
2
100
AcDbEntity
  8
NOTE
100
AcDbLine
 10
-228.7917343623487
 20
454.0913168170864
 30
0.0
 11
-225.8927343623487
 21
454.0913168170864
 31
0.0
  0
LINE
  5
101
330
2
100
AcDbEntity
  8
NOTE
100
AcDbLine
 10
-225.4707343623487
 20
454.0913168170864
 30
0.0
 11
-222.5717343623487
 21
454.0913168170864
 31
0.0
  0
LINE
  5
102
330
2
100
AcDbEntity
  8
NOTE
100
AcDbLine
 10
-225.6817343623487
 20
450.9813168170864
 30
0.0
 11
-225.6817343623487
 21
453.8803168170864
 31
0.0
  0
LINE
  5
103
330
2
100
AcDbEntity
  8
NOTE
100
AcDbLine
 10
-225.6817343623487
 20
454.3023168170864
 30
0.0
 11
-225.6817343623487
 21
457.2013168170864
 31
0.0
  0
LINE
  5
104
330
2
100
AcDbEntity
  8
NOTE
100
AcDbLine
 10
-225.7367343623487
 20
440.5913168170863
 30
0.0
 11
-225.6267343623487
 21
440.5913168170863
 31
0.0
  0
LINE
  5
105
330
2
100
AcDbEntity
  8
NOTE
100
AcDbLine
 10
-225.6817343623487
 20
440.5363168170864
 30
0.0
 11
-225.6817343623487
 21
440.6463168170865
 31
0.0
  0
LINE
  5
106
330
2
100
AcDbEntity
  8
NOTE
100
AcDbLine
 10
-232.2917343623487
 20
440.5913168170863
 30
0.0
 11
-225.8927343623487
 21
440.5913168170863
 31
0.0
  0
LINE
  5
107
330
2
100
AcDbEntity
  8
NOTE
100
AcDbLine
 10
-225.4707343623487
 20
440.5913168170863
 30
0.0
 11
-219.0717343623487
 21
440.5913168170863
 31
0.0
  0
LINE
  5
108
330
2
100
AcDbEntity
  8
NOTE
100
AcDbLine
 10
-225.6817343623487
 20
433.9813168170864
 30
0.0
 11
-225.6817343623487
 21
440.3803168170863
 31
0.0
  0
LINE
  5
109
330
2
100
AcDbEntity
  8
NOTE
100
AcDbLine
 10
-225.6817343623487
 20
440.8023168170863
 30
0.0
 11
-225.6817343623487
 21
447.2013168170865
 31
0.0
  0
LINE
  5
10A
330
2
100
AcDbEntity
  8
NOTE
100
AcDbLine
 10
-213.7367343623495
 20
-126.9086831829135
 30
0.0
 11
-213.6267343623495
 21
-126.9086831829135
 31
0.0
  0
LINE
  5
10B
330
2
100
AcDbEntity
  8
NOTE
100
AcDbLine
 10
-213.6817343623495
 20
-126.9636831829135
 30
0.0
 11
-213.6817343623495
 21
-126.8536831829135
 31
0.0
  0
LINE
  5
10C
330
2
100
AcDbEntity
  8
NOTE
100
AcDbLine
 10
-216.7917343623495
 20
-126.9086831829135
 30
0.0
 11
-213.8927343623495
 21
-126.9086831829135
 31
0.0
  0
LINE
  5
10D
330
2
100
AcDbEntity
  8
NOTE
100
AcDbLine
 10
-213.4707343623495
 20
-126.9086831829135
 30
0.0
 11
-210.5717343623495
 21
-126.9086831829135
 31
0.0
  0
LINE
  5
10E
330
2
100
AcDbEntity
  8
NOTE
100
AcDbLine
 10
-213.6817343623495
 20
-130.0186831829135
 30
0.0
 11
-213.6817343623495
 21
-127.1196831829135
 31
0.0
  0
LINE
  5
10F
330
2
100
AcDbEntity
  8
NOTE
100
AcDbLine
 10
-213.6817343623495
 20
-126.6976831829135
 30
0.0
 11
-213.6817343623495
 21
-123.7986831829135
 31
0.0
  0
LINE
  5
110
330
2
100
AcDbEntity
  8
NOTE
100
AcDbLine
 10
187.2632656376501
 20
534.5913168170896
 30
0.0
 11
187.3732656376501
 21
534.5913168170896
 31
0.0
  0
LINE
  5
111
330
2
100
AcDbEntity
  8
NOTE
100
AcDbLine
 10
187.3182656376501
 20
534.5363168170896
 30
0.0
 11
187.3182656376501
 21
534.6463168170894
 31
0.0
  0
LINE
  5
112
330
2
100
AcDbEntity
  8
NOTE
100
AcDbLine
 10
184.2082656376501
 20
534.5913168170896
 30
0.0
 11
187.1072656376501
 21
534.5913168170896
 31
0.0
  0
LINE
  5
113
330
2
100
AcDbEntity
  8
NOTE
100
AcDbLine
 10
187.5292656376501
 20
534.5913168170896
 30
0.0
 11
190.4282656376501
 21
534.5913168170896
 31
0.0
  0
LINE
  5
114
330
2
100
AcDbEntity
  8
NOTE
100
AcDbLine
 10
187.3182656376501
 20
531.4813168170893
 30
0.0
 11
187.3182656376501
 21
534.3803168170896
 31
0.0
  0
LINE
  5
115
330
2
100
AcDbEntity
  8
NOTE
100
AcDbLine
 10
187.3182656376501
 20
534.8023168170896
 30
0.0
 11
187.3182656376501
 21
537.7013168170896
 31
0.0
  0
LINE
  5
116
330
2
100
AcDbEntity
  8
NOTE
100
AcDbLine
 10
420.2632656376501
 20
534.5913168170896
 30
0.0
 11
420.3732656376501
 21
534.5913168170896
 31
0.0
  0
LINE
  5
117
330
2
100
AcDbEntity
  8
NOTE
100
AcDbLine
 10
420.3182656376501
 20
534.5363168170896
 30
0.0
 11
420.3182656376501
 21
534.6463168170894
 31
0.0
  0
LINE
  5
118
330
2
100
AcDbEntity
  8
NOTE
100
AcDbLine
 10
417.2082656376501
 20
534.5913168170896
 30
0.0
 11
420.1072656376501
 21
534.5913168170896
 31
0.0
  0
LINE
  5
119
330
2
100
AcDbEntity
  8
NOTE
100
AcDbLine
 10
420.5292656376501
 20
534.5913168170896
 30
0.0
 11
423.4282656376501
 21
534.5913168170896
 31
0.0
  0
LINE
  5
11A
330
2
100
AcDbEntity
  8
NOTE
100
AcDbLine
 10
420.3182656376501
 20
531.4813168170893
 30
0.0
 11
420.3182656376501
 21
534.3803168170896
 31
0.0
  0
LINE
  5
11B
330
2
100
AcDbEntity
  8
NOTE
100
AcDbLine
 10
420.3182656376501
 20
534.8023168170896
 30
0.0
 11
420.3182656376501
 21
537.7013168170896
 31
0.0
  0
LINE
  5
11C
330
2
100
AcDbEntity
  8
NOTE
100
AcDbLine
 10
-160.7367343623497
 20
534.5913168170898
 30
0.0
 11
-160.6267343623497
 21
534.5913168170898
 31
0.0
  0
LINE
  5
11D
330
2
100
AcDbEntity
  8
NOTE
100
AcDbLine
 10
-160.6817343623497
 20
534.5363168170898
 30
0.0
 11
-160.6817343623497
 21
534.6463168170896
 31
0.0
  0
LINE
  5
11E
330
2
100
AcDbEntity
  8
NOTE
100
AcDbLine
 10
-163.7917343623497
 20
534.5913168170898
 30
0.0
 11
-160.8927343623497
 21
534.5913168170898
 31
0.0
  0
LINE
  5
11F
330
2
100
AcDbEntity
  8
NOTE
100
AcDbLine
 10
-160.4707343623497
 20
534.5913168170898
 30
0.0
 11
-157.5717343623496
 21
534.5913168170898
 31
0.0
  0
LINE
  5
120
330
2
100
AcDbEntity
  8
NOTE
100
AcDbLine
 10
-160.6817343623497
 20
531.4813168170898
 30
0.0
 11
-160.6817343623497
 21
534.3803168170897
 31
0.0
  0
LINE
  5
121
330
2
100
AcDbEntity
  8
NOTE
100
AcDbLine
 10
-160.6817343623497
 20
534.8023168170898
 30
0.0
 11
-160.6817343623497
 21
537.7013168170898
 31
0.0
  0
LINE
  5
122
330
2
100
AcDbEntity
  8
NOTE
100
AcDbLine
 10
72.26326563765022
 20
534.5913168170896
 30
0.0
 11
72.37326563765023
 21
534.5913168170896
 31
0.0
  0
LINE
  5
123
330
2
100
AcDbEntity
  8
NOTE
100
AcDbLine
 10
72.31826563765022
 20
534.5363168170896
 30
0.0
 11
72.31826563765022
 21
534.6463168170894
 31
0.0
  0
LINE
  5
124
330
2
100
AcDbEntity
  8
NOTE
100
AcDbLine
 10
69.20826563765023
 20
534.5913168170896
 30
0.0
 11
72.10726563765023
 21
534.5913168170896
 31
0.0
  0
LINE
  5
125
330
2
100
AcDbEntity
  8
NOTE
100
AcDbLine
 10
72.52926563765022
 20
534.5913168170896
 30
0.0
 11
75.42826563765022
 21
534.5913168170896
 31
0.0
  0
LINE
  5
126
330
2
100
AcDbEntity
  8
NOTE
100
AcDbLine
 10
72.31826563765022
 20
531.4813168170893
 30
0.0
 11
72.31826563765022
 21
534.3803168170896
 31
0.0
  0
LINE
  5
127
330
2
100
AcDbEntity
  8
NOTE
100
AcDbLine
 10
72.31826563765022
 20
534.8023168170896
 30
0.0
 11
72.31826563765022
 21
537.7013168170896
 31
0.0
  0
LINE
  5
14C
330
2
100
AcDbEntity
  8
OUTLINE
100
AcDbLine
 10
475.8182656376502
 20
-333.0374474323511
 30
0.0
 11
475.8182656376502
 21
-242.4086831829104
 31
0.0
  0
LINE
  5
150
330
2
100
AcDbEntity
  8
HID
100
AcDbLine
 10
494.8182656376501
 20
-179.4086831829105
 30
0.0
 11
494.0182656376502
 21
-179.4086831829105
 31
0.0
  0
LINE
  5
155
330
2
100
AcDbEntity
  8
HID
100
AcDbLine
 10
494.8182656376501
 20
-239.4086831829105
 30
0.0
 11
494.0182656376502
 21
-239.4086831829105
 31
0.0
  0
LINE
  5
156
330
2
100
AcDbEntity
  8
HID
100
AcDbLine
 10
494.0182656376501
 20
-239.4086831829105
 30
0.0
 11
493.2182656376502
 21
-239.4086831829105
 31
0.0
  0
LINE
  5
157
330
2
100
AcDbEntity
  8
OUTLINE
100
AcDbLine
 10
493.2182656376502
 20
-239.4086831829105
 30
0.0
 11
478.8182656376502
 21
-239.4086831829105
 31
0.0
  0
LINE
  5
158
330
2
100
AcDbEntity
  8
OUTLINE
100
AcDbLine
 10
475.8182656376503
 20
-242.4086831829105
 30
0.0
 11
478.8182656376502
 21
-239.4086831829105
 31
0.0
  0
LINE
  5
159
330
2
100
AcDbEntity
  8
OUTLINE
100
AcDbLine
 10
494.8182656376501
 20
-339.4086831829105
 30
0.0
 11
478.8182656376502
 21
-339.4086831829105
 31
0.0
  0
LINE
  5
15A
330
2
100
AcDbEntity
  8
OUTLINE
100
AcDbLine
 10
493.2182656376502
 20
-338.2665633982617
 30
0.0
 11
478.8182656376502
 21
-338.2665633982617
 31
0.0
  0
LINE
  5
15B
330
2
100
AcDbEntity
  8
OUTLINE
100
AcDbLine
 10
475.8182656376502
 20
-333.0374474323511
 30
0.0
 11
475.8182656376502
 21
-334.1795672169995
 31
0.0
  0
LINE
  5
15C
330
2
100
AcDbEntity
  8
OUTLINE
100
AcDbLine
 10
478.8182656376501
 20
-338.2665633982617
 30
0.0
 11
475.8182656376503
 21
-333.0374474323511
 31
0.0
  0
LINE
  5
15D
330
2
100
AcDbEntity
  8
OUTLINE
100
AcDbLine
 10
478.8182656376502
 20
-339.4086831829104
 30
0.0
 11
478.8182656376502
 21
-338.2665633982618
 31
0.0
  0
LINE
  5
15E
330
2
100
AcDbEntity
  8
OUTLINE
100
AcDbLine
 10
475.8182656376502
 20
-334.1795672169994
 30
0.0
 11
478.8182656376503
 21
-339.4086831829104
 31
0.0
  0
LINE
  5
15F
330
2
100
AcDbEntity
  8
OUTLINE
100
AcDbLine
 10
478.8182656376502
 20
-179.4086831829105
 30
0.0
 11
493.2182656376501
 21
-179.4086831829105
 31
0.0
  0
LINE
  5
160
330
2
100
AcDbEntity
  8
HID
100
AcDbLine
 10
493.2182656376502
 20
-179.4086831829105
 30
0.0
 11
494.0182656376502
 21
-179.4086831829105
 31
0.0
  0
LINE
  5
161
330
2
100
AcDbEntity
  8
OUTLINE
100
AcDbLine
 10
478.8182656376502
 20
-179.4086831829105
 30
0.0
 11
475.8182656376502
 21
-176.4086831829105
 31
0.0
  0
LINE
  5
162
330
2
100
AcDbEntity
  8
OUTLINE
100
AcDbLine
 10
475.8182656376502
 20
-176.4086831829105
 30
0.0
 11
475.8182656376502
 21
87.8862360602017
 31
0.0
  0
LINE
  5
163
330
2
100
AcDbEntity
  8
HID
100
AcDbLine
 10
475.8182656376502
 20
87.88623606020172
 30
0.0
 11
475.8182656376502
 21
512.0913168170893
 31
0.0
  0
LINE
  5
164
330
2
100
AcDbEntity
  8
HID
100
AcDbLine
 10
482.3182656376501
 20
423.3575981144248
 30
0.0
 11
482.3182656376501
 21
431.0913168170895
 31
0.0
  0
LINE
  5
165
330
2
100
AcDbEntity
  8
HID
100
AcDbLine
 10
488.3182656376503
 20
431.0913168170895
 30
0.0
 11
488.3182656376503
 21
423.3575981144248
 31
0.0
  0
LINE
  5
166
330
2
100
AcDbEntity
  8
OUTLINE
100
AcDbLine
 10
494.0182656376501
 20
346.8862360602017
 30
0.0
 11
493.8182656376501
 21
346.8862360602017
 31
0.0
  0
LINE
  5
167
330
2
100
AcDbEntity
  8
HID
100
AcDbLine
 10
493.8182656376501
 20
346.8862360602017
 30
0.0
 11
478.8182656376502
 21
346.8862360602017
 31
0.0
  0
LINE
  5
168
330
2
100
AcDbEntity
  8
HID
100
AcDbLine
 10
478.8182656376502
 20
348.42435584485
 30
0.0
 11
493.8182656376501
 21
348.42435584485
 31
0.0
  0
LINE
  5
169
330
2
100
AcDbEntity
  8
OUTLINE
100
AcDbLine
 10
493.8182656376501
 20
348.42435584485
 30
0.0
 11
494.0182656376501
 21
348.42435584485
 31
0.0
  0
LINE
  5
16A
330
2
100
AcDbEntity
  8
HID
100
AcDbLine
 10
478.8182656376502
 20
348.8862360602017
 30
0.0
 11
478.8182656376502
 21
348.42435584485
 31
0.0
  0
LINE
  5
16B
330
2
100
AcDbEntity
  8
OUTLINE
100
AcDbLine
 10
494.8182656376501
 20
88.88623606020173
 30
0.0
 11
494.0182656376502
 21
88.88623606020173
 31
0.0
  0
LINE
  5
16C
330
2
100
AcDbEntity
  8
HID
100
AcDbLine
 10
484.1182656376502
 20
99.88623606020169
 30
0.0
 11
493.8182656376501
 21
99.88623606020169
 31
0.0
  0
LINE
  5
16D
330
2
100
AcDbEntity
  8
OUTLINE
100
AcDbLine
 10
493.8182656376501
 20
99.88623606020169
 30
0.0
 11
494.0182656376502
 21
99.88623606020169
 31
0.0
  0
LINE
  5
16E
330
2
100
AcDbEntity
  8
HID
100
AcDbLine
 10
494.8182656376501
 20
-300.9086831829105
 30
0.0
 11
494.0182656376502
 21
-300.9086831829105
 31
0.0
  0
LINE
  5
16F
330
2
100
AcDbEntity
  8
HID
100
AcDbLine
 10
494.8182656376501
 20
-297.9086831829105
 30
0.0
 11
494.0182656376502
 21
-297.9086831829105
 31
0.0
  0
LINE
  5
170
330
2
100
AcDbEntity
  8
HID
100
AcDbLine
 10
478.8182656376502
 20
346.8862360602017
 30
0.0
 11
478.8182656376502
 21
107.4576646316302
 31
0.0
  0
LINE
  5
171
330
2
100
AcDbEntity
  8
HID
100
AcDbLine
 10
478.8182656376502
 20
107.4576646316302
 30
0.0
 11
484.1182656376502
 21
99.88623606020169
 31
0.0
  0
LINE
  5
172
330
2
100
AcDbEntity
  8
HID
100
AcDbLine
 10
494.0182656376501
 20
520.7056761710344
 30
0.0
 11
494.0182656376501
 21
348.42435584485
 31
0.0
  0
LINE
  5
173
330
2
100
AcDbEntity
  8
OUTLINE
100
AcDbLine
 10
494.0182656376501
 20
348.42435584485
 30
0.0
 11
494.0182656376501
 21
346.8862360602017
 31
0.0
  0
LINE
  5
174
330
2
100
AcDbEntity
  8
HID
100
AcDbLine
 10
494.0182656376501
 20
99.88623606020169
 30
0.0
 11
494.0182656376501
 21
346.8862360602017
 31
0.0
  0
LINE
  5
175
330
2
100
AcDbEntity
  8
OUTLINE
100
AcDbLine
 10
494.0182656376502
 20
99.88623606020169
 30
0.0
 11
494.0182656376502
 21
88.88623606020168
 31
0.0
  0
LINE
  5
176
330
2
100
AcDbEntity
  8
OUTLINE
100
AcDbLine
 10
494.0182656376501
 20
88.88623606020173
 30
0.0
 11
494.0182656376501
 21
71.33574842356316
 31
0.0
  0
LINE
  5
177
330
2
100
AcDbEntity
  8
OUTLINE
100
AcDbLine
 10
493.2182656376502
 20
71.33574842356313
 30
0.0
 11
493.2182656376502
 21
-338.2665633982619
 31
0.0
  0
LINE
  5
178
330
2
100
AcDbEntity
  8
HID
100
AcDbLine
 10
493.2182656376502
 20
-324.3222541558322
 30
0.0
 11
494.0182656376501
 21
-324.3222541558322
 31
0.0
  0
LINE
  5
179
330
2
100
AcDbEntity
  8
HID
100
AcDbLine
 10
494.0182656376501
 20
-324.3222541558324
 30
0.0
 11
494.0182656376501
 21
69.37297046905661
 31
0.0
  0
LINE
  5
17A
330
2
100
AcDbEntity
  8
HID
100
AcDbLine
 10
494.0182656376501
 20
69.37297046905655
 30
0.0
 11
493.2182656376501
 21
69.37297046905655
 31
0.0
  0
LINE
  5
17B
330
2
100
AcDbEntity
  8
HID
100
AcDbLine
 10
494.0182656376501
 20
69.37297046905658
 30
0.0
 11
494.0182656376501
 21
71.33574842356323
 31
0.0
  0
LINE
  5
17C
330
2
100
AcDbEntity
  8
OUTLINE
100
AcDbLine
 10
494.0182656376501
 20
71.33574842356319
 30
0.0
 11
493.2182656376501
 21
71.33574842356319
 31
0.0
  0
LINE
  5
17D
330
2
100
AcDbEntity
  8
OUTLINE
100
AcDbLine
 10
494.8182656376501
 20
348.8862360602017
 30
0.0
 11
493.8182656376501
 21
348.8862360602017
 31
0.0
  0
LINE
  5
17E
330
2
100
AcDbEntity
  8
HID
100
AcDbLine
 10
493.8182656376501
 20
348.8862360602017
 30
0.0
 11
478.8182656376502
 21
348.8862360602017
 31
0.0
  0
LINE
  5
17F
330
2
100
AcDbEntity
  8
HID
100
AcDbLine
 10
478.8182656376502
 20
521.6294366017375
 30
0.0
 11
478.8182656376502
 21
348.8862360602017
 31
0.0
  0
LINE
  5
180
330
2
100
AcDbEntity
  8
OUTLINE
100
AcDbLine
 10
494.8182656376501
 20
88.88623606020164
 30
0.0
 11
494.8182656376501
 21
-339.4086831829105
 31
0.0
  0
LINE
  5
181
330
2
100
AcDbEntity
  8
OUTLINE
100
AcDbLine
 10
494.8182656376501
 20
348.8862360602017
 30
0.0
 11
494.8182656376501
 21
88.88623606020173
 31
0.0
  0
LINE
  5
182
330
2
100
AcDbEntity
  8
OUTLINE
100
AcDbLine
 10
494.8182656376501
 20
521.6294366017375
 30
0.0
 11
494.8182656376501
 21
348.8862360602017
 31
0.0
  0
LINE
  5
183
330
2
100
AcDbEntity
  8
OUTLINE
100
AcDbLine
 10
494.8182656376501
 20
521.6294366017375
 30
0.0
 11
493.8182656376501
 21
521.6294366017375
 31
0.0
  0
LINE
  5
184
330
2
100
AcDbEntity
  8
HID
100
AcDbLine
 10
493.8182656376501
 20
521.6294366017375
 30
0.0
 11
478.8182656376502
 21
521.6294366017375
 31
0.0
  0
LINE
  5
185
330
2
100
AcDbEntity
  8
HID
100
AcDbLine
 10
494.0182656376501
 20
520.7056761710345
 30
0.0
 11
478.8182656376502
 21
520.7056761710345
 31
0.0
  0
LINE
  5
186
330
2
100
AcDbEntity
  8
HID
100
AcDbLine
 10
494.0182656376501
 20
512.0913168170893
 30
0.0
 11
475.8182656376502
 21
512.0913168170893
 31
0.0
  0
LINE
  5
187
330
2
100
AcDbEntity
  8
HID
100
AcDbLine
 10
494.8182656376501
 20
512.0913168170893
 30
0.0
 11
494.0182656376503
 21
512.0913168170893
 31
0.0
  0
LINE
  5
188
330
2
100
AcDbEntity
  8
HID
100
AcDbLine
 10
483.3182656376502
 20
434.8862360602018
 30
0.0
 11
483.3182656376502
 21
434.1934157371741
 31
0.0
  0
LINE
  5
189
330
2
100
AcDbEntity
  8
HID
100
AcDbLine
 10
487.3182656376502
 20
434.8862360602018
 30
0.0
 11
487.3182656376502
 21
434.1934157371743
 31
0.0
  0
LINE
  5
18A
330
2
100
AcDbEntity
  8
HID
100
AcDbLine
 10
482.8182656376502
 20
517.1362360602016
 30
0.0
 11
482.8182656376502
 21
516.4434157371743
 31
0.0
  0
LINE
  5
18B
330
2
100
AcDbEntity
  8
HID
100
AcDbLine
 10
487.8182656376502
 20
517.1362360602
 30
0.0
 11
487.8182656376502
 21
516.4434157371728
 31
0.0
  0
ELLIPSE
  5
18C
330
2
100
AcDbEntity
  8
OUTLINE
100
AcDbEllipse
 10
485.3182656376501
 20
434.1934157371741
 30
0.0
 11
2.0
 21
0.0
 31
0.0
210
0.0
220
0.0
230
1.0
 40
0.5000000000000006
 41
0.3537416058896719
 42
2.78785104770012
  0
ELLIPSE
  5
18D
330
2
100
AcDbEntity
  8
HID
100
AcDbEllipse
 10
485.3182656376501
 20
434.1934157371741
 30
0.0
 11
2.0
 21
0.0
 31
0.0
210
0.0
220
0.0
230
1.0
 40
0.5000000000000006
 41
2.78785104770012
 42
6.636926913069257
  0
CIRCLE
  5
18E
330
2
100
AcDbEntity
  8
OUTLINE
100
AcDbCircle
 10
485.3182656376501
 20
-329.9086831829105
 30
0.0
 40
3.0
  0
ELLIPSE
  5
18F
330
2
100
AcDbEntity
  8
HID
100
AcDbEllipse
 10
485.3182656376501
 20
516.4434157371743
 30
0.0
 11
2.5
 21
0.0
 31
0.0
210
0.0
220
0.0
230
1.0
 40
0.5000000000000006
 41
0.0
 42
6.283185307179584
  0
CIRCLE
  5
190
330
2
100
AcDbEntity
  8
OUTLINE
100
AcDbCircle
 10
485.3182656376501
 20
25.09131681708954
 30
0.0
 40
3.0
  0
CIRCLE
  5
191
330
2
100
AcDbEntity
  8
OUTLINE
100
AcDbCircle
 10
485.3182656376501
 20
-126.9086831829105
 30
0.0
 40
3.0
  0
ARC
  5
192
330
2
100
AcDbEntity
  8
HID
100
AcDbCircle
 10
485.3182656376501
 20
431.0913168170895
 30
0.0
 40
3.0
100
AcDbArc
 50
99.14351463137665
 51
180.0
  0
ARC
  5
193
330
2
100
AcDbEntity
  8
OUTLINE
100
AcDbCircle
 10
485.3182656376501
 20
431.0913168170895
 30
0.0
 40
3.0
100
AcDbArc
 50
80.8564853686266
 51
99.14351463137665
  0
ARC
  5
194
330
2
100
AcDbEntity
  8
HID
100
AcDbCircle
 10
485.3182656376501
 20
431.0913168170895
 30
0.0
 40
3.0
100
AcDbArc
 50
0.0
 51
80.8564853686266
  0
ARC
  5
195
330
2
100
AcDbEntity
  8
HID
100
AcDbCircle
 10
485.3182656376501
 20
417.5913168170891
 30
0.0
 40
6.5
100
AcDbArc
 50
117.4864262503814
 51
62.51357374961853
  0
CIRCLE
  5
196
330
2
100
AcDbEntity
  8
OUTLINE
100
AcDbCircle
 10
485.3182656376501
 20
288.8862360602017
 30
0.0
 40
2.0
  0
CIRCLE
  5
197
330
2
100
AcDbEntity
  8
OUTLINE
100
AcDbCircle
 10
485.3182656376501
 20
138.8862360602017
 30
0.0
 40
2.0
  0
ELLIPSE
  5
198
330
2
100
AcDbEntity
  8
HID
100
AcDbEllipse
 10
485.3182656376501
 20
517.1362360602016
 30
0.0
 11
-2.5
 21
0.0
 31
0.0
210
0.0
220
0.0
230
1.0
 40
0.5000000000000006
 41
0.0000000000000002
 42
6.283185307179584
  0
ELLIPSE
  5
199
330
2
100
AcDbEntity
  8
HID
100
AcDbEllipse
 10
485.3182656376501
 20
434.8862360602018
 30
0.0
 11
-2.0
 21
0.0
 31
0.0
210
0.0
220
0.0
230
1.0
 40
0.5000000000000006
 41
0.6954133913026764
 42
2.446179262287268
  0
ELLIPSE
  5
19A
330
2
100
AcDbEntity
  8
OUTLINE
100
AcDbEllipse
 10
485.3182656376501
 20
434.8862360602018
 30
0.0
 11
-2.0
 21
0.0
 31
0.0
210
0.0
220
0.0
230
1.0
 40
0.5000000000000006
 41
2.446179262287269
 42
6.978598698482262
  0
LINE
  5
19B
330
2
100
AcDbEntity
  8
OUTLINE
100
AcDbLine
 10
-235.1817343623487
 20
522.0913168170864
 30
0.0
 11
-235.1817343623497
 21
348.8862360601988
 31
0.0
  0
LINE
  5
19C
330
2
100
AcDbEntity
  8
HID
100
AcDbLine
 10
-219.1817343623487
 20
522.0913168170864
 30
0.0
 11
-234.18173436235
 21
522.0913168170864
 31
0.0
  0
LINE
  5
19D
330
2
100
AcDbEntity
  8
OUTLINE
100
AcDbLine
 10
-234.18173436235
 20
522.0913168170864
 30
0.0
 11
-235.1817343623487
 21
522.0913168170864
 31
0.0
  0
LINE
  5
19E
330
2
100
AcDbEntity
  8
OUTLINE
100
AcDbLine
 10
-207.1817343623499
 20
-339.4086831829135
 30
0.0
 11
-234.3817343623499
 21
-339.4086831829134
 31
0.0
  0
LINE
  5
19F
330
2
100
AcDbEntity
  8
HID
100
AcDbLine
 10
-219.1817343623487
 20
478.5913168170863
 30
0.0
 11
-234.3817343623488
 21
478.5913168170863
 31
0.0
  0
LINE
  5
1A0
330
2
100
AcDbEntity
  8
HID
100
AcDbLine
 10
-219.1817343623487
 20
478.5913168170863
 30
0.0
 11
-216.1817343623487
 21
475.5913168170864
 31
0.0
  0
LINE
  5
1A1
330
2
100
AcDbEntity
  8
HID
100
AcDbLine
 10
-216.1817343623488
 20
475.5913168170864
 30
0.0
 11
-216.1817343623494
 21
87.88623606020161
 31
0.0
  0
LINE
  5
1A2
330
2
100
AcDbEntity
  8
OUTLINE
100
AcDbLine
 10
-216.1817343623494
 20
87.88623606020166
 30
0.0
 11
-216.1817343623496
 21
-117.4086831829135
 31
0.0
  0
LINE
  5
1A3
330
2
100
AcDbEntity
  8
OUTLINE
100
AcDbLine
 10
-216.1817343623496
 20
-117.4086831829135
 30
0.0
 11
-207.1817343623496
 21
-117.4086831829135
 31
0.0
  0
LINE
  5
1A4
330
2
100
AcDbEntity
  8
OUTLINE
100
AcDbLine
 10
-207.1817343623495
 20
-117.4086831829135
 30
0.0
 11
-204.1817343623496
 21
-120.4086831829135
 31
0.0
  0
LINE
  5
1A5
330
2
100
AcDbEntity
  8
OUTLINE
100
AcDbLine
 10
-204.1817343623496
 20
-120.4086831829135
 30
0.0
 11
-204.18173436235
 21
-336.4086831829137
 31
0.0
  0
LINE
  5
1A6
330
2
100
AcDbEntity
  8
OUTLINE
100
AcDbLine
 10
-204.18173436235
 20
-336.4086831829135
 30
0.0
 11
-207.18173436235
 21
-339.4086831829135
 31
0.0
  0
LINE
  5
1A7
330
2
100
AcDbEntity
  8
OUTLINE
100
AcDbLine
 10
-234.38173436235
 20
-339.4086831829135
 30
0.0
 11
-235.18173436235
 21
-339.4086831829135
 31
0.0
  0
LINE
  5
1A8
330
2
100
AcDbEntity
  8
OUTLINE
100
AcDbLine
 10
-235.18173436235
 20
88.88623606019917
 30
0.0
 11
-235.1817343623499
 21
-339.4086831829135
 31
0.0
  0
LINE
  5
1A9
330
2
100
AcDbEntity
  8
OUTLINE
100
AcDbLine
 10
-234.3817343623499
 20
-338.5896251967543
 30
0.0
 11
-233.5817343623499
 21
-338.5896251967543
 31
0.0
  0
LINE
  5
1AA
330
2
100
AcDbEntity
  8
HID
100
AcDbLine
 10
-235.1817343623487
 20
508.0913168170864
 30
0.0
 11
-234.3817343623488
 21
508.0913168170864
 31
0.0
  0
LINE
  5
1AB
330
2
100
AcDbEntity
  8
HID
100
AcDbLine
 10
-222.6817343623488
 20
454.0913168170864
 30
0.0
 11
-222.6817343623488
 21
446.3575981144217
 31
0.0
  0
LINE
  5
1AC
330
2
100
AcDbEntity
  8
HID
100
AcDbLine
 10
-228.6817343623488
 20
446.3575981144217
 30
0.0
 11
-228.6817343623488
 21
454.0913168170864
 31
0.0
  0
LINE
  5
1AD
330
2
100
AcDbEntity
  8
HID
100
AcDbLine
 10
-234.3817343623488
 20
521.1675563863829
 30
0.0
 11
-219.1817343623488
 21
521.1675563863829
 31
0.0
  0
LINE
  5
1AE
330
2
100
AcDbEntity
  8
HID
100
AcDbLine
 10
-219.1817343623498
 20
348.8862360601989
 30
0.0
 11
-219.1817343623488
 21
522.0913168170866
 31
0.0
  0
LINE
  5
1AF
330
2
100
AcDbEntity
  8
OUTLINE
100
AcDbLine
 10
-234.38173436235
 20
88.88623606019903
 30
0.0
 11
-235.18173436235
 21
88.88623606019903
 31
0.0
  0
LINE
  5
1B0
330
2
100
AcDbEntity
  8
OUTLINE
100
AcDbLine
 10
-235.1817343623496
 20
348.8862360601991
 30
0.0
 11
-235.1817343623501
 21
88.88623606019905
 31
0.0
  0
LINE
  5
1B1
330
2
100
AcDbEntity
  8
HID
100
AcDbLine
 10
-219.1817343623498
 20
348.8862360601991
 30
0.0
 11
-234.1817343623499
 21
348.8862360601991
 31
0.0
  0
LINE
  5
1B2
330
2
100
AcDbEntity
  8
OUTLINE
100
AcDbLine
 10
-234.1817343623499
 20
348.8862360601991
 30
0.0
 11
-235.1817343623496
 21
348.8862360601991
 31
0.0
  0
LINE
  5
1B3
330
2
100
AcDbEntity
  8
HID
100
AcDbLine
 10
-219.1817343623496
 20
348.424355844847
 30
0.0
 11
-219.1817343623496
 21
348.886236060199
 31
0.0
  0
LINE
  5
1B4
330
2
100
AcDbEntity
  8
OUTLINE
100
AcDbLine
 10
-234.3817343623497
 20
348.4243558448471
 30
0.0
 11
-234.1817343623497
 21
348.4243558448471
 31
0.0
  0
LINE
  5
1B5
330
2
100
AcDbEntity
  8
HID
100
AcDbLine
 10
-234.1817343623497
 20
348.4243558448471
 30
0.0
 11
-219.1817343623496
 21
348.4243558448471
 31
0.0
  0
LINE
  5
1B6
330
2
100
AcDbEntity
  8
HID
100
AcDbLine
 10
-219.1817343623496
 20
346.8862360601991
 30
0.0
 11
-234.1817343623499
 21
346.8862360601991
 31
0.0
  0
LINE
  5
1B7
330
2
100
AcDbEntity
  8
OUTLINE
100
AcDbLine
 10
-234.1817343623499
 20
346.8862360601991
 30
0.0
 11
-234.3817343623497
 21
346.8862360601991
 31
0.0
  0
LINE
  5
1B8
330
2
100
AcDbEntity
  8
HID
100
AcDbLine
 10
-219.18173436235
 20
108.3034625233033
 30
0.0
 11
-219.1817343623496
 21
346.8862360601991
 31
0.0
  0
LINE
  5
1B9
330
2
100
AcDbEntity
  8
HID
100
AcDbLine
 10
-235.1817343623499
 20
-297.9086831829135
 30
0.0
 11
-234.3817343623499
 21
-297.9086831829135
 31
0.0
  0
LINE
  5
1BA
330
2
100
AcDbEntity
  8
HID
100
AcDbLine
 10
-235.1817343623499
 20
-300.9086831829135
 30
0.0
 11
-234.3817343623499
 21
-300.9086831829135
 31
0.0
  0
LINE
  5
1BB
330
2
100
AcDbEntity
  8
OUTLINE
100
AcDbLine
 10
-234.3817343623499
 20
99.88623606019906
 30
0.0
 11
-234.1817343623497
 21
99.88623606019906
 31
0.0
  0
LINE
  5
1BC
330
2
100
AcDbEntity
  8
HID
100
AcDbLine
 10
-234.1817343623497
 20
99.88623606019906
 30
0.0
 11
-225.3132820917291
 21
99.88623606019906
 31
0.0
  0
LINE
  5
1BD
330
2
100
AcDbEntity
  8
HID
100
AcDbLine
 10
-225.3132820917291
 20
99.88623606019899
 30
0.0
 11
-219.1817343623501
 21
108.3034625233033
 31
0.0
  0
LINE
  5
1BE
330
2
100
AcDbEntity
  8
HID
100
AcDbLine
 10
-234.3817343623499
 20
-327.4474753727165
 30
0.0
 11
-233.5817343623499
 21
-327.4474753727165
 31
0.0
  0
LINE
  5
1BF
330
2
100
AcDbEntity
  8
OUTLINE
100
AcDbLine
 10
-234.38173436235
 20
88.88623606019903
 30
0.0
 11
-234.3817343623499
 21
99.88623606019906
 31
0.0
  0
LINE
  5
1C0
330
2
100
AcDbEntity
  8
HID
100
AcDbLine
 10
-234.3817343623497
 20
346.8862360601991
 30
0.0
 11
-234.38173436235
 21
99.88623606019906
 31
0.0
  0
LINE
  5
1C1
330
2
100
AcDbEntity
  8
OUTLINE
100
AcDbLine
 10
-234.3817343623497
 20
346.8862360601991
 30
0.0
 11
-234.3817343623497
 21
348.4243558448471
 31
0.0
  0
LINE
  5
1C2
330
2
100
AcDbEntity
  8
HID
100
AcDbLine
 10
-234.3817343623488
 20
521.1675563863829
 30
0.0
 11
-234.3817343623497
 21
348.424355844847
 31
0.0
  0
LINE
  5
1C3
330
2
100
AcDbEntity
  8
OUTLINE
100
AcDbLine
 10
-234.3817343623499
 20
-339.4086831829136
 30
0.0
 11
-234.3817343623499
 21
-338.5896251967547
 31
0.0
  0
LINE
  5
1C4
330
2
100
AcDbEntity
  8
HID
100
AcDbLine
 10
-234.3817343623499
 20
-327.4474753727166
 30
0.0
 11
-234.3817343623499
 21
-338.5896251967543
 31
0.0
  0
LINE
  5
1C5
330
2
100
AcDbEntity
  8
HID
100
AcDbLine
 10
-234.38173436235
 20
69.37297046905408
 30
0.0
 11
-234.3817343623499
 21
-327.4474753727166
 31
0.0
  0
LINE
  5
1C6
330
2
100
AcDbEntity
  8
OUTLINE
100
AcDbLine
 10
-234.38173436235
 20
71.33574842356068
 30
0.0
 11
-234.38173436235
 21
88.88623606019903
 31
0.0
  0
LINE
  5
1C7
330
2
100
AcDbEntity
  8
OUTLINE
100
AcDbLine
 10
-233.5817343623499
 20
-338.5896251967545
 30
0.0
 11
-233.58173436235
 21
71.33574842356068
 31
0.0
  0
LINE
  5
1C8
330
2
100
AcDbEntity
  8
OUTLINE
100
AcDbLine
 10
-233.5817343623501
 20
71.33574842356068
 30
0.0
 11
-234.38173436235
 21
71.33574842356068
 31
0.0
  0
LINE
  5
1C9
330
2
100
AcDbEntity
  8
HID
100
AcDbLine
 10
-234.38173436235
 20
71.33574842356072
 30
0.0
 11
-234.38173436235
 21
69.37297046905411
 31
0.0
  0
LINE
  5
1CA
330
2
100
AcDbEntity
  8
HID
100
AcDbLine
 10
-233.5817343623499
 20
69.37297046905408
 30
0.0
 11
-234.3817343623499
 21
69.37297046905408
 31
0.0
  0
LINE
  5
1CB
330
2
100
AcDbEntity
  8
HID
100
AcDbLine
 10
-227.6817343623492
 20
434.886236060199
 30
0.0
 11
-227.6817343623492
 21
434.1934157371713
 31
0.0
  0
LINE
  5
1CC
330
2
100
AcDbEntity
  8
HID
100
AcDbLine
 10
-223.6817343623492
 20
434.8862360601988
 30
0.0
 11
-223.6817343623492
 21
434.1934157371711
 31
0.0
  0
LINE
  5
1CD
330
2
100
AcDbEntity
  8
HID
100
AcDbLine
 10
-228.1817343623487
 20
517.1362360601973
 30
0.0
 11
-228.1817343623487
 21
516.4434157371697
 31
0.0
  0
LINE
  5
1CE
330
2
100
AcDbEntity
  8
HID
100
AcDbLine
 10
-223.1817343623486
 20
517.1362360601988
 30
0.0
 11
-223.1817343623486
 21
516.4434157371713
 31
0.0
  0
ELLIPSE
  5
1CF
330
2
100
AcDbEntity
  8
HID
100
AcDbEllipse
 10
-225.6817343623492
 20
434.8862360601988
 30
0.0
 11
-2.0
 21
0.0
 31
0.0
210
0.0
220
0.0
230
1.0
 40
0.5
 41
0.6954133912952472
 42
2.446179262295759
  0
ELLIPSE
  5
1D0
330
2
100
AcDbEntity
  8
OUTLINE
100
AcDbEllipse
 10
-225.6817343623492
 20
434.8862360601988
 30
0.0
 11
-2.0
 21
0.0
 31
0.0
210
0.0
220
0.0
230
1.0
 40
0.5
 41
2.446179262295759
 42
6.978598698474831
  0
CIRCLE
  5
1D1
330
2
100
AcDbEntity
  8
OUTLINE
100
AcDbCircle
 10
-213.6817343623499
 20
-329.9086831829135
 30
0.0
 40
3.0
  0
CIRCLE
  5
1D2
330
2
100
AcDbEntity
  8
OUTLINE
100
AcDbCircle
 10
-225.6817343623494
 20
48.09131681708652
 30
0.0
 40
3.0
  0
ARC
  5
1D3
330
2
100
AcDbEntity
  8
NOTE
100
AcDbCircle
 10
-225.6817343623488
 20
454.0913168170864
 30
0.0
 40
3.0
100
AcDbArc
 50
0.0
 51
180.0
  0
ELLIPSE
  5
1D4
330
2
100
AcDbEntity
  8
HID
100
AcDbEllipse
 10
-225.6817343623487
 20
517.1362360601988
 30
0.0
 11
-2.5
 21
0.0
 31
0.0
210
0.0
220
0.0
230
1.0
 40
0.5
 41
0.0000000000000002
 42
6.283185307179584
  0
ARC
  5
1D5
330
2
100
AcDbEntity
  8
HID
100
AcDbCircle
 10
-225.6817343623488
 20
440.5913168170863
 30
0.0
 40
6.5
100
AcDbArc
 50
284.3603949274882
 51
62.51357374961853
  0
ARC
  5
1D6
330
2
100
AcDbEntity
  8
OUTLINE
100
AcDbCircle
 10
-225.6817343623488
 20
440.5913168170863
 30
0.0
 40
6.5
100
AcDbArc
 50
255.6396050725055
 51
284.3603949274882
  0
ARC
  5
1D7
330
2
100
AcDbEntity
  8
HID
100
AcDbCircle
 10
-225.6817343623488
 20
440.5913168170863
 30
0.0
 40
6.5
100
AcDbArc
 50
117.4864262503814
 51
255.6396050725055
  0
ELLIPSE
  5
1D8
330
2
100
AcDbEntity
  8
HID
100
AcDbEllipse
 10
-225.6817343623487
 20
516.4434157371712
 30
0.0
 11
2.5
 21
0.0
 31
0.0
210
0.0
220
0.0
230
1.0
 40
0.5
 41
0.0
 42
6.283185307179584
  0
ELLIPSE
  5
1D9
330
2
100
AcDbEntity
  8
OUTLINE
100
AcDbEllipse
 10
-225.6817343623492
 20
434.1934157371713
 30
0.0
 11
2.0
 21
0.0
 31
0.0
210
0.0
220
0.0
230
1.0
 40
0.5
 41
0.353741605889672
 42
2.78785104770012
  0
ELLIPSE
  5
1DA
330
2
100
AcDbEntity
  8
HID
100
AcDbEllipse
 10
-225.6817343623492
 20
434.1934157371713
 30
0.0
 11
2.0
 21
0.0
 31
0.0
210
0.0
220
0.0
230
1.0
 40
0.5
 41
2.78785104770012
 42
6.636926913069255
  0
CIRCLE
  5
1DB
330
2
100
AcDbEntity
  8
OUTLINE
100
AcDbCircle
 10
-213.6817343623496
 20
-126.9086831829135
 30
0.0
 40
3.0
  0
CIRCLE
  5
1DC
330
2
100
AcDbEntity
  8
OUTLINE
100
AcDbCircle
 10
-225.6817343623497
 20
288.886236060199
 30
0.0
 40
2.0
  0
CIRCLE
  5
1DD
330
2
100
AcDbEntity
  8
OUTLINE
100
AcDbCircle
 10
-225.68173436235
 20
138.886236060199
 30
0.0
 40
2.0
  0
LINE
  5
1DE
330
2
100
AcDbEntity
  8
OUTLINE
100
AcDbLine
 10
-234.1817343623499
 20
349.2841371401172
 30
0.0
 11
493.8182656376501
 21
349.2841371401171
 31
0.0
  0
LINE
  5
1DF
330
2
100
AcDbEntity
  8
HID
100
AcDbLine
 10
493.8182656376501
 20
522.0913168170896
 30
0.0
 11
-234.1817343623499
 21
522.0913168170897
 31
0.0
  0
LINE
  5
1E0
330
2
100
AcDbEntity
  8
OUTLINE
100
AcDbLine
 10
-234.1817343623499
 20
348.5913168170898
 30
0.0
 11
-234.1817343623499
 21
331.5913168170901
 31
0.0
  0
LINE
  5
1E1
330
2
100
AcDbEntity
  8
OUTLINE
100
AcDbLine
 10
493.8182656376501
 20
331.5913168170899
 30
0.0
 11
493.8182656376501
 21
348.5913168170898
 31
0.0
  0
LINE
  5
1E2
330
2
100
AcDbEntity
  8
OUTLINE
100
AcDbLine
 10
-234.1817343623499
 20
348.5913168170898
 30
0.0
 11
493.8182656376501
 21
348.5913168170897
 31
0.0
  0
LINE
  5
1E3
330
2
100
AcDbEntity
  8
OUTLINE
100
AcDbLine
 10
-231.1817343623498
 20
328.5913168170899
 30
0.0
 11
-234.1817343623499
 21
331.59131681709
 31
0.0
  0
LINE
  5
1E4
330
2
100
AcDbEntity
  8
OUTLINE
100
AcDbLine
 10
-231.1817343623498
 20
328.5913168170898
 30
0.0
 11
490.8182656376501
 21
328.5913168170897
 31
0.0
  0
LINE
  5
1E5
330
2
100
AcDbEntity
  8
OUTLINE
100
AcDbLine
 10
493.8182656376501
 20
331.5913168170899
 30
0.0
 11
490.8182656376501
 21
328.5913168170899
 31
0.0
  0
LINE
  5
1E6
330
2
100
AcDbEntity
  8
OUTLINE
100
AcDbLine
 10
-234.18173436235
 20
522.5531970324412
 30
0.0
 11
-234.18173436235
 21
349.2841371401171
 31
0.0
  0
LINE
  5
1E7
330
2
100
AcDbEntity
  8
OUTLINE
100
AcDbLine
 10
-234.1817343623499
 20
349.2841371401172
 30
0.0
 11
-234.1817343623499
 21
348.5913168170898
 31
0.0
  0
LINE
  5
1E8
330
2
100
AcDbEntity
  8
OUTLINE
100
AcDbLine
 10
-234.18173436235
 20
522.5531970324412
 30
0.0
 11
493.81826563765
 21
522.5531970324412
 31
0.0
  0
LINE
  5
1E9
330
2
100
AcDbEntity
  8
OUTLINE
100
AcDbLine
 10
-234.18173436235
 20
522.5531970324412
 30
0.0
 11
-234.18173436235
 21
536.0913168170895
 31
0.0
  0
LINE
  5
1EA
330
2
100
AcDbEntity
  8
OUTLINE
100
AcDbLine
 10
-234.18173436235
 20
536.0913168170895
 30
0.0
 11
-231.18173436235
 21
539.0913168170896
 31
0.0
  0
LINE
  5
1EB
330
2
100
AcDbEntity
  8
OUTLINE
100
AcDbLine
 10
-231.1817343623498
 20
539.0913168170896
 30
0.0
 11
490.8182656376501
 21
539.0913168170896
 31
0.0
  0
LINE
  5
1EC
330
2
100
AcDbEntity
  8
OUTLINE
100
AcDbLine
 10
493.8182656376501
 20
348.5913168170897
 30
0.0
 11
493.8182656376501
 21
349.2841371401171
 31
0.0
  0
LINE
  5
1ED
330
2
100
AcDbEntity
  8
OUTLINE
100
AcDbLine
 10
493.8182656376501
 20
349.2841371401171
 30
0.0
 11
493.8182656376501
 21
522.5531970324412
 31
0.0
  0
LINE
  5
1EE
330
2
100
AcDbEntity
  8
OUTLINE
100
AcDbLine
 10
493.8182656376501
 20
536.0913168170895
 30
0.0
 11
493.8182656376501
 21
522.5531970324412
 31
0.0
  0
LINE
  5
1EF
330
2
100
AcDbEntity
  8
OUTLINE
100
AcDbLine
 10
490.8182656376501
 20
539.0913168170896
 30
0.0
 11
493.8182656376501
 21
536.0913168170895
 31
0.0
  0
LINE
  5
1F0
330
2
100
AcDbEntity
  8
HID
100
AcDbLine
 10
483.8182656376502
 20
515.8413168170897
 30
0.0
 11
486.8182656376501
 21
515.8413168170897
 31
0.0
  0
LINE
  5
1F1
330
2
100
AcDbEntity
  8
OUTLINE
100
AcDbLine
 10
486.8182656376501
 20
516.534137140117
 30
0.0
 11
483.8182656376502
 21
516.534137140117
 31
0.0
  0
LINE
  5
1F2
330
2
100
AcDbEntity
  8
HID
100
AcDbLine
 10
486.8182656376501
 20
515.8413168170896
 30
0.0
 11
486.8182656376501
 21
516.534137140117
 31
0.0
  0
LINE
  5
1F3
330
2
100
AcDbEntity
  8
OUTLINE
100
AcDbLine
 10
486.8182656376501
 20
518.034137140117
 30
0.0
 11
486.8182656376501
 21
516.534137140117
 31
0.0
  0
LINE
  5
1F4
330
2
100
AcDbEntity
  8
OUTLINE
100
AcDbLine
 10
486.8182656376501
 20
517.3413168170895
 30
0.0
 11
483.8182656376501
 21
517.3413168170895
 31
0.0
  0
LINE
  5
1F5
330
2
100
AcDbEntity
  8
OUTLINE
100
AcDbLine
 10
483.8182656376501
 20
518.034137140117
 30
0.0
 11
486.8182656376501
 21
518.034137140117
 31
0.0
  0
LINE
  5
1F6
330
2
100
AcDbEntity
  8
HID
100
AcDbLine
 10
483.8182656376502
 20
515.8413168170896
 30
0.0
 11
483.8182656376502
 21
516.534137140117
 31
0.0
  0
LINE
  5
1F7
330
2
100
AcDbEntity
  8
OUTLINE
100
AcDbLine
 10
483.8182656376502
 20
516.534137140117
 30
0.0
 11
483.8182656376502
 21
518.034137140117
 31
0.0
  0
LINE
  5
1F8
330
2
100
AcDbEntity
  8
HID
100
AcDbLine
 10
-227.18173436235
 20
515.8413168170897
 30
0.0
 11
-224.18173436235
 21
515.8413168170897
 31
0.0
  0
LINE
  5
2E8
330
2
100
AcDbEntity
  8
OUTLINE
100
AcDbLine
 10
-224.18173436235
 20
516.534137140117
 30
0.0
 11
-227.18173436235
 21
516.534137140117
 31
0.0
  0
LINE
  5
2E9
330
2
100
AcDbEntity
  8
HID
100
AcDbLine
 10
-224.18173436235
 20
515.8413168170897
 30
0.0
 11
-224.18173436235
 21
516.534137140117
 31
0.0
  0
LINE
  5
2EA
330
2
100
AcDbEntity
  8
OUTLINE
100
AcDbLine
 10
-224.18173436235
 20
518.0341371401172
 30
0.0
 11
-224.18173436235
 21
516.534137140117
 31
0.0
  0
LINE
  5
2EB
330
2
100
AcDbEntity
  8
OUTLINE
100
AcDbLine
 10
-224.18173436235
 20
517.3413168170895
 30
0.0
 11
-227.18173436235
 21
517.3413168170895
 31
0.0
  0
LINE
  5
2EC
330
2
100
AcDbEntity
  8
OUTLINE
100
AcDbLine
 10
-227.18173436235
 20
518.0341371401173
 30
0.0
 11
-224.18173436235
 21
518.0341371401173
 31
0.0
  0
LINE
  5
2ED
330
2
100
AcDbEntity
  8
HID
100
AcDbLine
 10
-227.18173436235
 20
515.8413168170897
 30
0.0
 11
-227.18173436235
 21
516.534137140117
 31
0.0
  0
LINE
  5
2EE
330
2
100
AcDbEntity
  8
OUTLINE
100
AcDbLine
 10
-227.18173436235
 20
516.534137140117
 30
0.0
 11
-227.18173436235
 21
518.0341371401173
 31
0.0
  0
LINE
  5
2EF
330
2
100
AcDbEntity
  8
HID
100
AcDbLine
 10
-222.68173436235
 20
434.8413168170901
 30
0.0
 11
-222.68173436235
 21
435.5341371401165
 31
0.0
  0
LINE
  5
2F0
330
2
100
AcDbEntity
  8
HID
100
AcDbLine
 10
-228.68173436235
 20
434.8413168170901
 30
0.0
 11
-228.68173436235
 21
435.5341371401165
 31
0.0
  0
LINE
  5
2F1
330
2
100
AcDbEntity
  8
HID
100
AcDbLine
 10
488.3182656376501
 20
434.8413168170901
 30
0.0
 11
488.3182656376501
 21
435.5341371401163
 31
0.0
  0
LINE
  5
2F2
330
2
100
AcDbEntity
  8
HID
100
AcDbLine
 10
482.3182656376501
 20
434.8413168170901
 30
0.0
 11
482.3182656376501
 21
435.5341371401163
 31
0.0
  0
ELLIPSE
  5
2F3
330
2
100
AcDbEntity
  8
HID
100
AcDbEllipse
 10
-225.68173436235
 20
434.8413168170901
 30
0.0
 11
3.0
 21
0.0
 31
0.0
210
0.0
220
0.0
230
1.0
 40
0.5
 41
2.908548854600858
 42
6.516229106168512
  0
ELLIPSE
  5
2F4
330
2
100
AcDbEntity
  8
OUTLINE
100
AcDbEllipse
 10
-225.68173436235
 20
434.8413168170901
 30
0.0
 11
3.0
 21
0.0
 31
0.0
210
0.0
220
0.0
230
1.0
 40
0.5
 41
0.2330437989889292
 42
2.908548854600858
  0
ELLIPSE
  5
2F5
330
2
100
AcDbEntity
  8
OUTLINE
100
AcDbEllipse
 10
-225.68173436235
 20
435.5341371401165
 30
0.0
 11
-3.0
 21
0.0
 31
0.0
210
0.0
220
0.0
230
1.0
 40
0.5
 41
-0.0000000000000006
 42
6.283185307179584
  0
ELLIPSE
  5
2F6
330
2
100
AcDbEntity
  8
HID
100
AcDbEllipse
 10
485.3182656376501
 20
434.8413168170901
 30
0.0
 11
3.0
 21
0.0
 31
0.0
210
0.0
220
0.0
230
1.0
 40
0.5
 41
2.908548854600828
 42
6.516229106168545
  0
ELLIPSE
  5
2F7
330
2
100
AcDbEntity
  8
OUTLINE
100
AcDbEllipse
 10
485.3182656376501
 20
434.8413168170901
 30
0.0
 11
3.0
 21
0.0
 31
0.0
210
0.0
220
0.0
230
1.0
 40
0.5
 41
0.2330437989889611
 42
2.908548854600828
  0
ELLIPSE
  5
2F8
330
2
100
AcDbEntity
  8
OUTLINE
100
AcDbEllipse
 10
485.3182656376501
 20
435.5341371401163
 30
0.0
 11
-3.0
 21
0.0
 31
0.0
210
0.0
220
0.0
230
1.0
 40
0.5
 41
-0.0000000000000006
 42
6.283185307179584
  0
CIRCLE
  5
2F9
330
2
100
AcDbEntity
  8
OUTLINE
100
AcDbCircle
 10
-25.18173436234986
 20
338.5913168170898
 30
0.0
 40
2.2
  0
CIRCLE
  5
2FA
330
2
100
AcDbEntity
  8
OUTLINE
100
AcDbCircle
 10
284.8182656376502
 20
338.5913168170898
 30
0.0
 40
2.2
  0
CIRCLE
  5
2FB
330
2
100
AcDbEntity
  8
OUTLINE
100
AcDbCircle
 10
187.3182656376501
 20
534.5913168170896
 30
0.0
 40
3.0
  0
CIRCLE
  5
2FC
330
2
100
AcDbEntity
  8
OUTLINE
100
AcDbCircle
 10
420.3182656376501
 20
534.5913168170896
 30
0.0
 40
3.0
  0
CIRCLE
  5
2FD
330
2
100
AcDbEntity
  8
OUTLINE
100
AcDbCircle
 10
-160.6817343623498
 20
534.5913168170896
 30
0.0
 40
3.0
  0
CIRCLE
  5
2FE
330
2
100
AcDbEntity
  8
OUTLINE
100
AcDbCircle
 10
72.3182656376502
 20
534.5913168170896
 30
0.0
 40
3.0
  0
LINE
  5
2FF
330
2
100
AcDbEntity
  8
HID
100
AcDbLine
 10
-226.1817343623499
 20
89.48623606020156
 30
0.0
 11
-234.18173436235
 21
89.48623606020156
 31
0.0
  0
LINE
  5
300
330
2
100
AcDbEntity
  8
HID
100
AcDbLine
 10
-226.1817343623497
 20
88.68623606020156
 30
0.0
 11
-226.1817343623497
 21
89.48623606020156
 31
0.0
  0
LINE
  5
301
330
2
100
AcDbEntity
  8
HID
100
AcDbLine
 10
485.8182656376501
 20
89.48623606020156
 30
0.0
 11
-226.1817343623497
 21
89.48623606020156
 31
0.0
  0
LINE
  5
302
330
2
100
AcDbEntity
  8
HID
100
AcDbLine
 10
485.8182656376501
 20
89.48623606020156
 30
0.0
 11
485.8182656376501
 21
88.68623606020156
 31
0.0
  0
LINE
  5
303
330
2
100
AcDbEntity
  8
HID
100
AcDbLine
 10
493.8182656376501
 20
89.48623606020156
 30
0.0
 11
485.8182656376501
 21
89.48623606020156
 31
0.0
  0
LINE
  5
304
330
2
100
AcDbEntity
  8
OUTLINE
100
AcDbLine
 10
493.8182656376501
 20
87.88623606020161
 30
0.0
 11
493.8182656376501
 21
331.5913168170899
 31
0.0
  0
LINE
  5
305
330
2
100
AcDbEntity
  8
OUTLINE
100
AcDbLine
 10
-234.1817343623497
 20
87.88623606020161
 30
0.0
 11
493.8182656376501
 21
87.88623606020161
 31
0.0
  0
LINE
  5
306
330
2
100
AcDbEntity
  8
OUTLINE
100
AcDbLine
 10
-234.1817343623497
 20
87.88623606020161
 30
0.0
 11
-234.1817343623497
 21
331.59131681709
 31
0.0
  0
LINE
  5
307
330
2
100
AcDbEntity
  8
HID
100
AcDbLine
 10
-234.1817343623497
 20
344.8862360602017
 30
0.0
 11
-231.1817343623498
 21
347.8862360602017
 31
0.0
  0
LINE
  5
308
330
2
100
AcDbEntity
  8
HID
100
AcDbLine
 10
-231.1817343623498
 20
347.8862360602017
 30
0.0
 11
490.8182656376502
 21
347.8862360602017
 31
0.0
  0
LINE
  5
309
330
2
100
AcDbEntity
  8
HID
100
AcDbLine
 10
490.8182656376502
 20
347.8862360602017
 30
0.0
 11
493.8182656376501
 21
344.8862360602015
 31
0.0
  0
LINE
  5
30A
330
2
100
AcDbEntity
  8
OUTLINE
100
AcDbLine
 10
-223.1817343623498
 20
288.8862360602017
 30
0.0
 11
-223.1817343623498
 21
282.785215545768
 31
0.0
  0
LINE
  5
30B
330
2
100
AcDbEntity
  8
OUTLINE
100
AcDbLine
 10
-228.1817343623497
 20
282.785215545768
 30
0.0
 11
-228.1817343623497
 21
288.8862360602016
 31
0.0
  0
LINE
  5
30C
330
2
100
AcDbEntity
  8
HID
100
AcDbLine
 10
493.8182656376501
 20
88.68623606020156
 30
0.0
 11
-234.1817343623497
 21
88.68623606020156
 31
0.0
  0
LINE
  5
30D
330
2
100
AcDbEntity
  8
OUTLINE
100
AcDbLine
 10
487.8182656376501
 20
288.8862360602017
 30
0.0
 11
487.8182656376501
 21
282.785215545768
 31
0.0
  0
LINE
  5
30E
330
2
100
AcDbEntity
  8
OUTLINE
100
AcDbLine
 10
482.8182656376502
 20
282.785215545768
 30
0.0
 11
482.8182656376502
 21
288.8862360602016
 31
0.0
  0
CIRCLE
  5
30F
330
2
100
AcDbEntity
  8
HID
100
AcDbCircle
 10
284.8182656376502
 20
337.8862360602017
 30
0.0
 40
3.0
  0
CIRCLE
  5
310
330
2
100
AcDbEntity
  8
HID
100
AcDbCircle
 10
-25.18173436234974
 20
337.8862360602017
 30
0.0
 40
3.0
  0
CIRCLE
  5
311
330
2
100
AcDbEntity
  8
OUTLINE
100
AcDbCircle
 10
485.3182656376501
 20
138.8862360602016
 30
0.0
 40
2.5
  0
CIRCLE
  5
312
330
2
100
AcDbEntity
  8
OUTLINE
100
AcDbCircle
 10
-225.6817343623497
 20
138.8862360602016
 30
0.0
 40
2.5
  0
ARC
  5
313
330
2
100
AcDbEntity
  8
OUTLINE
100
AcDbCircle
 10
-225.6817343623497
 20
288.8862360602017
 30
0.0
 40
2.5
100
AcDbArc
 50
0.0
 51
180.0
  0
ARC
  5
314
330
2
100
AcDbEntity
  8
OUTLINE
100
AcDbCircle
 10
485.3182656376501
 20
288.8862360602017
 30
0.0
 40
2.5
100
AcDbArc
 50
0.0
 51
180.0
  0
ARC
  5
315
330
2
100
AcDbEntity
  8
OUTLINE
100
AcDbCircle
 10
-225.6817343623497
 20
277.8862360602017
 30
0.0
 40
5.5
100
AcDbArc
 50
117.0356917894122
 51
62.96430821058778
  0
ARC
  5
316
330
2
100
AcDbEntity
  8
OUTLINE
100
AcDbCircle
 10
485.3182656376501
 20
277.8862360602017
 30
0.0
 40
5.5
100
AcDbArc
 50
117.0356917894122
 51
62.96430821058778
  0
MTEXT
  5
4EC
330
2
100
AcDbEntity
  8
ETC
100
AcDbMText
 10
-120.9504176425269
 20
767.1730484153177
 30
0.0
 40
40.0
 41
526.5156068928043
 71
     1
 72
     5
  1
AGJS/AGJT-23B\P正面図
 73
     1
 44
1.0
1001
ACAD
1000
MTEXTBEGIN
1070
    73
1070
     1
1070
    44
1040
1.0
1070
    74
1070
     0
1000
MTEXTEND
  0
DIMENSION
  5
50B
330
2
100
AcDbEntity
  8
SIZE
100
AcDbDimension
  2
*D2
 10
-160.6817343623497
 20
569.1240354349774
 30
0.0
 11
-193.1817343623492
 21
578.4990354349774
 31
0.0
 70
    32
 71
     5
 42
64.99999999999897
  3
ISO-25
100
AcDbAlignedDimension
 13
-225.6817343623487
 23
457.0913168170863
 33
0.0
 14
-160.6817343623497
 24
537.7013168170898
 34
0.0
100
AcDbRotatedDimension
1001
ACAD
1000
DSTYLE
1002
{
1070
    40
1040
5.0
1070
    45
1040
0.5
1070
    90
1070
     1
1070
   271
1070
     1
1070
   272
1070
     1
1070
   341
1005
50
1070
   342
1005
4A
1002
}
  0
DIMENSION
  5
519
330
2
100
AcDbEntity
  8
SIZE
100
AcDbDimension
  2
*D3
 10
72.31826563765022
 20
569.1240354349774
 30
0.0
 11
-44.18173436234972
 21
578.4990354349774
 31
0.0
 70
    32
 71
     5
 42
232.9999999999999
  3
ISO-25
100
AcDbAlignedDimension
 13
-160.6817343623497
 23
537.7013168170898
 33
0.0
 14
72.31826563765022
 24
537.5913168170893
 34
0.0
100
AcDbRotatedDimension
1001
ACAD
1000
DSTYLE
1002
{
1070
   279
1070
     1
1070
    40
1040
5.0
1070
    45
1040
0.5
1070
    90
1070
     1
1070
   271
1070
     1
1070
   272
1070
     1
1070
   341
1005
50
1070
   342
1005
4A
1002
}
  0
DIMENSION
  5
526
330
2
100
AcDbEntity
  8
SIZE
100
AcDbDimension
  2
*D4
 10
187.3182656376501
 20
569.1240354349774
 30
0.0
 11
129.8182656376501
 21
578.4990354349774
 31
0.0
 70
    32
 71
     5
 42
114.9999999999999
  3
ISO-25
100
AcDbAlignedDimension
 13
72.31826563765022
 23
537.5913168170893
 33
0.0
 14
187.3182656376501
 24
537.7013168170896
 34
0.0
100
AcDbRotatedDimension
1001
ACAD
1000
DSTYLE
1002
{
1070
   279
1070
     1
1070
    40
1040
5.0
1070
    45
1040
0.5
1070
    90
1070
     1
1070
   271
1070
     1
1070
   272
1070
     1
1070
   341
1005
50
1070
   342
1005
4A
1002
}
  0
DIMENSION
  5
533
330
2
100
AcDbEntity
  8
SIZE
100
AcDbDimension
  2
*D5
 10
420.3182656376501
 20
569.1240354349774
 30
0.0
 11
303.8182656376501
 21
578.4990354349774
 31
0.0
 70
    32
 71
     5
 42
233.0
  3
ISO-25
100
AcDbAlignedDimension
 13
187.3182656376501
 23
537.7013168170896
 33
0.0
 14
420.3182656376501
 24
536.2518168170894
 34
0.0
100
AcDbRotatedDimension
1001
ACAD
1000
DSTYLE
1002
{
1070
   279
1070
     1
1070
    40
1040
5.0
1070
    45
1040
0.5
1070
    90
1070
     1
1070
   271
1070
     1
1070
   272
1070
     1
1070
   341
1005
50
1070
   342
1005
4A
1002
}
  0
DIMENSION
  5
540
330
2
100
AcDbEntity
  8
SIZE
100
AcDbDimension
  2
*D6
 10
485.3182656376501
 20
569.1240354349774
 30
0.0
 11
452.8182656376501
 21
578.4990354349774
 31
0.0
 70
    32
 71
     5
 42
65.0
  3
ISO-25
100
AcDbAlignedDimension
 13
420.3182656376501
 23
536.2518168170894
 33
0.0
 14
485.3182656376501
 24
434.2013168170892
 34
0.0
100
AcDbRotatedDimension
1001
ACAD
1000
DSTYLE
1002
{
1070
   279
1070
     1
1070
    40
1040
5.0
1070
    45
1040
0.5
1070
    90
1070
     1
1070
   271
1070
     1
1070
   272
1070
     1
1070
   341
1005
50
1070
   342
1005
4A
1002
}
  0
DIMENSION
  5
54D
330
2
100
AcDbEntity
  8
SIZE
100
AcDbDimension
  2
*D7
 10
-213.6817343623497
 20
-394.3277054593138
 30
0.0
 11
-263.0329248385398
 21
-394.3277054593138
 31
0.0
 70
   160
 71
     5
 42
11.99999999999963
  3
ISO-25
100
AcDbAlignedDimension
 13
-225.6817343623493
 23
46.43081681708649
 33
0.0
 14
-213.6817343623497
 24
-332.9086831829136
 34
0.0
100
AcDbRotatedDimension
1001
ACAD
1000
DSTYLE
1002
{
1070
    40
1040
5.0
1070
    45
1040
0.5
1070
    90
1070
     1
1070
   271
1070
     1
1070
   272
1070
     1
1070
   341
1005
50
1070
   342
1005
4A
1002
}
  0
DIMENSION
  5
55C
330
2
100
AcDbEntity
  8
SIZE
100
AcDbDimension
  2
*D8
 10
485.3182656376501
 20
-394.3277054593138
 30
0.0
 11
135.8182656376502
 21
-384.9527054593138
 31
0.0
 70
    32
 71
     5
 42
698.9999999999997
  3
ISO-25
100
AcDbAlignedDimension
 13
-213.6817343623497
 23
-332.9086831829136
 33
0.0
 14
485.3182656376501
 24
-333.0186831829105
 34
0.0
100
AcDbRotatedDimension
1001
ACAD
1000
DSTYLE
1002
{
1070
   279
1070
     1
1070
    40
1040
5.0
1070
    45
1040
0.5
1070
    90
1070
     1
1070
   271
1070
     1
1070
   272
1070
     1
1070
   341
1005
50
1070
   342
1005
4A
1002
}
  0
DIMENSION
  5
574
330
2
100
AcDbEntity
  8
SIZE
100
AcDbDimension
  2
*D9
 10
-290.4861434907173
 20
440.5913168170863
 30
0.0
 11
-299.8611434907174
 21
487.591316817088
 31
0.0
 70
    32
 71
     5
 42
94.00000000000352
  3
ISO-25
100
AcDbAlignedDimension
 13
-163.7917343623497
 23
534.5913168170898
 33
0.0
 14
-232.2917343623487
 24
440.5913168170863
 34
0.0
 50
90.0
100
AcDbRotatedDimension
1001
ACAD
1000
DSTYLE
1002
{
1070
    40
1040
5.0
1070
    45
1040
0.5
1070
    90
1070
     1
1070
   271
1070
     1
1070
   272
1070
     1
1070
   341
1005
50
1070
   342
1005
4A
1002
}
  0
DIMENSION
  5
581
330
2
100
AcDbEntity
  8
SIZE
100
AcDbDimension
  2
*D10
 10
-290.4861434907174
 20
48.09131681708652
 30
0.0
 11
-299.8611434907174
 21
244.3413168170864
 31
0.0
 70
    32
 71
     5
 42
392.4999999999998
  3
ISO-25
100
AcDbAlignedDimension
 13
-232.2917343623487
 23
440.5913168170863
 33
0.0
 14
-228.7917343623493
 24
48.09131681708649
 34
0.0
 50
90.0
100
AcDbRotatedDimension
1001
ACAD
1000
DSTYLE
1002
{
1070
   279
1070
     1
1070
    40
1040
5.0
1070
    45
1040
0.5
1070
    90
1070
     1
1070
   271
1070
     1
1070
   272
1070
     1
1070
   341
1005
50
1070
   342
1005
4A
1002
}
  0
DIMENSION
  5
58E
330
2
100
AcDbEntity
  8
SIZE
100
AcDbDimension
  2
*D11
 10
-290.4861434907174
 20
-126.9086831829134
 30
0.0
 11
-299.8611434907174
 21
-39.40868318291352
 31
0.0
 70
    32
 71
     5
 42
175.0
  3
ISO-25
100
AcDbAlignedDimension
 13
-228.7917343623493
 23
48.09131681708649
 33
0.0
 14
-216.6817343623496
 24
-126.9086831829135
 34
0.0
 50
90.0
100
AcDbRotatedDimension
1001
ACAD
1000
DSTYLE
1002
{
1070
   279
1070
     1
1070
    40
1040
5.0
1070
    45
1040
0.5
1070
    90
1070
     1
1070
   271
1070
     1
1070
   272
1070
     1
1070
   341
1005
50
1070
   342
1005
4A
1002
}
  0
DIMENSION
  5
59B
330
2
100
AcDbEntity
  8
SIZE
100
AcDbDimension
  2
*D12
 10
-290.4861434907175
 20
-329.9086831829135
 30
0.0
 11
-299.8611434907175
 21
-228.4086831829135
 31
0.0
 70
    32
 71
     5
 42
203.0000000000001
  3
ISO-25
100
AcDbAlignedDimension
 13
-216.6817343623496
 23
-126.9086831829135
 33
0.0
 14
-216.7917343623498
 24
-329.9086831829135
 34
0.0
 50
90.0
100
AcDbRotatedDimension
1001
ACAD
1000
DSTYLE
1002
{
1070
   279
1070
     1
1070
    40
1040
5.0
1070
    45
1040
0.5
1070
    90
1070
     1
1070
   271
1070
     1
1070
   272
1070
     1
1070
   341
1005
50
1070
   342
1005
4A
1002
}
  0
DIMENSION
  5
5A8
330
2
100
AcDbEntity
  8
SIZE
100
AcDbDimension
  2
*D13
 10
562.0775661284673
 20
417.5913168170891
 30
0.0
 11
552.7025661284672
 21
476.0913168170894
 31
0.0
 70
    32
 71
     5
 42
117.0000000000004
  3
ISO-25
100
AcDbAlignedDimension
 13
423.3182656376501
 23
534.5913168170896
 33
0.0
 14
491.9282656376502
 24
417.5913168170891
 34
0.0
 50
90.0
100
AcDbRotatedDimension
1001
ACAD
1000
DSTYLE
1002
{
1070
    40
1040
5.0
1070
    45
1040
0.5
1070
    90
1070
     1
1070
   271
1070
     1
1070
   272
1070
     1
1070
   341
1005
50
1070
   342
1005
4A
1002
}
  0
DIMENSION
  5
5B5
330
2
100
AcDbEntity
  8
SIZE
100
AcDbDimension
  2
*D14
 10
562.0775661284672
 20
25.09131681708949
 30
0.0
 11
552.7025661284672
 21
221.3413168170894
 31
0.0
 70
    32
 71
     5
 42
392.4999999999997
  3
ISO-25
100
AcDbAlignedDimension
 13
491.9282656376502
 23
417.5913168170891
 33
0.0
 14
488.4282656376502
 24
25.09131681708951
 34
0.0
 50
90.0
100
AcDbRotatedDimension
1001
ACAD
1000
DSTYLE
1002
{
1070
   279
1070
     1
1070
    40
1040
5.0
1070
    45
1040
0.5
1070
    90
1070
     1
1070
   271
1070
     1
1070
   272
1070
     1
1070
   341
1005
50
1070
   342
1005
4A
1002
}
  0
DIMENSION
  5
5C2
330
2
100
AcDbEntity
  8
SIZE
100
AcDbDimension
  2
*D15
 10
562.0775661284672
 20
-126.9086831829105
 30
0.0
 11
552.7025661284672
 21
-50.90868318291041
 31
0.0
 70
    32
 71
     5
 42
152.0
  3
ISO-25
100
AcDbAlignedDimension
 13
488.4282656376502
 23
25.09131681708951
 33
0.0
 14
488.4282656376502
 24
-126.9086831829105
 34
0.0
 50
90.0
100
AcDbRotatedDimension
1001
ACAD
1000
DSTYLE
1002
{
1070
   279
1070
     1
1070
    40
1040
5.0
1070
    45
1040
0.5
1070
    90
1070
     1
1070
   271
1070
     1
1070
   272
1070
     1
1070
   341
1005
50
1070
   342
1005
4A
1002
}
  0
DIMENSION
  5
5CF
330
2
100
AcDbEntity
  8
SIZE
100
AcDbDimension
  2
*D16
 10
562.0775661284667
 20
-329.9086831829105
 30
0.0
 11
552.7025661284668
 21
-228.4086831829104
 31
0.0
 70
    32
 71
     5
 42
203.0
  3
ISO-25
100
AcDbAlignedDimension
 13
488.4282656376502
 23
-126.9086831829105
 33
0.0
 14
488.4282656376502
 24
-329.9086831829105
 34
0.0
 50
90.0
100
AcDbRotatedDimension
1001
ACAD
1000
DSTYLE
1002
{
1070
   279
1070
     1
1070
    40
1040
5.0
1070
    45
1040
0.5
1070
    90
1070
     1
1070
   271
1070
     1
1070
   272
1070
     1
1070
   341
1005
50
1070
   342
1005
4A
1002
}
  0
DIMENSION
  5
5DC
330
2
100
AcDbEntity
  8
SIZE
100
AcDbDimension
  2
*D17
 10
494.8182656376501
 20
596.4878103440802
 30
0.0
 11
129.8182656376507
 21
605.8628103440802
 31
0.0
 70
    32
 71
     5
 42
729.9999999999989
  3
ISO-25
100
AcDbAlignedDimension
 13
-235.1817343623487
 23
522.0913168170864
 33
0.0
 14
494.8182656376501
 24
521.6294366017375
 34
0.0
100
AcDbRotatedDimension
1001
ACAD
1000
DSTYLE
1002
{
1070
    40
1040
5.0
1070
    45
1040
0.5
1070
    90
1070
     1
1070
   271
1070
     1
1070
   272
1070
     1
1070
   341
1005
50
1070
   342
1005
4A
1002
}
  0
DIMENSION
  5
5E9
330
2
100
AcDbEntity
  8
SIZE
100
AcDbDimension
  2
*D18
 10
-327.9756689173961
 20
-339.4086831829134
 30
0.0
 11
-337.3506689173961
 21
99.84131681708809
 31
0.0
 70
    32
 71
     5
 42
878.500000000003
  3
ISO-25
100
AcDbAlignedDimension
 13
-231.1817343623498
 23
539.0913168170896
 33
0.0
 14
-234.3817343623499
 24
-339.4086831829134
 34
0.0
 50
90.0
100
AcDbRotatedDimension
1001
ACAD
1000
DSTYLE
1002
{
1070
    40
1040
5.0
1070
    45
1040
0.5
1070
    90
1070
     1
1070
   271
1070
     1
1070
   272
1070
     1
1070
   341
1005
50
1070
   342
1005
4A
1002
}
  0
MULTILEADER
  5
5F6
330
2
100
AcDbEntity
  8
NOTE
 92
      588
310
4C020000110000000C00000010000000090000000C00000016000000000000C00C00000013000000112700003C00000006000000020000005FDECA0C76B768C030B4498D08C779400000000000000000738C12EEF0AB68C030B4498D08C7794000000000000000000C00000013000000010000000C00000014000000010000
310
005400000007000000030000005168FE5A66C06AC0CE9FC42B47A07A400000000000000000D0CC375353A16BC01914BE3D263F7B40000000000000000073C1059B81656AC0CB93CD0F57CD7A4000000000000000000C00000013000000891300003C0000000600000002000000E21402FBF3926AC0CD19C91DCFB67A400000
310
0000000000005FDECA0C76B768C030B4498D08C7794000000000000000000C000000130000009A3A00003C0000000600000002000000738C12EEF0AB68C030B4498D08C77940000000000000000098D5A4123A7E60C030B4498D08C7794000000000000000000C00000016000000000000C00C00000012000000FF7F00000C
310
00000017000000FFFFFFFF0C00000016000000000000C00C00000013000000993A0000AC0000000B000000DF67C95BCCA268C0951AB0F36EED7940000000000000000000000000000000000000000000000000000000000000F03F000000000000F03F00000000000000000000000000000000322D52362E35000006000000
310
010000000000000000002840000000000000F03F0000000000000000000000000000F03F0000000000000000000000000000000000000000726F6D616E732E7368780000626967666F6E742E73687800
100
AcDbMLeader
300
CONTEXT_DATA{
 40
1.0
 10
-197.3731603967932
 20
412.4395878676469
 30
0.0
 41
12.0
140
12.0
145
2.0
174
     6
175
     6
176
     0
177
     0
290
     1
304
2-R6.5
 11
0.0
 21
0.0
 31
1.0
340
24
 12
-195.3731603967931
 22
426.8395878676468
 32
0.0
 13
1.0
 23
0.0
 33
0.0
 42
0.0
 43
0.0
 44
0.0
 45
1.0
170
     1
 90
-1073741824
171
     1
172
     5
 91
-1073741824
141
0.0
 92
 11460680
291
     0
292
     0
173
     0
293
     0
142
0.0
143
0.0
294
     0
295
     0
296
     0
110
-220.6924550692193
120
435.6918691735288
130
0.0
111
1.0
121
0.0
131
0.0
112
0.0
122
1.0
132
0.0
297
     0
302
LEADER{
290
     1
291
     1
 10
-197.7331603967932
 20
412.4395878676469
 30
0.0
 11
1.0
 21
0.0
 31
0.0
 90
        0
 40
0.36
304
LEADER_LINE{
 10
-221.0414215173573
 20
435.9468362259809
 30
0.0
 91
        0
305
}
303
}
301
}
340
4E1
 90
   349184
170
     1
 91
-1056964608
341
27
171
    -2
290
     1
291
     1
 41
0.36
 42
12.0
172
     2
343
24
173
     6
 95
        6
174
     1
175
     0
 92
-1056964608
292
     0
 93
-1056964608
 10
1.0
 20
1.0
 30
1.0
 43
0.0
176
     0
293
     0
294
     0
178
     0
179
     1
 45
1.0
1001
ACAD_MLEADERVER
1070
     2
  0
MULTILEADER
  5
5F7
330
2
100
AcDbEntity
  8
NOTE
 92
      588
310
4C020000110000000C00000010000000090000000C00000016000000000000C00C00000013000000112700003C00000006000000020000005F15DC4B8E9E68C01AD0D72B1ADD7D40000000000000000073C3232D099368C01AD0D72B1ADD7D4000000000000000000C00000013000000010000000C00000014000000010000
310
005400000007000000030000009A729A39D4A26AC05EFE048989E37C4000000000000000001E1D9878CCF56BC07C999275D0837C400000000000000000C5E66E043EF36AC01C919DC254157D4000000000000000000C00000013000000891300003C0000000600000002000000AFAC041F09CB6AC0BD47D1256FFC7C400000
310
0000000000005F15DC4B8E9E68C01AD0D72B1ADD7D4000000000000000000C000000130000009A3A00003C000000060000000200000074C3232D099368C01AD0D72B1ADD7D400000000000000000E29EDA9AE48962C01AD0D72B1ADD7D4000000000000000000C00000016000000000000C00C00000012000000FF7F00000C
310
00000017000000FFFFFFFF0C00000016000000000000C00C00000013000000993A0000AC0000000B000000E29EDA9AE48968C07F363E9280037E40000000000000000000000000000000000000000000000000000000000000F03F000000000000F03F00000000000000000000000000000000322D52330035000004000000
310
010000000000000000002840000000000000F03F0000000000000000000000000000F03F0000000000000000000000000000000000000000726F6D616E732E7368780000626967666F6E742E73687800
100
AcDbMLeader
300
CONTEXT_DATA{
 40
1.0
 10
-196.5948701570993
 20
477.8188894682113
 30
0.0
 41
12.0
140
12.0
145
2.0
174
     6
175
     6
176
     0
177
     0
290
     1
304
2-R3
 11
0.0
 21
0.0
 31
1.0
340
24
 12
-194.5948701570993
 22
492.2188894682112
 32
0.0
 13
1.0
 23
0.0
 33
0.0
 42
0.0
 43
0.0
 44
0.0
 45
1.0
170
     1
 90
-1073741824
171
     1
172
     5
 91
-1073741824
141
0.0
 92
 11460680
291
     0
292
     0
173
     0
293
     0
142
0.0
143
0.0
294
     0
295
     0
296
     0
110
-223.0670077341447
120
456.7107077935448
130
0.0
111
1.0
121
0.0
131
0.0
112
0.0
122
1.0
132
0.0
297
     0
302
LEADER{
290
     1
291
     1
 10
-196.9548701570993
 20
477.8188894682113
 30
0.0
 11
1.0
 21
0.0
 31
0.0
 90
        0
 40
0.36
304
LEADER_LINE{
 10
-223.6812098475429
 20
456.2383933760209
 30
0.0
 91
        0
305
}
303
}
301
}
340
4E1
 90
   349184
170
     1
 91
-1056964608
341
27
171
    -2
290
     1
291
     1
 41
0.36
 42
12.0
172
     2
343
24
173
     6
 95
        6
174
     1
175
     0
 92
-1056964608
292
     0
 93
-1056964608
 10
1.0
 20
1.0
 30
1.0
 43
0.0
176
     0
293
     0
294
     0
178
     0
179
     1
 45
1.0
1001
ACAD_MLEADERVER
1070
     2
  0
MULTILEADER
  5
5F8
330
2
100
AcDbEntity
  8
NOTE
 92
      592
310
50020000110000000C00000010000000090000000C00000016000000000000C00C00000013000000112700003C0000000600000002000000892E22F7E2B767C00B029F8BA40173C000000000000000009DDC69D85DAC67C00B029F8BA40173C000000000000000000C00000013000000010000000C00000014000000010000
310
00540000000700000003000000D20A63344B3A69C0734D48466B0774C000000000000000004E3D7FC21C6B6AC0EF8D17BE7E8074C00000000000000000763030674E9969C0815D7F9D88DC73C000000000000000000C00000013000000891300003C0000000600000002000000A49DC9CDCC6969C07AD5E3F1F9F173C00000
310
000000000000892E22F7E2B767C00B029F8BA40173C000000000000000000C000000130000009A3A00003C00000006000000020000009BDC69D85DAC67C00B029F8BA40173C00000000000000000E46E8E21F09060C00B029F8BA40173C000000000000000000C00000016000000000000C00C00000012000000FF7F00000C
310
00000017000000FFFFFFFF0C00000016000000000000C00C00000013000000993A0000B00000000B0000007693D7B314DA67C0A59B38253EDB72C0000000000000000000000000000000000000000000000000000000000000F03F000000000000F03F0000000000000000000000000000000031302D5C552B323230353600
310
0B000000010000000000000000002840000000000000F03F0000000000000000000000000000F03F0000000000000000000000000000000000000000726F6D616E732E7368780066626967666F6E742E73687800
100
AcDbMLeader
300
CONTEXT_DATA{
 40
1.0
 10
-189.3864557330715
 20
-304.1026722155809
 30
0.0
 41
12.0
140
12.0
145
2.0
174
     6
175
     6
176
     0
177
     0
290
     1
304
10-%%C6
 11
0.0
 21
0.0
 31
1.0
340
24
 12
-187.3864557330715
 22
-289.7026722155809
 32
0.0
 13
1.0
 23
0.0
 33
0.0
 42
0.0
 43
0.0
 44
0.0
 45
1.0
170
     1
 90
-1073741824
171
     1
172
     5
 91
-1073741824
141
0.0
 92
 11460680
291
     0
292
     0
173
     0
293
     0
142
0.0
143
0.0
294
     0
295
     0
296
     0
110
-211.194600940926
120
-327.8771784054886
130
0.0
111
1.0
121
0.0
131
0.0
112
0.0
122
1.0
132
0.0
297
     0
302
LEADER{
290
     1
291
     1
 10
-189.7464557330716
 20
-304.1026722155809
 30
0.0
 11
1.0
 21
0.0
 31
0.0
 90
        0
 40
0.36
304
LEADER_LINE{
 10
-211.3472607121607
 20
-328.0309430046172
 30
0.0
 91
        0
305
}
303
}
301
}
340
4E1
 90
   349184
170
     1
 91
-1056964608
341
27
171
    -2
290
     1
291
     1
 41
0.36
 42
12.0
172
     2
343
24
173
     6
 95
        6
174
     1
175
     0
 92
-1056964608
292
     0
 93
-1056964608
 10
1.0
 20
1.0
 30
1.0
 43
0.0
176
     0
293
     0
294
     0
178
     0
179
     1
 45
1.0
1001
ACAD_MLEADERVER
1070
     2
  0
DIMENSION
  5
60B
330
2
100
AcDbEntity
  8
SIZE
100
AcDbDimension
  2
*D19
 10
-264.9263978524998
 20
440.5913168170863
 30
0.0
 11
-274.3013978524999
 21
394.3115549123244
 31
0.0
 70
    32
 71
     5
 42
13.50000000000006
  3
ISO-25
100
AcDbAlignedDimension
 13
-228.6817343623488
 23
454.0913168170864
 33
0.0
 14
-232.2917343623487
 24
440.5913168170863
 34
0.0
 50
90.0
100
AcDbRotatedDimension
1001
ACAD
1000
DSTYLE
1002
{
1070
    40
1040
5.0
1070
    45
1040
0.5
1070
    90
1070
     1
1070
   271
1070
     1
1070
   272
1070
     1
1070
   341
1005
50
1070
   342
1005
4A
1002
}
  0
LINE
  5
B94
330
2
100
AcDbEntity
  8
BASIS
  6
DASHDOT
 62
     6
100
AcDbLine
 10
129.8182656376502
 20
-366.8522361077207
 30
0.0
 11
129.8182656376502
 21
554.7799234878671
 31
0.0
  0
LINE
  5
B95
330
2
100
AcDbEntity
  8
ARRANGE
  6
Continuous
 62
     1
100
AcDbLine
 10
113.1341480732462
 20
-356.0928007473139
 30
0.0
 11
146.5023832020542
 21
-322.7245656185069
 31
0.0
  0
LINE
  5
B96
330
2
100
AcDbEntity
  8
ARRANGE
  6
Continuous
 62
     1
100
AcDbLine
 10
113.1341480732462
 20
-322.7245656185069
 30
0.0
 11
146.5023832020542
 21
-356.0928007473139
 31
0.0
  0
CIRCLE
  5
B97
330
2
100
AcDbEntity
  8
ARRANGE
100
AcDbCircle
 10
129.8182656376502
 20
-339.4086831829104
 30
0.0
 40
15.0
  0
ENDSEC
  0
SECTION
  2
OBJECTS
  0
DICTIONARY
  5
B
330
0
100
AcDbDictionary
281
     1
  3
ACAD_2007HEADERVARS_RT
350
C4E
  3
ACAD_BACKGROUND
350
4E7
  3
ACAD_COLOR
350
47
  3
ACAD_GROUP
350
34
  3
ACAD_LAYOUT
350
18
  3
ACAD_MATERIAL
350
D
  3
ACAD_MLEADERSTYLE
350
4E0
  3
ACAD_MLINESTYLE
350
35
  3
ACAD_PLOTSETTINGS
350
36
  3
ACAD_PLOTSTYLENAME
350
A
  3
ACAD_SCALELIST
350
48
  3
ACAD_TABLESTYLE
350
49
  3
ACAD_VISUALSTYLE
350
2E
  3
ACDB_RECOMPOSE_DATA
350
4CB
  3
AcDbVariableDictionary
350
4CC
  3
DWGPROPS
350
C4D
  0
DICTIONARY
  5
4F8
330
2B
100
AcDbDictionary
280
     1
281
     1
  0
DICTIONARY
  5
21
330
20
100
AcDbDictionary
280
     1
281
     1
  3
ACAD_LAYERFILTERS
360
C4B
  3
ACAD_LAYERSTATES
360
22
  3
ACLYDICTIONARY
360
C4A
  0
DICTIONARY
  5
7
330
6
100
AcDbDictionary
280
     1
281
     1
  3
ADSK_XREC_LAYER_RECONCILED
360
8
  0
DICTIONARY
  5
152
330
151
100
AcDbDictionary
280
     1
281
     1
  3
ADSK_XREC_LAYER_RECONCILED
360
153
  0
DICTIONARY
  5
3
330
2
100
AcDbDictionary
280
     1
281
     1
  3
ACAD_LAYOUTSELFREF
360
4
  0
DICTIONARY
  5
C4E
102
{ACAD_REACTORS
330
B
102
}
330
B
100
AcDbDictionary
281
     1
  3
DIMARCSYM
350
C4F
  0
DICTIONARY
  5
4E7
102
{ACAD_REACTORS
330
B
102
}
330
B
100
AcDbDictionary
281
     1
  0
DICTIONARY
  5
47
102
{ACAD_REACTORS
330
B
102
}
330
B
100
AcDbDictionary
281
     1
  0
DICTIONARY
  5
34
102
{ACAD_REACTORS
330
B
102
}
330
B
100
AcDbDictionary
281
     1
  0
DICTIONARY
  5
18
102
{ACAD_REACTORS
330
B
102
}
330
B
100
AcDbDictionary
281
     1
  3
Model
350
17
  3
レイアウト1
350
1C
  0
DICTIONARY
  5
D
102
{ACAD_REACTORS
330
B
102
}
330
B
100
AcDbDictionary
281
     1
  3
ByBlock
350
3F
  3
ByLayer
350
37
  3
Global
350
C
  0
DICTIONARY
  5
4E0
102
{ACAD_REACTORS
330
B
102
}
330
B
100
AcDbDictionary
281
     1
  3
Standard
350
4E1
  0
DICTIONARY
  5
35
102
{ACAD_REACTORS
330
B
102
}
330
B
100
AcDbDictionary
281
     1
  3
Standard
350
57
  0
DICTIONARY
  5
36
102
{ACAD_REACTORS
330
B
102
}
330
B
100
AcDbDictionary
281
     1
  0
ACDBDICTIONARYWDFLT
  5
A
102
{ACAD_REACTORS
330
B
102
}
330
B
100
AcDbDictionary
281
     1
  3
Normal
350
9
100
AcDbDictionaryWithDefault
340
9
  0
DICTIONARY
  5
48
102
{ACAD_REACTORS
330
B
102
}
330
B
100
AcDbDictionary
281
     1
  3
A0
350
5A
  3
A1
350
5B
  3
A2
350
5C
  3
A3
350
5D
  3
A4
350
5E
  3
A5
350
5F
  3
A6
350
60
  3
A7
350
61
  3
A8
350
62
  3
A9
350
63
  3
B0
350
64
  3
B1
350
65
  3
B2
350
66
  3
B3
350
67
  3
B4
350
68
  3
B5
350
69
  3
B6
350
6A
  3
B7
350
6B
  3
B8
350
6C
  3
B9
350
6D
  3
C0
350
6E
  3
C1
350
6F
  3
C2
350
70
  3
C3
350
71
  3
C4
350
72
  3
C5
350
73
  3
C6
350
74
  3
C7
350
75
  3
C8
350
76
  3
C9
350
77
  3
D0
350
78
  3
D1
350
79
  3
D2
350
7A
  0
DICTIONARY
  5
49
102
{ACAD_REACTORS
330
B
102
}
330
B
100
AcDbDictionary
281
     1
  3
Standard
350
58
  0
DICTIONARY
  5
2E
102
{ACAD_REACTORS
330
B
102
}
330
B
100
AcDbDictionary
281
     1
  3
2dWireframe
350
4D7
  3
3D Hidden
350
4D8
  3
3dWireframe
350
59
  3
Basic
350
4D6
  3
Brighten
350
4DB
  3
ColorChange
350
4DF
  3
Conceptual
350
4D9
  3
Dim
350
4DA
  3
Facepattern
350
4DE
  3
Flat
350
4D2
  3
FlatWithEdges
350
4D3
  3
Gouraud
350
4D4
  3
GouraudWithEdges
350
4D5
  3
Linepattern
350
4DD
  3
Realistic
350
2D
  3
Thicken
350
4DC
  0
XRECORD
  5
4CB
102
{ACAD_REACTORS
330
B
102
}
330
B
100
AcDbXrecord
280
     1
 90
        1
330
58
  0
DICTIONARY
  5
4CC
102
{ACAD_REACTORS
330
B
102
}
330
B
100
AcDbDictionary
281
     1
  3
CANNOSCALE
350
4CF
  3
CMLEADERSTYLE
350
4CE
  3
CTABLESTYLE
350
4CD
  3
DIMASSOC
350
504
  3
HIDETEXT
350
503
  3
INDEXCTL
350
502
  3
LIGHTINGUNITS
350
4D0
  3
MSLTSCALE
350
500
  3
SORTENTS
350
501
  0
XRECORD
  5
C4D
102
{ACAD_REACTORS
330
B
102
}
330
B
100
AcDbXrecord
280
     1
  1
DWGPROPS COOKIE
  2

  3

  4

  6

  7

  8
W000135
  9

300
=
301
=
302
=
303
=
304
=
305
=
306
=
307
=
308
=
309
=
 40
1.884778506944444
 41
2451686.550481944
 42
2454985.60935801
  1

 90
        0
  0
DICTIONARY
  5
C4B
102
{ACAD_REACTORS
330
21
102
}
330
21
100
AcDbDictionary
281
     1
  0
DICTIONARY
  5
22
102
{ACAD_REACTORS
330
21
102
}
330
21
100
AcDbDictionary
281
     1
  0
DICTIONARY
  5
C4A
102
{ACAD_REACTORS
330
21
102
}
330
21
100
AcDbDictionary
281
     1
1001
ACAD
1000
<All
  0
XRECORD
  5
8
102
{ACAD_REACTORS
330
7
102
}
330
7
100
AcDbXrecord
280
     1
290
     1
  0
XRECORD
  5
153
102
{ACAD_REACTORS
330
152
102
}
330
152
100
AcDbXrecord
280
     1
290
     1
  0
XRECORD
  5
4
102
{ACAD_REACTORS
330
3
102
}
330
3
100
AcDbXrecord
280
     1
340
2
  0
XRECORD
  5
C4F
102
{ACAD_REACTORS
330
C4E
102
}
330
C4E
100
AcDbXrecord
280
     1
 70
     1
  0
LAYOUT
  5
17
102
{ACAD_XDICTIONARY
360
C50
102
}
102
{ACAD_REACTORS
330
18
102
}
330
18
100
AcDbPlotSettings
  1

  2
\\ENGC3\QUE_LP1
  4

  6

 40
0.0
 41
0.0
 42
0.0
 43
0.0
 44
0.0
 45
0.0
 46
0.0
 47
0.0
 48
0.0
 49
0.0
140
0.0
141
0.0
142
1.0
143
1.0
 70
  1712
 72
     0
 73
     0
 74
     0
  7

 75
     0
147
1.0
148
0.0
149
0.0
100
AcDbLayout
  1
Model
 70
     1
 71
     0
 10
0.0
 20
0.0
 11
12.0
 21
9.0
 12
0.0
 22
0.0
 32
0.0
 14
0.0
 24
0.0
 34
0.0
 15
0.0
 25
0.0
 35
0.0
146
0.0
 13
0.0
 23
0.0
 33
0.0
 16
1.0
 26
0.0
 36
0.0
 17
0.0
 27
1.0
 37
0.0
 76
     0
330
2
331
628
  0
LAYOUT
  5
1C
102
{ACAD_XDICTIONARY
360
1D
102
}
102
{ACAD_REACTORS
330
18
102
}
330
18
100
AcDbPlotSettings
  1

  2
Microsoft XPS Document Writer
  4
A4
  6

 40
3.174999952316281
 41
3.174999952316281
 42
3.175003051757812
 43
3.17498779296875
 44
210.0156707763672
 45
297.0106506347656
 46
0.0
 47
0.0
 48
0.0
 49
0.0
140
0.0
141
0.0
142
1.0
143
1.0
 70
   688
 72
     1
 73
     1
 74
     5
  7

 75
    16
147
1.0
148
0.0
149
0.0
100
AcDbLayout
  1
レイアウト1
 70
     1
 71
     1
 10
0.0
 20
0.0
 11
12.0
 21
9.0
 12
0.0
 22
0.0
 32
0.0
 14
-815.9135211830465
 24
-980.133112773913
 34
0.0
 15
2204.729934292723
 25
1154.006057895479
 35
0.0
146
0.0
 13
0.0
 23
0.0
 33
0.0
 16
1.0
 26
0.0
 36
0.0
 17
0.0
 27
1.0
 37
0.0
 76
     0
330
19
1001
ACAD_PSEXT
1000
Microsoft XPS Document Writer
1000
Microsoft XPS Document Writer
1000
XPSPort:
1000

1070
     0
  0
MATERIAL
  5
3F
102
{ACAD_XDICTIONARY
360
40
102
}
102
{ACAD_REACTORS
330
D
102
}
330
D
100
AcDbMaterial
  1
ByBlock
 72
     0
 43
0.0008202099737533
 43
0.0
 43
0.0
 43
0.0
 43
0.0
 43
0.0008202099737533
 43
0.0
 43
0.0
 43
0.0
 43
0.0
 43
1.0
 43
0.0
 43
0.0
 43
0.0
 43
0.0
 43
1.0
 77
     0
 47
0.0008202099737533
 47
0.0
 47
0.0
 47
0.0
 47
0.0
 47
0.0008202099737533
 47
0.0
 47
0.0
 47
0.0
 47
0.0
 47
1.0
 47
0.0
 47
0.0
 47
0.0
 47
0.0
 47
1.0
171
     0
 49
0.0008202099737533
 49
0.0
 49
0.0
 49
0.0
 49
0.0
 49
0.0008202099737533
 49
0.0
 49
0.0
 49
0.0
 49
0.0
 49
1.0
 49
0.0
 49
0.0
 49
0.0
 49
0.0
 49
1.0
175
     0
142
0.0008202099737533
142
0.0
142
0.0
142
0.0
142
0.0
142
0.0008202099737533
142
0.0
142
0.0
142
0.0
142
0.0
142
1.0
142
0.0
142
0.0
142
0.0
142
0.0
142
1.0
179
     0
144
0.0008202099737533
144
0.0
144
0.0
144
0.0
144
0.0
144
0.0008202099737533
144
0.0
144
0.0
144
0.0
144
0.0
144
1.0
144
0.0
144
0.0
144
0.0
144
0.0
144
1.0
147
0.0008202099737533
147
0.0
147
0.0
147
0.0
147
0.0
147
0.0008202099737533
147
0.0
147
0.0
147
0.0
147
0.0
147
1.0
147
0.0
147
0.0
147
0.0
147
0.0
147
1.0
  0
MATERIAL
  5
37
102
{ACAD_XDICTIONARY
360
38
102
}
102
{ACAD_REACTORS
330
D
102
}
330
D
100
AcDbMaterial
  1
ByLayer
 72
     0
 43
0.0008202099737533
 43
0.0
 43
0.0
 43
0.0
 43
0.0
 43
0.0008202099737533
 43
0.0
 43
0.0
 43
0.0
 43
0.0
 43
1.0
 43
0.0
 43
0.0
 43
0.0
 43
0.0
 43
1.0
 77
     0
 47
0.0008202099737533
 47
0.0
 47
0.0
 47
0.0
 47
0.0
 47
0.0008202099737533
 47
0.0
 47
0.0
 47
0.0
 47
0.0
 47
1.0
 47
0.0
 47
0.0
 47
0.0
 47
0.0
 47
1.0
171
     0
 49
0.0008202099737533
 49
0.0
 49
0.0
 49
0.0
 49
0.0
 49
0.0008202099737533
 49
0.0
 49
0.0
 49
0.0
 49
0.0
 49
1.0
 49
0.0
 49
0.0
 49
0.0
 49
0.0
 49
1.0
175
     0
142
0.0008202099737533
142
0.0
142
0.0
142
0.0
142
0.0
142
0.0008202099737533
142
0.0
142
0.0
142
0.0
142
0.0
142
1.0
142
0.0
142
0.0
142
0.0
142
0.0
142
1.0
179
     0
144
0.0008202099737533
144
0.0
144
0.0
144
0.0
144
0.0
144
0.0008202099737533
144
0.0
144
0.0
144
0.0
144
0.0
144
1.0
144
0.0
144
0.0
144
0.0
144
0.0
144
1.0
147
0.0008202099737533
147
0.0
147
0.0
147
0.0
147
0.0
147
0.0008202099737533
147
0.0
147
0.0
147
0.0
147
0.0
147
1.0
147
0.0
147
0.0
147
0.0
147
0.0
147
1.0
  0
MATERIAL
  5
C
102
{ACAD_XDICTIONARY
360
E
102
}
102
{ACAD_REACTORS
330
D
102
}
330
D
100
AcDbMaterial
  1
Global
 72
     0
 43
0.0008202099737533
 43
0.0
 43
0.0
 43
0.0
 43
0.0
 43
0.0008202099737533
 43
0.0
 43
0.0
 43
0.0
 43
0.0
 43
1.0
 43
0.0
 43
0.0
 43
0.0
 43
0.0
 43
1.0
 77
     0
 47
0.0008202099737533
 47
0.0
 47
0.0
 47
0.0
 47
0.0
 47
0.0008202099737533
 47
0.0
 47
0.0
 47
0.0
 47
0.0
 47
1.0
 47
0.0
 47
0.0
 47
0.0
 47
0.0
 47
1.0
171
     0
 49
0.0008202099737533
 49
0.0
 49
0.0
 49
0.0
 49
0.0
 49
0.0008202099737533
 49
0.0
 49
0.0
 49
0.0
 49
0.0
 49
1.0
 49
0.0
 49
0.0
 49
0.0
 49
0.0
 49
1.0
175
     0
142
0.0008202099737533
142
0.0
142
0.0
142
0.0
142
0.0
142
0.0008202099737533
142
0.0
142
0.0
142
0.0
142
0.0
142
1.0
142
0.0
142
0.0
142
0.0
142
0.0
142
1.0
179
     0
144
0.0008202099737533
144
0.0
144
0.0
144
0.0
144
0.0
144
0.0008202099737533
144
0.0
144
0.0
144
0.0
144
0.0
144
1.0
144
0.0
144
0.0
144
0.0
144
0.0
144
1.0
147
0.0008202099737533
147
0.0
147
0.0
147
0.0
147
0.0
147
0.0008202099737533
147
0.0
147
0.0
147
0.0
147
0.0
147
1.0
147
0.0
147
0.0
147
0.0
147
0.0
147
1.0
  0
MLEADERSTYLE
  5
4E1
102
{ACAD_REACTORS
330
4E0
330
5F6
330
5F7
330
5F8
102
}
330
4E0
100
AcDbMLeaderStyle
170
     2
171
     1
172
     0
 90
        2
 40
0.0
 41
0.0
173
     1
 91
-1056964608
340
27
 92
       -2
290
     1
 42
2.0
291
     1
 43
0.36
  3
Standard
 44
4.0
300

342
24
174
     1
178
     6
175
     1
176
     0
 93
-1056964608
 45
4.0
292
     0
297
     0
 46
4.0
 94
-1056964608
 47
1.0
 49
1.0
140
1.0
293
     1
141
0.0
294
     1
177
     0
142
1.0
295
     0
296
     0
143
0.125
1001
ACAD_MLEADERVER
1070
     2
  0
MLINESTYLE
  5
57
102
{ACAD_REACTORS
330
35
102
}
330
35
100
AcDbMlineStyle
  2
STANDARD
 70
     0
  3

 62
   256
 51
90.0
 52
90.0
 71
     2
 49
0.5
 62
   256
  6
BYLAYER
 49
-0.5
 62
   256
  6
BYLAYER
  0
ACDBPLACEHOLDER
  5
9
102
{ACAD_REACTORS
330
A
102
}
330
A
  0
SCALE
  5
5A
102
{ACAD_REACTORS
330
48
102
}
330
48
100
AcDbScale
 70
     0
300
1:1
140
1.0
141
1.0
290
     1
  0
SCALE
  5
5B
102
{ACAD_REACTORS
330
48
102
}
330
48
100
AcDbScale
 70
     0
300
1:2
140
1.0
141
2.0
290
     0
  0
SCALE
  5
5C
102
{ACAD_REACTORS
330
48
102
}
330
48
100
AcDbScale
 70
     0
300
1:4
140
1.0
141
4.0
290
     0
  0
SCALE
  5
5D
102
{ACAD_REACTORS
330
48
102
}
330
48
100
AcDbScale
 70
     0
300
1:5
140
1.0
141
5.0
290
     0
  0
SCALE
  5
5E
102
{ACAD_REACTORS
330
48
102
}
330
48
100
AcDbScale
 70
     0
300
1:8
140
1.0
141
8.0
290
     0
  0
SCALE
  5
5F
102
{ACAD_REACTORS
330
48
102
}
330
48
100
AcDbScale
 70
     0
300
1:10
140
1.0
141
10.0
290
     0
  0
SCALE
  5
60
102
{ACAD_REACTORS
330
48
102
}
330
48
100
AcDbScale
 70
     0
300
1:16
140
1.0
141
16.0
290
     0
  0
SCALE
  5
61
102
{ACAD_REACTORS
330
48
102
}
330
48
100
AcDbScale
 70
     0
300
1:20
140
1.0
141
20.0
290
     0
  0
SCALE
  5
62
102
{ACAD_REACTORS
330
48
102
}
330
48
100
AcDbScale
 70
     0
300
1:30
140
1.0
141
30.0
290
     0
  0
SCALE
  5
63
102
{ACAD_REACTORS
330
48
102
}
330
48
100
AcDbScale
 70
     0
300
1:40
140
1.0
141
40.0
290
     0
  0
SCALE
  5
64
102
{ACAD_REACTORS
330
48
102
}
330
48
100
AcDbScale
 70
     0
300
1:50
140
1.0
141
50.0
290
     0
  0
SCALE
  5
65
102
{ACAD_REACTORS
330
48
102
}
330
48
100
AcDbScale
 70
     0
300
1:100
140
1.0
141
100.0
290
     0
  0
SCALE
  5
66
102
{ACAD_REACTORS
330
48
102
}
330
48
100
AcDbScale
 70
     0
300
2:1
140
2.0
141
1.0
290
     0
  0
SCALE
  5
67
102
{ACAD_REACTORS
330
48
102
}
330
48
100
AcDbScale
 70
     0
300
4:1
140
4.0
141
1.0
290
     0
  0
SCALE
  5
68
102
{ACAD_REACTORS
330
48
102
}
330
48
100
AcDbScale
 70
     0
300
8:1
140
8.0
141
1.0
290
     0
  0
SCALE
  5
69
102
{ACAD_REACTORS
330
48
102
}
330
48
100
AcDbScale
 70
     0
300
10:1
140
10.0
141
1.0
290
     0
  0
SCALE
  5
6A
102
{ACAD_REACTORS
330
48
102
}
330
48
100
AcDbScale
 70
     0
300
100:1
140
100.0
141
1.0
290
     0
  0
SCALE
  5
6B
102
{ACAD_REACTORS
330
48
102
}
330
48
100
AcDbScale
 70
     0
300
1/128" = 1'-0"
140
0.0078125
141
12.0
290
     0
  0
SCALE
  5
6C
102
{ACAD_REACTORS
330
48
102
}
330
48
100
AcDbScale
 70
     0
300
1/64" = 1'-0"
140
0.015625
141
12.0
290
     0
  0
SCALE
  5
6D
102
{ACAD_REACTORS
330
48
102
}
330
48
100
AcDbScale
 70
     0
300
1/32" = 1'-0"
140
0.03125
141
12.0
290
     0
  0
SCALE
  5
6E
102
{ACAD_REACTORS
330
48
102
}
330
48
100
AcDbScale
 70
     0
300
1/16" = 1'-0"
140
0.0625
141
12.0
290
     0
  0
SCALE
  5
6F
102
{ACAD_REACTORS
330
48
102
}
330
48
100
AcDbScale
 70
     0
300
3/32" = 1'-0"
140
0.09375
141
12.0
290
     0
  0
SCALE
  5
70
102
{ACAD_REACTORS
330
48
102
}
330
48
100
AcDbScale
 70
     0
300
1/8" = 1'-0"
140
0.125
141
12.0
290
     0
  0
SCALE
  5
71
102
{ACAD_REACTORS
330
48
102
}
330
48
100
AcDbScale
 70
     0
300
3/16" = 1'-0"
140
0.1875
141
12.0
290
     0
  0
SCALE
  5
72
102
{ACAD_REACTORS
330
48
102
}
330
48
100
AcDbScale
 70
     0
300
1/4" = 1'-0"
140
0.25
141
12.0
290
     0
  0
SCALE
  5
73
102
{ACAD_REACTORS
330
48
102
}
330
48
100
AcDbScale
 70
     0
300
3/8" = 1'-0"
140
0.375
141
12.0
290
     0
  0
SCALE
  5
74
102
{ACAD_REACTORS
330
48
102
}
330
48
100
AcDbScale
 70
     0
300
1/2" = 1'-0"
140
0.5
141
12.0
290
     0
  0
SCALE
  5
75
102
{ACAD_REACTORS
330
48
102
}
330
48
100
AcDbScale
 70
     0
300
3/4" = 1'-0"
140
0.75
141
12.0
290
     0
  0
SCALE
  5
76
102
{ACAD_REACTORS
330
48
102
}
330
48
100
AcDbScale
 70
     0
300
1" = 1'-0"
140
1.0
141
12.0
290
     0
  0
SCALE
  5
77
102
{ACAD_REACTORS
330
48
102
}
330
48
100
AcDbScale
 70
     0
300
1-1/2" = 1'-0"
140
1.5
141
12.0
290
     0
  0
SCALE
  5
78
102
{ACAD_REACTORS
330
48
102
}
330
48
100
AcDbScale
 70
     0
300
3" = 1'-0"
140
3.0
141
12.0
290
     0
  0
SCALE
  5
79
102
{ACAD_REACTORS
330
48
102
}
330
48
100
AcDbScale
 70
     0
300
6" = 1'-0"
140
6.0
141
12.0
290
     0
  0
SCALE
  5
7A
102
{ACAD_REACTORS
330
48
102
}
330
48
100
AcDbScale
 70
     0
300
1'-0" = 1'-0"
140
12.0
141
12.0
290
     0
  0
TABLESTYLE
  5
58
102
{ACAD_XDICTIONARY
360
4C9
102
}
102
{ACAD_REACTORS
330
49
102
}
330
49
100
AcDbTableStyle
  3
Standard
 70
     0
 71
     0
 40
1.5
 41
1.5
280
     0
281
     0
  7
Standard
140
4.5
170
     2
 62
     0
 63
     7
283
     0
274
    -2
284
     1
 64
     0
275
    -2
285
     1
 65
     0
276
    -2
286
     1
 66
     0
277
    -2
287
     1
 67
     0
278
    -2
288
     1
 68
     0
279
    -2
289
     1
 69
     0
  7
Standard
140
6.0
170
     5
 62
     0
 63
     7
283
     0
274
    -2
284
     1
 64
     0
275
    -2
285
     1
 65
     0
276
    -2
286
     1
 66
     0
277
    -2
287
     1
 67
     0
278
    -2
288
     1
 68
     0
279
    -2
289
     1
 69
     0
  7
Standard
140
4.5
170
     5
 62
     0
 63
     7
283
     0
274
    -2
284
     1
 64
     0
275
    -2
285
     1
 65
     0
276
    -2
286
     1
 66
     0
277
    -2
287
     1
 67
     0
278
    -2
288
     1
 68
     0
279
    -2
289
     1
 69
     0
  0
VISUALSTYLE
  5
4D7
102
{ACAD_REACTORS
330
2E
102
}
330
2E
100
AcDbVisualStyle
  2
2dWireframe
 70
     4
 71
     0
 72
     2
 73
     0
 90
        0
 40
-0.6
 41
-30.0
 62
     5
 63
     7
 74
     1
 91
        4
 64
     7
 65
   257
 75
     1
175
     1
 42
1.0
 92
        0
 66
   257
 43
1.0
 76
     1
 77
     6
 78
     2
 67
     7
 79
     5
170
     0
171
     0
290
     0
174
     0
 93
        1
 44
0.0
173
     0
291
     0
 45
0.0
1001
ACAD
1000
AcDbSavedByObjectVersion
1070
     0
1000
AcDbSavedByObjectVersion
1070
     0
1000
AcDbSavedByObjectVersion
1070
     0
1000
AcDbSavedByObjectVersion
1070
     0
  0
VISUALSTYLE
  5
4D8
102
{ACAD_REACTORS
330
2E
102
}
330
2E
100
AcDbVisualStyle
  2
3D Hidden
 70
     6
 71
     1
 72
     2
 73
     2
 90
        0
 40
-0.6
 41
-30.0
 62
     5
 63
     7
 74
     2
 91
        2
 64
     7
 65
   257
 75
     2
175
     1
 42
40.0
 92
        0
 66
   257
 43
1.0
 76
     1
 77
     6
 78
     2
 67
     7
 79
     3
170
     0
171
     0
290
     0
174
     0
 93
        1
 44
0.0
173
     0
291
     0
 45
0.0
1001
ACAD
1000
AcDbSavedByObjectVersion
1070
     0
1000
AcDbSavedByObjectVersion
1070
     0
1000
AcDbSavedByObjectVersion
1070
     0
1000
AcDbSavedByObjectVersion
1070
     0
  0
VISUALSTYLE
  5
59
102
{ACAD_REACTORS
330
2E
102
}
330
2E
100
AcDbVisualStyle
  2
3dWireframe
 70
     5
 71
     0
 72
     2
 73
     0
 90
        0
 40
-0.6
 41
-30.0
 62
     5
 63
     7
 74
     1
 91
        4
 64
     7
 65
   257
 75
     1
175
     1
 42
1.0
 92
        0
 66
   257
 43
1.0
 76
     1
 77
     6
 78
     2
 67
     7
 79
     5
170
     0
171
     0
290
     0
174
     0
 93
        1
 44
0.0
173
     0
291
     0
 45
0.0
1001
ACAD
1000
AcDbSavedByObjectVersion
1070
     0
1000
AcDbSavedByObjectVersion
1070
     0
1000
AcDbSavedByObjectVersion
1070
     0
1000
AcDbSavedByObjectVersion
1070
     0
  0
VISUALSTYLE
  5
4D6
102
{ACAD_REACTORS
330
2E
102
}
330
2E
100
AcDbVisualStyle
  2
Basic
 70
     7
 71
     1
 72
     0
 73
     1
 90
        0
 40
-0.6
 41
-30.0
 62
     5
 63
     7
 74
     0
 91
        4
 64
     7
 65
   257
 75
     1
175
     1
 42
1.0
 92
        8
 66
     7
 43
1.0
 76
     1
 77
     6
 78
     2
 67
     7
 79
     5
170
     0
171
     0
290
     0
174
     0
 93
        1
 44
0.0
173
     0
291
     1
 45
0.0
1001
ACAD
1000
AcDbSavedByObjectVersion
1070
     0
1000
AcDbSavedByObjectVersion
1070
     0
1000
AcDbSavedByObjectVersion
1070
     0
1000
AcDbSavedByObjectVersion
1070
     0
  0
VISUALSTYLE
  5
4DB
102
{ACAD_REACTORS
330
2E
102
}
330
2E
100
AcDbVisualStyle
  2
Brighten
 70
    12
 71
     2
 72
     2
 73
     0
 90
        0
 40
-0.6
 41
-30.0
 62
     5
 63
     7
 74
     1
 91
        4
 64
     7
 65
   257
 75
     1
175
     1
 42
1.0
 92
        8
 66
     7
 43
1.0
 76
     1
 77
     6
 78
     2
 67
     7
 79
     5
170
     0
171
     0
290
     0
174
     0
 93
        1
 44
50.0
173
     0
291
     1
 45
0.0
1001
ACAD
1000
AcDbSavedByObjectVersion
1070
     0
1000
AcDbSavedByObjectVersion
1070
     0
1000
AcDbSavedByObjectVersion
1070
     0
1000
AcDbSavedByObjectVersion
1070
     0
  0
VISUALSTYLE
  5
4DF
102
{ACAD_REACTORS
330
2E
102
}
330
2E
100
AcDbVisualStyle
  2
ColorChange
 70
    16
 71
     2
 72
     2
 73
     3
 90
        0
 40
-0.6
 41
-30.0
 62
     5
 63
     8
 74
     1
 91
        4
 64
     7
 65
   257
 75
     1
175
     1
 42
1.0
 92
        8
 66
     8
 43
1.0
 76
     1
 77
     6
 78
     2
 67
     7
 79
     5
170
     0
171
     0
290
     0
174
     0
 93
        1
 44
0.0
173
     0
291
     1
 45
0.0
1001
ACAD
1000
AcDbSavedByObjectVersion
1070
     0
1000
AcDbSavedByObjectVersion
1070
     0
1000
AcDbSavedByObjectVersion
1070
     0
1000
AcDbSavedByObjectVersion
1070
     0
  0
VISUALSTYLE
  5
4D9
102
{ACAD_REACTORS
330
2E
102
}
330
2E
100
AcDbVisualStyle
  2
Conceptual
 70
     9
 71
     3
 72
     2
 73
     0
 90
        0
 40
-0.6
 41
-30.0
 62
     5
 63
     7
 74
     2
 91
        2
 64
     7
 65
   257
 75
     1
175
     1
 42
40.0
 92
        8
 66
     7
 43
1.0
 76
     1
 77
     6
 78
     2
 67
     7
 79
     3
170
     0
171
     0
290
     0
174
     0
 93
        1
 44
0.0
173
     0
291
     0
 45
0.0
1001
ACAD
1000
AcDbSavedByObjectVersion
1070
     0
1000
AcDbSavedByObjectVersion
1070
     0
1000
AcDbSavedByObjectVersion
1070
     0
1000
AcDbSavedByObjectVersion
1070
     0
  0
VISUALSTYLE
  5
4DA
102
{ACAD_REACTORS
330
2E
102
}
330
2E
100
AcDbVisualStyle
  2
Dim
 70
    11
 71
     2
 72
     2
 73
     0
 90
        0
 40
-0.6
 41
-30.0
 62
     5
 63
     7
 74
     1
 91
        4
 64
     7
 65
   257
 75
     1
175
     1
 42
1.0
 92
        8
 66
     7
 43
1.0
 76
     1
 77
     6
 78
     2
 67
     7
 79
     5
170
     0
171
     0
290
     0
174
     0
 93
        1
 44
-50.0
173
     0
291
     1
 45
0.0
1001
ACAD
1000
AcDbSavedByObjectVersion
1070
     0
1000
AcDbSavedByObjectVersion
1070
     0
1000
AcDbSavedByObjectVersion
1070
     0
1000
AcDbSavedByObjectVersion
1070
     0
  0
VISUALSTYLE
  5
4DE
102
{ACAD_REACTORS
330
2E
102
}
330
2E
100
AcDbVisualStyle
  2
Facepattern
 70
    15
 71
     2
 72
     2
 73
     0
 90
        0
 40
-0.6
 41
-30.0
 62
     5
 63
     7
 74
     1
 91
        4
 64
     7
 65
   257
 75
     1
175
     1
 42
1.0
 92
        8
 66
     7
 43
1.0
 76
     1
 77
     6
 78
     2
 67
     7
 79
     5
170
     0
171
     0
290
     0
174
     0
 93
        1
 44
0.0
173
     0
291
     1
 45
0.0
1001
ACAD
1000
AcDbSavedByObjectVersion
1070
     0
1000
AcDbSavedByObjectVersion
1070
     0
1000
AcDbSavedByObjectVersion
1070
     0
1000
AcDbSavedByObjectVersion
1070
     0
  0
VISUALSTYLE
  5
4D2
102
{ACAD_REACTORS
330
2E
102
}
330
2E
100
AcDbVisualStyle
  2
Flat
 70
     0
 71
     2
 72
     1
 73
     1
 90
        2
 40
-0.6
 41
30.0
 62
     5
 63
     7
 74
     0
 91
        4
 64
     7
 65
   257
 75
     1
175
     1
 42
1.0
 92
        8
 66
     7
 43
1.0
 76
     1
 77
     6
 78
     2
 67
     7
 79
     5
170
     0
171
     0
290
     0
174
     0
 93
       13
 44
0.0
173
     0
291
     1
 45
0.0
1001
ACAD
1000
AcDbSavedByObjectVersion
1070
     0
1000
AcDbSavedByObjectVersion
1070
     0
1000
AcDbSavedByObjectVersion
1070
     0
1000
AcDbSavedByObjectVersion
1070
     0
  0
VISUALSTYLE
  5
4D3
102
{ACAD_REACTORS
330
2E
102
}
330
2E
100
AcDbVisualStyle
  2
FlatWithEdges
 70
     1
 71
     2
 72
     1
 73
     1
 90
        2
 40
-0.6
 41
30.0
 62
     5
 63
     7
 74
     1
 91
        4
 64
     7
 65
   257
 75
     1
175
     1
 42
1.0
 92
        0
 66
   257
 43
1.0
 76
     1
 77
     6
 78
     2
 67
     7
 79
     5
170
     0
171
     0
290
     0
174
     0
 93
       13
 44
0.0
173
     0
291
     1
 45
0.0
1001
ACAD
1000
AcDbSavedByObjectVersion
1070
     0
1000
AcDbSavedByObjectVersion
1070
     0
1000
AcDbSavedByObjectVersion
1070
     0
1000
AcDbSavedByObjectVersion
1070
     0
  0
VISUALSTYLE
  5
4D4
102
{ACAD_REACTORS
330
2E
102
}
330
2E
100
AcDbVisualStyle
  2
Gouraud
 70
     2
 71
     2
 72
     2
 73
     1
 90
        2
 40
-0.6
 41
30.0
 62
     5
 63
     7
 74
     0
 91
        4
 64
     7
 65
   257
 75
     1
175
     1
 42
1.0
 92
        0
 66
     7
 43
1.0
 76
     1
 77
     6
 78
     2
 67
     7
 79
     5
170
     0
171
     0
290
     0
174
     0
 93
       13
 44
0.0
173
     0
291
     1
 45
0.0
1001
ACAD
1000
AcDbSavedByObjectVersion
1070
     0
1000
AcDbSavedByObjectVersion
1070
     0
1000
AcDbSavedByObjectVersion
1070
     0
1000
AcDbSavedByObjectVersion
1070
     0
  0
VISUALSTYLE
  5
4D5
102
{ACAD_REACTORS
330
2E
102
}
330
2E
100
AcDbVisualStyle
  2
GouraudWithEdges
 70
     3
 71
     2
 72
     2
 73
     1
 90
        2
 40
-0.6
 41
30.0
 62
     5
 63
     7
 74
     1
 91
        4
 64
     7
 65
   257
 75
     1
175
     1
 42
1.0
 92
        0
 66
   257
 43
1.0
 76
     1
 77
     6
 78
     2
 67
     7
 79
     5
170
     0
171
     0
290
     0
174
     0
 93
       13
 44
0.0
173
     0
291
     1
 45
0.0
1001
ACAD
1000
AcDbSavedByObjectVersion
1070
     0
1000
AcDbSavedByObjectVersion
1070
     0
1000
AcDbSavedByObjectVersion
1070
     0
1000
AcDbSavedByObjectVersion
1070
     0
  0
VISUALSTYLE
  5
4DD
102
{ACAD_REACTORS
330
2E
102
}
330
2E
100
AcDbVisualStyle
  2
Linepattern
 70
    14
 71
     2
 72
     2
 73
     0
 90
        0
 40
-0.6
 41
-30.0
 62
     5
 63
     7
 74
     1
 91
        4
 64
     7
 65
   257
 75
     7
175
     7
 42
1.0
 92
        8
 66
     7
 43
1.0
 76
     1
 77
     6
 78
     2
 67
     7
 79
     5
170
     0
171
     0
290
     0
174
     0
 93
        1
 44
0.0
173
     0
291
     1
 45
0.0
1001
ACAD
1000
AcDbSavedByObjectVersion
1070
     0
1000
AcDbSavedByObjectVersion
1070
     0
1000
AcDbSavedByObjectVersion
1070
     0
1000
AcDbSavedByObjectVersion
1070
     0
  0
VISUALSTYLE
  5
2D
102
{ACAD_REACTORS
330
2E
102
}
330
2E
100
AcDbVisualStyle
  2
Realistic
 70
     8
 71
     2
 72
     2
 73
     0
 90
        0
 40
-0.6
 41
-30.0
 62
     5
 63
     7
 74
     1
 91
        0
 64
     7
 65
   257
 75
     1
175
     1
 42
1.0
 92
        8
 66
     8
 43
1.0
 76
     1
 77
     6
 78
     2
 67
     7
 79
     5
170
     0
171
     0
290
     0
174
     0
 93
       13
 44
0.0
173
     0
291
     0
 45
0.0
1001
ACAD
1000
AcDbSavedByObjectVersion
1070
     0
1000
AcDbSavedByObjectVersion
1070
     0
1000
AcDbSavedByObjectVersion
1070
     0
1000
AcDbSavedByObjectVersion
1070
     0
  0
VISUALSTYLE
  5
4DC
102
{ACAD_REACTORS
330
2E
102
}
330
2E
100
AcDbVisualStyle
  2
Thicken
 70
    13
 71
     2
 72
     2
 73
     0
 90
        0
 40
-0.6
 41
-30.0
 62
     5
 63
     7
 74
     1
 91
        4
 64
     7
 65
   257
 75
     1
175
     1
 42
1.0
 92
       12
 66
     7
 43
1.0
 76
     1
 77
     6
 78
     2
 67
     7
 79
     5
170
     0
171
     0
290
     0
174
     0
 93
        1
 44
0.0
173
     0
291
     1
 45
0.0
1001
ACAD
1000
AcDbSavedByObjectVersion
1070
     0
1000
AcDbSavedByObjectVersion
1070
     0
1000
AcDbSavedByObjectVersion
1070
     0
1000
AcDbSavedByObjectVersion
1070
     0
  0
DICTIONARYVAR
  5
4CF
102
{ACAD_REACTORS
330
4CC
102
}
330
4CC
100
DictionaryVariables
280
     0
  1
1:1
  0
DICTIONARYVAR
  5
4CE
102
{ACAD_REACTORS
330
4CC
102
}
330
4CC
100
DictionaryVariables
280
     0
  1
STANDARD
  0
DICTIONARYVAR
  5
4CD
102
{ACAD_REACTORS
330
4CC
102
}
330
4CC
100
DictionaryVariables
280
     0
  1
STANDARD
  0
DICTIONARYVAR
  5
504
102
{ACAD_REACTORS
330
4CC
102
}
330
4CC
100
DictionaryVariables
280
     0
  1
1
  0
DICTIONARYVAR
  5
503
102
{ACAD_REACTORS
330
4CC
102
}
330
4CC
100
DictionaryVariables
280
     0
  1
1
  0
DICTIONARYVAR
  5
502
102
{ACAD_REACTORS
330
4CC
102
}
330
4CC
100
DictionaryVariables
280
     0
  1
0
  0
DICTIONARYVAR
  5
4D0
102
{ACAD_REACTORS
330
4CC
102
}
330
4CC
100
DictionaryVariables
280
     0
  1
0
  0
DICTIONARYVAR
  5
500
102
{ACAD_REACTORS
330
4CC
102
}
330
4CC
100
DictionaryVariables
280
     0
  1
1
  0
DICTIONARYVAR
  5
501
102
{ACAD_REACTORS
330
4CC
102
}
330
4CC
100
DictionaryVariables
280
     0
  1
127
  0
DICTIONARY
  5
C50
330
17
100
AcDbDictionary
280
     1
281
     1
  3
ACAD_XREC_ROUNDTRIP
360
C51
  0
DICTIONARY
  5
1D
330
1C
100
AcDbDictionary
280
     1
281
     1
  3
ACAD_XREC_ROUNDTRIP
360
C52
  3
ADSK_XREC_LAYOUTTHUMBNAIL
360
1E
  0
DICTIONARY
  5
40
330
3F
100
AcDbDictionary
280
     1
281
     1
  3
ACAD_XREC_ROUNDTRIP
360
602
  3
BUMPTILE
360
41
  3
DIFFUSETILE
360
42
  3
OPACITYTILE
360
43
  3
REFLECTIONTILE
360
44
  3
REFRACTIONTILE
360
45
  3
SPECULARTILE
360
46
  0
DICTIONARY
  5
38
330
37
100
AcDbDictionary
280
     1
281
     1
  3
ACAD_XREC_ROUNDTRIP
360
601
  3
BUMPTILE
360
39
  3
DIFFUSETILE
360
3A
  3
OPACITYTILE
360
3B
  3
REFLECTIONTILE
360
3C
  3
REFRACTIONTILE
360
3D
  3
SPECULARTILE
360
3E
  0
DICTIONARY
  5
E
330
C
100
AcDbDictionary
280
     1
281
     1
  3
ACAD_XREC_ROUNDTRIP
360
5FD
  3
BUMPTILE
360
F
  3
DIFFUSETILE
360
10
  3
OPACITYTILE
360
11
  3
REFLECTIONTILE
360
12
  3
REFRACTIONTILE
360
13
  3
SPECULARTILE
360
14
  0
DICTIONARY
  5
4C9
330
58
100
AcDbDictionary
280
     1
281
     1
  3
ACAD_ROUNDTRIP_2008_TABLESTYLE_CELLSTYLEMAP
360
C4C
  3
ACAD_XREC_ROUNDTRIP
360
C53
  0
XRECORD
  5
C51
102
{ACAD_REACTORS
330
C50
102
}
330
C50
100
AcDbXrecord
280
     1
102
SHADEPLOT
 70
     0
102
SHADEPLOTRESLEVEL
 70
     2
102
SHADEPLOTCUSTOMDPI
 70
   300
  0
XRECORD
  5
C52
102
{ACAD_REACTORS
330
1D
102
}
330
1D
100
AcDbXrecord
280
     1
102
SHADEPLOT
 70
     0
102
SHADEPLOTRESLEVEL
 70
     2
102
SHADEPLOTCUSTOMDPI
 70
   300
  0
XRECORD
  5
1E
102
{ACAD_REACTORS
330
1D
102
}
330
1D
100
AcDbXrecord
280
     1
310
28000000B4000000870000000100080000000000EC5E0000000000000000000000010000000000000000000000000000FFFFFF000000000000000000000000000000000000000000000000000000000000000000330000006600000099000000CC000000FF00000000330000333300006633000099330000CC330000FF3300
310
0000660000336600006666000099660000CC660000FF66000000990000339900006699000099990000CC990000FF99000000CC000033CC000066CC000099CC0000CCCC0000FFCC000000FF000033FF000066FF000099FF0000CCFF0000FFFF000000003300330033006600330099003300CC003300FF003300003333003333
310
33006633330099333300CC333300FF33330000663300336633006666330099663300CC663300FF66330000993300339933006699330099993300CC993300FF99330000CC330033CC330066CC330099CC3300CCCC3300FFCC330000FF330033FF330066FF330099FF3300CCFF3300FFFF330000006600330066006600660099
310
006600CC006600FF00660000336600333366006633660099336600CC336600FF33660000666600336666006666660099666600CC666600FF66660000996600339966006699660099996600CC996600FF99660000CC660033CC660066CC660099CC6600CCCC6600FFCC660000FF660033FF660066FF660099FF6600CCFF6600
310
FFFF660000009900330099006600990099009900CC009900FF00990000339900333399006633990099339900CC339900FF33990000669900336699006666990099669900CC669900FF66990000999900339999006699990099999900CC999900FF99990000CC990033CC990066CC990099CC9900CCCC9900FFCC990000FF99
310
0033FF990066FF990099FF9900CCFF9900FFFF99000000CC003300CC006600CC009900CC00CC00CC00FF00CC000033CC003333CC006633CC009933CC00CC33CC00FF33CC000066CC003366CC006666CC009966CC00CC66CC00FF66CC000099CC003399CC006699CC009999CC00CC99CC00FF99CC0000CCCC0033CCCC0066CC
310
CC0099CCCC00CCCCCC00FFCCCC0000FFCC0033FFCC0066FFCC0099FFCC00CCFFCC00FFFFCC000000FF003300FF006600FF009900FF00CC00FF00FF00FF000033FF003333FF006633FF009933FF00CC33FF00FF33FF000066FF003366FF006666FF009966FF00CC66FF00FF66FF000099FF003399FF006699FF009999FF00CC
310
99FF00FF99FF0000CCFF0033CCFF0066CCFF0099CCFF00CCCCFF00FFCCFF0000FFFF0033FFFF0066FFFF0099FFFF00CCFFFF00FFFFFF00000000000D0D0D001A1A1A00282828003535350043434300505050005D5D5D006B6B6B00787878008686860093939300A1A1A100AEAEAE00BBBBBB00C9C9C900D6D6D600E4E4E400
310
F1F1F100FFFFFF0000000000000000000000000000000000000000000000000000000000000000000000000000000000E2E2E2E2E2E2E2E2E2E2E2E2E2E2E2E2E2E2E2E2E2E2E2E2E2E2E2E2E2E2E2E2E2E2E2E2E2E2E2E2E2E2E2E2E2E2E2E2E2E2E2E2E2E2E2E2E2E2E2E2E2E2E2E2E2E2E2E2E2E2E2E2E2E2E2E2E2E2E2
310
E2E2E2E2E2E2E2E2E2E2E2E2E2E2E2E2E2E2E2E2E2E2E2E2E2E2E2E2E2E2E2E2E2E2E2E2E2E2E2E2E2E2E2E2E2E2E2E2E2E2E2E2E2E2E2E2E2E2E2E2E2E2E2E2E2E2E2E2E2E2E2E2E2E2E2E2E2E2E2E2E2E2E2E2E2E2E2E2E2E2E2E2E2E2E2E2E2E2E2E2E2E2E2E2E2E2E2E2E2E2E2E2E2E2E2E2E2E2E2E2E2E2E2E2E2E2E2
310
E2E2E2E2E2E2E2E2E2E2E2E2E2E2E2E2E2E2E2E2E2E2E2E2E2E2E2E2E2E2E2E2E2E2E2E2E2E2E2E2E2E2E2E2E2E2E2E2E2E2E2E2E2E2E2E2E2E2E2E2E2E2E2E2E2E2E2E2E2E2E2E2E2E2E2E2E2E2E2E2E2E2E2E2E2E2E2E2E2E2E2E2E2E2E2E2E2E2E2E2E2E2E2E2E2E2E2E2E2E2E2E2E2E2E2E2E2E2E2E2E2E2E2E2E2E2E2
310
E2E2E2E2E2E2E2E2E2E2E2E2E2E2E2E2E2E2E2E2E2E2E2E2E2E2E2E2E2E2E2E2E2E2E2E2E2E2E2E2E2E2E2E2E2E2E2E2E2E2E2E2E2E2E2E2E2E2E2E2E2E2E2E2E2E2E2E2E2E2E2E2E2E2E2E2E2E2E2E2E2E2E2E2E2E2E2E2E2E2E2E2E2E2E2E2E2E2E2E2E2E2E2E2E2E2E2E2E2E2E2E2E2E2E2E2E2E2E2E2E2E2E2E2E2E2E2
310
E2E2E2E2E2E2E2E2E2E2E2E2E2E2E2E2E2E2E2E2E2E2E2E2E2E2E2E2E2E2E2E2E2E2E2E2E2E2E2E2E2E2E2E2E2E2E2E2E2E2E2E2E2E2E2E2E2E2E2E2E2E2E2E2E2E2E2E2E2E2E2E2E2E2E2E2E2E2E2E2E2E2E2E2E2E2E2E2E2E2E2E2E2E2E2E2E2E2E2E2E2E2E2E2E2E2E2E2E2E2E2E2E2E2E2E2E2E2E2E2E2E2E2E2E2E2E2
310
E2E2E2E2E2E2E2E2E2E2E2E2E2E2E2E2E2E2E2E2E2E2E2E2E2E2E2E2E2E2E2E2E2E2E2E2E2E2E2E2E2E2E2E2E2E2E2E2E2E2E2E2E2E2E2E2E2E2E2E2E2E2E2E2E2E2E2E2E2E2E2E2E2E2E2E2E2E2E2E2E2E2E2E2E2E2E2E2E2E2E2E2E2E2E2E2E2E2E2E2E2E2E2E2E2E2E2E2E2E2E2E2E2E2E2E2E2E2E2E2E2E2E2E2E2E2E2
310
E2E2E2E2E2E2E2E2E2E2E2E2E2E2E2E2E2E2E2E2E2E2E2E2E2E2E2E2E2E2E2E2E2E2E2E2E2E2E2E2E2E2E2E2E2E2E2E2E2E2E2E2E2E2E2E2E2E2E2E2E2E2E2E2E2E2E2E2E2E2E2E2E2E2E2E2E2E2E2E2E2E2E2E2E2E2E2E2E2E2E2E2E2E2E2E2E2E2E2E2E2E2E2E2E2E2E2E2E2E2E2E2E2E2E2E2E2E2E2E2E2E2E2E2E2E2E2
310
E2E2E2E2E2E2E2E2E2E2E2E2E2E2E2E2E2E2E2E2E2E2E2E2E2E2E2E2E2E2E2E2E2E2E2E2E2E2E2E2E2E2E2E2E2E2E2E2E2E2E2E2E2E2E2E2E2E2E2E2E2E2E2E2E2E2E2E2E2E2E2E2E2E2E2E2E2E2E2E2E2E2E2E2E2E2E2E2E2E2E2E2E2E2E2E2E2E2E2E2E2E2E2E2E2E2E2E2E2E2E2E2E2E2E2E2E2E2E2E2E2E2E2E2E2E2E2
310
E2E2E2E2E2E2E2E2E2E2E2E2E2E2E2E2E2E2E2E2E2E2E2E2E2E2E2E2E2E2E2E2E2E2E2E2E2E2E2E2E2E2E2E2E2E2E2E2E2E2E2E2E2E2E2E2E2E2E2E2E2E2E2E2E2E2E2E2E2E2E2E2E2E2E2E2E2E2E2E2E2E2E2E2E2E2E2E2E2E2E2E2E2E2E2E2E2E2E2E2E2E2E2E2E2E2E2E2E2E2E2E2E2E2E2E2E2E2E2E2E2E2E2E2E2E2E2
310
E2E2E2E2E2E2E2E2E2E2E2E2E2E2E2E2E2E2E2E2E2E2E2E2E2E2E2E2E2E2E2E2E2E2E2E2E2E2E2E2E2E2E2E2E2E2E2E2E2E2E2E2E2E2E2E2E2E2E2E2E2E2E2E2E2E2E2E2E2E2E2E2E2E2E2E2E2E2E2E2E2E2E2E2E2E2E2E2E2E2E2E2E2E2E2E2E2E2E2E2E2E2E2E2E2E2E2E2E2E2E2E2E2E2E2E2E2E2E2E2E2E2E2E2E2E2E2
310
E2E2E2E2E2E2E2E2E2E2E2E2E2E2E2E2E2E2E2E2E2E2E2E2E2E2E2E2E2E2E2E2E2E2E2E2E2E2E2E2E2E2E2E2E2E2E2E2E2E2E2E2E2E2E2E2E2E2E2E2E2E2E2E2E2E2E2E2E2E2E2E2E2E2E2E2E2E2E2E2E2E2E2E2E2E2E2E2E2E2E2E2E2E2E2E2E2E2E2E2E2E2E2E2E2E2E2E2E2E2E2E2E2E2E2E2E2E2E2E2E2E2E2E2E2E2E2
310
E2E2E2E2E2E2E2E2E2E2E2E2E2E2E2E2E2E2E2E2E2E2E2E2E2E2E2E2E2E2E2E2E2E2E2E2E2E2E2E2E2E2E2E2E2E2E2E2E2E2E2E2E2E2E2E2E2E2E2E2E2E2E2E2E2E2E2E2E2E2E2E2E2E2E2E2E2E2E2E2E2E2E2E2E2E2E2E2E2E2E2E2E2E2E2E2E2E2E2E2E2E2E2E2E2E2E2E2E2E2E2E2E2E2E2E2E2E2E2E2E2E2E2E2E2E2E2
310
E2E2E2E2E2E2E2E2E2E2E2E2E2E2E2E2E2E2E2E2E2E2E2E2E2E2E2E2E2E2E2E2E2E2E2E2E2E2E2E2E2E2E2E2E2E2E2E2E2E2E2E2E2E2E2E2E2E2E2E2E2E2E2E2E2E2E2E2E2E2E2E2E2E2E2E2E2E2E2E2E2E2E2E2E2E2E2E2E2E2E2E2E2E2E2E2E2E2E2E2E2E2E2E2E2E2E2E2E2E2E2E2E2E2E2E2E2E2E2E2E2E2E2E2E2E2E2
310
E2E2E2E2E2E2E2E2E2E2E2E2E2E2E2E2E2E2E2E2E2E2E2E2E2E2E2E2E2E2E2E2E2E2E2E2E2E2E2E2E2E2E2E2E2E2E2E2E2E2E2E2E2E2E2E2E2E2E2E2E2E2E2E2E2E2E2E2E2E2E2E2E2E2E2E2E2E2E2E2E2E2E2E2E2E2E2E2E2E2E2E2E2E2E2E2E2E2E2E2E2E2E2E2E2E2E2E2E2E2E2E2E2E2E2E2E2E2E2E2E2E2E2E2E2E2E2
310
E2E2E2E2E2E2E2E2E2E2E2E2E2E2E2E2E2E2E2E2E2E2E2E2E2E2E2E2E2E2E2E2E2E2E2E2E2E2E2E2E2E2E2E2E2E2E2E2E2E2E2E2E2E2E2E2E2E2E2E2E2E2E2E2E2E2E2E2E2E2E2E2E2E2E2E2E2E2E2E2E2E2E2E2E2E2E2E2E2E2E2E2E2E2E2E2E2E2E2E2E2E2E2E2E2E2E2E2E2E2E2E2E2E2E2E2E2E2E2E2E2E2E2E2E2E2E2
310
E2E2E2E2E2E2E2E2E2E2E2E2E2E2E2E2E2E2E2E2E2E2E2E2E2E2E2E2E2E2E2E2E2E2E2E2E2E2E2E2E2E2E2E2E2E2E2E2E2E2E2E2E2E2E2E2E2E2E2E2E2E2E2E2E2E2E2E2E2E2E2E2E2E2E2E2E2E2E2E2E2E2E2E2E2E2E2E2E2E2E2E2E2E2E2E2E2E2E2E2E2E2E2E2E2E2E2E2E2E2E2E2E2E2E2E2E2E2E2E2E2E2E2E2E2E2E2
310
E2E2E2E2E2E2E2E2E2E2E2E2E2E2E2E2E2E2E2E2E2E2E2E2E2E2E2E2E2E2E2E2E2E2E2E2E2E2E2E2E2E2E2E2E2E2E2E2E2E2E2E2E2E2E2E2E2E2E2E2E2E2E2E2E2E2E2E2E2E2E2E2E2E2E2E2E2E2E2E2E2E2E2E2E2E2E2E2E2E2E2E2E2E2E2E2E2E2E2E2E2E2E2E2E2E2E2E2E2E2E2E2E2E2E2E2E2E2E2E2E2E2E2E2E2E2E2
310
E2E2E2E2E2E2E2E2E2E2E2E2E2E2E2E2E2E2E2E2E2E2E2E2E2E2E2E2E2E2E2E2E2E2E2E2E2E2E2E2E2E2E2E2E2E2E2E2E2E2E2E2E2E2E2E2E2E2E2E2E2E2E2E2E2E2E2E2E2E2E2E2E2E2E2E2E2E2E2E2E2E2E2E2E2E2E2E2E2E2E2E2E2E2E2E2E2E2E2E2E2E2E2E2E2E2E2E2E2E2E2E2E2E2E2E2E2E2E2E2E2E2E2E2E2E2E2
310
E2E2E2E2E2E2E2E2E2E2E2E2E2E2E2E2E2E2E2E2E2E2E2E2E2E2E2E2E2E2E2E2E2E2E2E2E2E2E2E2E2E2E2E2E2E2E2E2E2E2E2E2E2E2E2E2E2E2E2E2E2E2E2E2E2E2E2E2E2E2E2E2E2E2E2E2E2E2E2E2E2E2E2E2E2E2E2E2E2E2E2E2E2E2E2E2E2E2E2E2E2E2E2E2E2E2E2E2E2E2E2E2E2E2E2E2E2E2E2E2E2E2E2E2E2E2E2
310
E2E2E2E2E2E2E2E2E2E2E2E2E2E2E2E2E2E2E2E2E2E2E2E2E2E2E2E2E2E2E2E2E2E2E2E2E2E2E2E2E2E2E2E2E2E2E2E2E2E2E2E2E2E2E2E2E2E2E2E2E2E2E2E2E2E2E2E2E2E2E2E2E2E2E2E2E2E2E2E2E2E2E2E2E2E2E2E2E2E2E2E2E2E2E2E2E2E2E2E2E2E2E2E2E2E2E2E2E2E2E2E2E2E2E2E2E2E2E2E2E2E2E2E2E2E2E2
310
E2E2E2E2E2E2E2E2E2E2E2E2E2E2E2E2E2E2E2E2E2E2E2E2E2E2E2E2E2E2E2E2E2E2E2E2E2E2E2E2E2E2E2E2E2E2E2E2E2E2E2E2E2E2E2E2E2E2E2E2E2E2E2E2E2E2E2E2E2E2E2E2E2E2E2E2E2E2E2E2E2E2E2E2E2E2E2E2E2E2E2E2E2E2E2E2E2E2E2E2E2E2E2E2E2E2E2E2E2E2E2E2E2E2E2E2E2E2E2E2E2E2E2E2E2E2E2
310
E2E2E2E2E2E2E2E2E2E2E2E2E2E2E2E2E2E2E2E2E2E2E2E2E2E2E2E2E2E2E2E2E2E2E2E2E2E2E2E2E2E2E2E2E2E2E2E2E2E2E2E2E2E2E2E2E2E2E2E2E2E2E2E2E2E2E2E2E2E2E2E2E2E2E2E2E2E2E2E2E2E2E2E2E2E2E2E2E2E2E2E2E2E2E2E2E2E2E2E2E2E2E2E2E2E2E2E2E2E2E2E2E2E2E2E2E2E2E2E2E2E2E2E2E2E2E2
310
E2E2E2E2E2E2E2E2E2E2E2E2E2E2E2E2E2E2E2E2E2E2E2E2E2E2E2E2E2E2E2E2E2E2E2E2E2E2E2E2E2E2E2E2E2E2E2E2E2E2E2E2E2E2E2E2E2E2E2E2E2E2E2E2E2E2E2E2E2E2E2E2E2E2E2E2E2E2E2E2E2E2E2E2E2E2E2E2E2E2E2E2E2E2E2E2E2E2E2E2E2E2E2E2E2E2E2E2E2E2E2E2E2E2E2E2E2E2E2E2E2E2E2E2E2E2E2
310
E2E2E2E2E2E2E2E2E2E2E2E2E2E2E2E2E2E2E2E2E2E2E2E2E2E2E2E2E2E2E2E2E2E2E2E2E2E2E2E2E2E2E2E2E2E2E2E2E2E2E2E2E2E2E2E2E2E2E2E2E2E2E2E2E2E2E2E2E2E2E2E2E2E2E2E2E2E2E2E2E2E2E2E2E2E2E2E2E2E2E2E2E2E2E2E2E2E2E2E2E2E2E2E2E2E2E2E2E2E2E2E2E2E2E2E2E2E2E2E2E2E2E2E2E2E2E2
310
E2E2E2E2E2E2E2E2E2E2E2E2E2E2E2E2E2E2E2E2E2E2E2E2E2E2E2E2E2E2E2E2E2E2E2E2E2E2E2E2E2E2E2E2E2E2E2E2E2E2E2E2E2E2E2E2E2E2E2E2E2E2E2E2E2E2E2E2E2E2E2E2E2E2E2E2E2E2E2E2E2E2E2E2E2E2E2E2E2E2E2E2E2E2E2E2E2E2E2E2E2E2E2E2E2E2E2E2E2E2E2E2E2E2E2E2E2E2E2E2E2E2E2E2E2E2E2
310
E2E2E2E2E2E2E2E2E2E2E2E2E2E2E2E2E2E2E2E2E2E2E2E2E2E2E2E2E2E2E2E2E2E2E2E2E2E2E2E2E2E2E2E2E2E2E2E2E2E2E2E2E2E2E2E2E2E2E2E2E2E2E2E2E2E2E2E2E2E2E2E2E2E2E2E2E2E2E2E2E2E2E2E2E2E2E2E2E2E2E2E2E2E2E2E2E2E2E2E2E2E2E2E2E2E2E2E2E2E2E2E2E2E2E2E2E2E2E2E2E2E2E2E2E2E2E2
310
E2E2E2E2E2E2E2E2E2E2E2E2E2E2E2E2E2E2E2E2E2E2E2E2E2E2E2E2E2E2E2E2E2E2E2E2E2E2E2E2E2E2E2E2E2E2E2E2E2E2E2E2E2E2E2E2E2E2E2E2E2E2E2E2E2E2E2E2E2E2E2E2E2E2E2E2E2E2E2E2E2E2E2E2E2E2E2E2E2E2E2E2E2E2E2E2E2E2E2E2E2E2E2E2E2E2E2E2E2E2E2E2E2E2E2E2E2E2E2E2E2E2E2E2E2E2E2
310
E2E2E2E2E2E2E2E2E2E2E2E2E2E2E2E2E2E2E2E2E2E2E2E2E2E2E2E2E2E2E2E2E2E2E2E2E2E2E2E2E2E2E2E2E2E2E2E2E2E2E2E2E2E2E2E2E2E2E2E2E2E2E2E2E2E2E2E2E2E2E2E2E2E2E2E2E2E2E2E2E2E2E2E2E2E2E2E2E2E2E2E2E2E2E2E2E2E2E2E2E2E2E2E2E2E2E2E2E2E2E2E2E2E2E2E2E2E2E2E2E2E2E2E2E2E2E2
310
E2E2E2E2E2E2E2E2E2E2E2E2E2E2E2E2E2E2E2E2E2E2E2E2E2E2E2E2E2E2E2E2E2E2E2E2E2E2E2E2E2E2E2E2E2E2E2E2E2E2E2E2E2E2E2E2E2E2E2E2E2E2E2E2E2E2E2E2E2E2E2E2E2E2E2E2E2E2E2E2E2E2E2E2E2E2E2E2E2E2E2E2E2E2E2E2E2E2E2E2E2E2E2E2E2E2E2E2E2E2E2E2E2E2E2E2E2E2E2E2E2E2E2E2E2E2E2
310
E2E2E2E2E2E2E2E2E2E2E2E2E2E2E2E2E2E2E2E2E2E2E2E2E2E2E2E2E2E2E2E2E2E2E2E2E2E2E2E2E2E2E2E2E2E2E2E2E2E2E2E2E2E2E2E2E2E2E2E2E2E2E2E2E2E2E2E2E2E2E2E2E2E2E2E2E2E2E2E2E2E2E2E2E2E2E2E2E2E2E2E2E2E2E2E2E2E2E2E2E2E2E2E2E2E2E2E2E2E2E2E2E2E2E2E2E2E2E2E2E2E2E2E2E2E2E2
310
E2E2E2E2E2E2E2E2E2E2E2E2E2E2E2E2E2E2E2E2E2E2E2E2E2E2E2E2E2E2E2E2E2E2E2E2E2E2E2E2E2E2E2E2E2E2E2E2E2E2E2E2E2E2E2E2E2E2E2E2E2E2E2E2E2E2E2E2E2E2E2E2E2E2E2E2E2E2E2E2E2E2E2E2E2E2E2E2E2E2E2E2E2E2E2E2E2E2E2E2E2E2E2E2E2E2E2E2E2E2E2E2E2E2E2E2E2E2E2E2E2E2E2E2E2E2E2
310
E2E2E2E2E2E2E2E2E2E2E2E2E2E2E2E2E2E2E2E2E2E2E2E2E2E2E2E2E2E2E2E2E2E2E2E2E2E2E2E2E2E2E2E2E2E2E2E2E2E2E2E2E2E2E2E2E2E2E2E2E2E2E2E2E2E2E2E2E2E2E2E2E2E2E2E2E2E2E2E2E2E2E2E2E2E2E2E2E2E2E2E2E2E2E2E2E2E2E2E2E2E2E2E2E2E2E2E2E2E2E2E2E2E2E2E2E2E2E2E2E2E2E2E2E2E2E2
310
E2E2E2E2E2E2E2E2E2E2E2E2E2E2E2E2E2E2E2E2E2E2E2E2E2E2E2E2E2E2E2E2E2E2E2E2E2E2E2E2E2E2E2E2E2E2E2E2E2E2E2E2E2E2E2E2E2E2E2E2E2E2E2E2E2E2E2E2E2E2E2E2E2E2E2E2E2E2E2E2E2E2E2E2E2E2E2E2E2E2E2E2E2E2E2E2E2E2E2E2E2E2E2E2E2E2E2E2E2E2E2E2E2E2E2E2E2E2E2E2E2E2E2E2E2E2E2
310
E2E2E2E2E2E2E2E2E2E2E2E2E2E2E2E2E2E2E2E2E2E2E2E2E2E2E2E2E2E2E2E2E2E2E2E2E2E2E2E2E2E2E2E2E2E2E2E2E2E2E2E2E2E2E2E2E2E2E2E2E2E2E2E2E2E2E2E2E2E2E2E2E2E2E2E2E2E2E2E2E2E2E2E2E2E2E2E2E2E2E2E2E2E2E2E2E2E2E2E2E2E2E2E2E2E2E2E2E2E2E2E2E2E2E2E2E2E2E2E2E2E2E2E2E2E2E2
310
E2E2E2E2E2E2E2E2E2E2E2E2E2E2E2E2E2E2E2E2E2E2E2E2E2E2E2E2E2E2E2E2E2E2E2E2E2E2E2E2E2E2E2E2E2E2E2E2E2E2E2E2E2E2E2E2E2E2E2E2E2E2E2E2E2E2E2E2E2E2E2E2E2E2E2E2E2E2E2E2E2E2E2E2E2E2E2E2E2E2E2E2E2E2E2E2E2E2E2E2E2E2E2E2E2E2E2E2E2E2E2E2E2E2E2E2E2E2E2E2E2E2E2E2E2E2E2
310
E2E2E2E2E2E2E2E2E2E2E2E2E2E2E2E2E2E2E2E2E2E2E2E2E2E2E2E2E2E2E2E2E2E2E2E2E2E2E2E2E2E2E2E2E2E2E2E2E2E2E2E2E2E2E2E2E2E2E2E2E2E2E2E2E2E2E2E2E2E2E2E2E2E2E2E2E2E2E2E2E2E2E2E2E2E2E2E2E2E2E2E2E2E2E2E2E2E2E2E2E2E2E2E2E2E2E2E2E2E2E2E2E2E2E2E2E2E2E2E2E2E2E2E2E2E2E2
310
E2E2E2E2E2E2E2E2E2E2E2E2E2E2E2E2E2E2E2E2E2E2E2E2E2E2E2E2E2E2E2E2E2E2E2E2E2E2E2E2E2E2E2E2E2E2E2E2E2E2E2E2E2E2E2E2E2E2E2E2E2E2E2E2E2E2E2E2E2E2E2E2E2E2E2E2E2E2E2E2E2E2E2E2E2E2E2E2E2E2E2E2E2E2E2E2E2E2E2E2E2E2E2E2E2E2E2E2E2E2E2E2E2E2E2E2E2E2E2E2E2E2E2E2E2E2E2
310
E2E2E2E2E2E2E2E2E2E2E2E2E2E2E2E2E2E2E2E2E2E2E2E2E2E2E2E2E2E2E2E2E2E2E2E2E2E2E2E2E2E2E2E2E2E2E2E2E2E2E2E2E2E2E2E2E2E2E2E2E2E2E2E2E2E2E2E2E2E2E2E2E2E2E2E2E2E2E2E2E2E2E2E2E2E2E2E2E2E2E2E2E2E2E2E2E2E2E2E2E2E2E2E2E2E2E2E2E2E2E2E2E2E2E2E2E2E2E2E2E2E2E2E2E2E2E2
310
E2E2E2E2E2E2E2E2E2E2E2E2E2E2E2E2E2E2E2E2E2E2E2E2E2E2E2E2E2E2E2E2E2E2E2E2E2E2E2E2E2E2E2E2E2E2E2E2E2E2E2E2E2E2E2E2E2E2E2E2E2E2E2E2E2E2E2E2E2E2E2E2E2E2E2E2E2E2E2E2E2E2E2E2E2E2E2E2E2E2E2E2E2E2E2E2E2E2E2E2E2E2E2E2E2E2E2E2E2E2E2E2E2E2E2E2E2E2E2E2E2E2E2E2E2E2E2
310
E2E2E2E2E2E2E2E2E2E2E2E2E2E2E2E2E2E2E2E2E2E2E2E2E2E2E2E2E2E2E2E2E2E2E2E2E2E2E2E2E2E2E2E2E2E2E2E2E2E2E2E2E2E2E2E2E2E2E2E2E2E2E2E2E2E2E2E2E2E2E2E2E2E2E2E2E2E2E2E2E2E2E2E2E2E2E2E2E2E2E2E2E2E2E2E2E2E2E2E2E2E2E2E2E2E2E2E2E2E2E2E2E2E2E2E2E2E2E2E2E2E2E2E2E2E2E2
310
E2E2E2E2E2E2E2E2E2E2E2E2E2E2E2E2E2E2E2E2E2E2E2E2E2E2E2E2E2E2E2E2E2E2E2E2E2E2E2E2E2E2E2E2E2E2E2E2E2E2E2E2E2E2E2E2E2E2E2E2E2E2E2E2E2E2E2E2E2E2E2E2E2E2E2E2E2E2E2E2E2E2E2E2E2E2E2E2E2E2E2E2E2E2E2E2E2E2E2E2E2E2E2E2E2E2E2E2E2E2E2E2E2E2E2E2E2E2E2E2E2E2E2E2E2E2E2
310
E2E2E2E2E2E2E2E2E2E2E2E2E2E2E2E2E2E2E2E2E2E2E2E2E2E2E2E2E2E2E2E2E2E2E2E2E2E2E2E2E2E2E2E2E2E2E2E2E2E2E2E2E2E2E2E2E2E2E2E2E2E2E2E2E2E2E2E2E2E2E2E2E2E2E2E2E2E2E2E2E2E2E2E2E2E2E2E2E2E2E2E2E2E2E2E2E2E2E2E2E2E2E2E2E2E2E2E2E2E2E2E2E2E2E2E2E2E2E2E2E2E2E2E2E2E2E2
310
E2E2E2E2E2E2E2E2E2E2E2E2E2E2E2E2E2E2E2E2E2E2E2E2E2E2E2E2E2E2E2E2E2E2E2E2E2E2E2E2E2E2E2E2E2E2E2E2E2E2E2E2E2E2E2E2E2E2E2E2E2E2E2E2E2E2E2E2E2E2E2E2E2E2E2E2E2E2E2E2E2E2E2E2E2E2E2E2E2E2E2E2E2E2E2E2E2E2E2E2E2E2E2E2E2E2E2E2E2E2E2E2E2E2E2E2E2E2E2E2E2E2E2E2E2E2E2
310
E2E2E2E2E2E2E2E2E2E2E2E2E2E2E2E2E2E2E2E2E2E2E2E2E2E2E2E2E2E2E2E2E2E2E2E2E2E2E2E2E2E2E2E2E2E2E2E2E2E2E2E2E2E2E2E2E2E2E2E2E2E2E2E2E2E2E2E2E2E2E2E2E2E2E2E2E2E2E2E2E2E2E2E2E2E2E2E2E2E2E2E2E2E2E2E2E2E2E2E2E2E2E2E2E2E2E2E2E2E2E2E2E2E2E2E2E2E2E2E2E2E2E2E2E2E2E2
310
E2E2E2E2E2E2E2E2E2E2E2E2E2E2E2E2E2E2E2E2E2E2E2E2E2E2E2E2E2E2E2E2E2E2E2E2E2E2E2E2E2E2E2E2E2E2E2E2E2E2E2E2E2E2E2E2E2E2E2E2E2E2E2E2E2E2E2E2E2E2E2E2E2E2E2E2E2E2E2E2E2E2E2E2E2E2E2E2E2E2E2E2E2E2E2E2E2E2E2E2E2E2E2E2E2E2E2E2E2E2E2E2E2E2E2E2E2E2E2E2E2E2E2E2E2E2E2
310
E2E2E2E2E2E2E2E2E2E2E2E2E2E2E2E2E2E2E2E2E2E2E2E2E2E2E2E2E2E2E2E2E2E2E2E2E2E2E2E2E2E2E2E2E2E2E2E2E2E2E2E2E2E2E2E2E2E2E2E2E2E2E2E2E2E2E2E2E2E2E2E2E2E2E2E2E2E2E2E2E2E2E2E2E2E2E2E2E2E2E2E2E2E2E2E2E2E2E2E2E2E2E2E2E2E2E2E2E2E2E2E2E2E2E2E2E2E2E2E2E2E2E2E2E2E2E2
310
E2E2E2E2E2E2E2E2E2E2E2E2E2E2E2E2E2E2E2E2E2E2E2E2E2E2E2E2E2E2E2E2E2E2E2E2E2E2E2E2E2E2E2E2E2E2E2E2E2E2E2E2E2E2E2E2E2E2E2E2E2E2E2E2E2E2E2E2E2E2E2E2E2E2E2E2E2E2E2E2E2E2E2E2E2E2E2E2E2E2E2E2E2E2E2E2E2E2E2E2E2E2E2E2E2E2E2E2E2E2E2E2E2E2E2E2E2E2E2E2E2E2E2E2E2E2E2
310
E2E2E2E2E2E2E2E2E2E2E2E2E2E2E2E2E2E2E2E2E2E2E2E2E2E2E2E2E2E2E2E2E2E2E2E2E2E2E2E2E2E2E2E2E2E2E2E2E2E2E2E2E2E2E2E2E2E2E2E2E2E2E2E2E2E2E2E2E2E2E2E2E2E2E2E2E2E2E2E2E2E2E2E2E2E2E2E2E2E2E2E2E2E2E2E2E2E2E2E2E2E2E2E2E2E2E2E2E2E2E2E2E2E2E2E2E2E2E2E2E2E2E2E2E2E2E2
310
E2E2E2E2E2E2E2E2E2E2E2E2E2E2E2E2E2E2E2E2E2E2E2E2E2E2E2E2E2E2E2E2E2E2E2E2E2E2E2E2E2E2E2E2E2E2E2E2E2E2E2E2E2E2E2E2E2E2E2E2E2E2E2E2E2E2E2E2E2E2E2E2E2E2E2E2E2E2E2E2E2E2E2E2E2E2E2E2E2E2E2E2E2E2E2E2E2E2E2E2E2E2E2E2E2E2E2E2E2E2E2E2E2E2E2E2E2E2E2E2E2E2E2E2E2E2E2
310
E2E2E2E2E2E2E2E2E2E2E2E2E2E2E2E2E2E2E2E2E2E2E2E2E2E2E2E2E2E2E2E2E2E2E2E2E2E2E2E2E2E2E2E2E2E2E2E2E2E2E2E2E2E2E2E2E2E2E2E2E2E2E2E2E2E2E2E2E2E2E2E2E2E2E2E2E2E2E2E2E2E2E2E2E2E2E2E2E2E2E2E2E2E2E2E2E2E2E2E2E2E2E2E2E2E2E2E2E2E2E2E2E2E2E2E2E2E2E2E2E2E2E2E2E2E2E2
310
E2E2E2E2E2E2E2E2E2E2E2E2E2E2E2E2E2E2E2E2E2E2E2E2E2E2E2E2E2E2E2E2E2E2E2E2E2E2E2E2E2E2E2E2E2E2E2E2E2E2E2E2E2E2E2E2E2E2E2E2E2E2E2E2E2E2E2E2E2E2E2E2E2E2E2E2E2E2E2E2E2E2E2E2E2E2E2E2E2E2E2E2E2E2E2E2E2E2E2E2E2E2E2E2E2E2E2E2E2E2E2E2E2E2E2E2E2E2E2E2E2E2E2E2E2E2E2
310
E2E2E2E2E2E2E2E2E2E2E2E2E2E2E2E2E2E2E2E2E2E2E2E2E2E2E2E2E2E2E2E2E2E2E2E2E2E2E2E2E2E2E2E2E2E2E2E2E2E2E2E2E2E2E2E2E2E2E2E2E2E2E2E2E2E2E2E2E2E2E2E2E2E2E2E2E2E2E2E2E2E2E2E2E2E2E2E2E2E2E2E2E2E2E2E2E2E2E2E2E2E2E2E2E2E2E2E2E2E2E2E2E2E2E2E2E2E2E2E2E2E2E2E2E2E2E2
310
E2E2E2E2E2E2E2E2E2E2E2E2E2E2E2E2E2E2E2E2E2E2E2E2E2E2E2E2E2E2E2E2E2E2E2E2E2E2E2E2E2E2E2E2E2E2E2E2E2E2E2E2E2E2E2E2E2E2E2E2E2E2E2E2E2E2E2E2E2E2E2E2E2E2E2E2E2E2E2E2E2E2E2E2E2E2E2E2E2E2E2E2E2E2E2E2E2E2E2E2E2E2E2E2E2E2E2E2E2E2E2E2E2E2E2E2E2E2E2E2E2E2E2E2E2E2E2
310
E2E2E2E2E2E2E2E2E2E2E2E2E2E2E2E2E2E2E2E2E2E2E2E2E2E2E2E2E2E2E2E2E2E2E2E2E2E2E2E2E2E2E2E2E2E2E2E2E2E2E2E2E2E2E2E2E2E2E2E2E2E2E2E2E2E2E2E2E2E2E2E2E2E2E2E2E2E2E2E2E2E2E2E2E2E2E2E2E2E2E2E2E2E2E2E2E2E2E2E2E2E2E2E2E2E2E2E2E2E2E2E2E2E2E2E2E2E2E2E2E2E2E2E2E2E2E2
310
E2E2E2E2E2E2E2E2E2E2E2E2E2E2E2E2E2E2E2E2E2E2E2E2E2E2E2E2E2E2E2E2E2E2E2E2E2E2E2E2E2E2E2E2E2E2E2E2E2E2E2E2E2E2E2E2E2E2E2E2E2E2E2E2E2E2E2E2E2E2E2E2E2E2E2E2E2E2E2E2E2E2E2E2E2E2E2E2E2E2E2E2E2E2E2E2E2E2E2E2E2E2E2E2E2E2E2E2E2E2E2E2E2E2E2E2E2E2E2E2E2E2E2E2E2E2E2
310
E2E2E2E2E2E2E2E2E2E2E2E2E2E2E2E2E2E2E2E2E2E2E2E2E2E2E2E2E2E2E2E2E2E2E2E2E2E2E2E2E2E2E2E2E2E2E2E2E2E2E2E2E2E2E2E2E2E2E2E2E2E2E2E2E2E2E2E2E2E2E2E2E2E2E2E2E2E2E2E2E2E2E2E2E2E2E2E2E2E2E2E2E2E2E2E2E2E2E2E2E2E2E2E2E2E2E2E2E2E2E2E2E2E2E2E2E2E2E2E2E2E2E2E2E2E2E2
310
E2E2E2E2E2E2E2E2E2E2E2E2E2E2E2E2E2E2E2E2E2E2E2E2E2E2E2E2E2E2E2E2E2E2E2E2E2E2E2E2E2E2E2E2E2E2E2E2E2E2E2E2E2E2E2E2E2E2E2E2E2E2E2E2E2E2E2E2E2E2E2E2E2E2E2E2E2E2E2E2E2E2E2E2E2E2E2E2E2E2E2E2E2E2E2E2E2E2E2E2E2E2E2E2E2E2E2E2E2E2E2E2E2E2E2E2E2E2E2E2E2E2E2E2E2E2E2
310
E2E2E2E2E2E2E2E2E2E2E2E2E2E2E2E2E2E2E2E2E2E2E2E2E2E2E2E2E2E2E2E2E2E2E2E2E2E2E2E2E2E2E2E2E2E2E2E2E2E2E2E2E2E2E2E2E2E2E2E2E2E2E2E2E2E2E2E2E2E2E2E2E2E2E2E2E2E2E2E2E2E2E2E2E2E2E2E2E2E2E2E2E2E2E2E2E2E2E2E2E2E2E2E2E2E2E2E2E2E2E2E2E2E2E2E2E2E2E2E2E2E2E2E2E2E2E2
310
E2E2E2E2E2E2E2E2E2E2E2E2E2E2E2E2E2E2E2E2E2E2E2E2E2E2E2E2E2E2E2E2E2E2E2E2E2E2E2E2E2E2E2E2E2E2E2E2E2E2E2E2E2E2E2E2E2E2E2E2E2E2E2E2E2E2E2E2E2E2E2E2E2E2E2E2E2E2E2E2E2E2E2E2E2E2E2E2E2E2E2E2E2E2E2E2E2E2E2E2E2E2E2E2E2E2E2E2E2E2E2E2E2E2E2E2E2E2E2E2E2E2E2E2E2E2E2
310
E2E2E2E2E2E2E2E2E2E2E2E2E2E2E2E2E2E2E2E2E2E2E2E2E2E2E2E2E2E2E2E2E2E2E2E2E2E2E2E2E2E2E2E2E2E2E2E2E2E2E2E2E2E2E2E2E2E2E2E2E2E2E2E2E2E2E2E2E2E2E2E2E2E2E2E2E2E2E2E2E2E2E2E2E2E2E2E2E2E2E2E2E2E2E2E2E2E2E2E2E2E2E2E2E2E2E2E2E2E2E2E2E2E2E2E2E2E2E2E2E2E2E2E2E2E2E2
310
E2E2E2E2E2E2E2E2E2E2E2E2E2E2E2E2E2E2E2E2E2E2E2E2E2E2E2E2E2E2E2E2E2E2E2E2E2E2E2E2E2E2E2E2E2E2E2E2E2E2E2E2E2E2E2E2E2E2E2E2E2E2E2E2E2E2E2E2E2E2E2E2E2E2E2E2E2E2E2E2E2E2E2E2E2E2E2E2E2E2E2E2E2E2E2E2E2E2E2E2E2E2E2E2E2E2E2E2E2E2E2E2E2E2E2E2E2E2E2E2E2E2E2E2E2E2E2
310
E2E2E2E2E2E2E2E2E2E2E2E2E2E2E2E2E2E2E2E2E2E2E2E2E2E2E2E2E2E2E2E2E2E2E2E2E2E2E2E2E2E2E2E2E2E2E2E2E2E2E2E2E2E2E2E2E2E2E2E2E2E2E2E2E2E2E2E2E2E2E2E2E2E2E2E2E2E2E2E2E2E2E2E2E2E2E2E2E2E2E2E2E2E2E2E2E2E2E2E2E2E2E2E2E2E2E2E2E2E2E2E2E2E2E2E2E2E2E2E2E2E2E2E2E2E2E2
310
E2E2E2E2E2E2E2E2E2E2E2E2E2E2E2E2E2E2E2E2E2E2E2E2E2E2E2E2E2E2E2E2E2E2E2E2E2E2E2E2E2E2E2E2E2E2E2E2E2E2E2E2E2E2E2E2E2E2E2E2E2E2E2E2E2E2E2E2E2E2E2E2E2E2E2E2E2E2E2E2E2E2E2E2E2E2E2E2E2E2E2E2E2E2E2E2E2E2E2E2E2E2E2E2E2E2E2E2E2E2E2E2E2E2E2E2E2E2E2E2E2E2E2E2E2E2E2
310
E2E2E2E2E2E2E2E2E2E2E2E2E2E2E2E2E2E2E2E2E2E2E2E2E2E2E2E2E2E2E2E2E2E2E2E2E2E2E2E2E2E2E2E2E2E2E2E2E2E2E2E2E2E2E2E2E2E2E2E2E2E2E2E2E2E2E2E2E2E2E2E2E2E2E2E2E2E2E2E2E2E2E2E2E2E2E2E2E2E2E2E2E2E2E2E2E2E2E2E2E2E2E2E2E2E2E2E2E2E2E2E2E2E2E2E2E2E2E2E2E2E2E2E2E2E2E2
310
E2E2E2E2E2E2E2E2E2E2E2E2E2E2E2E2E2E2E2E2E2E2E2E2E2E2E2E2E2E2E2E2E2E2E2E2E2E2E2E2E2E2E2E2E2E2E2E2E2E2E2E2E2E2E2E2E2E2E2E2E2E2E2E2E2E2E2E2E2E2E2E2E2E2E2E2E2E2E2E2E2E2E2E2E2E2E2E2E2E2E2E2E2E2E2E2E2E2E2E2E2E2E2E2E2E2E2E2E2E2E2E2E2E2E2E2E2E2E2E2E2E2E2E2E2E2E2
310
E2E2E2E2E2E2E2E2E2E2E2E2E2E2E2E2E2E2E2E2E2E2E2E2E2E2E2E2E2E2E2E2E2E2E2E2E2E2E2E2E2E2E2E2E2E2E2E2E2E2E2E2E2E2E2E2E2E2E2E2E2E2E2E2E2E2E2E2E2E2E2E2E2E2E2E2E2E2E2E2E2E2E2E2E2E2E2E2E2E2E2E2E2E2E2E2E2E2E2E2E2E2E2E2E2E2E2E2E2E2E2E2E2E2E2E2E2E2E2E2E2E2E2E2E2E2E2
310
E2E2E2E2E2E2E2E2E2E2E2E2E2E2E2E2E2E2E2E2E2E2E2E2E2E2E2E2E2E2E2E2E2E2E2E2E2E2E2E2E2E2E2E2E2E2E2E2E2E2E2E2E2E2E2E2E2E2E2E2E2E2E2E2E2E2E2E2E2E2E2E2E2E2E2E2E2E2E2E2E2E2E2E2E2E2E2E2E2E2E2E2E2E2E2E2E2E2E2E2E2E2E2E2E2E2E2E2E2E2E2E2E2E2E2E2E2E2E2E2E2E2E2E2E2E2E2
310
E2E2E2E2E2E2E2E2E2E2E2E2E2E2E2E2E2E2E2E2E2E2E2E2E2E2E2E2E2E2E2E2E2E2E2E2E2E2E2E2E2E2E2E2E2E2E2E2E2E2E2E2E2E2E2E2E2E2E2E2E2E2E2E2E2E2E2E2E2E2E2E2E2E2E2E2E2E2E2E2E2E2E2E2E2E2E2E2E2E2E2E2E2E2E2E2E2E2E2E2E2E2E2E2E2E2E2E2E2E2E2E2E2E2E2E2E2E2E2E2E2E2E2E2E2E2E2
310
E2E2E2E2E2E2E2E2E2E2E2E2E2E2E2E2E2E2E2E2E2E2E2E2E2E2E2E2E2E2E2E2E2E2E2E2E2E2E2E2E2E2E2E2E2E2E2E2E2E2E2E2E2E2E2E2E2E2E2E2E2E2E2E2E2E2E2E2E2E2E2E2E2E2E2E2E2E2E2E2E2E2E2E2E2E2E2E2E2E2E2E2E2E2E2E2E2E2E2E2E2E2E2E2E2E2E2E2E2E2E2E2E2E2E2E2E2E2E2E2E2E2E2E2E2E2E2
310
E2E2E2E2E2E2E2E2E2E2E2E2E2E2E2E2E2E2E2E2E2E2E2E2E2E2E2E2E2E2E2E2E2E2E2E2E2E2E2E2E2E2E2E2E2E2E2E2E2E2E2E2E2E2E2E2E2E2E2E2E2E2E2E2E2E2E2E2E2E2E2E2E2E2E2E2E2E2E2E2E2E2E2E2E2E2E2E2E2E2E2E2E2E2E2E2E2E2E2E2E2E2E2E2E2E2E2E2E2E2E2E2E2E2E2E2E2E2E2E2E2E2E2E2E2E2E2
310
E2E2E2E2E2E2E2E2E2E2E2E2E2E2E2E2E2E2E2E2E2E2E2E2E2E2E2E2E2E2E2E2E2E2E2E2E2E2E2E2E2E2E2E2E2E2E2E2E2E2E2E2E2E2E2E2E2E2E2E2E2E2E2E2E2E2E2E2E2E2E2E2E2E2E2E2E2E2E2E2E2E2E2E2E2E2E2E2E2E2E2E2E2E2E2E2E2E2E2E2E2E2E2E2E2E2E2E2E2E2E2E2E2E2E2E2E2E2E2E2E2E2E2E2E2E2E2
310
E2E2E2E2E2E2E2E2E2E2E2E2E2E2E2E2E2E2E2E2E2E2E2E2E2E2E2E2E2E2E2E2E2E2E2E2E2E2E2E2E2E2E2E2E2E2E2E2E2E2E2E2E2E2E2E2E2E2E2E2E2E2E2E2E2E2E2E2E2E2E2E2E2E2E2E2E2E2E2E2E2E2E2E2E2E2E2E2E2E2E2E2E2E2E2E2E2E2E2E2E2E2E2E2E2E2E2E2E2E2E2E2E2E2E2E2E2E2E2E2E2E2E2E2E2E2E2
310
E2E2E2E2E2E2E2E2E2E2E2E2E2E2E2E2E2E2E2E2E2E2E2E2E2E2E2E2E2E2E2E2E2E2E2E2E2E2E2E2E2E2E2E2E2E2E2E2E2E2E2E2E2E2E2E2E2E2E2E2E2E2E2E2E2E2E2E2E2E2E2E2E2E2E2E2E2E2E2E2E2E2E2E2E2E2E2E2E2E2E2E2E2E2E2E2E2E2E2E2E2E2E2E2E2E2E2E2E2E2E2E2E2E2E2E2E2E2E2E2E2E2E2E2E2E2E2
310
E2E2E2E2E2E2E2E2E2E2E2E2E2E2E2E2E2E2E2E2E2E2E2E2E2E2E2E2E2E2E2E2E2E2E2E2E2E2E2E2E2E2E2E2E2E2E2E2E2E2E2E2E2E2E2E2E2E2E2E2E2E2E2E2E2E2E2E2E2E2E2E2E2E2E2E2E2E2E2E2E2E2E2E2E2E2E2E2E2E2E2E2E2E2E2E2E2E2E2E2E2E2E2E2E2E2E2E2E2E2E2E2E2E2E2E2E2E2E2E2E2E2E2E2E2E2E2
310
E2E2E2E2E2E2E2E2E2E2E2E2E2E2E2E2E2E2E2E2E2E2E2E2E2E2E2E2E2E2E2E2E2E2E2E2E2E2E2E2E2E2E2E2E2E2E2E2E2E2E2E2E2E2E2E2E2E2E2E2E2E2E2E2E2E2E2E2E2E2E2E2E2E2E2E2E2E2E2E2E2E2E2E2E2E2E2E2E2E2E2E2E2E2E2E2E2E2E2E2E2E2E2E2E2E2E2E2E2E2E2E2E2E2E2E2E2E2E2E2E2E2E2E2E2E2E2
310
E2E2E2E2E2E2E2E2E2E2E2E2E2E2E2E2E2E2E2E2E2E2E2E2E2E2E2E2E2E2E2E2E2E2E2E2E2E2E2E2E2E2E2E2E2E2E2E2E2E2E2E2E2E2E2E2E2E2E2E2E2E2E2E2E2E2E2E2E2E2E2E2E2E2E2E2E2E2E2E2E2E2E2E2E2E2E2E2E2E2E2E2E2E2E2E2E2E2E2E2E2E2E2E2E2E2E2E2E2E2E2E2E2E2E2E2E2E2E2E2E2E2E2E2E2E2E2
310
E2E2E2E2E2E2E2E2E2E2E2E2E2E2E2E2E2E2E2E2E2E2E2E2E2E2E2E2E2E2E2E2E2E2E2E2E2E2E2E2E2E2E2E2E2E2E2E2E2E2E2E2E2E2E2E2E2E2E2E2E2E2E2E2E2E2E2E2E2E2E2E2E2E2E2E2E2E2E2E2E2E2E2E2E2E2E2E2E2E2E2E2E2E2E2E2E2E2E2E2E2E2E2E2E2E2E2E2E2E2E2E2E2E2E2E2E2E2E2E2E2E2E2E2E2E2E2
310
E2E2E2E2E2E2E2E2E2E2E2E2E2E2E2E2E2E2E2E2E2E2E2E2E2E2E2E2E2E2E2E2E2E2E2E2E2E2E2E2E2E2E2E2E2E2E2E2E2E2E2E2E2E2E2E2E2E2E2E2E2E2E2E2E2E2E2E2E2E2E2E2E2E2E2E2E2E2E2E2E2E2E2E2E2E2E2E2E2E2E2E2E2E2E2E2E2E2E2E2E2E2E2E2E2E2E2E2E2E2E2E2E2E2E2E2E2E2E2E2E2E2E2E2E2E2E2
310
E2E2E2E2E2E2E2E2E2E2E2E2E2E2E2E2E2E2E2E2E2E2E2E2E2E2E2E2E2E2E2E2E2E2E2E2E2E2E2E2E2E2E2E2E2E2E2E2E2E2E2E2E2E2E2E2E2E2E2E2E2E2E2E2E2E2E2E2E2E2E2E2E2E2E2E2E2E2E2E2E2E2E2E2E2E2E2E2E2E2E2E2E2E2E2E2E2E2E2E2E2E2E2E2E2E2E2E2E2E2E2E2E2E2E2E2E2E2E2E2E2E2E2E2E2E2E2
310
E2E2E2E2E2E2E2E2E2E2E2E2E2E2E2E2E2E2E2E2E2E2E2E2E2E2E2E2E2E2E2E2E2E2E2E2E2E2E2E2E2E2E2E2E2E2E2E2E2E2E2E2E2E2E2E2E2E2E2E2E2E2E2E2E2E2E2E2E2E2E2E2E2E2E2E2E2E2E2E2E2E2E2E2E2E2E2E2E2E2E2E2E2E2E2E2E2E2E2E2E2E2E2E2E2E2E2E2E2E2E2E2E2E2E2E2E2E2E2E2E2E2E2E2E2E2E2
310
E2E2E2E2E2E2E2E2E2E2E2E2E2E2E2E2E2E2E2E2E2E2E2E2E2E2E2E2E2E2E2E2E2E2E2E2E2E2E2E2E2E2E2E2E2E2E2E2E2E2E2E2E2E2E2E2E2E2E2E2E2E2E2E2E2E2E2E2E2E2E2E2E2E2E2E2E2E2E2E2E2E2E2E2E2E2E2E2E2E2E2E2E2E2E2E2E2E2E2E2E2E2E2E2E2E2E2E2E2E2E2E2E2E2E2E2E2E2E2E2E2E2E2E2E2E2E2
310
E2E2E2E2E2E2E2E2E2E2E2E2E2E2E2E2E2E2E2E2E2E2E2E2E2E2E2E2E2E2E2E2E2E2E2E2E2E2E2E2E2E2E2E2E2E2E2E2E2E2E2E2E2E2E2E2E2E2E2E2E2E2E2E2E2E2E2E2E2E2E2E2E2E2E2E2E2E2E2E2E2E2E2E2E2E2E2E2E2E2E2E2E2E2E2E2E2E2E2E2E2E2E2E2E2E2E2E2E2E2E2E2E2E2E2E2E2E2E2E2E2E2E2E2E2E2E2
310
E2E2E2E2E2E2E2E2E2E2E2E2E2E2E2E2E2E2E2E2E2E2E2E2E2E2E2E2E2E2E2E2E2E2E2E2E2E2E2E2E2E2E2E2E2E2E2E2E2E2E2E2E2E2E2E2E2E2E2E2E2E2E2E2E2E2E2E2E2E2E2E2E2E2E2E2E2E2E2E2E2E2E2E2E2E2E2E2E2E2E2E2E2E2E2E2E2E2E2E2E2E2E2E2E2E2E2E2E2E2E2E2E2E2E2E2E2E2E2E2E2E2E2E2E2E2E2
310
E2E2E2E2E2E2E2E2E2E2E2E2E2E2E2E2E2E2E2E2E2E2E2E2E2E2E2E2E2E2E2E2E2E2E2E2E2E2E2E2E2E2E2E2E2E2E2E2E2E2E2E2E2E2E2E2E2E2E2E2E2E2E2E2E2E2E2E2E2E2E2E2E2E2E2E2E2E2E2E2E2E2E2E2E2E2E2E2E2E2E2E2E2E2E2E2E2E2E2E2E2E2E2E2E2E2E2E2E2E2E2E2E2E2E2E2E2E2E2E2E2E2E2E2E2E2E2
310
E2E2E2E2E2E2E2E2E2E2E2E2E2E2E2E2E2E2E2E2E2E2E2E2E2E2E2E2E2E2E2E2E2E2E2E2E2E2E2E2E2E2E2E2E2E2E2E2E2E2E2E2E2E2E2E2E2E2E2E2E2E2E2E2E2E2E2E2E2E2E2E2E2E2E2E2E2E2E2E2E2E2E2E2E2E2E2E2E2E2E2E2E2E2E2E2E2E2E2E2E2E2E2E2E2E2E2E2E2E2E2E2E2E2E2E2E2E2E2E2E2E2E2E2E2E2E2
310
E2E2E2E2E2E2E2E2E2E2E2E2E2E2E2E2E2E2E2E2E2E2E2E2E2E2E2E2E2E2E2E2E2E2E2E2E2E2E2E2E2E2E2E2E2E2E2E2E2E2E2E2E2E2E2E2E2E2E2E2E2E2E2E2E2E2E2E2E2E2E2E2E2E2E2E2E2E2E2E2E2E2E2E2E2E2E2E2E2E2E2E2E2E2E2E2E2E2E2E2E2E2E2E2E2E2E2E2E2E2E2E2E2E2E2E2E2E2E2E2E2E2E2E2E2E2E2
310
E2E2E2E2E2E2E2E2E2E2E2E2E2E2E2E2E2E2E2E2E2E2E2E2E2E2E2E2E2E2E2E2E2E2E2E2E2E2E2E2E2E2E2E2E2E2E2E2E2E2E2E2E2E2E2E2E2E2E2E2E2E2E2E2E2E2E2E2E2E2E2E2E2E2E2E2E2E2E2E2E2E2E2E2E2E2E2E2E2E2E2E2E2E2E2E2E2E2E2E2E2E2E2E2E2E2E2E2E2E2E2E2E2E2E2E2E2E2E2E2E2E2E2E2E2E2E2
310
E2E2E2E2E2E2E2E2E2E2E2E2E2E2E2E2E2E2E2E2E2E2E2E2E2E2E2E2E2E2E2E2E2E2E2E2E2E2E2E2E2E2E2E2E2E2E2E2E2E2E2E2E2E2E2E2E2E2E2E2E2E2E2E2E2E2E2E2E2E2E2E2E2E2E2E2E2E2E2E2E2E2E2E2E2E2E2E2E2E2E2E2E2E2E2E2E2E2E2E2E2E2E2E2E2E2E2E2E2E2E2E2E2E2E2E2E2E2E2E2E2E2E2E2E2E2E2
310
E2E2E2E2E2E2E2E2E2E2E2E2E2E2E2E2E2E2E2E2E2E2E2E2E2E2E2E2E2E2E2E2E2E2E2E2E2E2E2E2E2E2E2E2E2E2E2E2E2E2E2E2E2E2E2E2E2E2E2E2E2E2E2E2E2E2E2E2E2E2E2E2E2E2E2E2E2E2E2E2E2E2E2E2E2E2E2E2E2E2E2E2E2E2E2E2E2E2E2E2E2E2E2E2E2E2E2E2E2E2E2E2E2E2E2E2E2E2E2E2E2E2E2E2E2E2E2
310
E2E2E2E2E2E2E2E2E2E2E2E2E2E2E2E2E2E2E2E2E2E2E2E2E2E2E2E2E2E2E2E2E2E2E2E2E2E2E2E2E2E2E2E2E2E2E2E2E2E2E2E2E2E2E2E2E2E2E2E2E2E2E2E2E2E2E2E2E2E2E2E2E2E2E2E2E2E2E2E2E2E2E2E2E2E2E2E2E2E2E2E2E2E2E2E2E2E2E2E2E2E2E2E2E2E2E2E2E2E2E2E2E2E2E2E2E2E2E2E2E2E2E2E2E2E2E2
310
E2E2E2E2E2E2E2E2E2E2E2E2E2E2E2E2E2E2E2E2E2E2E2E2E2E2E2E2E2E2E2E2E2E2E2E2E2E2E2E2E2E2E2E2E2E2E2E2E2E2E2E2E2E2E2E2E2E2E2E2E2E2E2E2E2E2E2E2E2E2E2E2E2E2E2E2E2E2E2E2E2E2E2E2E2E2E2E2E2E2E2E2E2E2E2E2E2E2E2E2E2E2E2E2E2E2E2E2E2E2E2E2E2E2E2E2E2E2E2E2E2E2E2E2E2E2E2
310
E2E2E2E2E2E2E2E2E2E2E2E2E2E2E2E2E2E2E2E2E2E2E2E2E2E2E2E2E2E2E2E2E2E2E2E2E2E2E2E2E2E2E2E2E2E2E2E2E2E2E2E2E2E2E2E2E2E2E2E2E2E2E2E2E2E2E2E2E2E2E2E2E2E2E2E2E2E2E2E2E2E2E2E2E2E2E2E2E2E2E2E2E2E2E2E2E2E2E2E2E2E2E2E2E2E2E2E2E2E2E2E2E2E2E2E2E2E2E2E2E2E2E2E2E2E2E2
310
E2E2E2E2E2E2E2E2E2E2E2E2E2E2E2E2E2E2E2E2E2E2E2E2E2E2E2E2E2E2E2E2E2E2E2E2E2E2E2E2E2E2E2E2E2E2E2E2E2E2E2E2E2E2E2E2E2E2E2E2E2E2E2E2E2E2E2E2E2E2E2E2E2E2E2E2E2E2E2E2E2E2E2E2E2E2E2E2E2E2E2E2E2E2E2E2E2E2E2E2E2E2E2E2E2E2E2E2E2E2E2E2E2E2E2E2E2E2E2E2E2E2E2E2E2E2E2
310
E2E2E2E2E2E2E2E2E2E2E2E2E2E2E2E2E2E2E2E2E2E2E2E2E2E2E2E2E2E2E2E2E2E2E2E2E2E2E2E2E2E2E2E2E2E2E2E2E2E2E2E2E2E2E2E2E2E2E2E2E2E2E2E2E2E2E2E2E2E2E2E2E2E2E2E2E2E2E2E2E2E2E2E2E2E2E2E2E2E2E2E2E2E2E2E2E2E2E2E2E2E2E2E2E2E2E2E2E2E2E2E2E2E2E2E2E2E2E2E2E2E2E2E2E2E2E2
310
E2E2E2E2E2E2E2E2E2E2E2E2E2E2E2E2E2E2E2E2E2E2E2E2E2E2E2E2E2E2E2E2E2E2E2E2E2E2E2E2E2E2E2E2E2E2E2E2E2E2E2E2E2E2E2E2E2E2E2E2E2E2E2E2E2E2E2E2E2E2E2E2E2E2E2E2E2E2E2E2E2E2E2E2E2E2E2E2E2E2E2E2E2E2E2E2E2E2E2E2E2E2E2E2E2E2E2E2E2E2E2E2E2E2E2E2E2E2E2E2E2E2E2E2E2E2E2
310
E2E2E2E2E2E2E2E2E2E2E2E2E2E2E2E2E2E2E2E2E2E2E2E2E2E2E2E2E2E2E2E2E2E2E2E2E2E2E2E2E2E2E2E2E2E2E2E2E2E2E2E2E2E2E2E2E2E2E2E2E2E2E2E2E2E2E2E2E2E2E2E2E2E2E2E2E2E2E2E2E2E2E2E2E2E2E2E2E2E2E2E2E2E2E2E2E2E2E2E2E2E2E2E2E2E2E2E2E2E2E2E2E2E2E2E2E2E2E2E2E2E2E2E2E2E2E2
310
E2E2E2E2E2E2E2E2E2E2E2E2E2E2E2E2E2E2E2E2E2E2E2E2E2E2E2E2E2E2E2E2E2E2E2E2E2E2E2E2E2E2E2E2E2E2E2E2E2E2E2E2E2E2E2E2E2E2E2E2E2E2E2E2E2E2E2E2E2E2E2E2E2E2E2E2E2E2E2E2E2E2E2E2E2E2E2E2E2E2E2E2E2E2E2E2E2E2E2E2E2E2E2E2E2E2E2E2E2E2E2E2E2E2E2E2E2E2E2E2E2E2E2E2E2E2E2
310
E2E2E2E2E2E2E2E2E2E2E2E2E2E2E2E2E2E2E2E2E2E2E2E2E2E2E2E2E2E2E2E2E2E2E2E2E2E2E2E2E2E2E2E2E2E2E2E2E2E2E2E2E2E2E2E2E2E2E2E2E2E2E2E2E2E2E2E2E2E2E2E2E2E2E2E2E2E2E2E2E2E2E2E2E2E2E2E2E2E2E2E2E2E2E2E2E2E2E2E2E2E2E2E2E2E2E2E2E2E2E2E2E2E2E2E2E2E2E2E2E2E2E2E2E2E2E2
310
E2E2E2E2E2E2E2E2E2E2E2E2E2E2E2E2E2E2E2E2E2E2E2E2E2E2E2E2E2E2E2E2E2E2E2E2E2E2E2E2E2E2E2E2E2E2E2E2E2E2E2E2E2E2E2E2E2E2E2E2E2E2E2E2E2E2E2E2E2E2E2E2E2E2E2E2E2E2E2E2E2E2E2E2E2E2E2E2E2E2E2E2E2E2E2E2E2E2E2E2E2E2E2E2E2E2E2E2E2E2E2E2E2E2E2E2E2E2E2E2E2E2E2E2E2E2E2
310
E2E2E2E2E2E2E2E2E2E2E2E2E2E2E2E2E2E2E2E2E2E2E2E2E2E2E2E2E2E2E2E2E2E2E2E2E2E2E2E2E2E2E2E2E2E2E2E2E2E2E2E2E2E2E2E2E2E2E2E2E2E2E2E2E2E2E2E2E2E2E2E2E2E2E2E2E2E2E2E2E2E2E2E2E2E2E2E2E2E2E2E2E2E2E2E2E2E2E2E2E2E2E2E2E2E2E2E2E2E2E2E2E2E2E2E2E2E2E2E2E2E2E2E2E2E2E2
310
E2E2E2E2E2E2E2E2E2E2E2E2E2E2E2E2E2E2E2E2E2E2E2E2E2E2E2E2E2E2E2E2E2E2E2E2E2E2E2E2E2E2E2E2E2E2E2E2E2E2E2E2E2E2E2E2E2E2E2E2E2E2E2E2E2E2E2E2E2E2E2E2E2E2E2E2E2E2E2E2E2E2E2E2E2E2E2E2E2E2E2E2E2E2E2E2E2E2E2E2E2E2E2E2E2E2E2E2E2E2E2E2E2E2E2E2E2E2E2E2E2E2E2E2E2E2E2
310
E2E2E2E2E2E2E2E2E2E2E2E2E2E2E2E2E2E2E2E2E2E2E2E2E2E2E2E2E2E2E2E2E2E2E2E2E2E2E2E2E2E2E2E2E2E2E2E2E2E2E2E2E2E2E2E2E2E2E2E2E2E2E2E2E2E2E2E2E2E2E2E2E2E2E2E2E2E2E2E2E2E2E2E2E2E2E2E2E2E2E2E2E2E2E2E2E2E2E2E2E2E2E2E2E2E2E2E2E2E2E2E2E2E2E2E2E2E2E2E2E2E2E2E2E2E2E2
310
E2E2E2E2E2E2E2E2E2E2E2E2E2E2E2E2E2E2E2E2E2E2E2E2E2E2E2E2E2E2E2E2E2E2E2E2E2E2E2E2E2E2E2E2E2E2E2E2E2E2E2E2E2E2E2E2E2E2E2E2E2E2E2E2E2E2E2E2E2E2E2E2E2E2E2E2E2E2E2E2E2E2E2E2E2E2E2E2E2E2E2E2E2E2E2E2E2E2E2E2E2E2E2E2E2E2E2E2E2E2E2E2E2E2E2E2E2E2E2E2E2E2E2E2E2E2E2
310
E2E2E2E2E2E2E2E2E2E2E2E2E2E2E2E2E2E2E2E2E2E2E2E2E2E2E2E2E2E2E2E2E2E2E2E2E2E2E2E2E2E2E2E2E2E2E2E2E2E2E2E2E2E2E2E2E2E2E2E2E2E2E2E2E2E2E2E2E2E2E2E2E2E2E2E2E2E2E2E2E2E2E2E2E2E2E2E2E2E2E2E2E2E2E2E2E2E2E2E2E2E2E2E2E2E2E2E2E2E2E2E2E2E2E2E2E2E2E2E2E2E2E2E2E2E2E2
310
E2E2E2E2E2E2E2E2E2E2E2E2E2E2E2E2E2E2E2E2E2E2E2E2E2E2E2E2E2E2E2E2E2E2E2E2E2E2E2E2E2E2E2E2E2E2E2E2E2E2E2E2E2E2E2E2E2E2E2E2E2E2E2E2E2E2E2E2E2E2E2E2E2E2E2E2E2E2E2E2E2E2E2E2E2E2E2E2E2E2E2E2E2E2E2E2E2E2E2E2E2E2E2E2E2E2E2E2E2E2E2E2E2E2E2E2E2E2E2E2E2E2E2E2E2E2E2
310
E2E2E2E2E2E2E2E2E2E2E2E2E2E2E2E2E2E2E2E2E2E2E2E2E2E2E2E2E2E2E2E2E2E2E2E2E2E2E2E2E2E2E2E2E2E2E2E2E2E2E2E2E2E2E2E2E2E2E2E2E2E2E2E2E2E2E2E2E2E2E2E2E2E2E2E2E2E2E2E2E2E2E2E2E2E2E2E2E2E2E2E2E2E2E2E2E2E2E2E2E2E2E2E2E2E2E2E2E2E2E2E2E2E2E2E2E2E2E2E2E2E2E2E2E2E2E2
310
E2E2E2E2E2E2E2E2E2E2E2E2E2E2E2E2E2E2E2E2E2E2E2E2E2E2E2E2E2E2E2E2E2E2E2E2E2E2E2E2E2E2E2E2E2E2E2E2E2E2E2E2E2E2E2E2E2E2E2E2E2E2E2E2E2E2E2E2E2E2E2E2E2E2E2E2E2E2E2E2E2E2E2E2E2E2E2E2E2E2E2E2E2E2E2E2E2E2E2E2E2E2E2E2E2E2E2E2E2E2E2E2E2E2E2E2E2E2E2E2E2E2E2E2E2E2E2
310
E2E2E2E2E2E2E2E2E2E2E2E2E2E2E2E2E2E2E2E2E2E2E2E2E2E2E2E2E2E2E2E2E2E2E2E2E2E2E2E2E2E2E2E2E2E2E2E2E2E2E2E2E2E2E2E2E2E2E2E2E2E2E2E2E2E2E2E2E2E2E2E2E2E2E2E2E2E2E2E2E2E2E2E2E2E2E2E2E2E2E2E2E2E2E2E2E2E2E2E2E2E2E2E2E2E2E2E2E2E2E2E2E2E2E2E2E2E2E2E2E2E2E2E2E2E2E2
310
E2E2E2E2E2E2E2E2E2E2E2E2E2E2E2E2E2E2E2E2E2E2E2E2E2E2E2E2E2E2E2E2E2E2E2E2E2E2E2E2E2E2E2E2E2E2E2E2E2E2E2E2E2E2E2E2E2E2E2E2E2E2E2E2E2E2E2E2E2E2E2E2E2E2E2E2E2E2E2E2E2E2E2E2E2E2E2E2E2E2E2E2E2E2E2E2E2E2E2E2E2E2E2E2E2E2E2E2E2E2E2E2E2E2E2E2E2E2E2E2E2E2E2E2E2E2E2
310
E2E2E2E2E2E2E2E2E2E2E2E2E2E2E2E2E2E2E2E2E2E2E2E2E2E2E2E2E2E2E2E2E2E2E2E2E2E2E2E2E2E2E2E2E2E2E2E2E2E2E2E2E2E2E2E2E2E2E2E2E2E2E2E2E2E2E2E2E2E2E2E2E2E2E2E2E2E2E2E2E2E2E2E2E2E2E2E2E2E2E2E2E2E2E2E2E2E2E2E2E2E2E2E2E2E2E2E2E2E2E2E2E2E2E2E2E2E2E2E2E2E2E2E2E2E2E2
310
E2E2E2E2E2E2E2E2E2E2E2E2E2E2E2E2E2E2E2E2E2E2E2E2E2E2E2E2E2E2E2E2E2E2E2E2E2E2E2E2E2E2E2E2E2E2E2E2E2E2E2E2E2E2E2E2E2E2E2E2E2E2E2E2E2E2E2E2E2E2E2E2E2E2E2E2E2E2E2E2E2E2E2E2E2E2E2E2E2E2E2E2E2E2E2E2E2E2E2E2E2E2E2E2E2E2E2E2E2E2E2E2E2E2E2E2E2E2E2E2E2E2E2E2E2E2E2
310
E2E2E2E2E2E2E2E2E2E2E2E2E2E2E2E2E2E2E2E2E2E2E2E2E2E2E2E2E2E2E2E2E2E2E2E2E2E2E2E2E2E2E2E2E2E2E2E2E2E2E2E2E2E2E2E2E2E2E2E2E2E2E2E2E2E2E2E2E2E2E2E2E2E2E2E2E2E2E2E2E2E2E2E2E2E2E2E2E2E2E2E2E2E2E2E2E2E2E2E2E2E2E2E2E2E2E2E2E2E2E2E2E2E2E2E2E2E2E2E2E2E2E2E2E2E2E2
310
E2E2E2E2E2E2E2E2E2E2E2E2E2E2E2E2E2E2E2E2E2E2E2E2E2E2E2E2E2E2E2E2E2E2E2E2E2E2E2E2E2E2E2E2E2E2E2E2E2E2E2E2E2E2E2E2E2E2E2E2E2E2E2E2E2E2E2E2E2E2E2E2E2E2E2E2E2E2E2E2E2E2E2E2E2E2E2E2E2E2E2E2E2E2E2E2E2E2E2E2E2E2E2E2E2E2E2E2E2E2E2E2E2E2E2E2E2E2E2E2E2E2E2E2E2E2E2
310
E2E2E2E2E2E2E2E2E2E2E2E2E2E2E2E2E2E2E2E2E2E2E2E2E2E2E2E2E2E2E2E2E2E2E2E2E2E2E2E2E2E2E2E2E2E2E2E2E2E2E2E2E2E2E2E2E2E2E2E2E2E2E2E2E2E2E2E2E2E2E2E2E2E2E2E2E2E2E2E2E2E2E2E2E2E2E2E2E2E2E2E2E2E2E2E2E2E2E2E2E2E2E2E2E2E2E2E2E2E2E2E2E2E2E2E2E2E2E2E2E2E2E2E2E2E2E2
310
E2E2E2E2E2E2E2E2E2E2E2E2E2E2E2E2E2E2E2E2E2E2E2E2E2E2E2E2E2E2E2E2E2E2E2E2E2E2E2E2E2E2E2E2E2E2E2E2E2E2E2E2E2E2E2E2E2E2E2E2E2E2E2E2E2E2E2E2E2E2E2E2E2E2E2E2E2E2E2E2E2E2E2E2E2E2E2E2E2E2E2E2E2E2E2E2E2E2E2E2E2E2E2E2E2E2E2E2E2E2E2E2E2E2E2E2E2E2E2E2E2E2E2E2E2E2E2
310
E2E2E2E2E2E2E2E2E2E2E2E2E2E2E2E2E2E2E2E2E2E2E2E2E2E2E2E2E2E2E2E2E2E2E2E2E2E2E2E2E2E2E2E2E2E2E2E2E2E2E2E2E2E2E2E2E2E2E2E2E2E2E2E2E2E2E2E2E2E2E2E2E2E2E2E2E2E2E2E2E2E2E2E2E2E2E2E2E2E2E2E2E2E2E2E2E2E2E2E2E2E2E2E2E2E2E2E2E2E2E2E2E2E2E2E2E2E2E2E2E2E2E2E2E2E2E2
310
E2E2E2E2E2E2E2E2E2E2E2E2E2E2E2E2E2E2E2E2E2E2E2E2E2E2E2E2E2E2E2E2E2E2E2E2E2E2E2E2E2E2E2E2E2E2E2E2E2E2E2E2E2E2E2E2E2E2E2E2E2E2E2E2E2E2E2E2E2E2E2E2E2E2E2E2E2E2E2E2E2E2E2E2E2E2E2E2E2E2E2E2E2E2E2E2E2E2E2E2E2E2E2E2E2E2E2E2E2E2E2E2E2E2E2E2E2E2E2E2E2E2E2E2E2E2E2
310
E2E2E2E2E2E2E2E2E2E2E2E2E2E2E2E2E2E2E2E2E2E2E2E2E2E2E2E2E2E2E2E2E2E2E2E2E2E2E2E2E2E2E2E2E2E2E2E2E2E2E2E2E2E2E2E2E2E2E2E2E2E2E2E2E2E2E2E2E2E2E2E2E2E2E2E2E2E2E2E2E2E2E2E2E2E2E2E2E2E2E2E2E2E2E2E2E2E2E2E2E2E2E2E2E2E2E2E2E2E2E2E2E2E2E2E2E2E2E2E2E2E2E2E2E2E2E2
310
E2E2E2E2E2E2E2E2E2E2E2E2E2E2E2E2E2E2E2E2E2E2E2E2E2E2E2E2E2E2E2E2E2E2E2E2E2E2E2E2E2E2E2E2E2E2E2E2E2E2E2E2E2E2E2E2E2E2E2E2E2E2E2E2E2E2E2E2E2E2E2E2E2E2E2E2E2E2E2E2E2E2E2E2E2E2E2E2E2E2E2E2E2E2E2E2E2E2E2E2E2E2E2E2E2E2E2E2E2E2E2E2E2E2E2E2E2E2E2E2E2E2E2E2E2E2E2
310
E2E2E2E2E2E2E2E2E2E2E2E2E2E2E2E2E2E2E2E2E2E2E2E2E2E2E2E2E2E2E2E2E2E2E2E2E2E2E2E2E2E2E2E2E2E2E2E2E2E2E2E2E2E2E2E2E2E2E2E2E2E2E2E2E2E2E2E2E2E2E2E2E2E2E2E2E2E2E2E2E2E2E2E2E2E2E2E2E2E2E2E2E2E2E2E2E2E2E2E2E2E2E2E2E2E2E2E2E2E2E2E2E2E2E2E2E2E2E2E2E2E2E2E2E2E2E2
310
E2E2E2E2E2E2E2E2E2E2E2E2E2E2E2E2E2E2E2E2E2E2E2E2E2E2E2E2E2E2E2E2E2E2E2E2E2E2E2E2E2E2E2E2E2E2E2E2E2E2E2E2E2E2E2E2E2E2E2E2E2E2E2E2E2E2E2E2E2E2E2E2E2E2E2E2E2E2E2E2E2E2E2E2E2E2E2E2E2E2E2E2E2E2E2E2E2E2E2E2E2E2E2E2E2E2E2E2E2E2E2E2E2E2E2E2E2E2E2E2E2E2E2E2E2E2E2
310
E2E2E2E2E2E2E2E2E2E2E2E2E2E2E2E2E2E2E2E2E2E2E2E2E2E2E2E2E2E2E2E2E2E2E2E2E2E2E2E2E2E2E2E2E2E2E2E2E2E2E2E2E2E2E2E2E2E2E2E2E2E2E2E2E2E2E2E2E2E2E2E2E2E2E2E2E2E2E2E2E2E2E2E2E2E2E2E2E2E2E2E2E2E2E2E2E2E2E2E2E2E2E2E2E2E2E2E2E2E2E2E2E2E2E2E2E2E2E2E2E2E2E2E2E2E2E2
310
E2E2E2E2E2E2E2E2E2E2E2E2E2E2E2E2E2E2E2E2E2E2E2E2E2E2E2E2E2E2E2E2E2E2E2E2E2E2E2E2E2E2E2E2E2E2E2E2E2E2E2E2E2E2E2E2E2E2E2E2E2E2E2E2E2E2E2E2E2E2E2E2E2E2E2E2E2E2E2E2E2E2E2E2E2E2E2E2E2E2E2E2E2E2E2E2E2E2E2E2E2E2E2E2E2E2E2E2E2E2E2E2E2E2E2E2E2E2E2E2E2E2E2E2E2E2E2
310
E2E2E2E2E2E2E2E2E2E2E2E2E2E2E2E2E2E2E2E2E2E2E2E2E2E2E2E2E2E2E2E2E2E2E2E2E2E2E2E2E2E2E2E2E2E2E2E2E2E2E2E2E2E2E2E2E2E2E2E2E2E2E2E2E2E2E2E2E2E2E2E2E2E2E2E2E2E2E2E2E2E2E2E2E2E2E2E2E2E2E2E2E2E2E2E2E2E2E2E2E2E2E2E2E2E2E2E2E2E2E2E2E2E2E2E2E2E2E2E2E2E2E2E2E2E2E2
310
E2E2E2E2E2E2E2E2E2E2E2E2E2E2E2E2E2E2E2E2E2E2E2E2E2E2E2E2E2E2E2E2E2E2E2E2E2E2E2E2E2E2E2E2E2E2E2E2E2E2E2E2E2E2E2E2E2E2E2E2E2E2E2E2E2E2E2E2E2E2E2E2E2E2E2E2E2E2E2E2E2E2E2E2E2E2E2E2E2E2E2E2E2E2E2E2E2E2E2E2E2E2E2E2E2E2E2E2E2E2E2E2E2E2E2E2E2E2E2E2E2E2E2E2E2E2E2
310
E2E2E2E2E2E2E2E2E2E2E2E2E2E2E2E2E2E2E2E2E2E2E2E2E2E2E2E2E2E2E2E2E2E2E2E2E2E2E2E2E2E2E2E2E2E2E2E2E2E2E2E2E2E2E2E2E2E2E2E2E2E2E2E2E2E2E2E2E2E2E2E2E2E2E2E2E2E2E2E2E2E2E2E2E2E2E2E2E2E2E2E2E2E2E2E2E2E2E2E2E2E2E2E2E2E2E2E2E2E2E2E2E2E2E2E2E2E2E2E2E2E2E2E2E2E2E2
310
E2E2E2E2E2E2E2E2E2E2E2E2E2E2E2E2E2E2E2E2E2E2E2E2E2E2E2E2E2E2E2E2E2E2E2E2E2E2E2E2E2E2E2E2E2E2E2E2E2E2E2E2E2E2E2E2E2E2E2E2E2E2E2E2E2E2E2E2E2E2E2E2E2E2E2E2E2E2E2E2E2E2E2E2E2E2E2E2E2E2E2E2E2E2E2E2E2E2E2E2E2E2E2E2E2E2E2E2E2E2E2E2E2E2E2E2E2E2E2E2E2E2E2E2E2E2E2
310
E2E2E2E2E2E2E2E2E2E2E2E2E2E2E2E2E2E2E2E2E2E2E2E2E2E2E2E2E2E2E2E2E2E2E2E2E2E2E2E2E2E2E2E2E2E2E2E2E2E2E2E2E2E2E2E2E2E2E2E2E2E2E2E2E2E2E2E2E2E2E2E2E2E2E2E2E2E2E2E2E2E2E2E2E2E2E2E2E2E2E2E2E2E2E2E2E2E2E2E2E2E2E2E2E2E2E2E2E2E2E2E2E2E2E2E2E2E2E2E2E2E2E2E2E2E2E2
310
E2E2E2E2E2E2E2E2E2E2E2E2E2E2E2E2E2E2E2E2E2E2E2E2E2E2E2E2E2E2E2E2E2E2E2E2E2E2E2E2E2E2E2E2E2E2E2E2E2E2E2E2E2E2E2E2E2E2E2E2E2E2E2E2E2E2E2E2E2E2E2E2E2E2E2E2E2E2E2E2E2E2E2E2E2E2E2E2E2E2E2E2E2E2E2E2E2E2E2E2E2E2E2E2E2E2E2E2E2E2E2E2E2E2E2E2E2E2E2E2E2E2E2E2E2E2E2
310
E2E2E2E2E2E2E2E2E2E2E2E2E2E2E2E2E2E2E2E2E2E2E2E2E2E2E2E2E2E2E2E2E2E2E2E2E2E2E2E2E2E2E2E2E2E2E2E2E2E2E2E2E2E2E2E2E2E2E2E2E2E2E2E2E2E2E2E2E2E2E2E2E2E2E2E2E2E2E2E2E2E2E2E2E2E2E2E2E2E2E2E2E2E2E2E2E2E2E2E2E2E2E2E2E2E2E2E2E2E2E2E2E2E2E2E2E2E2E2E2E2E2E2E2E2E2E2
310
E2E2E2E2E2E2E2E2E2E2E2E2E2E2E2E2E2E2E2E2E2E2E2E2E2E2E2E2E2E2E2E2E2E2E2E2E2E2E2E2E2E2E2E2E2E2E2E2E2E2E2E2E2E2E2E2E2E2E2E2E2E2E2E2E2E2E2E2E2E2E2E2E2E2E2E2E2E2E2E2E2E2E2E2E2E2E2E2E2E2E2E2E2E2E2E2E2E2E2E2E2E2E2E2E2E2E2E2E2E2E2E2E2E2E2E2E2E2E2E2E2E2E2E2E2E2E2
310
E2E2E2E2E2E2E2E2E2E2E2E2E2E2E2E2E2E2E2E2E2E2E2E2E2E2E2E2E2E2E2E2E2E2E2E2E2E2E2E2E2E2E2E2E2E2E2E2E2E2E2E2E2E2E2E2E2E2E2E2E2E2E2E2E2E2E2E2E2E2E2E2E2E2E2E2E2E2E2E2E2E2E2E2E2E2E2E2E2E2E2E2E2E2E2E2E2E2E2E2E2E2E2E2E2E2E2E2E2E2E2E2E2E2E2E2E2E2E2E2E2E2E2E2E2E2E2
310
E2E2E2E2E2E2E2E2E2E2E2E2E2E2E2E2E2E2E2E2E2E2E2E2E2E2E2E2E2E2E2E2E2E2E2E2E2E2E2E2E2E2E2E2E2E2E2E2E2E2E2E2E2E2E2E2E2E2E2E2E2E2E2E2E2E2E2E2E2E2E2E2E2E2E2E2E2E2E2E2E2E2E2E2E2E2E2E2E2E2E2E2E2E2E2E2E2E2E2E2E2E2E2E2E2E2E2E2E2E2E2E2E2E2E2E2E2E2E2E2E2E2E2E2E2E2E2
310
E2E2E2E2E2E2E2E2E2E2E2E2E2E2E2E2E2E2E2E2E2E2E2E2E2E2E2E2E2E2E2E2E2E2E2E2E2E2E2E2E2E2E2E2E2E2E2E2E2E2E2E2E2E2E2E2E2E2E2E2E2E2E2E2E2E2E2E2E2E2E2E2E2E2E2E2E2E2E2E2E2E2E2E2E2E2E2E2E2E2E2E2E2E2E2E2E2E2E2E2E2E2E2E2E2E2E2E2E2E2E2E2E2E2E2E2E2E2E2E2E2E2E2E2E2E2E2
310
E2E2E2E2E2E2E2E2E2E2E2E2E2E2E2E2E2E2E2E2E2E2E2E2E2E2E2E2E2E2E2E2E2E2E2E2E2E2E2E2E2E2E2E2E2E2E2E2E2E2E2E2E2E2E2E2E2E2E2E2E2E2E2E2E2E2E2E2E2E2E2E2E2E2E2E2E2E2E2E2E2E2E2E2E2E2E2E2E2E2E2E2E2E2E2E2E2E2E2E2E2E2E2E2E2E2E2E2E2E2E2E2E2E2E2E2E2E2E2E2E2E2E2E2E2E2E2
310
E2E2E2E2E2E2E2E2E2E2E2E2E2E2E2E2E2E2E2E2E2E2E2E2E2E2E2E2E2E2E2E2E2E2E2E2E2E2E2E2E2E2E2E2E2E2E2E2E2E2E2E2E2E2E2E2E2E2E2E2E2E2E2E2E2E2E2E2E2E2E2E2E2E2E2E2E2E2E2E2E2E2E2E2E2E2E2E2E2E2E2E2E2E2E2E2E2E2E2E2E2E2E2E2E2E2E2E2E2E2E2E2E2E2E2E2E2E2E2E2E2E2E2E2E2E2E2
310
E2E2E2E2E2E2E2E2E2E2E2E2E2E2E2E2E2E2E2E2E2E2E2E2E2E2E2E2E2E2E2E2E2E2E2E2E2E2E2E2E2E2E2E2E2E2E2E2E2E2E2E2E2E2E2E2E2E2E2E2E2E2E2E2E2E2E2E2E2E2E2E2E2E2E2E2E2E2E2E2E2E2E2E2E2E2E2E2E2E2E2E2E2E2E2E2E2E2E2E2E2E2E2E2E2E2E2E2E2E2E2E2E2E2E2E2E2E2E2E2E2E2E2E2E2E2E2
310
E2E2E2E2E2E2E2E2E2E2E2E2E2E2E2E2E2E2E2E2E2E2E2E2E2E2E2E2E2E2E2E2E2E2E2E2E2E2E2E2E2E2E2E2E2E2E2E2E2E2E2E2E2E2E2E2E2E2E2E2E2E2E2E2E2E2E2E2E2E2E2E2E2E2E2E2E2E2E2E2E2E2E2E2E2E2E2E2E2E2E2E2E2E2E2E2E2E2E2E2E2E2E2E2E2E2E2E2E2E2E2E2E2E2E2E2E2E2E2E2E2E2E2E2E2E2E2
310
E2E2E2E2E2E2E2E2E2E2E2E2E2E2E2E2E2E2E2E2E2E2E2E2E2E2E2E2E2E2E2E2E2E2E2E2E2E2E2E2E2E2E2E2E2E2E2E2E2E2E2E2E2E2E2E2E2E2E2E2E2E2E2E2E2E2E2E2E2E2E2E2E2E2E2E2E2E2E2E2E2E2E2E2E2E2E2E2E2E2E2E2E2E2E2E2E2E2E2E2E2E2E2E2E2E2E2E2E2E2E2E2E2E2E2E2E2E2E2E2E2E2E2E2E2E2E2
310
E2E2E2E2E2E2E2E2E2E2E2E2E2E2E2E2E2E2E2E2E2E2E2E2E2E2E2E2E2E2E2E2E2E2E2E2E2E2E2E2E2E2E2E2E2E2E2E2E2E2E2E2E2E2E2E2E2E2E2E2E2E2E2E2E2E2E2E2E2E2E2E2E2E2E2E2E2E2E2E2E2E2E2E2E2E2E2E2E2E2E2E2E2E2E2E2E2E2E2E2E2E2E2E2E2E2E2E2E2E2E2E2E2E2E2E2E2E2E2E2E2E2E2E2E2E2E2
310
E2E2E2E2E2E2E2E2E2E2E2E2E2E2E2E2E2E2E2E2E2E2E2E2E2E2E2E2E2E2E2E2E2E2E2E2E2E2E2E2E2E2E2E2E2E2E2E2E2E2E2E2E2E2E2E2E2E2E2E2E2E2E2E2E2E2E2E2E2E2E2E2E2E2E2E2E2E2E2E2E2E2E2E2E2E2E2E2E2E2E2E2E2E2E2E2E2E2E2E2E2E2E2E2E2E2E2E2E2E2E2E2E2E2E2E2E2E2E2E2E2E2E2E2E2E2E2
310
E2E2E2E2E2E2E2E2E2E2E2E2E2E2E2E2E2E2E2E2E2E2E2E2E2E2E2E2E2E2E2E2E2E2E2E2E2E2E2E2E2E2E2E2E2E2E2E2E2E2E2E2E2E2E2E2E2E2E2E2E2E2E2E2E2E2E2E2E2E2E2E2E2E2E2E2E2E2E2E2E2E2E2E2E2E2E2E2E2E2E2E2E2E2E2E2E2E2E2E2E2E2E2E2E2E2E2E2E2E2E2E2E2E2E2E2E2E2E2E2E2E2E2E2E2E2E2
310
E2E2E2E2E2E2E2E2E2E2E2E2E2E2E2E2E2E2E2E2E2E2E2E2E2E2E2E2E2E2E2E2E2E2E2E2E2E2E2E2E2E2E2E2E2E2E2E2E2E2E2E2E2E2E2E2E2E2E2E2E2E2E2E2E2E2E2E2E2E2E2E2E2E2E2E2E2E2E2E2E2E2E2E2E2E2E2E2E2E2E2E2E2E2E2E2E2E2E2E2E2E2E2E2E2E2E2E2E2E2E2E2E2E2E2E2E2E2E2E2E2E2E2E2E2E2E2
310
E2E2E2E2E2E2E2E2E2E2E2E2E2E2E2E2E2E2E2E2E2E2E2E2E2E2E2E2E2E2E2E2E2E2E2E2E2E2E2E2E2E2E2E2E2E2E2E2E2E2E2E2E2E2E2E2E2E2E2E2E2E2E2E2E2E2E2E2E2E2E2E2E2E2E2E2E2E2E2E2E2E2E2E2E2E2E2E2E2E2E2E2E2E2E2E2E2E2E2E2E2E2E2E2E2E2E2E2E2E2E2E2E2E2E2E2E2E2E2E2E2E2E2E2E2E2E2
310
E2E2E2E2E2E2E2E2E2E2E2E2E2E2E2E2E2E2E2E2E2E2E2E2E2E2E2E2E2E2E2E2E2E2E2E2E2E2E2E2E2E2E2E2E2E2E2E2E2E2E2E2E2E2E2E2E2E2E2E2E2E2E2E2E2E2E2E2E2E2E2E2E2E2E2E2E2E2E2E2E2E2E2E2E2E2E2E2E2E2E2E2E2E2E2E2E2E2E2E2E2E2E2E2E2E2E2E2E2E2E2E2E2E2E2E2E2E2E2E2E2E2E2E2E2E2E2
310
E2E2E2E2E2E2E2E2E2E2E2E2E2E2E2E2E2E2E2E2E2E2E2E2E2E2E2E2E2E2E2E2E2E2E2E2E2E2E2E2E2E2E2E2E2E2E2E2E2E2E2E2E2E2E2E2E2E2E2E2E2E2E2E2E2E2E2E2E2E2E2E2E2E2E2E2E2E2E2E2E2E2E2E2E2E2E2E2E2E2E2E2E2E2E2E2E2E2E2E2E2E2E2E2E2E2E2E2E2E2E2E2E2E2E2E2E2E2E2E2E2E2E2E2E2E2E2
310
E2E2E2E2E2E2E2E2E2E2E2E2E2E2E2E2E2E2E2E2E2E2E2E2E2E2E2E2E2E2E2E2E2E2E2E2E2E2E2E2E2E2E2E2E2E2E2E2E2E2E2E2E2E2E2E2E2E2E2E2E2E2E2E2E2E2E2E2E2E2E2E2E2E2E2E2E2E2E2E2E2E2E2E2E2E2E2E2E2E2E2E2E2E2E2E2E2E2E2E2E2E2E2E2E2E2E2E2E2E2E2E2E2E2E2E2E2E2E2E2E2E2E2E2E2E2E2
310
E2E2E2E2E2E2E2E2E2E2E2E2E2E2E2E2E2E2E2E2E2E2E2E2E2E2E2E2E2E2E2E2E2E2E2E2E2E2E2E2E2E2E2E2E2E2E2E2E2E2E2E2E2E2E2E2E2E2E2E2E2E2E2E2E2E2E2E2E2E2E2E2E2E2E2E2E2E2E2E2E2E2E2E2E2E2E2E2E2E2E2E2E2E2E2E2E2E2E2E2E2E2E2E2E2E2E2E2E2E2E2E2E2E2E2E2E2E2E2E2E2E2E2E2E2E2E2
310
E2E2E2E2E2E2E2E2E2E2E2E2E2E2E2E2E2E2E2E2E2E2E2E2E2E2E2E2E2E2E2E2E2E2E2E2E2E2E2E2E2E2E2E2E2E2E2E2E2E2E2E2E2E2E2E2E2E2E2E2E2E2E2E2E2E2E2E2E2E2E2E2E2E2E2E2E2E2E2E2E2E2E2E2E2E2E2E2E2E2E2E2E2E2E2E2E2E2E2E2E2E2E2E2E2E2E2E2E2E2E2E2E2E2E2E2E2E2E2E2E2E2E2E2E2E2E2
310
E2E2E2E2E2E2E2E2E2E2E2E2E2E2E2E2E2E2E2E2E2E2E2E2E2E2E2E2E2E2E2E2E2E2E2E2E2E2E2E2E2E2E2E2E2E2E2E2E2E2E2E2E2E2E2E2E2E2E2E2E2E2E2E2E2E2E2E2E2E2E2E2E2E2E2E2E2E2E2E2E2E2E2E2E2E2E2E2E2E2E2E2E2E2E2E2E2E2E2E2E2E2E2E2E2E2E2E2E2E2E2E2E2E2E2E2E2E2E2E2E2E2E2E2E2E2E2
310
E2E2E2E2E2E2E2E2E2E2E2E2E2E2E2E2E2E2E2E2E2E2E2E2E2E2E2E2E2E2E2E2E2E2E2E2E2E2E2E2E2E2E2E2E2E2E2E2E2E2E2E2E2E2E2E2E2E2E2E2E2E2E2E2E2E2E2E2E2E2E2E2E2E2E2E2E2E2E2E2E2E2E2E2E2E2E2E2E2E2E2E2E2E2E2E2E2E2E2E2E2E2E2E2E2E2E2E2E2E2E2E2E2E2E2E2E2E2E2E2E2E2E2E2E2E2E2
310
E2E2E2E2E2E2E2E2E2E2E2E2E2E2E2E2E2E2E2E2E2E2E2E2E2E2E2E2E2E2E2E2E2E2E2E2E2E2E2E2E2E2E2E2E2E2E2E2E2E2E2E2E2E2E2E2E2E2E2E2E2E2E2E2E2E2E2E2E2E2E2E2E2E2E2E2E2E2E2E2E2E2E2E2E2E2E2E2E2E2E2E2E2E2E2E2E2E2E2E2E2E2E2E2E2E2E2E2E2E2E2E2E2E2E2E2E2E2E2E2E2E2E2E2E2E2E2
310
E2E2E2E2E2E2E2E2E2E2E2E2E2E2E2E2E2E2E2E2E2E2E2E2E2E2E2E2E2E2E2E2E2E2E2E2E2E2E2E2E2E2E2E2E2E2E2E2E2E2E2E2E2E2E2E2E2E2E2E2E2E2E2E2E2E2E2E2E2E2E2E2E2E2E2E2E2E2E2E2E2E2E2E2E2E2E2E2E2E2E2E2E2E2E2E2E2E2E2E2E2E2E2E2E2E2E2E2E2E2E2E2E2E2E2E2E2E2E2E2E2E2E2E2E2E2E2
310
E2E2E2E2E2E2E2E2E2E2E2E2E2E2E2E2E2E2E2E2E2E2E2E2E2E2E2E2E2E2E2E2E2E2E2E2E2E2E2E2E2E2E2E2E2E2E2E2E2E2E2E2E2E2E2E2E2E2E2E2E2E2E2E2E2E2E2E2E2E2E2E2E2E2E2E2E2E2E2E2E2E2E2E2E2E2E2E2E2E2E2E2E2E2E2E2E2E2E2E2E2E2E2E2E2E2E2E2E2E2E2E2E2E2E2E2E2E2E2E2E2E2E2E2E2E2E2
310
E2E2E2E2E2E2E2E2E2E2E2E2E2E2E2E2E2E2E2E2E2E2E2E2E2E2E2E2E2E2E2E2E2E2E2E2E2E2E2E2E2E2E2E2E2E2E2E2E2E2E2E2E2E2E2E2E2E2E2E2E2E2E2E2E2E2E2E2E2E2E2E2E2E2E2E2E2E2E2E2E2E2E2E2E2E2E2E2E2E2E2E2E2E2E2E2E2E2E2E2E2E2E2E2E2E2E2E2E2E2E2E2E2E2E2E2E2E2E2E2E2E2E2E2E2E2E2
310
E2E2E2E2E2E2E2E2E2E2E2E2E2E2E2E2E2E2E2E2E2E2E2E2E2E2E2E2E2E2E2E2E2E2E2E2E2E2E2E2E2E2E2E2E2E2E2E2E2E2E2E2E2E2E2E2E2E2E2E2E2E2E2E2E2E2E2E2E2E2E2E2E2E2E2E2E2E2E2E2E2E2E2E2E2E2E2E2E2E2E2E2E2E2E2E2E2E2E2E2E2E2E2E2E2E2E2E2E2E2E2E2E2E2E2E2E2E2E2E2E2E2E2E2E2E2E2
310
E2E2E2E2E2E2E2E2E2E2E2E2E2E2E2E2E2E2E2E2E2E2E2E2E2E2E2E2E2E2E2E2E2E2E2E2E2E2E2E2E2E2E2E2E2E2E2E2E2E2E2E2E2E2E2E2E2E2E2E2E2E2E2E2E2E2E2E2E2E2E2E2E2E2E2E2E2E2E2E2E2E2E2E2E2E2E2E2E2E2E2E2E2E2E2E2E2E2E2E2E2E2E2E2E2E2E2E2E2E2E2E2E2E2E2E2E2E2E2E2E2E2E2E2E2E2E2
310
E2E2E2E2E2E2E2E2E2E2E2E2E2E2E2E2E2E2E2E2E2E2E2E2E2E2E2E2E2E2E2E2E2E2E2E2E2E2E2E2E2E2E2E2E2E2E2E2E2E2E2E2E2E2E2E2E2E2E2E2E2E2E2E2E2E2E2E2E2E2E2E2E2E2E2E2E2E2E2E2E2E2E2E2E2E2E2E2E2E2E2E2E2E2E2E2E2E2E2E2E2E2E2E2E2E2E2E2E2E2E2E2E2E2E2E2E2E2E2E2E2E2E2E2E2E2E2
310
E2E2E2E2E2E2E2E2E2E2E2E2E2E2E2E2E2E2E2E2E2E2E2E2E2E2E2E2E2E2E2E2E2E2E2E2E2E2E2E2E2E2E2E2E2E2E2E2E2E2E2E2E2E2E2E2E2E2E2E2E2E2E2E2E2E2E2E2E2E2E2E2E2E2E2E2E2E2E2E2E2E2E2E2E2E2E2E2E2E2E2E2E2E2E2E2E2E2E2E2E2E2E2E2E2E2E2E2E2E2E2E2E2E2E2E2E2E2E2E2E2E2E2E2E2E2E2
310
E2E2E2E2E2E2E2E2E2E2E2E2E2E2E2E2E2E2E2E2E2E2E2E2E2E2E2E2E2E2E2E2E2E2E2E2E2E2E2E2E2E2E2E2E2E2E2E2E2E2E2E2E2E2E2E2E2E2E2E2E2E2E2E2E2E2E2E2E2E2E2E2E2E2E2E2E2E2E2E2E2E2E2E2E2E2E2E2E2E2E2E2E2E2E2E2E2E2E2E2E2E2E2E2E2E2E2E2E2E2E2E2E2E2E2E2E2E2E2E2E2E2E2E2E2E2E2
310
E2E2E2E2E2E2E2E2E2E2E2E2E2E2E2E2E2E2E2E2E2E2E2E2E2E2E2E2E2E2E2E2E2E2E2E2E2E2E2E2E2E2E2E2E2E2E2E2E2E2E2E2E2E2E2E2E2E2E2E2E2E2E2E2E2E2E2E2E2E2E2E2E2E2E2E2E2E2E2E2E2E2E2E2E2E2E2E2E2E2E2E2E2E2E2E2E2E2E2E2E2E2E2E2E2E2E2E2E2E2E2E2E2E2E2E2E2E2E2E2E2E2E2E2E2E2E2
310
E2E2E2E2E2E2E2E2E2E2E2E2E2E2E2E2E2E2E2E2E2E2E2E2E2E2E2E2E2E2E2E2E2E2E2E2E2E2E2E2E2E2E2E2E2E2E2E2E2E2E2E2E2E2E2E2E2E2E2E2E2E2E2E2E2E2E2E2E2E2E2E2E2E2E2E2E2E2E2E2E2E2E2E2E2E2E2E2E2E2E2E2E2E2E2E2E2E2E2E2E2E2E2E2E2E2E2E2E2E2E2E2E2E2E2E2E2E2E2E2E2E2E2E2E2E2E2
310
E2E2E2E2E2E2E2E2E2E2E2E2E2E2E2E2E2E2E2E2E2E2E2E2E2E2E2E2E2E2E2E2E2E2E2E2E2E2E2E2E2E2E2E2E2E2E2E2E2E2E2E2E2E2E2E2E2E2E2E2E2E2E2E2E2E2E2E2E2E2E2E2E2E2E2E2E2E2E2E2E2E2E2E2E2E2E2E2E2E2E2E2E2E2E2E2E2E2E2E2E2E2E2E2E2E2E2E2E2E2E2E2E2E2E2E2E2E2E2E2E2E2E2E2E2E2E2
310
E2E2E2E2E2E2E2E2E2E2E2E2E2E2E2E2E2E2E2E2E2E2E2E2E2E2E2E2E2E2E2E2E2E2E2E2E2E2E2E2E2E2E2E2E2E2E2E2E2E2E2E2E2E2E2E2E2E2E2E2E2E2E2E2E2E2E2E2E2E2E2E2E2E2E2E2E2E2E2E2E2E2E2E2E2E2E2E2E2E2E2E2E2E2E2E2E2E2E2E2E2E2E2E2E2E2E2E2E2E2E2E2E2E2E2E2E2E2E2E2E2E2E2E2E2E2E2
310
E2E2E2E2E2E2E2E2E2E2E2E2E2E2E2E2E2E2E2E2E2E2E2E2E2E2E2E2E2E2E2E2E2E2E2E2E2E2E2E2E2E2E2E2E2E2E2E2E2E2E2E2E2E2E2E2E2E2E2E2E2E2E2E2E2E2E2E2E2E2E2E2E2E2E2E2E2E2E2E2E2E2E2E2E2E2E2E2E2E2E2E2E2E2E2E2E2E2E2E2E2E2E2E2E2E2E2E2E2E2E2E2E2E2E2E2E2E2E2E2E2E2E2E2E2E2E2
310
E2E2E2E2E2E2E2E2E2E2E2E2E2E2E2E2E2E2E2E2E2E2E2E2E2E2E2E2E2E2E2E2E2E2E2E2E2E2E2E2E2E2E2E2E2E2E2E2E2E2E2E2E2E2E2E2E2E2E2E2E2E2E2E2E2E2E2E2E2E2E2E2E2E2E2E2E2E2E2E2E2E2E2E2E2E2E2E2E2E2E2E2E2E2E2E2E2E2E2E2E2E2E2E2E2E2E2E2E2E2E2E2E2E2E2E2E2E2E2E2E2E2E2E2E2E2E2
310
E2E2E2E2E2E2E2E2E2E2E2E2E2E2E2E2E2E2E2E2E2E2E2E2E2E2E2E2E2E2E2E2E2E2E2E2E2E2E2E2E2E2E2E2E2E2E2E2E2E2E2E2E2E2E2E2E2E2E2E2E2E2E2E2E2E2E2E2E2E2E2E2E2E2E2E2E2E2E2E2E2E2E2E2E2E2E2E2E2E2E2E2E2E2E2E2E2E2E2E2E2E2E2E2E2E2E2E2E2E2E2E2E2E2E2E2E2E2E2E2E2E2E2E2E2E2E2
310
E2E2E2E2E2E2E2E2E2E2E2E2E2E2E2E2E2E2E2E2E2E2E2E2E2E2E2E2E2E2E2E2E2E2E2E2E2E2E2E2E2E2E2E2E2E2E2E2E2E2E2E2E2E2E2E2E2E2E2E2E2E2E2E2E2E2E2E2E2E2E2E2E2E2E2E2E2E2E2E2E2E2E2E2E2E2E2E2E2E2E2E2E2E2E2E2E2E2E2E2E2E2E2E2E2E2E2E2E2E2E2E2E2E2E2E2E2E2E2E2E2E2E2E2E2E2E2
310
E2E2E2E2E2E2E2E2E2E2E2E2E2E2E2E2E2E2E2E2E2E2E2E2E2E2E2E2E2E2E2E2E2E2E2E2E2E2E2E2E2E2E2E2E2E2E2E2E2E2E2E2E2E2E2E2E2E2E2E2E2E2E2E2E2E2E2E2E2E2E2E2E2E2E2E2E2E2E2E2E2E2E2E2E2E2E2E2E2E2E2E2E2E2E2E2E2E2E2E2E2E2E2E2E2E2E2E2E2E2E2E2E2E2E2E2E2E2E2E2E2E2E2E2E2E2E2
310
E2E2E2E2E2E2E2E2E2E2E2E2E2E2E2E2E2E2E2E2E2E2E2E2E2E2E2E2E2E2E2E2E2E2E2E2E2E2E2E2E2E2E2E2E2E2E2E2E2E2E2E2E2E2E2E2E2E2E2E2E2E2E2E2E2E2E2E2E2E2E2E2E2E2E2E2E2E2E2E2E2E2E2E2E2E2E2E2E2E2E2E2E2E2E2E2E2E2E2E2E2E2E2E2E2E2E2E2E2E2E2E2E2E2E2E2E2E2E2E2E2E2E2E2E2E2E2
310
E2E2E2E2E2E2E2E2E2E2E2E2E2E2E2E2E2E2E2E2E2E2E2E2E2E2E2E2E2E2E2E2E2E2E2E2E2E2E2E2E2E2E2E2E2E2E2E2E2E2E2E2E2E2E2E2E2E2E2E2E2E2E2E2E2E2E2E2E2E2E2E2E2E2E2E2E2E2E2E2E2E2E2E2E2E2E2E2E2E2E2E2E2E2E2E2E2E2E2E2E2E2E2E2E2E2E2E2E2E2E2E2E2E2E2E2E2E2E2E2E2E2E2E2E2E2E2
310
E2E2E2E2E2E2E2E2E2E2E2E2E2E2E2E2E2E2E2E2E2E2E2E2E2E2E2E2E2E2E2E2E2E2E2E2E2E2E2E2E2E2E2E2E2E2E2E2E2E2E2E2E2E2E2E2E2E2E2E2E2E2E2E2E2E2E2E2E2E2E2E2E2E2E2E2E2E2E2E2E2E2E2E2E2E2E2E2E2E2E2E2E2E2E2E2E2E2E2E2E2E2E2E2E2E2E2E2E2E2E2E2E2E2E2E2E2E2E2E2E2E2E2E2E2E2E2
310
E2E2E2E2E2E2E2E2E2E2E2E2E2E2E2E2E2E2E2E2E2E2E2E2E2E2E2E2E2E2E2E2E2E2E2E2E2E2E2E2E2E2E2E2E2E2E2E2E2E2E2E2E2E2E2E2E2E2E2E2E2E2E2E2E2E2E2E2E2E2E2E2E2E2E2E2E2E2E2E2E2E2E2E2E2E2E2E2E2E2E2E2E2E2E2E2E2E2E2E2E2E2E2E2E2E2E2E2E2E2E2E2E2E2E2E2E2E2E2E2E2E2E2E2E2E2E2
310
E2E2E2E2E2E2E2E2E2E2E2E2E2E2E2E2E2E2E2E2E2E2E2E2E2E2E2E2E2E2E2E2E2E2E2E2E2E2E2E2E2E2E2E2E2E2E2E2E2E2E2E2E2E2E2E2E2E2E2E2E2E2E2E2E2E2E2E2E2E2E2E2E2E2E2E2E2E2E2E2E2E2E2E2E2E2E2E2E2E2E2E2E2E2E2E2E2E2E2E2E2E2E2E2E2E2E2E2E2E2E2E2E2E2E2E2E2E2E2E2E2E2E2E2E2E2E2
310
E2E2E2E2E2E2E2E2E2E2E2E2E2E2E2E2E2E2E2E2E2E2E2E2E2E2E2E2E2E2E2E2E2E2E2E2E2E2E2E2E2E2E2E2E2E2E2E2E2E2E2E2E2E2E2E2E2E2E2E2E2E2E2E2E2E2E2E2E2E2E2E2E2E2E2E2E2E2E2E2E2E2E2E2E2E2E2E2E2E2E2E2E2E2E2E2E2E2E2E2E2E2E2E2E2E2E2E2E2E2E2E2E2E2E2E2E2E2E2E2E2E2E2E2E2E2E2
310
E2E2E2E2E2E2E2E2E2E2E2E2E2E2E2E2E2E2E2E2E2E2E2E2E2E2E2E2E2E2E2E2E2E2E2E2E2E2E2E2E2E2E2E2E2E2E2E2E2E2E2E2E2E2E2E2E2E2E2E2E2E2E2E2E2E2E2E2E2E2E2E2E2E2E2E2E2E2E2E2E2E2E2E2E2E2E2E2E2E2E2E2E2E2E2E2E2E2E2E2E2E2E2E2E2E2E2E2E2E2E2E2E2E2E2E2E2E2E2E2E2E2E2E2E2E2E2
310
E2E2E2E2E2E2E2E2E2E2E2E2E2E2E2E2E2E2E2E2E2E2E2E2E2E2E2E2E2E2E2E2E2E2E2E2E2E2E2E2E2E2E2E2E2E2E2E2E2E2E2E2E2E2E2E2E2E2E2E2E2E2E2E2E2E2E2E2E2E2E2E2E2E2E2E2E2E2E2E2E2E2E2E2E2E2E2E2E2E2E2E2E2E2E2E2E2E2E2E2E2E2E2E2E2E2E2E2E2E2E2E2E2E2E2E2E2E2E2E2E2E2E2E2E2E2E2
310
E2E2E2E2E2E2E2E2E2E2E2E2E2E2E2E2E2E2E2E2E2E2E2E2E2E2E2E2E2E2E2E2E2E2E2E2E2E2E2E2E2E2E2E2E2E2E2E2E2E2E2E2E2E2E2E2E2E2E2E2E2E2E2E2E2E2E2E2E2E2E2E2E2E2E2E2E2E2E2E2E2E2E2E2E2E2E2E2E2E2E2E2E2E2E2E2E2E2E2E2E2E2E2E2E2E2E2E2E2E2E2E2E2E2E2E2E2E2E2E2E2E2E2E2E2E2E2
310
E2E2E2E2E2E2E2E2E2E2E2E2E2E2E2E2E2E2E2E2E2E2E2E2E2E2E2E2E2E2E2E2E2E2E2E2E2E2E2E2E2E2E2E2E2E2E2E2E2E2E2E2E2E2E2E2E2E2E2E2E2E2E2E2E2E2E2E2E2E2E2E2E2E2E2E2E2E2E2E2E2E2E2E2E2E2E2E2E2E2E2E2E2E2E2E2E2E2E2E2E2E2E2E2E2E2E2E2E2E2E2E2E2E2E2E2E2E2E2E2E2E2E2E2E2E2E2
310
E2E2E2E2E2E2E2E2E2E2E2E2E2E2E2E2E2E2E2E2E2E2E2E2E2E2E2E2E2E2E2E2E2E2E2E2E2E2E2E2E2E2E2E2E2E2E2E2E2E2E2E2E2E2E2E2E2E2E2E2E2E2E2E2E2E2E2E2E2E2E2E2E2E2E2E2E2E2E2E2E2E2E2E2E2E2E2E2E2E2E2E2E2E2E2E2E2E2E2E2E2E2E2E2E2E2E2E2E2E2E2E2E2E2E2E2E2E2E2E2E2E2E2E2E2E2E2
310
E2E2E2E2E2E2E2E2E2E2E2E2E2E2E2E2E2E2E2E2E2E2E2E2E2E2E2E2E2E2E2E2E2E2E2E2E2E2E2E2E2E2E2E2E2E2E2E2E2E2E2E2E2E2E2E2E2E2E2E2E2E2E2E2E2E2E2E2E2E2E2E2E2E2E2E2E2E2E2E2E2E2E2E2E2E2E2E2E2E2E2E2E2E2E2E2E2E2E2E2E2E2E2E2E2E2E2E2E2E2E2E2E2E2E2E2E2E2E2E2E2E2E2E2E2E2E2
310
E2E2E2E2E2E2E2E2E2E2E2E2E2E2E2E2E2E2E2E2E2E2E2E2E2E2E2E2E2E2E2E2E2E2E2E2E2E2E2E2E2E2E2E2E2E2E2E2E2E2E2E2E2E2E2E2E2E2E2E2E2E2E2E2E2E2E2E2E2E2E2E2E2E2E2E2E2E2E2E2E2E2E2E2E2E2E2E2E2E2E2E2E2E2E2E2E2E2E2E2E2E2E2E2E2E2E2E2E2E2E2E2E2E2E2E2E2E2E2E2E2E2E2E2E2E2E2
310
E2E2E2E2E2E2E2E2E2E2E2E2E2E2E2E2E2E2E2E2E2E2E2E2E2E2E2E2E2E2E2E2E2E2E2E2E2E2E2E2E2E2E2E2E2E2E2E2E2E2E2E2E2E2E2E2E2E2E2E2E2E2E2E2E2E2E2E2E2E2E2E2E2E2E2E2E2E2E2E2E2E2E2E2E2E2E2E2E2E2E2E2E2E2E2E2E2E2E2E2E2E2E2E2E2E2E2E2E2E2E2E2E2E2E2E2E2E2E2E2E2E2E2E2E2E2E2
310
E2E2E2E2E2E2E2E2E2E2E2E2E2E2E2E2E2E2E2E2E2E2E2E2E2E2E2E2E2E2E2E2E2E2E2E2E2E2E2E2E2E2E2E2E2E2E2E2E2E2E2E2E2E2E2E2E2E2E2E2E2E2E2E2E2E2E2E2E2E2E2E2E2E2E2E2E2E2E2E2E2E2E2E2E2E2E2E2E2E2E2E2E2E2E2E2E2E2E2E2E2E2E2E2E2E2E2E2E2E2E2E2E2E2E2E2E2E2E2E2E2E2E2E2E2E2E2
310
E2E2E2E2E2E2E2E2E2E2E2E2E2E2E2E2E2E2E2E2E2E2E2E2E2E2E2E2E2E2E2E2E2E2E2E2E2E2E2E2E2E2E2E2E2E2E2E2E2E2E2E2E2E2E2E2E2E2E2E2E2E2E2E2E2E2E2E2E2E2E2E2E2E2E2E2E2E2E2E2E2E2E2E2E2E2E2E2E2E2E2E2E2E2E2E2E2E2E2E2E2E2E2E2E2E2E2E2E2E2E2E2E2E2E2E2E2E2E2E2E2E2E2E2E2E2E2
310
E2E2E2E2E2E2E2E2E2E2E2E2E2E2E2E2E2E2E2E2E2E2E2E2E2E2E2E2E2E2E2E2E2E2E2E2E2E2E2E2E2E2E2E2E2E2E2E2E2E2E2E2E2E2E2E2E2E2E2E2E2E2E2E2E2E2E2E2E2E2E2E2E2E2E2E2E2E2E2E2E2E2E2E2E2E2E2E2E2E2E2E2E2E2E2E2E2E2E2E2E2E2E2E2E2E2E2E2E2E2E2E2E2E2E2E2E2E2E2E2E2E2E2E2E2E2E2
310
E2E2E2E2E2E2E2E2E2E2E2E2E2E2E2E2E2E2E2E2E2E2E2E2E2E2E2E2E2E2E2E2E2E2E2E2E2E2E2E2E2E2E2E2E2E2E2E2E2E2E2E2E2E2E2E2E2E2E2E2E2E2E2E2E2E2E2E2E2E2E2E2E2E2E2E2E2E2E2E2E2E2E2E2E2E2E2E2E2E2E2E2E2E2E2E2E2E2E2E2E2E2E2E2E2E2E2E2E2E2E2E2E2E2E2E2E2E2E2E2E2E2E2E2E2E2E2
310
E2E2E2E2E2E2E2E2E2E2E2E2E2E2E2E2E2E2E2E2E2E2E2E2E2E2E2E2E2E2E2E2E2E2E2E2E2E2E2E2E2E2E2E2E2E2E2E2E2E2E2E2E2E2E2E2E2E2E2E2E2E2E2E2E2E2E2E2E2E2E2E2E2E2E2E2E2E2E2E2E2E2E2E2E2E2E2E2E2E2E2E2E2E2E2E2E2E2E2E2E2E2E2E2E2E2E2E2E2E2E2E2E2E2E2E2E2E2E2E2E2E2E2E2E2E2E2
310
E2E2E2E2E2E2E2E2E2E2E2E2E2E2E2E2E2E2E2E2E2E2E2E2E2E2E2E2E2E2E2E2E2E2E2E2E2E2E2E2E2E2E2E2E2E2E2E2E2E2E2E2E2E2E2E2E2E2E2E2E2E2E2E2E2E2E2E2E2E2E2E2E2E2E2E2E2E2E2E2E2E2E2E2E2E2E2E2E2E2E2E2E2E2E2E2E2E2E2E2E2E2E2E2E2E2E2E2E2E2E2E2E2E2E2E2E2E2E2E2E2E2E2E2E2E2E2
310
E2E2E2E2E2E2E2E2E2E2E2E2E2E2E2E2E2E2E2E2E2E2E2E2E2E2E2E2E2E2E2E2E2E2E2E2E2E2E2E2E2E2E2E2E2E2E2E2E2E2E2E2E2E2E2E2E2E2E2E2E2E2E2E2E2E2E2E2E2E2E2E2E2E2E2E2E2E2E2E2E2E2E2E2E2E2E2E2E2E2E2E2E2E2E2E2E2E2E2E2E2E2E2E2E2E2E2E2E2E2E2E2E2E2E2E2E2E2E2E2E2E2E2E2E2E2E2
310
E2E2E2E2E2E2E2E2E2E2E2E2E2E2E2E2E2E2E2E2E2E2E2E2E2E2E2E2E2E2E2E2E2E2E2E2E2E2E2E2E2E2E2E2E2E2E2E2E2E2E2E2E2E2E2E2E2E2E2E2E2E2E2E2E2E2E2E2E2E2E2E2E2E2E2E2E2E2E2E2E2E2E2E2E2E2E2E2E2E2E2E2E2E2E2E2E2E2E2E2E2E2E2E2E2E2E2E2E2E2E2E2E2E2E2E2E2E2E2E2E2E2E2E2E2E2E2
310
E2E2E2E2E2E2E2E2E2E2E2E2E2E2E2E2E2E2E2E2E2E2E2E2E2E2E2E2E2E2E2E2E2E2E2E2E2E2E2E2E2E2E2E2E2E2E2E2E2E2E2E2E2E2E2E2E2E2E2E2E2E2E2E2E2E2E2E2E2E2E2E2E2E2E2E2E2E2E2E2E2E2E2E2E2E2E2E2E2E2E2
  0
XRECORD
  5
602
102
{ACAD_REACTORS
330
40
102
}
330
40
100
AcDbXrecord
280
     1
102
MATERIAL
148
0.0
149
0.0
149
0.0
 93
        0
 94
      127
282
     0
 72
     0
 77
     0
171
     0
175
     0
179
     0
273
     0
  0
XRECORD
  5
41
102
{ACAD_REACTORS
330
40
102
}
330
40
100
AcDbXrecord
280
     1
270
     1
271
     1
  0
XRECORD
  5
42
102
{ACAD_REACTORS
330
40
102
}
330
40
100
AcDbXrecord
280
     1
270
     1
271
     1
  0
XRECORD
  5
43
102
{ACAD_REACTORS
330
40
102
}
330
40
100
AcDbXrecord
280
     1
270
     1
271
     1
  0
XRECORD
  5
44
102
{ACAD_REACTORS
330
40
102
}
330
40
100
AcDbXrecord
280
     1
270
     1
271
     1
  0
XRECORD
  5
45
102
{ACAD_REACTORS
330
40
102
}
330
40
100
AcDbXrecord
280
     1
270
     1
271
     1
  0
XRECORD
  5
46
102
{ACAD_REACTORS
330
40
102
}
330
40
100
AcDbXrecord
280
     1
270
     1
271
     1
  0
XRECORD
  5
601
102
{ACAD_REACTORS
330
38
102
}
330
38
100
AcDbXrecord
280
     1
102
MATERIAL
148
0.0
149
0.0
149
0.0
 93
        0
 94
      127
282
     0
 72
     0
 77
     0
171
     0
175
     0
179
     0
273
     0
  0
XRECORD
  5
39
102
{ACAD_REACTORS
330
38
102
}
330
38
100
AcDbXrecord
280
     1
270
     1
271
     1
  0
XRECORD
  5
3A
102
{ACAD_REACTORS
330
38
102
}
330
38
100
AcDbXrecord
280
     1
270
     1
271
     1
  0
XRECORD
  5
3B
102
{ACAD_REACTORS
330
38
102
}
330
38
100
AcDbXrecord
280
     1
270
     1
271
     1
  0
XRECORD
  5
3C
102
{ACAD_REACTORS
330
38
102
}
330
38
100
AcDbXrecord
280
     1
270
     1
271
     1
  0
XRECORD
  5
3D
102
{ACAD_REACTORS
330
38
102
}
330
38
100
AcDbXrecord
280
     1
270
     1
271
     1
  0
XRECORD
  5
3E
102
{ACAD_REACTORS
330
38
102
}
330
38
100
AcDbXrecord
280
     1
270
     1
271
     1
  0
XRECORD
  5
5FD
102
{ACAD_REACTORS
330
E
102
}
330
E
100
AcDbXrecord
280
     1
102
MATERIAL
148
0.0
149
0.0
149
0.0
 93
        0
 94
      127
282
     0
 72
     0
 77
     0
171
     0
175
     0
179
     0
273
     0
  0
XRECORD
  5
F
102
{ACAD_REACTORS
330
E
102
}
330
E
100
AcDbXrecord
280
     1
270
     1
271
     1
  0
XRECORD
  5
10
102
{ACAD_REACTORS
330
E
102
}
330
E
100
AcDbXrecord
280
     1
270
     1
271
     1
  0
XRECORD
  5
11
102
{ACAD_REACTORS
330
E
102
}
330
E
100
AcDbXrecord
280
     1
270
     1
271
     1
  0
XRECORD
  5
12
102
{ACAD_REACTORS
330
E
102
}
330
E
100
AcDbXrecord
280
     1
270
     1
271
     1
  0
XRECORD
  5
13
102
{ACAD_REACTORS
330
E
102
}
330
E
100
AcDbXrecord
280
     1
270
     1
271
     1
  0
XRECORD
  5
14
102
{ACAD_REACTORS
330
E
102
}
330
E
100
AcDbXrecord
280
     1
270
     1
271
     1
  0
CELLSTYLEMAP
  5
C4C
102
{ACAD_REACTORS
330
4C9
102
}
330
4C9
100
AcDbCellStyleMap
 90
        3
300
CELLSTYLE
  1
TABLEFORMAT_BEGIN
 90
        5
170
     1
 91
        0
 92
    32768
 62
   257
 93
        1
300
CONTENTFORMAT
  1
CONTENTFORMAT_BEGIN
 90
        0
 91
        0
 92
        4
 93
        0
300

 40
0.0
140
1.0
 94
        5
 62
     0
340
24
144
6.0
309
CONTENTFORMAT_END
171
     1
301
MARGIN
  1
CELLMARGIN_BEGIN
 40
1.5
 40
1.5
 40
1.5
 40
1.5
 40
0.18
 40
0.18
309
CELLMARGIN_END
 94
        6
 95
        1
302
GRIDFORMAT
  1
GRIDFORMAT_BEGIN
 90
        0
 91
        1
 62
     0
 92
       -2
340
0
 93
        0
 40
0.045
309
GRIDFORMAT_END
 95
        2
302
GRIDFORMAT
  1
GRIDFORMAT_BEGIN
 90
        0
 91
        1
 62
     0
 92
       -2
340
0
 93
        0
 40
0.045
309
GRIDFORMAT_END
 95
        4
302
GRIDFORMAT
  1
GRIDFORMAT_BEGIN
 90
        0
 91
        1
 62
     0
 92
       -2
340
0
 93
        0
 40
0.045
309
GRIDFORMAT_END
 95
        8
302
GRIDFORMAT
  1
GRIDFORMAT_BEGIN
 90
        0
 91
        1
 62
     0
 92
       -2
340
0
 93
        0
 40
0.045
309
GRIDFORMAT_END
 95
       16
302
GRIDFORMAT
  1
GRIDFORMAT_BEGIN
 90
        0
 91
        1
 62
     0
 92
       -2
340
0
 93
        0
 40
0.045
309
GRIDFORMAT_END
 95
       32
302
GRIDFORMAT
  1
GRIDFORMAT_BEGIN
 90
        0
 91
        1
 62
     0
 92
       -2
340
0
 93
        0
 40
0.045
309
GRIDFORMAT_END
309
TABLEFORMAT_END
  1
CELLSTYLE_BEGIN
 90
        1
 91
        1
300
_TITLE
309
CELLSTYLE_END
300
CELLSTYLE
  1
TABLEFORMAT_BEGIN
 90
        5
170
     1
 91
        0
 92
        0
 62
   257
 93
        1
300
CONTENTFORMAT
  1
CONTENTFORMAT_BEGIN
 90
        0
 91
        0
 92
        4
 93
        0
300

 40
0.0
140
1.0
 94
        5
 62
     0
340
24
144
4.5
309
CONTENTFORMAT_END
171
     1
301
MARGIN
  1
CELLMARGIN_BEGIN
 40
1.5
 40
1.5
 40
1.5
 40
1.5
 40
0.18
 40
0.18
309
CELLMARGIN_END
 94
        6
 95
        1
302
GRIDFORMAT
  1
GRIDFORMAT_BEGIN
 90
        0
 91
        1
 62
     0
 92
       -2
340
0
 93
        0
 40
0.045
309
GRIDFORMAT_END
 95
        2
302
GRIDFORMAT
  1
GRIDFORMAT_BEGIN
 90
        0
 91
        1
 62
     0
 92
       -2
340
0
 93
        0
 40
0.045
309
GRIDFORMAT_END
 95
        4
302
GRIDFORMAT
  1
GRIDFORMAT_BEGIN
 90
        0
 91
        1
 62
     0
 92
       -2
340
0
 93
        0
 40
0.045
309
GRIDFORMAT_END
 95
        8
302
GRIDFORMAT
  1
GRIDFORMAT_BEGIN
 90
        0
 91
        1
 62
     0
 92
       -2
340
0
 93
        0
 40
0.045
309
GRIDFORMAT_END
 95
       16
302
GRIDFORMAT
  1
GRIDFORMAT_BEGIN
 90
        0
 91
        1
 62
     0
 92
       -2
340
0
 93
        0
 40
0.045
309
GRIDFORMAT_END
 95
       32
302
GRIDFORMAT
  1
GRIDFORMAT_BEGIN
 90
        0
 91
        1
 62
     0
 92
       -2
340
0
 93
        0
 40
0.045
309
GRIDFORMAT_END
309
TABLEFORMAT_END
  1
CELLSTYLE_BEGIN
 90
        2
 91
        1
300
_HEADER
309
CELLSTYLE_END
300
CELLSTYLE
  1
TABLEFORMAT_BEGIN
 90
        5
170
     1
 91
        0
 92
        0
 62
   257
 93
        1
300
CONTENTFORMAT
  1
CONTENTFORMAT_BEGIN
 90
        0
 91
        0
 92
        4
 93
        0
300

 40
0.0
140
1.0
 94
        2
 62
     0
340
24
144
4.5
309
CONTENTFORMAT_END
171
     1
301
MARGIN
  1
CELLMARGIN_BEGIN
 40
1.5
 40
1.5
 40
1.5
 40
1.5
 40
0.18
 40
0.18
309
CELLMARGIN_END
 94
        6
 95
        1
302
GRIDFORMAT
  1
GRIDFORMAT_BEGIN
 90
        0
 91
        1
 62
     0
 92
       -2
340
0
 93
        0
 40
0.045
309
GRIDFORMAT_END
 95
        2
302
GRIDFORMAT
  1
GRIDFORMAT_BEGIN
 90
        0
 91
        1
 62
     0
 92
       -2
340
0
 93
        0
 40
0.045
309
GRIDFORMAT_END
 95
        4
302
GRIDFORMAT
  1
GRIDFORMAT_BEGIN
 90
        0
 91
        1
 62
     0
 92
       -2
340
0
 93
        0
 40
0.045
309
GRIDFORMAT_END
 95
        8
302
GRIDFORMAT
  1
GRIDFORMAT_BEGIN
 90
        0
 91
        1
 62
     0
 92
       -2
340
0
 93
        0
 40
0.045
309
GRIDFORMAT_END
 95
       16
302
GRIDFORMAT
  1
GRIDFORMAT_BEGIN
 90
        0
 91
        1
 62
     0
 92
       -2
340
0
 93
        0
 40
0.045
309
GRIDFORMAT_END
 95
       32
302
GRIDFORMAT
  1
GRIDFORMAT_BEGIN
 90
        0
 91
        1
 62
     0
 92
       -2
340
0
 93
        0
 40
0.045
309
GRIDFORMAT_END
309
TABLEFORMAT_END
  1
CELLSTYLE_BEGIN
 90
        3
 91
        2
300
_DATA
309
CELLSTYLE_END
  0
XRECORD
  5
C53
102
{ACAD_REACTORS
330
4C9
102
}
330
4C9
100
AcDbXrecord
280
     1
102
ACAD_ROUNDTRIP_PRE2007_TABLESTYLE
 90
        4
 91
        0
  1

 92
        4
 93
        0
  2

 94
        4
 95
        0
  3

  0
ENDSEC
  0
EOF
