  0
SECTION
  2
HEADER
  9
$ACADVER
  1
AC1015
  9
$ACADMAINTVER
 70
    20
  9
$DWGCODEPAGE
  3
ANSI_932
  9
$INSBASE
 10
0.0
 20
0.0
 30
0.0
  9
$EXTMIN
 10
-292.8094995912073
 20
-245.7955185512223
 30
-0.00000001
  9
$EXTMAX
 10
444.646672174146
 20
618.954213716321
 30
0.00000001
  9
$LIMMIN
 10
0.0
 20
0.0
  9
$LIMMAX
 10
420.0
 20
297.0
  9
$ORTHOMODE
 70
     1
  9
$REGENMODE
 70
     1
  9
$FILLMODE
 70
     1
  9
$QTEXTMODE
 70
     0
  9
$MIRRTEXT
 70
     1
  9
$LTSCALE
 40
1.0
  9
$ATTMODE
 70
     1
  9
$TEXTSIZE
 40
43.66586864911549
  9
$TRACEWID
 40
1.0
  9
$TEXTSTYLE
  7
Standard
  9
$CLAYER
  8
0
  9
$CELTYPE
  6
ByLayer
  9
$CECOLOR
 62
   256
  9
$CELTSCALE
 40
1.0
  9
$DISPSILH
 70
     0
  9
$DIMSCALE
 40
5.0
  9
$DIMASZ
 40
2.5
  9
$DIMEXO
 40
0.625
  9
$DIMDLI
 40
3.75
  9
$DIMRND
 40
0.0
  9
$DIMDLE
 40
0.0
  9
$DIMEXE
 40
1.25
  9
$DIMTP
 40
0.0
  9
$DIMTM
 40
0.0
  9
$DIMTXT
 40
2.5
  9
$DIMCEN
 40
2.5
  9
$DIMTSZ
 40
0.0
  9
$DIMTOL
 70
     0
  9
$DIMLIM
 70
     0
  9
$DIMTIH
 70
     0
  9
$DIMTOH
 70
     0
  9
$DIMSE1
 70
     0
  9
$DIMSE2
 70
     0
  9
$DIMTAD
 70
     1
  9
$DIMZIN
 70
     8
  9
$DIMBLK
  1
OPEN30
  9
$DIMASO
 70
     1
  9
$DIMSHO
 70
     1
  9
$DIMPOST
  1

  9
$DIMAPOST
  1

  9
$DIMALT
 70
     0
  9
$DIMALTD
 70
     3
  9
$DIMALTF
 40
0.03937007874016
  9
$DIMLFAC
 40
1.0
  9
$DIMTOFL
 70
     1
  9
$DIMTVP
 40
0.0
  9
$DIMTIX
 70
     0
  9
$DIMSOXD
 70
     0
  9
$DIMSAH
 70
     0
  9
$DIMBLK1
  1

  9
$DIMBLK2
  1

  9
$DIMSTYLE
  2
ISO-25
  9
$DIMCLRD
 70
     0
  9
$DIMCLRE
 70
     0
  9
$DIMCLRT
 70
     0
  9
$DIMTFAC
 40
1.0
  9
$DIMGAP
 40
0.625
  9
$DIMJUST
 70
     0
  9
$DIMSD1
 70
     0
  9
$DIMSD2
 70
     0
  9
$DIMTOLJ
 70
     0
  9
$DIMTZIN
 70
     8
  9
$DIMALTZ
 70
     0
  9
$DIMALTTZ
 70
     0
  9
$DIMUPT
 70
     0
  9
$DIMDEC
 70
     1
  9
$DIMTDEC
 70
     1
  9
$DIMALTU
 70
     2
  9
$DIMALTTD
 70
     3
  9
$DIMTXSTY
  7
Standard
  9
$DIMAUNIT
 70
     0
  9
$DIMADEC
 70
     0
  9
$DIMALTRND
 40
0.0
  9
$DIMAZIN
 70
     0
  9
$DIMDSEP
 70
    46
  9
$DIMATFIT
 70
     3
  9
$DIMFRAC
 70
     0
  9
$DIMLDRBLK
  1
DOTSMALL
  9
$DIMLUNIT
 70
     2
  9
$DIMLWD
 70
    -2
  9
$DIMLWE
 70
    -2
  9
$DIMTMOVE
 70
     0
  9
$LUNITS
 70
     2
  9
$LUPREC
 70
     4
  9
$SKETCHINC
 40
1.0
  9
$FILLETRAD
 40
10.0
  9
$AUNITS
 70
     0
  9
$AUPREC
 70
     0
  9
$MENU
  1
.
  9
$ELEVATION
 40
0.0
  9
$PELEVATION
 40
0.0
  9
$THICKNESS
 40
0.0
  9
$LIMCHECK
 70
     0
  9
$CHAMFERA
 40
10.0
  9
$CHAMFERB
 40
10.0
  9
$CHAMFERC
 40
20.0
  9
$CHAMFERD
 40
0.0
  9
$SKPOLY
 70
     0
  9
$TDCREATE
 40
2451686.550481944
  9
$TDUCREATE
 40
2451686.175481945
  9
$TDUPDATE
 40
2454985.598151250
  9
$TDUUPDATE
 40
2454985.223151250
  9
$TDINDWG
 40
1.9233029861
  9
$TDUSRTIMER
 40
1.9233002662
  9
$USRTIMER
 70
     1
  9
$ANGBASE
 50
0.0
  9
$ANGDIR
 70
     0
  9
$PDMODE
 70
     0
  9
$PDSIZE
 40
0.0
  9
$PLINEWID
 40
0.0
  9
$SPLFRAME
 70
     0
  9
$SPLINETYPE
 70
     6
  9
$SPLINESEGS
 70
     8
  9
$HANDSEED
  5
10C2
  9
$SURFTAB1
 70
     6
  9
$SURFTAB2
 70
     6
  9
$SURFTYPE
 70
     6
  9
$SURFU
 70
     6
  9
$SURFV
 70
     6
  9
$UCSBASE
  2

  9
$UCSNAME
  2

  9
$UCSORG
 10
0.0
 20
0.0
 30
0.0
  9
$UCSXDIR
 10
1.0
 20
0.0
 30
0.0
  9
$UCSYDIR
 10
0.0
 20
1.0
 30
0.0
  9
$UCSORTHOREF
  2

  9
$UCSORTHOVIEW
 70
     0
  9
$UCSORGTOP
 10
0.0
 20
0.0
 30
0.0
  9
$UCSORGBOTTOM
 10
0.0
 20
0.0
 30
0.0
  9
$UCSORGLEFT
 10
0.0
 20
0.0
 30
0.0
  9
$UCSORGRIGHT
 10
0.0
 20
0.0
 30
0.0
  9
$UCSORGFRONT
 10
0.0
 20
0.0
 30
0.0
  9
$UCSORGBACK
 10
0.0
 20
0.0
 30
0.0
  9
$PUCSBASE
  2

  9
$PUCSNAME
  2

  9
$PUCSORG
 10
0.0
 20
0.0
 30
0.0
  9
$PUCSXDIR
 10
1.0
 20
0.0
 30
0.0
  9
$PUCSYDIR
 10
0.0
 20
1.0
 30
0.0
  9
$PUCSORTHOREF
  2

  9
$PUCSORTHOVIEW
 70
     0
  9
$PUCSORGTOP
 10
0.0
 20
0.0
 30
0.0
  9
$PUCSORGBOTTOM
 10
0.0
 20
0.0
 30
0.0
  9
$PUCSORGLEFT
 10
0.0
 20
0.0
 30
0.0
  9
$PUCSORGRIGHT
 10
0.0
 20
0.0
 30
0.0
  9
$PUCSORGFRONT
 10
0.0
 20
0.0
 30
0.0
  9
$PUCSORGBACK
 10
0.0
 20
0.0
 30
0.0
  9
$USERI1
 70
     0
  9
$USERI2
 70
     0
  9
$USERI3
 70
     0
  9
$USERI4
 70
     0
  9
$USERI5
 70
     0
  9
$USERR1
 40
0.0
  9
$USERR2
 40
0.0
  9
$USERR3
 40
0.0
  9
$USERR4
 40
0.0
  9
$USERR5
 40
0.0
  9
$WORLDVIEW
 70
     1
  9
$SHADEDGE
 70
     3
  9
$SHADEDIF
 70
    70
  9
$TILEMODE
 70
     1
  9
$MAXACTVP
 70
    48
  9
$PINSBASE
 10
0.0
 20
0.0
 30
0.0
  9
$PLIMCHECK
 70
     0
  9
$PEXTMIN
 10
-887.1248540513086
 20
-844.2833045499742
 30
0.0
  9
$PEXTMAX
 10
1886.767282591478
 20
890.4223836455795
 30
0.0
  9
$PLIMMIN
 10
0.0
 20
0.0
  9
$PLIMMAX
 10
12.0
 20
9.0
  9
$UNITMODE
 70
     0
  9
$VISRETAIN
 70
     1
  9
$PLINEGEN
 70
     0
  9
$PSLTSCALE
 70
     1
  9
$TREEDEPTH
 70
  3020
  9
$CMLSTYLE
  2
Standard
  9
$CMLJUST
 70
     0
  9
$CMLSCALE
 40
20.0
  9
$PROXYGRAPHICS
 70
     1
  9
$MEASUREMENT
 70
     1
  9
$CELWEIGHT
370
    -1
  9
$ENDCAPS
280
     0
  9
$JOINSTYLE
280
     0
  9
$LWDISPLAY
290
     0
  9
$INSUNITS
 70
     4
  9
$HYPERLINKBASE
  1

  9
$STYLESHEET
  1

  9
$XEDIT
290
     1
  9
$CEPSNTYPE
380
     0
  9
$PSTYLEMODE
290
     1
  9
$FINGERPRINTGUID
  2
{BB9D4E03-95DF-4C55-A871-3634A69F4001}
  9
$VERSIONGUID
  2
{092FE940-CFF4-4DFA-B224-371F32E93499}
  9
$EXTNAMES
290
     1
  9
$PSVPSCALE
 40
0.0
  9
$OLESTARTUP
290
     0
  0
ENDSEC
  0
SECTION
  2
CLASSES
  0
CLASS
  1
ACDBDICTIONARYWDFLT
  2
AcDbDictionaryWithDefault
  3
ObjectDBX Classes
 90
        0
280
     0
281
     0
  0
CLASS
  1
ACDBPLACEHOLDER
  2
AcDbPlaceHolder
  3
ObjectDBX Classes
 90
        0
280
     0
281
     0
  0
CLASS
  1
LAYOUT
  2
AcDbLayout
  3
ObjectDBX Classes
 90
        0
280
     0
281
     0
  0
CLASS
  1
ACME_DOCUMENT
  2
AcMeDoc
  3
AcMeServices
 90
    32768
280
     1
281
     0
  0
CLASS
  1
ACMESTATEMGR
  2
AcMeStateMgr
  3
AcMeServices
 90
    33792
280
     0
281
     0
  0
CLASS
  1
ACMESCOPE
  2
AcMeScope
  3
AcMeServices
 90
    33792
280
     0
281
     0
  0
CLASS
  1
ACMECOMMANDHISTORY
  2
AcMeCommandHistory
  3
AcMeServices
 90
    33792
280
     0
281
     0
  0
CLASS
  1
ACRFINSADJUSTERMGR
  2
AcRfInsAdjusterMgr
  3
AcMeServices
 90
    33792
280
     0
281
     0
  0
CLASS
  1
DICTIONARYVAR
  2
AcDbDictionaryVar
  3
ObjectDBX Classes
 90
        0
280
     0
281
     0
  0
CLASS
  1
ACIMSYSVARMAN
  2
AcImSysVarManager
  3
AcMeServices
 90
    33792
280
     0
281
     0
  0
CLASS
  1
ACIMREALSYSVAR
  2
AcImRealSysVar
  3
AcMeServices
 90
    33792
280
     0
281
     0
  0
CLASS
  1
ACIMINTSYSVAR
  2
AcImIntSysVar
  3
AcMeServices
 90
    33792
280
     0
281
     0
  0
CLASS
  1
ACMEDRAWINGMAN
  2
AcMeDrawingMan
  3
AcMeServices
 90
    33792
280
     0
281
     0
  0
CLASS
  1
ACMEVIEW
  2
AcMeView
  3
AcMeServices
 90
    33792
280
     0
281
     0
  0
CLASS
  1
ACDBENTITYCACHE
  2
AcMeEntityCache
  3
AcMeServices
 90
    33792
280
     0
281
     0
  0
CLASS
  1
ACGREFMASTER
  2
AcGrefMaster
  3
AcAttribServices
 90
    33792
280
     0
281
     0
  0
CLASS
  1
AMIMASTER
  2
AmiMaster
  3
AmiServices
 90
    33792
280
     0
281
     0
  0
CLASS
  1
ACASGREFMASTER
  2
AcAsGrefMaster
  3
AutoSurfResolverServices
 90
    33792
280
     0
281
     0
  0
CLASS
  1
ADAPPL
  2
AcAdAppl
  3
DesignerServices
 90
    33792
280
     0
281
     0
  0
CLASS
  1
DEPMGR
  2
AcAdDepMgr
  3
DesignerServices
 90
    33792
280
     0
281
     0
  0
CLASS
  1
PARAMMGR
  2
AcAdParamMgr
  3
DesignerServices
 90
    33792
280
     0
281
     0
  0
CLASS
  1
PARAMSCOPE
  2
AcAdParamScope
  3
DesignerServices
 90
    33792
280
     0
281
     0
  0
CLASS
  1
ACIMSTRSYSVAR
  2
AcImStrSysVar
  3
AcMeServices
 90
    33792
280
     0
281
     0
  0
CLASS
  1
NAMEDAPPL
  2
AcAdNamedAppl
  3
DesignerServices
 90
    33792
280
     0
281
     0
  0
CLASS
  1
ADHNTMPLT
  2
AdHoleNoteTemplateMgr
  3
DesignerServices
 90
    33792
280
     0
281
     0
  0
CLASS
  1
AM_HNTEMPLATE_MGR_NAME
  2
AdHoleNoteTemplateMgrName
  3
DesignerServices
 90
    33792
280
     0
281
     0
  0
CLASS
  1
ACADGREFMODULE
  2
AcAdGrefModule
  3
AdGrefServices
 90
    33792
280
     0
281
     0
  0
CLASS
  1
AM_DRAWING_MGR
  2
AcDmDwgMgr
  3
AcMechDwgViewMgmt
 90
    33792
280
     0
281
     0
  0
CLASS
  1
AM_DWG_DOCUMENT
  2
AcDmDwgDocument
  3
AcMechDwgViewMgmt
 90
    33792
280
     0
281
     0
  0
CLASS
  1
AM_DWG_SHEET
  2
AcDmSheet
  3
AcMechDwgViewMgmt
 90
    33792
280
     0
281
     0
  0
CLASS
  1
AM_VIEWDIMPARMAP
  2
AcDmViewDimParMap
  3
AcMechDwgViewMgmt
 90
    33792
280
     0
281
     0
  0
CLASS
  1
AM_DWGMGR_NAME
  2
AcDmDwgMgrName
  3
AcMechDwgViewMgmt
 90
    33792
280
     0
281
     0
  0
CLASS
  1
ACAMPROJECT
  2
AcAmProject
  3
DesignerAssemblies
 90
    33792
280
     0
281
     0
  0
CLASS
  1
ACAMGRCOMPSET
  2
AcAmGrCompSet
  3
DesignerAssemblies
 90
    32768
280
     1
281
     0
  0
CLASS
  1
ACAMGRCOMPDEFSET
  2
AcAmGrCompDefSet
  3
DesignerAssemblies
 90
    33792
280
     0
281
     0
  0
CLASS
  1
ACAMGRCOMPDEF
  2
AcAmGrCompDef
  3
DesignerAssemblies
 90
    33792
280
     0
281
     0
  0
CLASS
  1
ACCMCONTEXT
  2
AcCmContext
  3
DesignerAssemblies
 90
    33792
280
     0
281
     0
  0
CLASS
  1
ACAMCOMPDEF
  2
AcAmCompDef
  3
DesignerAssemblies
 90
    33792
280
     0
281
     0
  0
CLASS
  1
ACAMCOMPDEFMGR
  2
AcAmCompDefMgr
  3
DesignerAssemblies
 90
    33792
280
     0
281
     0
  0
CLASS
  1
AMCONTEXTMGR
  2
AcAmContextMgr
  3
DesignerAssemblies
 90
    33792
280
     0
281
     0
  0
CLASS
  1
ACAMCONTEXTMODELER
  2
AcAmContextModeler
  3
DesignerAssemblies
 90
    33792
280
     0
281
     0
  0
CLASS
  1
ACMDATADICTIONARY
  2
AcmDataDictionary
  3
"AcmSymBB|Product Description: AutoCAD Mechanical|Company: Autodesk, Inc."
 90
    33792
280
     0
281
     0
  0
CLASS
  1
ACMDATAENTRYBLOCK
  2
AcmDataEntryBlock
  3
AcmSymBB|Product Description: AutoCAD Mechanical|Company: Autodesk, Inc.
 90
    33792
280
     0
281
     0
  0
CLASS
  1
ACDMVIEWGEOM
  2
AcDmViewGeometry
  3
AcMechDwgViewMgmt
 90
    33792
280
     0
281
     1
  0
CLASS
  1
CBROWSERAPPOBJECT
  2
CBrowserAppObject
  3
McadcomServices
 90
    33792
280
     0
281
     0
  0
CLASS
  1
IM_STATIC_MAN
  2
AcImStaticVarManager
  3
AcMeServices
 90
    33792
280
     0
281
     0
  0
CLASS
  1
ASAPP
  2
AcAsAppObject
  3
AutoSurfServices
 90
    33792
280
     0
281
     0
  0
CLASS
  1
ACIMDBLSTATICVAR
  2
AcImDblStaticVar
  3
AcMeServices
 90
    33792
280
     0
281
     0
  0
CLASS
  1
ACIMSTRSTATICVAR
  2
AcImStrStaticVar
  3
AcMeServices
 90
    33792
280
     0
281
     0
  0
CLASS
  1
ACIMINTSTATICVAR
  2
AcImIntStaticVar
  3
AcMeServices
 90
    33792
280
     0
281
     0
  0
CLASS
  1
CATALOGSTATE
  2
AcAmCatalogState
  3
DesignerAssemblies
 90
    33792
280
     0
281
     0
  0
CLASS
  1
DM_PLACEHOLDER
  2
AcDmSelsetPlaceholder
  3
AcMechDwgViewMgmt
 90
    33792
280
     0
281
     0
  0
CLASS
  1
LAYER_INDEX
  2
AcDbLayerIndex
  3
ObjectDBX Classes
 90
    32768
280
     0
281
     0
  0
CLASS
  1
IDBUFFER
  2
AcDbIdBuffer
  3
ObjectDBX Classes
 90
    32768
280
     0
281
     0
  0
CLASS
  1
ACAMEXTERNALCOMPDEF
  2
AcAmExternalCompDef
  3
DesignerAssemblies
 90
    33792
280
     0
281
     0
  0
CLASS
  1
ACCMBODY
  2
AcCmBody
  3
DesignerAssemblies
 90
    33792
280
     0
281
     0
  0
CLASS
  1
ACAMGRCOMP
  2
AcAmGrComp
  3
DesignerAssemblies
 90
    33792
280
     0
281
     0
  0
CLASS
  1
ACAMCOMPFEEDBACK
  2
AcAmCompFeedback
  3
DesignerAssemblies
 90
    33792
280
     0
281
     0
  0
CLASS
  1
ACAMCOMP
  2
AcAmComp
  3
DesignerAssemblies
 90
    33792
280
     0
281
     0
  0
CLASS
  1
ACAMGRCOMPCLONE
  2
AcAmGrCompClone
  3
DesignerAssemblies
 90
    33792
280
     0
281
     0
  0
CLASS
  1
ACAMCLONEREACTOR
  2
AcAmGrCompCloneReactor
  3
DesignerAssemblies
 90
    33792
280
     0
281
     0
  0
CLASS
  1
AGDICTIONARY
  2
AgDictionary
  3
AccelView
 90
    33793
280
     0
281
     0
  0
CLASS
  1
EDGEID
  2
AcAdEdgeId
  3
DesignerServices
 90
    33792
280
     0
281
     0
  0
CLASS
  1
ACADPARTLINEDGRES
  2
AcAdPartLinEdgRes
  3
AdGrefServices
 90
    33792
280
     0
281
     0
  0
CLASS
  1
ACRFINSADJ
  2
AcRfInsAdjuster
  3
AcMeServices
 90
    33792
280
     0
281
     0
  0
CLASS
  1
STREFID
  2
AcAdStraightRefId
  3
DesignerServices
 90
    33792
280
     0
281
     0
  0
CLASS
  1
ACMEAXIS
  2
AcImAxisDisplay
  3
AcMeServices
 90
    33792
280
     0
281
     1
  0
CLASS
  1
FACEID
  2
AcAdFaceId
  3
DesignerServices
 90
    33792
280
     0
281
     0
  0
CLASS
  1
DEPEDGESECONDARYDEPID
  2
AcAdDepEdgeSecondaryDepId
  3
DesignerServices
 90
    33792
280
     0
281
     0
  0
CLASS
  1
ACADPARTPLANARFACERES
  2
AcAdPartPlanarFaceRes
  3
AdGrefServices
 90
    33792
280
     0
281
     0
  0
CLASS
  1
ACMEPOINT
  2
AcImPointDisplay
  3
AcMeServices
 90
    33792
280
     0
281
     1
  0
CLASS
  1
ACMELINEARARROW
  2
AcImLinearArrowDisplay
  3
AcMeServices
 90
    33792
280
     0
281
     1
  0
CLASS
  1
ACAMEXPR
  2
AcAmExpr
  3
DesignerAssemblies
 90
    33792
280
     0
281
     0
  0
CLASS
  1
ACCMDISTPLPL
  2
AcCmDistPlPl
  3
DesignerAssemblies
 90
    33792
280
     0
281
     0
  0
CLASS
  1
ACCMCONSTREACTOR
  2
AcCmConstraintReactor
  3
DesignerAssemblies
 90
    33792
280
     0
281
     0
  0
CLASS
  1
ACAMVIEWENTITYFILTER
  2
AcAmViewEntityFilter
  3
DesignerAssemblies
 90
    33792
280
     0
281
     0
  0
CLASS
  1
ACAMGRBLOCKRECORD
  2
AcAmGrBlockRecord
  3
DesignerAssemblies
 90
    33792
280
     0
281
     0
  0
CLASS
  1
ACAMVIEWREACTOR
  2
AcAmViewReactor
  3
DesignerAssemblies
 90
    33792
280
     0
281
     0
  0
CLASS
  1
AMVIEW
  2
AcAmView
  3
DesignerAssemblies
 90
    33792
280
     0
281
     0
  0
CLASS
  1
ACAMVIEWCONTEXT
  2
AcAmViewContext
  3
DesignerAssemblies
 90
    33792
280
     0
281
     0
  0
CLASS
  1
ACAMCOMPVIEWREACTOR
  2
AcAmGrCompViewReactor
  3
DesignerAssemblies
 90
    33792
280
     0
281
     0
  0
CLASS
  1
ACAMGRCOMPVIEW
  2
AcAmGrCompView
  3
DesignerAssemblies
 90
    33792
280
     0
281
     0
  0
CLASS
  1
SURFACEID
  2
AcAdSurfaceId
  3
DesignerServices
 90
    33792
280
     0
281
     0
  0
CLASS
  1
AM_GREF_PLANE
  2
AcDmGrefPlnDef
  3
AcMechDwgViewMgmt
 90
    33792
280
     0
281
     0
  0
CLASS
  1
AM_GREF_AXIS
  2
AcDmGrefAxisDef
  3
AcMechDwgViewMgmt
 90
    33792
280
     0
281
     0
  0
CLASS
  1
AM_BASE_VIEW_ORIENT
  2
AcDmBaseViewOr
  3
AcMechDwgViewMgmt
 90
    33792
280
     0
281
     0
  0
CLASS
  1
AM_DWG_VIEWPORT
  2
AcDmViewport
  3
AcMechDwgViewMgmt
 90
    33792
280
     0
281
     0
  0
CLASS
  1
AM_VIEW_DISPLAY
  2
AcDmDwgViewDisplay
  3
AcMechDwgViewMgmt
 90
    33792
280
     0
281
     0
  0
CLASS
  1
AM_BASE_VIEW
  2
AcDmBaseView
  3
AcMechDwgViewMgmt
 90
    33792
280
     0
281
     0
  0
CLASS
  1
ACDMVWEDLINE
  2
AcDmViewEdgeLine
  3
AcMechDwgViewMgmt
 90
    33792
280
     0
281
     1
  0
CLASS
  1
ACDMVWEDARC
  2
AcDmViewEdgeArc
  3
AcMechDwgViewMgmt
 90
    33792
280
     0
281
     1
  0
CLASS
  1
ACDMVWEDCIRC
  2
AcDmViewEdgeCircle
  3
AcMechDwgViewMgmt
 90
    33792
280
     0
281
     1
  0
CLASS
  1
AM_ORTHO_VIEW_ORIENT
  2
AcDmOrthoViewOr
  3
AcMechDwgViewMgmt
 90
    33792
280
     0
281
     0
  0
CLASS
  1
AM_ORTHO_VIEW
  2
AcDmOrthoView
  3
AcMechDwgViewMgmt
 90
    33792
280
     0
281
     0
  0
CLASS
  1
CNRREFID
  2
AcAdCornerId
  3
DesignerServices
 90
    33792
280
     0
281
     0
  0
CLASS
  1
ACADPARTPOINTRES
  2
AcAdPartPointRes
  3
AdGrefServices
 90
    33792
280
     0
281
     0
  0
CLASS
  1
AM_VIEWDIMLINEAR
  2
AcDmViewDimLinear
  3
AcMechDwgViewMgmt
 90
    33792
280
     0
281
     0
  0
CLASS
  1
ACADPARTCIRCEDGRES
  2
AcAdPartCircEdgRes
  3
AdGrefServices
 90
    33792
280
     0
281
     0
  0
CLASS
  1
CIRREFID
  2
AcAdCircleRefId
  3
DesignerServices
 90
    33792
280
     0
281
     0
  0
CLASS
  1
ACADPARTCYLINDERFACERES
  2
AcAdPartCylinderFaceRes
  3
AdGrefServices
 90
    33792
280
     0
281
     0
  0
CLASS
  1
ACCMDISTLNLN
  2
AcCmDistLnLn
  3
DesignerAssemblies
 90
    33792
280
     0
281
     0
  0
CLASS
  1
ACMECIRCARC
  2
AcImCircArcDisplay
  3
AcMeServices
 90
    33792
280
     0
281
     1
  0
CLASS
  1
ACCMDISTPTLN
  2
AcCmDistPtLn
  3
DesignerAssemblies
 90
    33792
280
     0
281
     0
  0
CLASS
  1
ACRFATTGENMGR
  2
AcRfAttGeneralMgr
  3
AcAttribServices
 90
    33792
280
     0
281
     0
  0
CLASS
  1
FEEDBACK
  2
AcAmFeedback
  3
DesignerAssemblies
 90
    33792
280
     0
281
     1
  0
CLASS
  1
ACAMTRIAXISSYMBOL
  2
AcAmTriAxisSymbol
  3
DesignerAssemblies
 90
    33792
280
     0
281
     0
  0
CLASS
  1
ACAMROTAXISSYMBOL
  2
AcAmRotAxisSymbol
  3
DesignerAssemblies
 90
    33792
280
     0
281
     0
  0
CLASS
  1
ACAMTEXTCIRCLESYMBOL
  2
AcAmTextCircleSymbol
  3
DesignerAssemblies
 90
    33792
280
     0
281
     0
  0
CLASS
  1
ACCMTANCLCL
  2
AcCmTanClCl
  3
AcCmServices
 90
    33792
280
     0
281
     0
  0
CLASS
  1
ACCMANGVECVEC
  2
AcCmAngVecVec
  3
DesignerAssemblies
 90
    33792
280
     0
281
     0
  0
CLASS
  1
ACMEROTATIONARROW
  2
AcImRotationArrowDisplay
  3
AcMeServices
 90
    33792
280
     0
281
     1
  0
CLASS
  1
ACDMVWEDSPLINE
  2
AcDmViewEdgeSpline
  3
AcMechDwgViewMgmt
 90
    33792
280
     0
281
     1
  0
CLASS
  1
SILEDGEID
  2
AcAdSilhouetteEdgeId
  3
DesignerServices
 90
    33792
280
     0
281
     0
  0
CLASS
  1
ACAMVECTORSYMBOL
  2
AcAmVectorSymbol
  3
DesignerAssemblies
 90
    33792
280
     0
281
     0
  0
CLASS
  1
ACCMTANCLPL
  2
AcCmTanClPl
  3
AcCmServices
 90
    33792
280
     0
281
     0
  0
CLASS
  1
AM_VIEW_SELECT_FILTER
  2
AcDmSelectViewEntFilter
  3
AcMechDwgViewMgmt
 90
    33792
280
     0
281
     0
  0
CLASS
  1
ACME_DATABASE
  2
AcMeDbDatabase
  3
AcMeServices
 90
    33792
280
     0
281
     0
  0
CLASS
  1
ACME_DOCUMENT
  2
AcMeDbDoc
  3
AcMeServices
 90
    33792
280
     0
281
     0
  0
CLASS
  1
AMGSETTINGSOBJ
  2
AmgSettingsObj
  3
"AcadM|Product Description: AutoCAD Mechanical|Company: Autodesk, Inc."
 90
    33792
280
     0
281
     0
  0
CLASS
  1
GSMANAGER
  2
AcMeGSManager
  3
AcMeServices
 90
    33792
280
     0
281
     0
  0
CLASS
  1
AMDTINTERNALREACTOR
  2
AmdtInternalReactor
  3
AcMeServices
 90
    33792
280
     0
281
     0
  0
CLASS
  1
ACGREFACADMASTER
  2
AcGrefacadMaster
  3
AcGrefServices
 90
    33792
280
     0
281
     0
  0
CLASS
  1
AMDTMENUSTATEMGR
  2
AmdtMenuStateMgr
  3
McadcomServices
 90
    33792
280
     0
281
     0
  0
CLASS
  1
AMDTMCOMMENUSTATE
  2
AmdtMcomMenuState
  3
McadcomServices
 90
    33792
280
     0
281
     0
  0
CLASS
  1
MAPIAMMOUDLE
  2
MApiAmModule
  3
MApiAmServices
 90
    33792
280
     0
281
     0
  0
CLASS
  1
AMDTDMMENUSTATE
  2
AmdtDmMenuState
  3
AcMechDwgViewMgmt
 90
    33792
280
     0
281
     0
  0
CLASS
  1
AMDTADMENUSTATE
  2
AmdtAdMenuState
  3
DesignerServices
 90
    33792
280
     0
281
     0
  0
CLASS
  1
AMDTAMMENUSTATE
  2
AmdtAmMenuState
  3
DesignerAssemblies
 90
    33792
280
     0
281
     0
  0
CLASS
  1
MAPIADMODULE
  2
MApiAdModule
  3
MApiAdServices
 90
    33792
280
     0
281
     0
  0
CLASS
  1
ACAMCOMPENT
  2
AcAmCompEnt
  3
DesignerAssemblies
 90
    33792
280
     0
281
     1
  0
CLASS
  1
ACAMCOMPENTCLONE
  2
AcAmCompEntClone
  3
DesignerAssemblies
 90
    33792
280
     0
281
     1
  0
CLASS
  1
ACAMCOMPENTVIEW
  2
AcAmCompEntView
  3
DesignerAssemblies
 90
    33792
280
     0
281
     1
  0
CLASS
  1
AM_CLDFLTS
  2
AcDmClDflts
  3
AcMechDwgViewMgmt
 90
    33792
280
     0
281
     0
  0
CLASS
  1
AMDTBROWSERDBTAB
  2
AmdtBrowserDbTab
  3
McadcomServices
 90
    33792
280
     0
281
     0
  0
CLASS
  1
AMGOBJPROPCFG
  2
AmgObjPropCfg
  3
"AmgLay|Product Description: AutoCAD Mechanical|Company: Autodesk, Inc."
 90
    33793
280
     0
281
     0
  0
CLASS
  1
ACDMVWEDELLIPSE
  2
AcDmViewEdgeEllipse
  3
AcMechDwgViewMgmt
 90
    33792
280
     0
281
     1
  0
CLASS
  1
ACAMGFILTERDAT
  2
AcAmgFilterDat
  3
"AcadM|Product Description: AutoCAD Mechanical|Company: Autodesk, Inc."
 90
    33792
280
     0
281
     0
  0
CLASS
  1
AMDTMAPISURFMOUDULE
  2
AmdtMApiSurfModule
  3
MApiSurfServices
 90
    33792
280
     0
281
     0
  0
CLASS
  1
ACDMPARTVIEWDATA
  2
AcDmPartViewData
  3
AcMechDwgViewMgmt
 90
    33792
280
     0
281
     0
  0
CLASS
  1
ACDMDISPLAYATTRIBS
  2
AcDmDisplayAttribs
  3
AcMechDwgViewMgmt
 90
    33792
280
     0
281
     0
  0
CLASS
  1
ACDMBODYINSTANCEDATA
  2
AcDmBodyInstanceData
  3
AcMechDwgViewMgmt
 90
    33792
280
     0
281
     0
  0
CLASS
  1
ACMSTANDARDISO
  2
AcmStandardISO
  3
"Amdt_StdImp|Product Description: AutoCAD Mechanical|Company: Autodesk, Inc."
 90
    33792
280
     0
281
     0
  0
CLASS
  1
AMDTEDGESTANDARDISO
  2
AmdtEdgeStdISO
  3
"Amdt_StdImp|Product Description: AutoCAD Mechanical|Company: Autodesk, Inc."
 90
    33792
280
     0
281
     0
  0
CLASS
  1
ACMSURFSTANDARDISO
  2
AcmSurfTextStdISO
  3
"Amdt_StdImp|Product Description: AutoCAD Mechanical|Company: Autodesk, Inc."
 90
    33792
280
     0
281
     0
  0
CLASS
  1
ACMFCFSTANDARDISO
  2
AcmFCFStdISO
  3
"Amdt_StdImp|Product Description: AutoCAD Mechanical|Company: Autodesk, Inc."
 90
    33792
280
     0
281
     0
  0
CLASS
  1
ACMWELDSTANDARDISO
  2
AcmWeldingStdISO
  3
"Amdt_StdImp|Product Description: AutoCAD Mechanical|Company: Autodesk, Inc."
 90
    33792
280
     0
281
     0
  0
CLASS
  1
ACMIDSTANDARDISO
  2
AcmIdStdISO
  3
"Amdt_StdImp|Product Description: AutoCAD Mechanical|Company: Autodesk, Inc."
 90
    33792
280
     0
281
     0
  0
CLASS
  1
ACMDATUMSTANDARDISO
  2
AcmDatumStdISO
  3
"Amdt_StdImp|Product Description: AutoCAD Mechanical|Company: Autodesk, Inc."
 90
    33792
280
     0
281
     0
  0
CLASS
  1
ACMBOMSTANDARDISO
  2
AcmBOMStdISO
  3
"Amdt_StdImp|Product Description: AutoCAD Mechanical|Company: Autodesk, Inc."
 90
    33792
280
     0
281
     0
  0
CLASS
  1
ACMDETAILSTANDARDISO
  2
AmdtDetailSymStdISO
  3
"Amdt_StdImp|Product Description: AutoCAD Mechanical|Company: Autodesk, Inc."
 90
    33792
280
     0
281
     0
  0
CLASS
  1
ACMSECTIONSTANDARDISO
  2
AmdtSectionSymStdISO
  3
"Amdt_StdImp|Product Description: AutoCAD Mechanical|Company: Autodesk, Inc."
 90
    33792
280
     0
281
     0
  0
CLASS
  1
ACMCENTERLINESTANDARDISO
  2
AmdtCenterLineStdISO
  3
"Amdt_StdImp|Product Description: AutoCAD Mechanical|Company: Autodesk, Inc."
 90
    33792
280
     0
281
     0
  0
CLASS
  1
ACMTHREADLINESTANDARDISO
  2
AmdtThreadLineStdISO
  3
"Amdt_StdImp|Product Description: AutoCAD Mechanical|Company: Autodesk, Inc."
 90
    33792
280
     0
281
     0
  0
CLASS
  1
ACAMGLAYSTD
  2
AcAmgLayStd
  3
"AmgLay|Product Description: AutoCAD Mechanical|Company: Autodesk, Inc."
 90
    33792
280
     0
281
     0
  0
CLASS
  1
ACAMGDIMSTD
  2
AcAmgDimStd
  3
"AmgDim|Product Description: AutoCAD Mechanical|Company: Autodesk, Inc."
 90
    33792
280
     0
281
     0
  0
CLASS
  1
ACAMGTITLESTD
  2
AcAmgTitleStd
  3
"AmgTitle|Product Description: AutoCAD Mechanical|Company: Autodesk, Inc."
 90
    36863
280
     0
281
     0
  0
CLASS
  1
AMDTFORMULAUPDATEDISPATCHER
  2
AmdtFormulaUpdateDispatcher
  3
AcMeServices
 90
    33792
280
     0
281
     0
  0
CLASS
  1
PARAM
  2
AcAdParam
  3
DesignerServices
 90
    33792
280
     0
281
     0
  0
CLASS
  1
ACMEPLINE
  2
AcImPlineDisplay
  3
AcMeServices
 90
    33792
280
     0
281
     1
  0
CLASS
  1
ACCMDISTLNPL
  2
AcCmDistLnPl
  3
AcCmServices
 90
    33792
280
     0
281
     0
  0
CLASS
  1
ACCMDISTPTPL
  2
AcCmDistPtPl
  3
DesignerAssemblies
 90
    33792
280
     0
281
     0
  0
CLASS
  1
ACMNOTESTANDARDISO
  2
AmdtNoteStdISO
  3
"Amdt_StdImp|Product Description: AutoCAD Mechanical|Company: Autodesk, Inc."
 90
    33792
280
     0
281
     0
  0
CLASS
  1
AMDTNOTETEMPLATEDB
  2
AmdtNoteTemplateDB
  3
AcmSymBB|Product Description: AutoCAD Mechanical|Company: Autodesk, Inc.
 90
    33792
280
     0
281
     0
  0
CLASS
  1
TABLESTYLE
  2
AcDbTableStyle
  3
ObjectDBX Classes
 90
     4095
280
     0
281
     0
  0
CLASS
  1
AM_VIEW_GROUP_FILTER
  2
AcDmGroupViewEntFilter
  3
AcMechDwgViewMgmt
 90
    33792
280
     0
281
     0
  0
CLASS
  1
MATERIAL
  2
AcDbMaterial
  3
ObjectDBX Classes
 90
     1153
280
     0
281
     0
  0
CLASS
  1
VISUALSTYLE
  2
AcDbVisualStyle
  3
ObjectDBX Classes
 90
     4095
280
     0
281
     0
  0
CLASS
  1
SCALE
  2
AcDbScale
  3
ObjectDBX Classes
 90
     1153
280
     0
281
     0
  0
CLASS
  1
MLEADERSTYLE
  2
AcDbMLeaderStyle
  3
ACDB_MLEADERSTYLE_CLASS
 90
     4095
280
     0
281
     0
  0
CLASS
  1
EXACTERMXREFMAP
  2
ExAcTermXrefMap
  3
EXAC_SERVICE
 90
    33793
280
     0
281
     0
  0
CLASS
  1
NPOCOLLECTION
  2
AcDbImpNonPersistentObjectsCollection
  3
ObjectDBX Classes
 90
     1153
280
     0
281
     0
  0
CLASS
  1
ACMTAPERSTANDARDISO
  2
AcmTaperStdISO
  3
"Amdt_StdImp|Product Description: AutoCAD Mechanical|Company: Autodesk, Inc."
 90
    33792
280
     0
281
     0
  0
CLASS
  1
ACMANOOTATIONVIEWSTANDARDISO
  2
AmdtAnViewStdISO
  3
"Amdt_StdImp|Product Description: AutoCAD Mechanical|Company: Autodesk, Inc."
 90
    33792
280
     0
281
     0
  0
CLASS
  1
LIGHT
  2
AcDbLight
  3
SCENEOE
 90
    33793
280
     0
281
     1
  0
CLASS
  1
SOLID_BACKGROUND
  2
AcDbSolidBackground
  3
SCENEOE
 90
     4095
280
     0
281
     0
  0
CLASS
  1
AM_ABS_AXIS
  2
AcDmAbsAxisDef
  3
AcMechDwgViewMgmt
 90
    33792
280
     0
281
     0
  0
CLASS
  1
AM_ABS_PLANE
  2
AcDmAbsPlnDef
  3
AcMechDwgViewMgmt
 90
    33792
280
     0
281
     0
  0
CLASS
  1
AM_ADCIRCTRLINE
  2
AcAdBullsEyeCl
  3
DesignerServices
 90
    33792
280
     0
281
     0
  0
CLASS
  1
AM_ADLINCTRLINE
  2
AcAdLineCl
  3
DesignerServices
 90
    33792
280
     0
281
     0
  0
CLASS
  1
CELLSTYLEMAP
  2
AcDbCellStyleMap
  3
ObjectDBX Classes
 90
     1152
280
     0
281
     0
  0
CLASS
  1
MULTILEADER
  2
AcDbMLeader
  3
ACDB_MLEADER_CLASS
 90
     1025
280
     0
281
     1
  0
ENDSEC
  0
SECTION
  2
TABLES
  0
TABLE
  2
VPORT
  5
29
102
{ACAD_XDICTIONARY
360
526
102
}
330
0
100
AcDbSymbolTable
 70
     1
  0
VPORT
  5
B16
330
29
100
AcDbSymbolTableRecord
100
AcDbViewportTableRecord
  2
*Active
 70
     0
 10
0.0
 20
0.0
 11
1.0
 21
1.0
 12
-46.75285220431208
 22
187.9631024639882
 13
0.0
 23
0.0
 14
10.0
 24
10.0
 15
10.0
 25
10.0
 16
0.0
 26
0.0
 36
831.441600101975
 17
122.6714384957814
 27
-1.38375488143879
 37
0.0
 40
871.4273363777174
 41
1.807989690721649
 42
50.0
 43
0.0
 44
0.0
 50
0.0
 51
0.0
 71
     0
 72
   100
 73
     1
 74
     2
 75
     0
 76
     0
 77
     0
 78
     0
281
     4
 65
     0
110
0.0
120
0.0
130
0.0
111
1.0
121
0.0
131
0.0
112
0.0
122
1.0
132
0.0
 79
     0
146
0.0
  0
ENDTAB
  0
TABLE
  2
LTYPE
  5
24
330
0
100
AcDbSymbolTable
 70
     5
  0
LTYPE
  5
25
330
24
100
AcDbSymbolTableRecord
100
AcDbLinetypeTableRecord
  2
ByBlock
 70
     0
  3

 72
    65
 73
     0
 40
0.0
  0
LTYPE
  5
26
330
24
100
AcDbSymbolTableRecord
100
AcDbLinetypeTableRecord
  2
ByLayer
 70
     0
  3

 72
    65
 73
     0
 40
0.0
  0
LTYPE
  5
13
330
24
100
AcDbSymbolTableRecord
100
AcDbLinetypeTableRecord
  2
Continuous
 70
     0
  3
Solid line
 72
    65
 73
     0
 40
0.0
  0
LTYPE
  5
7C
330
24
100
AcDbSymbolTableRecord
100
AcDbLinetypeTableRecord
  2
HIDDEN
 70
     0
  3
Hidden __ __ __ __ __ __ __ __ __ __ __ __ __ _
 72
    65
 73
     2
 40
9.524999999999996
 49
6.349999999999997
 74
     0
 49
-3.174999999999998
 74
     0
  0
LTYPE
  5
196
330
24
100
AcDbSymbolTableRecord
100
AcDbLinetypeTableRecord
  2
AM_ISO08W050
 70
     0
  3
____ . ____ . ____ . ____ . ____ . ____ . ____
 72
    65
 73
     4
 40
18.0
 49
12.0
 74
     0
 49
-1.5
 74
     0
 49
3.0
 74
     0
 49
-1.5
 74
     0
  0
LTYPE
  5
B3A
330
24
100
AcDbSymbolTableRecord
100
AcDbLinetypeTableRecord
  2
DASHDOT
 70
     0
  3
____ _ ____ _ ____ _ ____ _ ____ _ ____ _ ____
 72
    65
 73
     4
 40
5.5
 49
4.0
 74
     0
 49
-0.6
 74
     0
 49
0.3
 74
     0
 49
-0.6
 74
     0
  0
ENDTAB
  0
TABLE
  2
LAYER
  5
1E
102
{ACAD_XDICTIONARY
360
1F
102
}
330
0
100
AcDbSymbolTable
 70
    12
  0
LAYER
  5
6
102
{ACAD_XDICTIONARY
360
517
102
}
330
1E
100
AcDbSymbolTableRecord
100
AcDbLayerTableRecord
  2
0
 70
     0
 62
     7
  6
Continuous
370
    -3
390
7
  0
LAYER
  5
7B
102
{ACAD_XDICTIONARY
360
51B
102
}
330
1E
100
AcDbSymbolTableRecord
100
AcDbLayerTableRecord
  2
HID
 70
     0
 62
     3
  6
HIDDEN
370
    -3
390
7
  0
LAYER
  5
553
330
1E
100
AcDbSymbolTableRecord
100
AcDbLayerTableRecord
  2
Defpoints
 70
     0
 62
     7
  6
Continuous
290
     0
370
    -3
390
7
  0
LAYER
  5
B3B
330
1E
100
AcDbSymbolTableRecord
100
AcDbLayerTableRecord
  2
SIZE
 70
     0
 62
    30
  6
Continuous
370
    -3
390
7
  0
LAYER
  5
B3C
330
1E
100
AcDbSymbolTableRecord
100
AcDbLayerTableRecord
  2
OUTLINE
 70
     0
 62
     3
  6
Continuous
370
    -3
390
7
  0
LAYER
  5
B3D
330
1E
100
AcDbSymbolTableRecord
100
AcDbLayerTableRecord
  2
DETAIL
 70
     0
 62
     5
  6
Continuous
370
    -3
390
7
  0
LAYER
  5
B3E
330
1E
100
AcDbSymbolTableRecord
100
AcDbLayerTableRecord
  2
BASIS
 70
     0
 62
     6
  6
DASHDOT
370
    -3
390
7
  0
LAYER
  5
B3F
330
1E
100
AcDbSymbolTableRecord
100
AcDbLayerTableRecord
  2
NOTE
 70
     0
 62
     4
  6
Continuous
370
    -3
390
7
  0
LAYER
  5
B40
330
1E
100
AcDbSymbolTableRecord
100
AcDbLayerTableRecord
  2
ARRANGE
 70
     0
 62
     1
  6
Continuous
370
    -3
390
7
  0
LAYER
  5
B41
330
1E
100
AcDbSymbolTableRecord
100
AcDbLayerTableRecord
  2
ETC
 70
     0
 62
    61
  6
Continuous
370
    -3
390
7
  0
ENDTAB
  0
TABLE
  2
STYLE
  5
21
330
0
100
AcDbSymbolTable
 70
     2
  0
STYLE
  5
22
330
21
100
AcDbSymbolTableRecord
100
AcDbTextStyleTableRecord
  2
Standard
 70
     0
 40
0.0
 41
1.0
 50
0.0
 71
     0
 42
43.66586864911549
  3
romans.shx
  4
bigfont.shx
  0
STYLE
  5
B42
330
21
100
AcDbSymbolTableRecord
100
AcDbTextStyleTableRecord
  2
STANDARD1
 70
     0
 40
0.0
 41
1.0
 50
0.0
 71
     0
 42
3.5
  3
MONOTXT
  4
BIGFONT
  0
ENDTAB
  0
TABLE
  2
VIEW
  5
27
330
0
100
AcDbSymbolTable
 70
     0
  0
ENDTAB
  0
TABLE
  2
UCS
  5
28
330
0
100
AcDbSymbolTable
 70
     0
  0
ENDTAB
  0
TABLE
  2
APPID
  5
2D
330
0
100
AcDbSymbolTable
 70
    16
  0
APPID
  5
2E
330
2D
100
AcDbSymbolTableRecord
100
AcDbRegAppTableRecord
  2
ACAD
 70
     0
  0
APPID
  5
1D
330
2D
100
AcDbSymbolTableRecord
100
AcDbRegAppTableRecord
  2
ACAD_PSEXT
 70
     0
  0
APPID
  5
197
330
2D
100
AcDbSymbolTableRecord
100
AcDbRegAppTableRecord
  2
AcAecLayerStandard
 70
     0
  0
APPID
  5
4F4
330
2D
100
AcDbSymbolTableRecord
100
AcDbRegAppTableRecord
  2
ACATTRIBSERVICES
 70
     0
  0
APPID
  5
50D
330
2D
100
AcDbSymbolTableRecord
100
AcDbRegAppTableRecord
  2
ACAD_MLEADERVER
 70
     0
  0
APPID
  5
515
330
2D
100
AcDbSymbolTableRecord
100
AcDbRegAppTableRecord
  2
ACAD_DSTYLE_DIMJAG
 70
     0
  0
APPID
  5
516
330
2D
100
AcDbSymbolTableRecord
100
AcDbRegAppTableRecord
  2
ACAD_DSTYLE_DIMTALN
 70
     0
  0
APPID
  5
560
330
2D
100
AcDbSymbolTableRecord
100
AcDbRegAppTableRecord
  2
ACAD_DSTYLE_DIMTEXT_FILL
 70
     0
  0
APPID
  5
561
330
2D
100
AcDbSymbolTableRecord
100
AcDbRegAppTableRecord
  2
ACAD_DSTYLE_DIMEXT_LENGTH
 70
     0
  0
APPID
  5
562
330
2D
100
AcDbSymbolTableRecord
100
AcDbRegAppTableRecord
  2
ACAD_DSTYLE_DIMEXT_ENABLED
 70
     0
  0
APPID
  5
563
330
2D
100
AcDbSymbolTableRecord
100
AcDbRegAppTableRecord
  2
ACAD_DSTYLE_DIM_LINETYPE
 70
     0
  0
APPID
  5
564
330
2D
100
AcDbSymbolTableRecord
100
AcDbRegAppTableRecord
  2
ACAD_DSTYLE_DIM_EXT1_LINETYPE
 70
     0
  0
APPID
  5
565
330
2D
100
AcDbSymbolTableRecord
100
AcDbRegAppTableRecord
  2
ACAD_DSTYLE_DIM_EXT2_LINETYPE
 70
     0
  0
APPID
  5
621
330
2D
100
AcDbSymbolTableRecord
100
AcDbRegAppTableRecord
  2
ACAD_DSTYLE_DIMJOGGED_JOGANGLE_SYMBOL
 70
     0
  0
APPID
  5
655
330
2D
100
AcDbSymbolTableRecord
100
AcDbRegAppTableRecord
  2
ACAD_DSTYLE_DIMARC_LENGTH_SYMBOL
 70
     0
  0
APPID
  5
108C
330
2D
100
AcDbSymbolTableRecord
100
AcDbRegAppTableRecord
  2
ACAD_EXEMPT_FROM_CAD_STANDARDS
 70
     0
  0
ENDTAB
  0
TABLE
  2
DIMSTYLE
  5
2F
330
0
100
AcDbSymbolTable
 70
     3
100
AcDbDimStyleTable
 71
     1
340
30
  0
DIMSTYLE
105
30
102
{ACAD_REACTORS
330
AB9
330
AC7
330
AD4
330
AE1
102
}
330
2F
100
AcDbSymbolTableRecord
100
AcDbDimStyleTableRecord
  2
ISO-25
 70
     0
 41
2.5
 42
0.625
 43
3.75
 44
1.25
 73
     0
 74
     0
 77
     1
 78
     8
140
2.5
141
2.5
143
0.03937007874016
147
0.625
171
     3
172
     1
271
     2
272
     2
274
     3
283
     0
284
     8
340
22
  0
DIMSTYLE
105
B43
330
2F
100
AcDbSymbolTableRecord
100
AcDbDimStyleTableRecord
  2
STANDARD
 70
     0
275
     1
279
     2
284
     8
285
     8
286
     8
340
22
  0
ENDTAB
  0
TABLE
  2
BLOCK_RECORD
  5
1
330
0
100
AcDbSymbolTable
 70
    13
  0
BLOCK_RECORD
  5
2
102
{ACAD_XDICTIONARY
360
3
102
}
330
1
100
AcDbSymbolTableRecord
100
AcDbBlockTableRecord
  2
*Model_Space
340
15
  0
BLOCK_RECORD
  5
17
330
1
100
AcDbSymbolTableRecord
100
AcDbBlockTableRecord
  2
*Paper_Space
340
1A
  0
BLOCK_RECORD
  5
48
330
1
100
AcDbSymbolTableRecord
100
AcDbBlockTableRecord
  2
_OPEN30
340
0
102
{BLKREFS
331
558
331
559
331
69C
331
69D
331
6CF
331
6D0
331
6E1
331
6E2
331
1095
331
1096
331
109E
331
109F
331
10A7
331
10A8
331
10B0
331
10B1
102
}
  0
BLOCK_RECORD
  5
4E
330
1
100
AcDbSymbolTableRecord
100
AcDbBlockTableRecord
  2
_DOTSMALL
340
0
  0
BLOCK_RECORD
  5
554
330
1
100
AcDbSymbolTableRecord
100
AcDbBlockTableRecord
  2
*D2
340
0
  0
BLOCK_RECORD
  5
68B
330
1
100
AcDbSymbolTableRecord
100
AcDbBlockTableRecord
  2
*D3
340
0
  0
BLOCK_RECORD
  5
698
330
1
100
AcDbSymbolTableRecord
100
AcDbBlockTableRecord
  2
*D4
340
0
  0
BLOCK_RECORD
  5
6A5
330
1
100
AcDbSymbolTableRecord
100
AcDbBlockTableRecord
  2
*D5
340
0
  0
BLOCK_RECORD
  5
ABA
330
1
100
AcDbSymbolTableRecord
100
AcDbBlockTableRecord
  2
*D6
340
0
  0
BLOCK_RECORD
  5
AC8
330
1
100
AcDbSymbolTableRecord
100
AcDbBlockTableRecord
  2
*D7
340
0
  0
BLOCK_RECORD
  5
AD5
330
1
100
AcDbSymbolTableRecord
100
AcDbBlockTableRecord
  2
*D8
340
0
  0
BLOCK_RECORD
  5
AE2
330
1
100
AcDbSymbolTableRecord
100
AcDbBlockTableRecord
  2
*D9
340
0
  0
BLOCK_RECORD
  5
B35
330
1
100
AcDbSymbolTableRecord
100
AcDbBlockTableRecord
  2
_DOTBLANK
340
0
  0
ENDTAB
  0
ENDSEC
  0
SECTION
  2
BLOCKS
  0
BLOCK
  5
5
330
2
100
AcDbEntity
  8
0
100
AcDbBlockBegin
  2
*Model_Space
 70
     0
 10
0.0
 20
0.0
 30
0.0
  3
*Model_Space
  1

  0
ENDBLK
  5
14
330
2
100
AcDbEntity
  8
0
100
AcDbBlockEnd
  0
BLOCK
  5
18
330
17
100
AcDbEntity
 67
     1
  8
0
100
AcDbBlockBegin
  2
*Paper_Space
 70
     0
 10
0.0
 20
0.0
 30
0.0
  3
*Paper_Space
  1

  0
ENDBLK
  5
19
330
17
100
AcDbEntity
 67
     1
  8
0
100
AcDbBlockEnd
  0
BLOCK
  5
49
330
48
100
AcDbEntity
  8
0
100
AcDbBlockBegin
  2
_OPEN30
 70
     0
 10
0.0
 20
0.0
 30
0.0
  3
_OPEN30
  1

  0
LINE
  5
4A
330
48
100
AcDbEntity
  8
0
  6
ByBlock
 62
     0
100
AcDbLine
 10
-1.0
 20
0.26794919
 30
0.0
 11
0.0
 21
0.0
 31
0.0
  0
LINE
  5
4B
330
48
100
AcDbEntity
  8
0
  6
ByBlock
 62
     0
100
AcDbLine
 10
0.0
 20
0.0
 30
0.0
 11
-1.0
 21
-0.26794919
 31
0.0
  0
LINE
  5
4C
330
48
100
AcDbEntity
  8
0
  6
ByBlock
 62
     0
100
AcDbLine
 10
0.0
 20
0.0
 30
0.0
 11
-1.0
 21
0.0
 31
0.0
  0
ENDBLK
  5
4D
330
48
100
AcDbEntity
  8
0
100
AcDbBlockEnd
  0
BLOCK
  5
4F
330
4E
100
AcDbEntity
  8
0
100
AcDbBlockBegin
  2
_DOTSMALL
 70
     0
 10
0.0
 20
0.0
 30
0.0
  3
_DOTSMALL
  1

  0
POLYLINE
  5
50
330
4E
100
AcDbEntity
  8
0
  6
ByBlock
 62
     0
100
AcDb2dPolyline
 66
     1
 10
0.0
 20
0.0
 30
0.0
 70
     1
 40
0.5
 41
0.5
  0
VERTEX
  5
51
330
50
100
AcDbEntity
  8
0
  6
ByBlock
 62
     0
100
AcDbVertex
100
AcDb2dVertex
 10
-0.0625
 20
0.0
 30
0.0
 42
1.0
  0
VERTEX
  5
52
330
50
100
AcDbEntity
  8
0
  6
ByBlock
 62
     0
100
AcDbVertex
100
AcDb2dVertex
 10
0.0625
 20
0.0
 30
0.0
 42
1.0
  0
SEQEND
  5
53
330
50
100
AcDbEntity
  8
0
  6
ByBlock
 62
     0
  0
ENDBLK
  5
54
330
4E
100
AcDbEntity
  8
0
100
AcDbBlockEnd
  0
BLOCK
  5
55E
330
554
100
AcDbEntity
  8
0
100
AcDbBlockBegin
  2
*D2
 70
     1
 10
0.0
 20
0.0
 30
0.0
  3
*D2
  1

  0
LINE
  5
555
330
554
100
AcDbEntity
  8
0
 62
     0
370
    -2
100
AcDbLine
 10
-167.6803987053407
 20
360.7120882250332
 30
0.0
 11
-167.6803987053407
 21
434.6538476898368
 31
0.0
  0
LINE
  5
556
330
554
100
AcDbEntity
  8
0
 62
     0
370
    -2
100
AcDbLine
 10
390.5306012946594
 20
360.5010882250329
 30
0.0
 11
390.5306012946594
 21
434.6538476898368
 31
0.0
  0
LINE
  5
557
330
554
100
AcDbEntity
  8
0
 62
     0
370
    -2
100
AcDbLine
 10
-155.1803987053407
 20
428.4038476898368
 30
0.0
 11
378.0306012946593
 21
428.4038476898368
 31
0.0
  0
INSERT
  5
558
330
554
100
AcDbEntity
  8
0
 62
     0
370
    -2
100
AcDbBlockReference
  2
_OPEN30
 10
-167.6803987053407
 20
428.4038476898368
 30
0.0
 41
12.5
 42
12.5
 43
12.5
 50
180.0
  0
INSERT
  5
559
330
554
100
AcDbEntity
  8
0
 62
     0
370
    -2
100
AcDbBlockReference
  2
_OPEN30
 10
390.5306012946594
 20
428.4038476898368
 30
0.0
 41
12.5
 42
12.5
 43
12.5
  0
MTEXT
  5
55A
330
554
100
AcDbEntity
  8
0
 62
     0
100
AcDbMText
 10
111.4251012946593
 20
437.7788476898368
 30
0.0
 40
12.5
 41
0.0
 71
     5
 72
     1
  1
11164.2
 73
     1
 44
1.0
1001
ACAD
1000
MTEXTBEGIN
1070
    73
1070
     1
1070
    44
1040
1.0
1070
    74
1070
     0
1000
MTEXTEND
  0
POINT
  5
55B
330
554
100
AcDbEntity
  8
Defpoints
 62
     0
100
AcDbPoint
 10
-167.6803987053407
 20
357.5870882250332
 30
0.0
  0
POINT
  5
55C
330
554
100
AcDbEntity
  8
Defpoints
 62
     0
100
AcDbPoint
 10
390.5306012946594
 20
357.3760882250329
 30
0.0
  0
POINT
  5
55D
330
554
100
AcDbEntity
  8
Defpoints
 62
     0
100
AcDbPoint
 10
390.5306012946594
 20
428.4038476898368
 30
0.0
  0
ENDBLK
  5
55F
330
554
100
AcDbEntity
  8
0
100
AcDbBlockEnd
  0
BLOCK
  5
695
330
68B
100
AcDbEntity
  8
0
100
AcDbBlockBegin
  2
*D3
 70
     1
 10
0.0
 20
0.0
 30
0.0
  3
*D3
  1

  0
LINE
  5
6DE
330
68B
100
AcDbEntity
  8
0
 62
     0
370
    -2
100
AcDbLine
 10
-181.9693987053407
 20
374.7120882250332
 30
0.0
 11
-181.9693987053407
 21
490.2931519875202
 31
0.0
  0
LINE
  5
6DF
330
68B
100
AcDbEntity
  8
0
 62
     0
370
    -2
100
AcDbLine
 10
405.0306012946593
 20
374.7120882250329
 30
0.0
 11
405.0306012946593
 21
490.2931519875202
 31
0.0
  0
LINE
  5
6E0
330
68B
100
AcDbEntity
  8
0
 62
     0
370
    -2
100
AcDbLine
 10
-169.4693987053407
 20
484.0431519875202
 30
0.0
 11
392.5306012946593
 21
484.0431519875202
 31
0.0
  0
INSERT
  5
6E1
330
68B
100
AcDbEntity
  8
0
 62
     0
370
    -2
100
AcDbBlockReference
  2
_OPEN30
 10
-181.9693987053407
 20
484.0431519875202
 30
0.0
 41
12.5
 42
12.5
 43
12.5
 50
180.0
  0
INSERT
  5
6E2
330
68B
100
AcDbEntity
  8
0
 62
     0
370
    -2
100
AcDbBlockReference
  2
_OPEN30
 10
405.0306012946593
 20
484.0431519875202
 30
0.0
 41
12.5
 42
12.5
 43
12.5
  0
MTEXT
  5
6E3
330
68B
100
AcDbEntity
  8
0
 62
     0
100
AcDbMText
 10
111.5306012946593
 20
493.4181519875202
 30
0.0
 40
12.5
 41
0.0
 71
     5
 72
     1
  1
11740
 73
     1
 44
1.0
1001
ACAD
1000
MTEXTBEGIN
1070
    73
1070
     1
1070
    44
1040
1.0
1070
    74
1070
     0
1000
MTEXTEND
  0
POINT
  5
6E4
330
68B
100
AcDbEntity
  8
Defpoints
 62
     0
100
AcDbPoint
 10
-181.9693987053407
 20
371.5870882250332
 30
0.0
  0
POINT
  5
6E5
330
68B
100
AcDbEntity
  8
Defpoints
 62
     0
100
AcDbPoint
 10
405.0306012946593
 20
371.5870882250329
 30
0.0
  0
POINT
  5
6E6
330
68B
100
AcDbEntity
  8
Defpoints
 62
     0
100
AcDbPoint
 10
405.0306012946593
 20
484.0431519875202
 30
0.0
  0
ENDBLK
  5
696
330
68B
100
AcDbEntity
  8
0
100
AcDbBlockEnd
  0
BLOCK
  5
6A2
330
698
100
AcDbEntity
  8
0
100
AcDbBlockBegin
  2
*D4
 70
     1
 10
0.0
 20
0.0
 30
0.0
  3
*D4
  1

  0
LINE
  5
699
330
698
100
AcDbEntity
  8
0
 62
     0
370
    -2
100
AcDbLine
 10
-170.3833987053406
 20
357.5870882250332
 30
0.0
 11
-247.4245979439442
 21
357.5870882250332
 31
0.0
  0
LINE
  5
69A
330
698
100
AcDbEntity
  8
0
 62
     0
370
    -2
100
AcDbLine
 10
-170.3833987053406
 20
-201.4129117749668
 30
0.0
 11
-247.4245979439443
 21
-201.4129117749668
 31
0.0
  0
LINE
  5
69B
330
698
100
AcDbEntity
  8
0
 62
     0
370
    -2
100
AcDbLine
 10
-241.1745979439442
 20
345.0870882250332
 30
0.0
 11
-241.1745979439443
 21
-188.9129117749668
 31
0.0
  0
INSERT
  5
69C
330
698
100
AcDbEntity
  8
0
 62
     0
370
    -2
100
AcDbBlockReference
  2
_OPEN30
 10
-241.1745979439442
 20
357.5870882250332
 30
0.0
 41
12.5
 42
12.5
 43
12.5
 50
90.0
  0
INSERT
  5
69D
330
698
100
AcDbEntity
  8
0
 62
     0
370
    -2
100
AcDbBlockReference
  2
_OPEN30
 10
-241.1745979439443
 20
-201.4129117749668
 30
0.0
 41
12.5
 42
12.5
 43
12.5
 50
270.0
  0
MTEXT
  5
69E
330
698
100
AcDbEntity
  8
0
 62
     0
100
AcDbMText
 10
-250.5495979439443
 20
78.08708822503317
 30
0.0
 40
12.5
 41
0.0
 71
     5
 72
     1
  1
11180
 11
0.0000000000000001
 21
1.0
 31
0.0
 73
     1
 44
1.0
1001
ACAD
1000
MTEXTBEGIN
1070
    73
1070
     1
1070
    44
1040
1.0
1070
    74
1070
     0
1000
MTEXTEND
  0
POINT
  5
69F
330
698
100
AcDbEntity
  8
Defpoints
 62
     0
100
AcDbPoint
 10
-167.2583987053406
 20
357.5870882250332
 30
0.0
  0
POINT
  5
6A0
330
698
100
AcDbEntity
  8
Defpoints
 62
     0
100
AcDbPoint
 10
-167.2583987053406
 20
-201.4129117749668
 30
0.0
  0
POINT
  5
6A1
330
698
100
AcDbEntity
  8
Defpoints
 62
     0
100
AcDbPoint
 10
-241.1745979439443
 20
-201.4129117749668
 30
0.0
  0
ENDBLK
  5
6A3
330
698
100
AcDbEntity
  8
0
100
AcDbBlockEnd
  0
BLOCK
  5
6AF
330
6A5
100
AcDbEntity
  8
0
100
AcDbBlockBegin
  2
*D5
 70
     1
 10
0.0
 20
0.0
 30
0.0
  3
*D5
  1

  0
LINE
  5
6CC
330
6A5
100
AcDbEntity
  8
0
 62
     0
370
    -2
100
AcDbLine
 10
-184.0943987053405
 20
372.387088225033
 30
0.0
 11
-323.7137967690509
 21
372.387088225033
 31
0.0
  0
LINE
  5
6CD
330
6A5
100
AcDbEntity
  8
0
 62
     0
370
    -2
100
AcDbLine
 10
-185.0943987053407
 20
-215.4129117749668
 30
0.0
 11
-323.713796769051
 21
-215.4129117749667
 31
0.0
  0
LINE
  5
6CE
330
6A5
100
AcDbEntity
  8
0
 62
     0
370
    -2
100
AcDbLine
 10
-317.4637967690509
 20
359.887088225033
 30
0.0
 11
-317.463796769051
 21
-202.9129117749668
 31
0.0
  0
INSERT
  5
6CF
330
6A5
100
AcDbEntity
  8
0
 62
     0
370
    -2
100
AcDbBlockReference
  2
_OPEN30
 10
-317.4637967690509
 20
372.387088225033
 30
0.0
 41
12.5
 42
12.5
 43
12.5
 50
90.0
  0
INSERT
  5
6D0
330
6A5
100
AcDbEntity
  8
0
 62
     0
370
    -2
100
AcDbBlockReference
  2
_OPEN30
 10
-317.463796769051
 20
-215.4129117749668
 30
0.0
 41
12.5
 42
12.5
 43
12.5
 50
270.0
  0
MTEXT
  5
6D1
330
6A5
100
AcDbEntity
  8
0
 62
     0
100
AcDbMText
 10
-326.8387967690509
 20
78.48708822503309
 30
0.0
 40
12.5
 41
0.0
 71
     5
 72
     1
  1
11756
 11
0.0000000000000001
 21
1.0
 31
0.0
 73
     1
 44
1.0
1001
ACAD
1000
MTEXTBEGIN
1070
    73
1070
     1
1070
    44
1040
1.0
1070
    74
1070
     0
1000
MTEXTEND
  0
POINT
  5
6D2
330
6A5
100
AcDbEntity
  8
Defpoints
 62
     0
100
AcDbPoint
 10
-180.9693987053405
 20
372.387088225033
 30
0.0
  0
POINT
  5
6D3
330
6A5
100
AcDbEntity
  8
Defpoints
 62
     0
100
AcDbPoint
 10
-181.9693987053407
 20
-215.4129117749668
 30
0.0
  0
POINT
  5
6D4
330
6A5
100
AcDbEntity
  8
Defpoints
 62
     0
100
AcDbPoint
 10
-317.463796769051
 20
-215.4129117749668
 30
0.0
  0
ENDBLK
  5
6B0
330
6A5
100
AcDbEntity
  8
0
100
AcDbBlockEnd
  0
BLOCK
  5
AC4
330
ABA
100
AcDbEntity
  8
0
100
AcDbBlockBegin
  2
*D6
 70
     1
 10
0.0
 20
0.0
 30
0.0
  3
*D6
  1

  0
LINE
  5
109B
330
ABA
100
AcDbEntity
  8
SIZE
 62
     0
370
    -2
100
AcDbLine
 10
-167.4693987053406
 20
360.9230882250332
 30
0.0
 11
-167.4693987053406
 21
438.5990115112435
 31
0.0
  0
LINE
  5
109C
330
ABA
100
AcDbEntity
  8
SIZE
 62
     0
370
    -2
100
AcDbLine
 10
390.5306012946594
 20
360.9230882250329
 30
0.0
 11
390.5306012946594
 21
438.5990115112435
 31
0.0
  0
LINE
  5
109D
330
ABA
100
AcDbEntity
  8
SIZE
 62
     0
370
    -2
100
AcDbLine
 10
-154.9693987053406
 20
432.3490115112435
 30
0.0
 11
378.0306012946593
 21
432.3490115112435
 31
0.0
  0
INSERT
  5
109E
330
ABA
100
AcDbEntity
  8
SIZE
 62
     0
370
    -2
100
AcDbBlockReference
  2
_OPEN30
 10
-167.4693987053406
 20
432.3490115112435
 30
0.0
 41
12.5
 42
12.5
 43
12.5
 50
180.0
  0
INSERT
  5
109F
330
ABA
100
AcDbEntity
  8
SIZE
 62
     0
370
    -2
100
AcDbBlockReference
  2
_OPEN30
 10
390.5306012946594
 20
432.3490115112435
 30
0.0
 41
12.5
 42
12.5
 43
12.5
  0
MTEXT
  5
10A0
330
ABA
100
AcDbEntity
  8
SIZE
 62
     0
100
AcDbMText
 10
111.5306012946593
 20
441.7240115112435
 30
0.0
 40
12.5
 41
0.0
 71
     5
 72
     1
  1
558
 73
     1
 44
1.0
1001
ACAD
1000
MTEXTBEGIN
1070
    73
1070
     1
1070
    44
1040
1.0
1070
    74
1070
     0
1000
MTEXTEND
  0
POINT
  5
10A1
330
ABA
100
AcDbEntity
  8
Defpoints
 62
     0
100
AcDbPoint
 10
-167.4693987053406
 20
357.7980882250332
 30
0.0
  0
POINT
  5
10A2
330
ABA
100
AcDbEntity
  8
Defpoints
 62
     0
100
AcDbPoint
 10
390.5306012946594
 20
357.7980882250329
 30
0.0
  0
POINT
  5
10A3
330
ABA
100
AcDbEntity
  8
Defpoints
 62
     0
100
AcDbPoint
 10
390.5306012946594
 20
432.3490115112435
 30
0.0
  0
ENDBLK
  5
AC5
330
ABA
100
AcDbEntity
  8
0
100
AcDbBlockEnd
  0
BLOCK
  5
AD2
330
AC8
100
AcDbEntity
  8
0
100
AcDbBlockBegin
  2
*D7
 70
     1
 10
0.0
 20
0.0
 30
0.0
  3
*D7
  1

  0
LINE
  5
1092
330
AC8
100
AcDbEntity
  8
SIZE
 62
     0
370
    -2
100
AcDbLine
 10
-181.9693987053407
 20
374.7120882250332
 30
0.0
 11
-181.9693987053407
 21
465.3658949551704
 31
0.0
  0
LINE
  5
1093
330
AC8
100
AcDbEntity
  8
SIZE
 62
     0
370
    -2
100
AcDbLine
 10
405.0306012946593
 20
374.712088225033
 30
0.0
 11
405.0306012946593
 21
465.3658949551704
 31
0.0
  0
LINE
  5
1094
330
AC8
100
AcDbEntity
  8
SIZE
 62
     0
370
    -2
100
AcDbLine
 10
-169.4693987053407
 20
459.1158949551704
 30
0.0
 11
392.5306012946593
 21
459.1158949551704
 31
0.0
  0
INSERT
  5
1095
330
AC8
100
AcDbEntity
  8
SIZE
 62
     0
370
    -2
100
AcDbBlockReference
  2
_OPEN30
 10
-181.9693987053407
 20
459.1158949551704
 30
0.0
 41
12.5
 42
12.5
 43
12.5
 50
180.0
  0
INSERT
  5
1096
330
AC8
100
AcDbEntity
  8
SIZE
 62
     0
370
    -2
100
AcDbBlockReference
  2
_OPEN30
 10
405.0306012946593
 20
459.1158949551704
 30
0.0
 41
12.5
 42
12.5
 43
12.5
  0
MTEXT
  5
1097
330
AC8
100
AcDbEntity
  8
SIZE
 62
     0
100
AcDbMText
 10
111.5306012946593
 20
468.4908949551704
 30
0.0
 40
12.5
 41
0.0
 71
     5
 72
     1
  1
587
 73
     1
 44
1.0
1001
ACAD
1000
MTEXTBEGIN
1070
    73
1070
     1
1070
    44
1040
1.0
1070
    74
1070
     0
1000
MTEXTEND
  0
POINT
  5
1098
330
AC8
100
AcDbEntity
  8
Defpoints
 62
     0
100
AcDbPoint
 10
-181.9693987053407
 20
371.5870882250332
 30
0.0
  0
POINT
  5
1099
330
AC8
100
AcDbEntity
  8
Defpoints
 62
     0
100
AcDbPoint
 10
405.0306012946593
 20
371.587088225033
 30
0.0
  0
POINT
  5
109A
330
AC8
100
AcDbEntity
  8
Defpoints
 62
     0
100
AcDbPoint
 10
405.0306012946593
 20
459.1158949551704
 30
0.0
  0
ENDBLK
  5
AD3
330
AC8
100
AcDbEntity
  8
0
100
AcDbBlockEnd
  0
BLOCK
  5
ADF
330
AD5
100
AcDbEntity
  8
0
100
AcDbBlockBegin
  2
*D8
 70
     1
 10
0.0
 20
0.0
 30
0.0
  3
*D8
  1

  0
LINE
  5
10AD
330
AD5
100
AcDbEntity
  8
SIZE
 62
     0
370
    -2
100
AcDbLine
 10
-170.5943987053406
 20
357.3760882250331
 30
0.0
 11
-230.8064975950878
 21
357.3760882250331
 31
0.0
  0
LINE
  5
10AE
330
AD5
100
AcDbEntity
  8
SIZE
 62
     0
370
    -2
100
AcDbLine
 10
-170.8053987053407
 20
-201.4129117749668
 30
0.0
 11
-230.8064975950879
 21
-201.4129117749668
 31
0.0
  0
LINE
  5
10AF
330
AD5
100
AcDbEntity
  8
SIZE
 62
     0
370
    -2
100
AcDbLine
 10
-224.5564975950878
 20
344.8760882250331
 30
0.0
 11
-224.5564975950879
 21
-188.9129117749668
 31
0.0
  0
INSERT
  5
10B0
330
AD5
100
AcDbEntity
  8
SIZE
 62
     0
370
    -2
100
AcDbBlockReference
  2
_OPEN30
 10
-224.5564975950878
 20
357.3760882250331
 30
0.0
 41
12.5
 42
12.5
 43
12.5
 50
90.0
  0
INSERT
  5
10B1
330
AD5
100
AcDbEntity
  8
SIZE
 62
     0
370
    -2
100
AcDbBlockReference
  2
_OPEN30
 10
-224.5564975950879
 20
-201.4129117749668
 30
0.0
 41
12.5
 42
12.5
 43
12.5
 50
270.0
  0
MTEXT
  5
10B2
330
AD5
100
AcDbEntity
  8
SIZE
 62
     0
100
AcDbMText
 10
-233.9314975950879
 20
77.98158822503314
 30
0.0
 40
12.5
 41
0.0
 71
     5
 72
     1
  1
559
 11
0.0000000000000001
 21
1.0
 31
0.0
 73
     1
 44
1.0
1001
ACAD
1000
MTEXTBEGIN
1070
    73
1070
     1
1070
    44
1040
1.0
1070
    74
1070
     0
1000
MTEXTEND
  0
POINT
  5
10B3
330
AD5
100
AcDbEntity
  8
Defpoints
 62
     0
100
AcDbPoint
 10
-167.4693987053406
 20
357.3760882250331
 30
0.0
  0
POINT
  5
10B4
330
AD5
100
AcDbEntity
  8
Defpoints
 62
     0
100
AcDbPoint
 10
-167.6803987053407
 20
-201.4129117749668
 30
0.0
  0
POINT
  5
10B5
330
AD5
100
AcDbEntity
  8
Defpoints
 62
     0
100
AcDbPoint
 10
-224.5564975950879
 20
-201.4129117749668
 30
0.0
  0
ENDBLK
  5
AE0
330
AD5
100
AcDbEntity
  8
0
100
AcDbBlockEnd
  0
BLOCK
  5
AEC
330
AE2
100
AcDbEntity
  8
0
100
AcDbBlockBegin
  2
*D9
 70
     1
 10
0.0
 20
0.0
 30
0.0
  3
*D9
  1

  0
LINE
  5
10A4
330
AE2
100
AcDbEntity
  8
SIZE
 62
     0
370
    -2
100
AcDbLine
 10
-184.0943987053405
 20
372.3388423216619
 30
0.0
 11
-283.4344995912072
 21
372.3388423216619
 31
0.0
  0
LINE
  5
10A5
330
AE2
100
AcDbEntity
  8
SIZE
 62
     0
370
    -2
100
AcDbLine
 10
-185.0943987053407
 20
-215.4129117749668
 30
0.0
 11
-283.4344995912074
 21
-215.4129117749668
 31
0.0
  0
LINE
  5
10A6
330
AE2
100
AcDbEntity
  8
SIZE
 62
     0
370
    -2
100
AcDbLine
 10
-277.1844995912073
 20
359.8388423216619
 30
0.0
 11
-277.1844995912074
 21
-202.9129117749668
 31
0.0
  0
INSERT
  5
10A7
330
AE2
100
AcDbEntity
  8
SIZE
 62
     0
370
    -2
100
AcDbBlockReference
  2
_OPEN30
 10
-277.1844995912073
 20
372.3388423216619
 30
0.0
 41
12.5
 42
12.5
 43
12.5
 50
90.0
  0
INSERT
  5
10A8
330
AE2
100
AcDbEntity
  8
SIZE
 62
     0
370
    -2
100
AcDbBlockReference
  2
_OPEN30
 10
-277.1844995912074
 20
-215.4129117749668
 30
0.0
 41
12.5
 42
12.5
 43
12.5
 50
270.0
  0
MTEXT
  5
10A9
330
AE2
100
AcDbEntity
  8
SIZE
 62
     0
100
AcDbMText
 10
-286.5594995912073
 20
78.46296527334752
 30
0.0
 40
12.5
 41
0.0
 71
     5
 72
     1
  1
588
 11
0.0000000000000001
 21
1.0
 31
0.0
 73
     1
 44
1.0
1001
ACAD
1000
MTEXTBEGIN
1070
    73
1070
     1
1070
    44
1040
1.0
1070
    74
1070
     0
1000
MTEXTEND
  0
POINT
  5
10AA
330
AE2
100
AcDbEntity
  8
Defpoints
 62
     0
100
AcDbPoint
 10
-180.9693987053405
 20
372.3388423216619
 30
0.0
  0
POINT
  5
10AB
330
AE2
100
AcDbEntity
  8
Defpoints
 62
     0
100
AcDbPoint
 10
-181.9693987053407
 20
-215.4129117749668
 30
0.0
  0
POINT
  5
10AC
330
AE2
100
AcDbEntity
  8
Defpoints
 62
     0
100
AcDbPoint
 10
-277.1844995912074
 20
-215.4129117749668
 30
0.0
  0
ENDBLK
  5
AED
330
AE2
100
AcDbEntity
  8
0
100
AcDbBlockEnd
  0
BLOCK
  5
B36
330
B35
100
AcDbEntity
  8
0
100
AcDbBlockBegin
  2
_DOTBLANK
 70
     0
 10
0.0
 20
0.0
 30
0.0
  3
_DOTBLANK
  1

  0
CIRCLE
  5
B37
330
B35
100
AcDbEntity
  8
0
  6
Continuous
 62
     7
100
AcDbCircle
 10
0.0
 20
0.0
 30
0.0
 40
0.5
  0
LINE
  5
B38
330
B35
100
AcDbEntity
  8
0
  6
Continuous
 62
     7
100
AcDbLine
 10
-0.5
 20
0.0
 30
0.0
 11
-1.0
 21
0.0
 31
0.0
  0
ENDBLK
  5
B39
330
B35
100
AcDbEntity
  8
0
100
AcDbBlockEnd
  0
ENDSEC
  0
SECTION
  2
ENTITIES
  0
LINE
  5
1AF
330
2
100
AcDbEntity
  8
NOTE
100
AcDbLine
 10
-167.5243987053407
 20
-201.4129117749668
 30
0.0
 11
-167.4143987053406
 21
-201.4129117749668
 31
0.0
  0
LINE
  5
1B0
330
2
100
AcDbEntity
  8
NOTE
100
AcDbLine
 10
-167.4693987053406
 20
-201.4679117749668
 30
0.0
 11
-167.4693987053406
 21
-201.3579117749668
 31
0.0
  0
LINE
  5
1B1
330
2
100
AcDbEntity
  8
NOTE
100
AcDbLine
 10
-170.5793987053407
 20
-201.4129117749668
 30
0.0
 11
-167.6803987053407
 21
-201.4129117749668
 31
0.0
  0
LINE
  5
1B2
330
2
100
AcDbEntity
  8
NOTE
100
AcDbLine
 10
-167.2583987053406
 20
-201.4129117749668
 30
0.0
 11
-164.3593987053406
 21
-201.4129117749668
 31
0.0
  0
LINE
  5
1B3
330
2
100
AcDbEntity
  8
NOTE
100
AcDbLine
 10
-167.4693987053406
 20
-204.5229117749668
 30
0.0
 11
-167.4693987053406
 21
-201.6239117749668
 31
0.0
  0
LINE
  5
1B4
330
2
100
AcDbEntity
  8
NOTE
100
AcDbLine
 10
-167.4693987053406
 20
-201.2019117749668
 30
0.0
 11
-167.4693987053406
 21
-198.3029117749668
 31
0.0
  0
LINE
  5
1B5
330
2
100
AcDbEntity
  8
NOTE
100
AcDbLine
 10
390.4756012946593
 20
-201.412911774967
 30
0.0
 11
390.5856012946594
 21
-201.412911774967
 31
0.0
  0
LINE
  5
1B6
330
2
100
AcDbEntity
  8
NOTE
100
AcDbLine
 10
390.5306012946594
 20
-201.4679117749671
 30
0.0
 11
390.5306012946594
 21
-201.357911774967
 31
0.0
  0
LINE
  5
1B7
330
2
100
AcDbEntity
  8
NOTE
100
AcDbLine
 10
387.4206012946593
 20
-201.412911774967
 30
0.0
 11
390.3196012946593
 21
-201.412911774967
 31
0.0
  0
LINE
  5
1B8
330
2
100
AcDbEntity
  8
NOTE
100
AcDbLine
 10
390.7416012946594
 20
-201.412911774967
 30
0.0
 11
393.6406012946593
 21
-201.412911774967
 31
0.0
  0
LINE
  5
1B9
330
2
100
AcDbEntity
  8
NOTE
100
AcDbLine
 10
390.5306012946594
 20
-204.522911774967
 30
0.0
 11
390.5306012946594
 21
-201.6239117749671
 31
0.0
  0
LINE
  5
1BA
330
2
100
AcDbEntity
  8
NOTE
100
AcDbLine
 10
390.5306012946594
 20
-201.201911774967
 30
0.0
 11
390.5306012946594
 21
-198.302911774967
 31
0.0
  0
LINE
  5
1BB
330
2
100
AcDbEntity
  8
NOTE
100
AcDbLine
 10
-167.5243987053407
 20
357.5870882250332
 30
0.0
 11
-167.4143987053406
 21
357.5870882250332
 31
0.0
  0
LINE
  5
1BC
330
2
100
AcDbEntity
  8
NOTE
100
AcDbLine
 10
-167.4693987053406
 20
357.5320882250331
 30
0.0
 11
-167.4693987053406
 21
357.6420882250332
 31
0.0
  0
LINE
  5
1BD
330
2
100
AcDbEntity
  8
NOTE
100
AcDbLine
 10
-170.5793987053407
 20
357.5870882250332
 30
0.0
 11
-167.6803987053407
 21
357.5870882250332
 31
0.0
  0
LINE
  5
1BE
330
2
100
AcDbEntity
  8
NOTE
100
AcDbLine
 10
-167.2583987053406
 20
357.5870882250332
 30
0.0
 11
-164.3593987053406
 21
357.5870882250332
 31
0.0
  0
LINE
  5
1BF
330
2
100
AcDbEntity
  8
NOTE
100
AcDbLine
 10
-167.4693987053406
 20
354.4770882250331
 30
0.0
 11
-167.4693987053406
 21
357.3760882250331
 31
0.0
  0
LINE
  5
1C0
330
2
100
AcDbEntity
  8
NOTE
100
AcDbLine
 10
-167.4693987053406
 20
357.7980882250332
 30
0.0
 11
-167.4693987053406
 21
360.6970882250331
 31
0.0
  0
LINE
  5
1C1
330
2
100
AcDbEntity
  8
NOTE
100
AcDbLine
 10
390.4756012946593
 20
357.5870882250328
 30
0.0
 11
390.5856012946594
 21
357.5870882250328
 31
0.0
  0
LINE
  5
1C2
330
2
100
AcDbEntity
  8
NOTE
100
AcDbLine
 10
390.5306012946594
 20
357.5320882250329
 30
0.0
 11
390.5306012946594
 21
357.6420882250328
 31
0.0
  0
LINE
  5
1C3
330
2
100
AcDbEntity
  8
NOTE
100
AcDbLine
 10
387.4206012946593
 20
357.5870882250328
 30
0.0
 11
390.3196012946593
 21
357.5870882250328
 31
0.0
  0
LINE
  5
1C4
330
2
100
AcDbEntity
  8
NOTE
100
AcDbLine
 10
390.7416012946594
 20
357.5870882250328
 30
0.0
 11
393.6406012946593
 21
357.5870882250328
 31
0.0
  0
LINE
  5
1C5
330
2
100
AcDbEntity
  8
NOTE
100
AcDbLine
 10
390.5306012946594
 20
354.4770882250329
 30
0.0
 11
390.5306012946594
 21
357.3760882250329
 31
0.0
  0
LINE
  5
1C6
330
2
100
AcDbEntity
  8
NOTE
100
AcDbLine
 10
390.5306012946594
 20
357.7980882250329
 30
0.0
 11
390.5306012946594
 21
360.6970882250329
 31
0.0
  0
LINE
  5
1CF
330
2
100
AcDbEntity
  8
HID
100
AcDbLine
 10
-181.1693987053405
 20
370.7870882250331
 30
0.0
 11
-181.1693987053405
 21
316.2171425821214
 31
0.0
  0
LINE
  5
1D0
330
2
100
AcDbEntity
  8
HID
100
AcDbLine
 10
-165.9693987053406
 20
316.2171425821215
 30
0.0
 11
-181.1693987053405
 21
316.2171425821215
 31
0.0
  0
LINE
  5
1D1
330
2
100
AcDbEntity
  8
HID
100
AcDbLine
 10
-181.1693987053405
 20
316.2171425821215
 30
0.0
 11
-181.1693987053405
 21
87.42432080559959
 31
0.0
  0
LINE
  5
1D2
330
2
100
AcDbEntity
  8
HID
100
AcDbLine
 10
-181.1693987053407
 20
370.7870882250331
 30
0.0
 11
-181.1693987053407
 21
371.5870882250332
 31
0.0
  0
LINE
  5
1D3
330
2
100
AcDbEntity
  8
HID
100
AcDbLine
 10
-176.4693987053405
 20
370.7870882250331
 30
0.0
 11
-181.1693987053405
 21
370.7870882250331
 31
0.0
  0
LINE
  5
1D4
330
2
100
AcDbEntity
  8
HID
100
AcDbLine
 10
-168.1693987053406
 20
87.41636877346843
 30
0.0
 11
-181.1693987053405
 21
87.41636877346843
 31
0.0
  0
LINE
  5
1D5
330
2
100
AcDbEntity
  8
HID
100
AcDbLine
 10
-168.1693987053406
 20
87.4243208055997
 30
0.0
 11
-181.1693987053407
 21
87.4243208055997
 31
0.0
  0
LINE
  5
1D6
330
2
100
AcDbEntity
  8
HID
100
AcDbLine
 10
-181.1693987053407
 20
87.4243208055997
 30
0.0
 11
-181.1693987053407
 21
86.88917717118162
 31
0.0
  0
LINE
  5
1D7
330
2
100
AcDbEntity
  8
HID
100
AcDbLine
 10
-181.1693987053405
 20
86.14585135670212
 30
0.0
 11
-181.1693987053405
 21
83.00465345841121
 31
0.0
  0
LINE
  5
1D8
330
2
100
AcDbEntity
  8
HID
100
AcDbLine
 10
-181.1693987053405
 20
-200.825515373836
 30
0.0
 11
-181.1693987053405
 21
-214.6695859604875
 31
0.0
  0
LINE
  5
1D9
330
2
100
AcDbEntity
  8
HID
100
AcDbLine
 10
-181.1693987053405
 20
83.00465345841121
 30
0.0
 11
-180.3693987053406
 21
83.00465345841121
 31
0.0
  0
LINE
  5
1DA
330
2
100
AcDbEntity
  8
HID
100
AcDbLine
 10
-181.1693987053405
 20
83.00465345841116
 30
0.0
 11
-181.1693987053405
 21
-200.8255153738361
 31
0.0
  0
LINE
  5
1DB
330
2
100
AcDbEntity
  8
HID
100
AcDbLine
 10
-181.1693987053405
 20
-200.825515373836
 30
0.0
 11
-180.3693987053406
 21
-200.825515373836
 31
0.0
  0
LINE
  5
1DC
330
2
100
AcDbEntity
  8
HID
100
AcDbLine
 10
-176.4693987053405
 20
349.5044114884633
 30
0.0
 11
-168.9693987053406
 21
349.5044114884633
 31
0.0
  0
LINE
  5
1DD
330
2
100
AcDbEntity
  8
HID
100
AcDbLine
 10
-168.9693987053406
 20
349.5044114884633
 30
0.0
 11
-168.9693987053406
 21
350.2561655850923
 31
0.0
  0
LINE
  5
1DE
330
2
100
AcDbEntity
  8
HID
100
AcDbLine
 10
-165.9693987053406
 20
348.4783510584863
 30
0.0
 11
-168.9693987053406
 21
349.5044114884633
 31
0.0
  0
LINE
  5
1DF
330
2
100
AcDbEntity
  8
OUTLINE
100
AcDbLine
 10
-181.9693987053407
 20
316.8638652929262
 30
0.0
 11
-181.9693987053407
 21
87.29749114960501
 31
0.0
  0
LINE
  5
1E0
330
2
100
AcDbEntity
  8
HID
100
AcDbLine
 10
-165.9693987053406
 20
90.11660843883062
 30
0.0
 11
-165.9693987053406
 21
316.863865292926
 31
0.0
  0
LINE
  5
1E1
330
2
100
AcDbEntity
  8
OUTLINE
100
AcDbLine
 10
-181.1693987053407
 20
86.88917717118162
 30
0.0
 11
-168.9693987053406
 21
86.88917717118162
 31
0.0
  0
LINE
  5
1E2
330
2
100
AcDbEntity
  8
OUTLINE
100
AcDbLine
 10
-181.1693987053407
 20
86.14585135670216
 30
0.0
 11
-181.1693987053407
 21
86.88917717118171
 31
0.0
  0
LINE
  5
1E3
330
2
100
AcDbEntity
  8
OUTLINE
100
AcDbLine
 10
-181.1693987053405
 20
86.14585135670212
 30
0.0
 11
-180.3693987053406
 21
86.14585135670212
 31
0.0
  0
LINE
  5
1E4
330
2
100
AcDbEntity
  8
OUTLINE
100
AcDbLine
 10
-180.3693987053406
 20
-214.6695859604875
 30
0.0
 11
-180.3693987053406
 21
86.14585135670212
 31
0.0
  0
LINE
  5
1E5
330
2
100
AcDbEntity
  8
OUTLINE
100
AcDbLine
 10
-181.1693987053405
 20
-214.6695859604875
 30
0.0
 11
-180.3693987053406
 21
-214.6695859604875
 31
0.0
  0
LINE
  5
1E6
330
2
100
AcDbEntity
  8
OUTLINE
100
AcDbLine
 10
-181.1693987053407
 20
-215.4129117749669
 30
0.0
 11
-181.1693987053407
 21
-214.6695859604875
 31
0.0
  0
LINE
  5
1E7
330
2
100
AcDbEntity
  8
OUTLINE
100
AcDbLine
 10
-181.1693987053407
 20
-215.4129117749668
 30
0.0
 11
-181.9693987053407
 21
-215.4129117749668
 31
0.0
  0
LINE
  5
1E8
330
2
100
AcDbEntity
  8
OUTLINE
100
AcDbLine
 10
-181.9693987053407
 20
87.29749114960517
 30
0.0
 11
-181.9693987053407
 21
-215.4129117749668
 31
0.0
  0
LINE
  5
1E9
330
2
100
AcDbEntity
  8
OUTLINE
100
AcDbLine
 10
-168.9693987053406
 20
87.2974911496051
 30
0.0
 11
-181.9693987053407
 21
87.2974911496051
 31
0.0
  0
LINE
  5
1EA
330
2
100
AcDbEntity
  8
HID
100
AcDbLine
 10
-165.9693987053406
 20
89.48372145223395
 30
0.0
 11
-165.9693987053406
 21
90.11660843883062
 31
0.0
  0
LINE
  5
1EB
330
2
100
AcDbEntity
  8
HID
100
AcDbLine
 10
-168.1693987053406
 20
87.41636877346843
 30
0.0
 11
-165.9693987053406
 21
89.48372145223395
 31
0.0
  0
LINE
  5
1EC
330
2
100
AcDbEntity
  8
HID
100
AcDbLine
 10
-168.1693987053406
 20
87.4243208055997
 30
0.0
 11
-168.1693987053406
 21
87.41636877346843
 31
0.0
  0
LINE
  5
1ED
330
2
100
AcDbEntity
  8
OUTLINE
100
AcDbLine
 10
-168.9693987053406
 20
86.88917717118162
 30
0.0
 11
-168.3589996241776
 21
87.29749114960531
 31
0.0
  0
LINE
  5
1EE
330
2
100
AcDbEntity
  8
HID
100
AcDbLine
 10
-168.3589996241776
 20
87.29749114960531
 30
0.0
 11
-168.1693987053406
 21
87.42432080559963
 31
0.0
  0
LINE
  5
1EF
330
2
100
AcDbEntity
  8
OUTLINE
100
AcDbLine
 10
-168.9693987053406
 20
87.2974911496051
 30
0.0
 11
-168.9693987053406
 21
86.88917717118162
 31
0.0
  0
LINE
  5
1F0
330
2
100
AcDbEntity
  8
HID
100
AcDbLine
 10
-165.9693987053406
 20
90.11660843883062
 30
0.0
 11
-168.9693987053405
 21
87.29749114960496
 31
0.0
  0
LINE
  5
1F1
330
2
100
AcDbEntity
  8
HID
100
AcDbLine
 10
-181.9693987053407
 20
-183.9129117749668
 30
0.0
 11
-181.1693987053405
 21
-183.9129117749668
 31
0.0
  0
LINE
  5
1F2
330
2
100
AcDbEntity
  8
HID
100
AcDbLine
 10
-181.9693987053407
 20
-186.9129117749668
 30
0.0
 11
-181.1693987053405
 21
-186.9129117749668
 31
0.0
  0
LINE
  5
1F3
330
2
100
AcDbEntity
  8
HID
100
AcDbLine
 10
-173.1693987053406
 20
183.0870882250331
 30
0.0
 11
-178.1693987053405
 21
183.0870882250331
 31
0.0
  0
LINE
  5
1F4
330
2
100
AcDbEntity
  8
HID
100
AcDbLine
 10
-173.1693987053407
 20
213.0870882250331
 30
0.0
 11
-173.1693987053407
 21
183.0870882250331
 31
0.0
  0
LINE
  5
1F5
330
2
100
AcDbEntity
  8
HID
100
AcDbLine
 10
-178.1693987053405
 20
213.0870882250331
 30
0.0
 11
-173.1693987053407
 21
213.0870882250331
 31
0.0
  0
LINE
  5
1F6
330
2
100
AcDbEntity
  8
HID
100
AcDbLine
 10
-178.1693987053405
 20
183.0870882250331
 30
0.0
 11
-178.1693987053405
 21
213.0870882250332
 31
0.0
  0
LINE
  5
1F7
330
2
100
AcDbEntity
  8
OUTLINE
100
AcDbLine
 10
-160.9693987053406
 20
-212.4129117749669
 30
0.0
 11
-163.9693987053406
 21
-215.4129117749669
 31
0.0
  0
LINE
  5
1F8
330
2
100
AcDbEntity
  8
OUTLINE
100
AcDbLine
 10
-163.9693987053406
 20
-215.4129117749668
 30
0.0
 11
-181.1693987053405
 21
-215.4129117749668
 31
0.0
  0
LINE
  5
1F9
330
2
100
AcDbEntity
  8
HID
100
AcDbLine
 10
-160.9693987053406
 20
368.5870882250331
 30
0.0
 11
-160.9693987053406
 21
86.92191389937667
 31
0.0
  0
LINE
  5
1FA
330
2
100
AcDbEntity
  8
OUTLINE
100
AcDbLine
 10
-160.9693987053406
 20
86.92191389937667
 30
0.0
 11
-160.9693987053406
 21
-212.4129117749668
 31
0.0
  0
LINE
  5
1FB
330
2
100
AcDbEntity
  8
HID
100
AcDbLine
 10
-163.9693987053406
 20
371.5870882250332
 30
0.0
 11
-160.9693987053406
 21
368.5870882250331
 31
0.0
  0
LINE
  5
1FC
330
2
100
AcDbEntity
  8
HID
100
AcDbLine
 10
-176.4693987053405
 20
350.256165585097
 30
0.0
 11
-176.4693987053405
 21
349.5044114884633
 31
0.0
  0
LINE
  5
1FD
330
2
100
AcDbEntity
  8
HID
100
AcDbLine
 10
-176.4693987053405
 20
362.9688708319159
 30
0.0
 11
-173.9693987053405
 21
362.9688708319159
 31
0.0
  0
LINE
  5
1FE
330
2
100
AcDbEntity
  8
OUTLINE
100
AcDbLine
 10
-173.9693987053405
 20
362.9688708319159
 30
0.0
 11
-170.9693987053405
 21
362.9688708319159
 31
0.0
  0
LINE
  5
1FF
330
2
100
AcDbEntity
  8
HID
100
AcDbLine
 10
-170.9693987053405
 20
362.9688708319159
 30
0.0
 11
-168.9693987053406
 21
362.9688708319159
 31
0.0
  0
LINE
  5
200
330
2
100
AcDbEntity
  8
HID
100
AcDbLine
 10
-176.4693987053405
 20
371.5870882250332
 30
0.0
 11
-176.4693987053405
 21
371.1995247192306
 31
0.0
  0
LINE
  5
201
330
2
100
AcDbEntity
  8
HID
100
AcDbLine
 10
-165.9693987053406
 20
370.8353341284044
 30
0.0
 11
-176.4693987053405
 21
370.8353341284044
 31
0.0
  0
LINE
  5
202
330
2
100
AcDbEntity
  8
HID
100
AcDbLine
 10
-176.4693987053405
 20
371.1995247192306
 30
0.0
 11
-176.4693987053405
 21
370.7870882250331
 31
0.0
  0
LINE
  5
203
330
2
100
AcDbEntity
  8
HID
100
AcDbLine
 10
-168.9693987053406
 20
363.7206249285445
 30
0.0
 11
-176.4693987053405
 21
363.7206249285445
 31
0.0
  0
LINE
  5
204
330
2
100
AcDbEntity
  8
HID
100
AcDbLine
 10
-176.4693987053405
 20
350.2561655850922
 30
0.0
 11
-176.4693987053405
 21
363.7206249285427
 31
0.0
  0
LINE
  5
205
330
2
100
AcDbEntity
  8
HID
100
AcDbLine
 10
-168.9693987053406
 20
350.2561655850923
 30
0.0
 11
-176.4693987053405
 21
350.2561655850923
 31
0.0
  0
LINE
  5
206
330
2
100
AcDbEntity
  8
HID
100
AcDbLine
 10
-168.9693987053406
 20
350.2561655850923
 30
0.0
 11
-165.9693987053406
 21
349.2301051551153
 31
0.0
  0
LINE
  5
207
330
2
100
AcDbEntity
  8
HID
100
AcDbLine
 10
-165.9693987053406
 20
316.8638652929262
 30
0.0
 11
-165.9693987053406
 21
349.2301051551152
 31
0.0
  0
LINE
  5
208
330
2
100
AcDbEntity
  8
HID
100
AcDbLine
 10
-165.9693987053406
 20
316.863865292926
 30
0.0
 11
-180.9693987053405
 21
316.863865292926
 31
0.0
  0
LINE
  5
209
330
2
100
AcDbEntity
  8
OUTLINE
100
AcDbLine
 10
-180.9693987053405
 20
316.863865292926
 30
0.0
 11
-181.9693987053407
 21
316.863865292926
 31
0.0
  0
LINE
  5
20A
330
2
100
AcDbEntity
  8
OUTLINE
100
AcDbLine
 10
-181.9693987053407
 20
371.5870882250332
 30
0.0
 11
-181.9693987053407
 21
316.8638652929262
 31
0.0
  0
LINE
  5
20B
330
2
100
AcDbEntity
  8
HID
100
AcDbLine
 10
-176.4693987053405
 20
371.5870882250332
 30
0.0
 11
-180.9693987053405
 21
371.5870882250332
 31
0.0
  0
LINE
  5
20C
330
2
100
AcDbEntity
  8
OUTLINE
100
AcDbLine
 10
-180.9693987053405
 20
371.5870882250332
 30
0.0
 11
-181.9693987053407
 21
371.5870882250332
 31
0.0
  0
LINE
  5
20D
330
2
100
AcDbEntity
  8
HID
100
AcDbLine
 10
-176.4693987053405
 20
371.5870882250332
 30
0.0
 11
-165.9693987053406
 21
371.5870882250332
 31
0.0
  0
LINE
  5
20E
330
2
100
AcDbEntity
  8
HID
100
AcDbLine
 10
-165.9693987053406
 20
371.5870882250332
 30
0.0
 11
-165.9693987053406
 21
364.7466853585214
 31
0.0
  0
LINE
  5
20F
330
2
100
AcDbEntity
  8
HID
100
AcDbLine
 10
-168.9693987053406
 20
363.7206249285445
 30
0.0
 11
-168.9693987053406
 21
362.9688708319159
 31
0.0
  0
LINE
  5
210
330
2
100
AcDbEntity
  8
HID
100
AcDbLine
 10
-165.9693987053406
 20
364.7466853585198
 30
0.0
 11
-168.9693987053406
 21
363.7206249285427
 31
0.0
  0
LINE
  5
211
330
2
100
AcDbEntity
  8
HID
100
AcDbLine
 10
-165.9693987053406
 20
363.9949312618926
 30
0.0
 11
-165.9693987053406
 21
364.7466853585214
 31
0.0
  0
LINE
  5
212
330
2
100
AcDbEntity
  8
HID
100
AcDbLine
 10
-168.9693987053406
 20
362.9688708319138
 30
0.0
 11
-165.9693987053406
 21
363.9949312618908
 31
0.0
  0
LINE
  5
213
330
2
100
AcDbEntity
  8
HID
100
AcDbLine
 10
-174.4693987053406
 20
345.0805271172938
 30
0.0
 11
-174.4693987053406
 21
344.3287730206648
 31
0.0
  0
LINE
  5
214
330
2
100
AcDbEntity
  8
HID
100
AcDbLine
 10
-170.4693987053406
 20
345.0805271172937
 30
0.0
 11
-170.4693987053406
 21
344.3287730206648
 31
0.0
  0
LINE
  5
215
330
2
100
AcDbEntity
  8
HID
100
AcDbLine
 10
-174.4693987053406
 20
272.7164856499797
 30
0.0
 11
-174.4693987053406
 21
272.3409083997509
 31
0.0
  0
LINE
  5
216
330
2
100
AcDbEntity
  8
HID
100
AcDbLine
 10
-170.4693987053406
 20
272.7164856499797
 30
0.0
 11
-170.4693987053406
 21
272.3409083997509
 31
0.0
  0
LINE
  5
217
330
2
100
AcDbEntity
  8
HID
100
AcDbLine
 10
-174.4693987053406
 20
131.4448707925512
 30
0.0
 11
-174.4693987053406
 21
131.0692935423225
 31
0.0
  0
LINE
  5
218
330
2
100
AcDbEntity
  8
HID
100
AcDbLine
 10
-170.4693987053406
 20
131.4448707925513
 30
0.0
 11
-170.4693987053406
 21
131.0692935423225
 31
0.0
  0
LINE
  5
219
330
2
100
AcDbEntity
  8
HID
100
AcDbLine
 10
-170.4693987053406
 20
366.9021024801588
 30
0.0
 11
-170.4693987053406
 21
367.6538565767879
 31
0.0
  0
LINE
  5
21A
330
2
100
AcDbEntity
  8
HID
100
AcDbLine
 10
-174.4693987053406
 20
366.9021024801539
 30
0.0
 11
-174.4693987053406
 21
367.6538565767879
 31
0.0
  0
ELLIPSE
  5
21B
330
2
100
AcDbEntity
  8
OUTLINE
100
AcDbEllipse
 10
-172.4693987053406
 20
344.3287730206648
 30
0.0
 11
2.0
 21
0.0
 31
0.0
210
0.0
220
0.0
230
1.0
 40
0.3420201433256688
 41
1.329515332615387
 42
1.81207732097436
  0
ELLIPSE
  5
21C
330
2
100
AcDbEntity
  8
HID
100
AcDbEllipse
 10
-172.4693987053406
 20
344.3287730206648
 30
0.0
 11
2.0
 21
0.0
 31
0.0
210
0.0
220
0.0
230
1.0
 40
0.3420201433256688
 41
1.81207732097436
 42
7.612700639794972
  0
ELLIPSE
  5
21D
330
2
100
AcDbEntity
  8
OUTLINE
100
AcDbEllipse
 10
-172.4693987053406
 20
272.3409083997509
 30
0.0
 11
2.0
 21
0.0
 31
0.0
210
0.0
220
0.0
230
1.0
 40
0.8829475928589275
 41
0.1065433427967859
 42
3.035049310793007
  0
ELLIPSE
  5
21E
330
2
100
AcDbEntity
  8
HID
100
AcDbEllipse
 10
-172.4693987053406
 20
272.3409083997509
 30
0.0
 11
2.0
 21
0.0
 31
0.0
210
0.0
220
0.0
230
1.0
 40
0.8829475928589275
 41
3.035049310793007
 42
6.389728649976371
  0
ELLIPSE
  5
21F
330
2
100
AcDbEntity
  8
OUTLINE
100
AcDbEllipse
 10
-172.4693987053406
 20
131.0692935423225
 30
0.0
 11
2.0
 21
0.0
 31
0.0
210
0.0
220
0.0
230
1.0
 40
0.8829475928589275
 41
0.1065433427967606
 42
3.035049310793031
  0
ELLIPSE
  5
220
330
2
100
AcDbEntity
  8
HID
100
AcDbEllipse
 10
-172.4693987053406
 20
131.0692935423225
 30
0.0
 11
2.0
 21
0.0
 31
0.0
210
0.0
220
0.0
230
1.0
 40
0.8829475928589275
 41
3.035049310793031
 42
6.389728649976345
  0
ELLIPSE
  5
221
330
2
100
AcDbEntity
  8
OUTLINE
100
AcDbEllipse
 10
-172.4693987053406
 20
131.4448707925513
 30
0.0
 11
-2.0
 21
0.0
 31
0.0
210
0.0
220
0.0
230
1.0
 40
0.8829475928589273
 41
0.0000000000000002
 42
6.283185307179584
  0
ELLIPSE
  5
222
330
2
100
AcDbEntity
  8
OUTLINE
100
AcDbEllipse
 10
-172.4693987053406
 20
272.7164856499797
 30
0.0
 11
-2.0
 21
0.0
 31
0.0
210
0.0
220
0.0
230
1.0
 40
0.8829475928589273
 41
0.0000000000000002
 42
6.283185307179584
  0
CIRCLE
  5
223
330
2
100
AcDbEntity
  8
HID
100
AcDbCircle
 10
-167.4693987053406
 20
357.5870882250332
 30
0.0
 40
3.0
  0
CIRCLE
  5
224
330
2
100
AcDbEntity
  8
OUTLINE
100
AcDbCircle
 10
-167.4693987053406
 20
-201.4129117749668
 30
0.0
 40
3.0
  0
ELLIPSE
  5
225
330
2
100
AcDbEntity
  8
OUTLINE
100
AcDbEllipse
 10
-172.4693987053406
 20
345.0805271172938
 30
0.0
 11
-2.0
 21
0.0
 31
0.0
210
0.0
220
0.0
230
1.0
 40
0.3420201433256688
 41
3.439561238123268
 42
5.985216722646012
  0
ELLIPSE
  5
226
330
2
100
AcDbEntity
  8
HID
100
AcDbEllipse
 10
-172.4693987053406
 20
345.0805271172938
 30
0.0
 11
-2.0
 21
0.0
 31
0.0
210
0.0
220
0.0
230
1.0
 40
0.3420201433256688
 41
5.985216722646017
 42
9.722746545302854
  0
ELLIPSE
  5
227
330
2
100
AcDbEntity
  8
OUTLINE
100
AcDbEllipse
 10
-172.4693987053406
 20
366.902102480159
 30
0.0
 11
2.0
 21
0.0
 31
0.0
210
0.0
220
0.0
230
1.0
 40
0.3420201433256688
 41
1.329515332613937
 42
1.81207732097581
  0
ELLIPSE
  5
228
330
2
100
AcDbEntity
  8
HID
100
AcDbEllipse
 10
-172.4693987053406
 20
366.902102480159
 30
0.0
 11
2.0
 21
0.0
 31
0.0
210
0.0
220
0.0
230
1.0
 40
0.3420201433256688
 41
1.81207732097581
 42
7.612700639793525
  0
ELLIPSE
  5
229
330
2
100
AcDbEntity
  8
OUTLINE
100
AcDbEllipse
 10
-172.4693987053406
 20
367.653856576788
 30
0.0
 11
-2.0
 21
0.0
 31
0.0
210
0.0
220
0.0
230
1.0
 40
0.3420201433256688
 41
3.439561238122857
 42
5.985216722646431
  0
ELLIPSE
  5
22A
330
2
100
AcDbEntity
  8
HID
100
AcDbEllipse
 10
-172.4693987053406
 20
367.653856576788
 30
0.0
 11
-2.0
 21
0.0
 31
0.0
210
0.0
220
0.0
230
1.0
 40
0.3420201433256688
 41
5.985216722646431
 42
9.722746545302443
  0
LINE
  5
22B
330
2
100
AcDbEntity
  8
HID
100
AcDbLine
 10
404.2306012946593
 20
370.7870882250329
 30
0.0
 11
404.2306012946593
 21
316.2171425821212
 31
0.0
  0
LINE
  5
22C
330
2
100
AcDbEntity
  8
HID
100
AcDbLine
 10
404.2306012946593
 20
316.2171425821213
 30
0.0
 11
404.2306012946593
 21
87.42432080559947
 31
0.0
  0
LINE
  5
22D
330
2
100
AcDbEntity
  8
HID
100
AcDbLine
 10
389.0306012946593
 20
316.2171425821213
 30
0.0
 11
404.2306012946593
 21
316.2171425821213
 31
0.0
  0
LINE
  5
22E
330
2
100
AcDbEntity
  8
HID
100
AcDbLine
 10
399.5306012946593
 20
370.7870882250329
 30
0.0
 11
404.2306012946593
 21
370.7870882250329
 31
0.0
  0
LINE
  5
22F
330
2
100
AcDbEntity
  8
HID
100
AcDbLine
 10
404.2306012946593
 20
370.7870882250329
 30
0.0
 11
404.2306012946593
 21
371.5870882250329
 31
0.0
  0
LINE
  5
230
330
2
100
AcDbEntity
  8
HID
100
AcDbLine
 10
391.2306012946593
 20
87.4163687734682
 30
0.0
 11
404.2306012946593
 21
87.4163687734682
 31
0.0
  0
LINE
  5
231
330
2
100
AcDbEntity
  8
HID
100
AcDbLine
 10
404.2306012946593
 20
87.42432080559947
 30
0.0
 11
404.2306012946593
 21
86.88917717118142
 31
0.0
  0
LINE
  5
232
330
2
100
AcDbEntity
  8
HID
100
AcDbLine
 10
391.2306012946593
 20
87.42432080559947
 30
0.0
 11
404.2306012946593
 21
87.42432080559947
 31
0.0
  0
LINE
  5
233
330
2
100
AcDbEntity
  8
HID
100
AcDbLine
 10
404.2306012946593
 20
86.14585135670187
 30
0.0
 11
404.2306012946593
 21
83.00465345841098
 31
0.0
  0
LINE
  5
234
330
2
100
AcDbEntity
  8
HID
100
AcDbLine
 10
404.2306012946593
 20
-200.8255153738362
 30
0.0
 11
404.2306012946593
 21
-214.6695859604877
 31
0.0
  0
LINE
  5
235
330
2
100
AcDbEntity
  8
HID
100
AcDbLine
 10
404.2306012946593
 20
-200.8255153738362
 30
0.0
 11
403.4306012946593
 21
-200.8255153738362
 31
0.0
  0
LINE
  5
236
330
2
100
AcDbEntity
  8
HID
100
AcDbLine
 10
404.2306012946593
 20
83.00465345841095
 30
0.0
 11
404.2306012946593
 21
-200.8255153738363
 31
0.0
  0
LINE
  5
237
330
2
100
AcDbEntity
  8
HID
100
AcDbLine
 10
404.2306012946593
 20
83.00465345841098
 30
0.0
 11
403.4306012946593
 21
83.00465345841098
 31
0.0
  0
LINE
  5
238
330
2
100
AcDbEntity
  8
HID
100
AcDbLine
 10
399.5306012946593
 20
349.5044114884631
 30
0.0
 11
392.0306012946594
 21
349.5044114884631
 31
0.0
  0
LINE
  5
239
330
2
100
AcDbEntity
  8
HID
100
AcDbLine
 10
389.0306012946593
 20
348.4783510584861
 30
0.0
 11
392.0306012946594
 21
349.5044114884631
 31
0.0
  0
LINE
  5
23A
330
2
100
AcDbEntity
  8
HID
100
AcDbLine
 10
392.0306012946594
 20
349.5044114884631
 30
0.0
 11
392.0306012946594
 21
350.2561655850922
 31
0.0
  0
LINE
  5
23B
330
2
100
AcDbEntity
  8
HID
100
AcDbLine
 10
389.0306012946593
 20
90.1166084388304
 30
0.0
 11
389.0306012946593
 21
316.8638652929258
 31
0.0
  0
LINE
  5
23C
330
2
100
AcDbEntity
  8
OUTLINE
100
AcDbLine
 10
405.0306012946593
 20
316.8638652929259
 30
0.0
 11
405.0306012946593
 21
87.29749114960478
 31
0.0
  0
LINE
  5
23D
330
2
100
AcDbEntity
  8
OUTLINE
100
AcDbLine
 10
392.0306012946594
 20
87.29749114960489
 30
0.0
 11
405.0306012946593
 21
87.29749114960489
 31
0.0
  0
LINE
  5
23E
330
2
100
AcDbEntity
  8
OUTLINE
100
AcDbLine
 10
405.0306012946593
 20
87.29749114960496
 30
0.0
 11
405.0306012946593
 21
-215.412911774967
 31
0.0
  0
LINE
  5
23F
330
2
100
AcDbEntity
  8
OUTLINE
100
AcDbLine
 10
404.2306012946593
 20
-215.412911774967
 30
0.0
 11
405.0306012946593
 21
-215.412911774967
 31
0.0
  0
LINE
  5
240
330
2
100
AcDbEntity
  8
OUTLINE
100
AcDbLine
 10
404.2306012946593
 20
-215.4129117749672
 30
0.0
 11
404.2306012946593
 21
-214.6695859604877
 31
0.0
  0
LINE
  5
241
330
2
100
AcDbEntity
  8
OUTLINE
100
AcDbLine
 10
404.2306012946593
 20
-214.6695859604879
 30
0.0
 11
403.4306012946593
 21
-214.6695859604879
 31
0.0
  0
LINE
  5
242
330
2
100
AcDbEntity
  8
OUTLINE
100
AcDbLine
 10
403.4306012946593
 20
-214.6695859604879
 30
0.0
 11
403.4306012946593
 21
86.14585135670187
 31
0.0
  0
LINE
  5
243
330
2
100
AcDbEntity
  8
OUTLINE
100
AcDbLine
 10
404.2306012946593
 20
86.14585135670187
 30
0.0
 11
403.4306012946593
 21
86.14585135670187
 31
0.0
  0
LINE
  5
244
330
2
100
AcDbEntity
  8
OUTLINE
100
AcDbLine
 10
404.2306012946593
 20
86.14585135670187
 30
0.0
 11
404.2306012946593
 21
86.88917717118142
 31
0.0
  0
LINE
  5
245
330
2
100
AcDbEntity
  8
OUTLINE
100
AcDbLine
 10
404.2306012946593
 20
86.88917717118142
 30
0.0
 11
392.0306012946594
 21
86.88917717118142
 31
0.0
  0
LINE
  5
246
330
2
100
AcDbEntity
  8
OUTLINE
100
AcDbLine
 10
392.0306012946594
 20
87.29749114960489
 30
0.0
 11
392.0306012946594
 21
86.88917717118142
 31
0.0
  0
LINE
  5
247
330
2
100
AcDbEntity
  8
OUTLINE
100
AcDbLine
 10
392.0306012946594
 20
86.88917717118147
 30
0.0
 11
391.4202022134962
 21
87.29749114960528
 31
0.0
  0
LINE
  5
248
330
2
100
AcDbEntity
  8
HID
100
AcDbLine
 10
391.4202022134963
 20
87.29749114960528
 30
0.0
 11
391.2306012946593
 21
87.42432080559947
 31
0.0
  0
LINE
  5
249
330
2
100
AcDbEntity
  8
HID
100
AcDbLine
 10
391.2306012946593
 20
87.42432080559947
 30
0.0
 11
391.2306012946593
 21
87.4163687734682
 31
0.0
  0
LINE
  5
24A
330
2
100
AcDbEntity
  8
HID
100
AcDbLine
 10
391.2306012946593
 20
87.4163687734682
 30
0.0
 11
389.0306012946593
 21
89.48372145223373
 31
0.0
  0
LINE
  5
24B
330
2
100
AcDbEntity
  8
HID
100
AcDbLine
 10
389.0306012946593
 20
89.48372145223373
 30
0.0
 11
389.0306012946593
 21
90.1166084388304
 31
0.0
  0
LINE
  5
24C
330
2
100
AcDbEntity
  8
HID
100
AcDbLine
 10
389.0306012946593
 20
90.1166084388304
 30
0.0
 11
392.0306012946592
 21
87.29749114960474
 31
0.0
  0
LINE
  5
24D
330
2
100
AcDbEntity
  8
HID
100
AcDbLine
 10
405.0306012946593
 20
-186.912911774967
 30
0.0
 11
404.2306012946593
 21
-186.912911774967
 31
0.0
  0
LINE
  5
24E
330
2
100
AcDbEntity
  8
HID
100
AcDbLine
 10
405.0306012946593
 20
-183.912911774967
 30
0.0
 11
404.2306012946593
 21
-183.912911774967
 31
0.0
  0
LINE
  5
24F
330
2
100
AcDbEntity
  8
OUTLINE
100
AcDbLine
 10
401.2306012946593
 20
-26.91291177496708
 30
0.0
 11
396.2306012946593
 21
-26.91291177496708
 31
0.0
  0
LINE
  5
250
330
2
100
AcDbEntity
  8
OUTLINE
100
AcDbLine
 10
396.2306012946593
 20
-26.91291177496708
 30
0.0
 11
396.2306012946593
 21
-56.91291177496708
 31
0.0
  0
LINE
  5
251
330
2
100
AcDbEntity
  8
OUTLINE
100
AcDbLine
 10
396.2306012946593
 20
-56.91291177496708
 30
0.0
 11
401.2306012946593
 21
-56.91291177496708
 31
0.0
  0
LINE
  5
252
330
2
100
AcDbEntity
  8
OUTLINE
100
AcDbLine
 10
401.2306012946593
 20
-56.91291177496708
 30
0.0
 11
401.2306012946593
 21
-26.91291177496708
 31
0.0
  0
LINE
  5
253
330
2
100
AcDbEntity
  8
OUTLINE
100
AcDbLine
 10
387.0306012946593
 20
-215.412911774967
 30
0.0
 11
404.2306012946593
 21
-215.412911774967
 31
0.0
  0
LINE
  5
254
330
2
100
AcDbEntity
  8
OUTLINE
100
AcDbLine
 10
384.0306012946594
 20
-212.4129117749671
 30
0.0
 11
387.0306012946593
 21
-215.4129117749671
 31
0.0
  0
LINE
  5
255
330
2
100
AcDbEntity
  8
HID
100
AcDbLine
 10
384.0306012946594
 20
368.5870882250329
 30
0.0
 11
384.0306012946594
 21
86.9219138993766
 31
0.0
  0
LINE
  5
256
330
2
100
AcDbEntity
  8
OUTLINE
100
AcDbLine
 10
384.0306012946594
 20
86.9219138993766
 30
0.0
 11
384.0306012946594
 21
-212.412911774967
 31
0.0
  0
LINE
  5
257
330
2
100
AcDbEntity
  8
HID
100
AcDbLine
 10
387.0306012946595
 20
371.5870882250329
 30
0.0
 11
384.0306012946595
 21
368.5870882250329
 31
0.0
  0
LINE
  5
258
330
2
100
AcDbEntity
  8
HID
100
AcDbLine
 10
399.5306012946593
 20
350.2561655850968
 30
0.0
 11
399.5306012946593
 21
349.5044114884631
 31
0.0
  0
LINE
  5
259
330
2
100
AcDbEntity
  8
HID
100
AcDbLine
 10
399.5306012946593
 20
362.9688708319156
 30
0.0
 11
397.0306012946595
 21
362.9688708319156
 31
0.0
  0
LINE
  5
25A
330
2
100
AcDbEntity
  8
OUTLINE
100
AcDbLine
 10
397.0306012946595
 20
362.9688708319156
 30
0.0
 11
394.0306012946597
 21
362.9688708319156
 31
0.0
  0
LINE
  5
25B
330
2
100
AcDbEntity
  8
HID
100
AcDbLine
 10
394.0306012946595
 20
362.9688708319156
 30
0.0
 11
392.0306012946594
 21
362.9688708319156
 31
0.0
  0
LINE
  5
25C
330
2
100
AcDbEntity
  8
HID
100
AcDbLine
 10
399.5306012946593
 20
371.587088225033
 30
0.0
 11
399.5306012946593
 21
371.1995247192305
 31
0.0
  0
LINE
  5
25D
330
2
100
AcDbEntity
  8
HID
100
AcDbLine
 10
389.0306012946593
 20
370.8353341284042
 30
0.0
 11
399.5306012946593
 21
370.8353341284042
 31
0.0
  0
LINE
  5
25E
330
2
100
AcDbEntity
  8
HID
100
AcDbLine
 10
399.5306012946593
 20
371.1995247192305
 30
0.0
 11
399.5306012946593
 21
370.7870882250329
 31
0.0
  0
LINE
  5
25F
330
2
100
AcDbEntity
  8
HID
100
AcDbLine
 10
389.0306012946593
 20
364.7466853585211
 30
0.0
 11
389.0306012946593
 21
371.5870882250329
 31
0.0
  0
LINE
  5
260
330
2
100
AcDbEntity
  8
HID
100
AcDbLine
 10
389.0306012946593
 20
371.5870882250329
 30
0.0
 11
399.5306012946593
 21
371.5870882250329
 31
0.0
  0
LINE
  5
261
330
2
100
AcDbEntity
  8
HID
100
AcDbLine
 10
399.5306012946593
 20
371.5870882250329
 30
0.0
 11
404.0306012946593
 21
371.5870882250329
 31
0.0
  0
LINE
  5
262
330
2
100
AcDbEntity
  8
OUTLINE
100
AcDbLine
 10
404.0306012946593
 20
371.5870882250329
 30
0.0
 11
405.0306012946593
 21
371.5870882250329
 31
0.0
  0
LINE
  5
263
330
2
100
AcDbEntity
  8
OUTLINE
100
AcDbLine
 10
405.0306012946593
 20
371.587088225033
 30
0.0
 11
405.0306012946593
 21
316.863865292926
 31
0.0
  0
LINE
  5
264
330
2
100
AcDbEntity
  8
HID
100
AcDbLine
 10
389.0306012946593
 20
316.8638652929258
 30
0.0
 11
404.0306012946595
 21
316.8638652929258
 31
0.0
  0
LINE
  5
265
330
2
100
AcDbEntity
  8
OUTLINE
100
AcDbLine
 10
404.0306012946595
 20
316.8638652929258
 30
0.0
 11
405.0306012946593
 21
316.8638652929258
 31
0.0
  0
LINE
  5
266
330
2
100
AcDbEntity
  8
HID
100
AcDbLine
 10
389.0306012946593
 20
316.8638652929259
 30
0.0
 11
389.0306012946593
 21
349.230105155115
 31
0.0
  0
LINE
  5
267
330
2
100
AcDbEntity
  8
HID
100
AcDbLine
 10
392.0306012946594
 20
350.2561655850922
 30
0.0
 11
389.0306012946593
 21
349.230105155115
 31
0.0
  0
LINE
  5
268
330
2
100
AcDbEntity
  8
HID
100
AcDbLine
 10
392.0306012946594
 20
350.2561655850922
 30
0.0
 11
399.5306012946593
 21
350.2561655850922
 31
0.0
  0
LINE
  5
269
330
2
100
AcDbEntity
  8
HID
100
AcDbLine
 10
399.5306012946593
 20
350.256165585092
 30
0.0
 11
399.5306012946593
 21
363.7206249285425
 31
0.0
  0
LINE
  5
26A
330
2
100
AcDbEntity
  8
HID
100
AcDbLine
 10
399.5306012946593
 20
363.7206249285443
 30
0.0
 11
392.0306012946594
 21
363.7206249285443
 31
0.0
  0
LINE
  5
26B
330
2
100
AcDbEntity
  8
HID
100
AcDbLine
 10
389.0306012946593
 20
363.9949312618924
 30
0.0
 11
389.0306012946593
 21
364.7466853585211
 31
0.0
  0
LINE
  5
26C
330
2
100
AcDbEntity
  8
HID
100
AcDbLine
 10
389.0306012946593
 20
364.7466853585195
 30
0.0
 11
392.0306012946594
 21
363.7206249285425
 31
0.0
  0
LINE
  5
26D
330
2
100
AcDbEntity
  8
HID
100
AcDbLine
 10
392.0306012946594
 20
363.7206249285443
 30
0.0
 11
392.0306012946594
 21
362.9688708319156
 31
0.0
  0
LINE
  5
26E
330
2
100
AcDbEntity
  8
HID
100
AcDbLine
 10
392.0306012946594
 20
362.9688708319136
 30
0.0
 11
389.0306012946593
 21
363.9949312618906
 31
0.0
  0
LINE
  5
26F
330
2
100
AcDbEntity
  8
HID
100
AcDbLine
 10
397.5306012946593
 20
344.3287730206646
 30
0.0
 11
397.5306012946593
 21
345.0805271172936
 31
0.0
  0
LINE
  5
270
330
2
100
AcDbEntity
  8
HID
100
AcDbLine
 10
393.5306012946593
 20
344.3287730206646
 30
0.0
 11
393.5306012946593
 21
345.0805271172936
 31
0.0
  0
LINE
  5
271
330
2
100
AcDbEntity
  8
HID
100
AcDbLine
 10
397.5306012946593
 20
272.3409083997507
 30
0.0
 11
397.5306012946593
 21
272.7164856499794
 31
0.0
  0
LINE
  5
272
330
2
100
AcDbEntity
  8
HID
100
AcDbLine
 10
393.5306012946593
 20
272.3409083997507
 30
0.0
 11
393.5306012946593
 21
272.7164856499794
 31
0.0
  0
LINE
  5
273
330
2
100
AcDbEntity
  8
HID
100
AcDbLine
 10
397.5306012946593
 20
131.0692935423223
 30
0.0
 11
397.5306012946593
 21
131.4448707925511
 31
0.0
  0
LINE
  5
274
330
2
100
AcDbEntity
  8
HID
100
AcDbLine
 10
393.5306012946593
 20
131.0692935423223
 30
0.0
 11
393.5306012946593
 21
131.4448707925511
 31
0.0
  0
LINE
  5
275
330
2
100
AcDbEntity
  8
HID
100
AcDbLine
 10
397.5306012946593
 20
366.9021024801588
 30
0.0
 11
397.5306012946593
 21
367.6538565767828
 31
0.0
  0
LINE
  5
276
330
2
100
AcDbEntity
  8
HID
100
AcDbLine
 10
393.5306012946593
 20
366.9021024801588
 30
0.0
 11
393.5306012946593
 21
367.6538565767878
 31
0.0
  0
ELLIPSE
  5
277
330
2
100
AcDbEntity
  8
OUTLINE
100
AcDbEllipse
 10
395.5306012946593
 20
344.3287730206646
 30
0.0
 11
-2.0
 21
0.0
 31
0.0
210
0.0
220
0.0
230
1.0
 40
0.3420201433256688
 41
4.471107986205733
 42
4.953669974563577
  0
ELLIPSE
  5
278
330
2
100
AcDbEntity
  8
HID
100
AcDbEllipse
 10
395.5306012946593
 20
344.3287730206646
 30
0.0
 11
-2.0
 21
0.0
 31
0.0
210
0.0
220
0.0
230
1.0
 40
0.3420201433256688
 41
4.953669974563577
 42
10.75429329338532
  0
ELLIPSE
  5
279
330
2
100
AcDbEntity
  8
OUTLINE
100
AcDbEllipse
 10
395.5306012946593
 20
272.3409083997507
 30
0.0
 11
-2.0
 21
0.0
 31
0.0
210
0.0
220
0.0
230
1.0
 40
0.8829475928589275
 41
3.248135996386586
 42
6.176641964382792
  0
ELLIPSE
  5
27A
330
2
100
AcDbEntity
  8
HID
100
AcDbEllipse
 10
395.5306012946593
 20
272.3409083997507
 30
0.0
 11
-2.0
 21
0.0
 31
0.0
210
0.0
220
0.0
230
1.0
 40
0.8829475928589275
 41
6.176641964382792
 42
9.531321303566171
  0
ELLIPSE
  5
27B
330
2
100
AcDbEntity
  8
OUTLINE
100
AcDbEllipse
 10
395.5306012946593
 20
131.0692935423223
 30
0.0
 11
-2.0
 21
0.0
 31
0.0
210
0.0
220
0.0
230
1.0
 40
0.8829475928589275
 41
3.248135996386586
 42
6.176641964382792
  0
ELLIPSE
  5
27C
330
2
100
AcDbEntity
  8
HID
100
AcDbEllipse
 10
395.5306012946593
 20
131.0692935423223
 30
0.0
 11
-2.0
 21
0.0
 31
0.0
210
0.0
220
0.0
230
1.0
 40
0.8829475928589275
 41
6.176641964382792
 42
9.531321303566171
  0
ELLIPSE
  5
27D
330
2
100
AcDbEntity
  8
OUTLINE
100
AcDbEllipse
 10
395.5306012946593
 20
131.4448707925511
 30
0.0
 11
2.0
 21
0.0
 31
0.0
210
0.0
220
0.0
230
1.0
 40
0.8829475928589273
 41
0.0
 42
6.283185307179584
  0
ELLIPSE
  5
27E
330
2
100
AcDbEntity
  8
OUTLINE
100
AcDbEllipse
 10
395.5306012946593
 20
272.7164856499795
 30
0.0
 11
2.0
 21
0.0
 31
0.0
210
0.0
220
0.0
230
1.0
 40
0.8829475928589273
 41
0.0
 42
6.283185307179584
  0
CIRCLE
  5
27F
330
2
100
AcDbEntity
  8
HID
100
AcDbCircle
 10
390.5306012946594
 20
357.5870882250328
 30
0.0
 40
3.0
  0
CIRCLE
  5
280
330
2
100
AcDbEntity
  8
OUTLINE
100
AcDbCircle
 10
390.5306012946594
 20
-201.412911774967
 30
0.0
 40
3.0
  0
ELLIPSE
  5
281
330
2
100
AcDbEntity
  8
OUTLINE
100
AcDbEllipse
 10
395.5306012946593
 20
366.9021024801588
 30
0.0
 11
-2.0
 21
0.0
 31
0.0
210
0.0
220
0.0
230
1.0
 40
0.3420201433256688
 41
4.471107986204471
 42
4.95366997456484
  0
ELLIPSE
  5
282
330
2
100
AcDbEntity
  8
HID
100
AcDbEllipse
 10
395.5306012946593
 20
366.9021024801588
 30
0.0
 11
-2.0
 21
0.0
 31
0.0
210
0.0
220
0.0
230
1.0
 40
0.3420201433256688
 41
4.95366997456484
 42
10.75429329338406
  0
ELLIPSE
  5
283
330
2
100
AcDbEntity
  8
OUTLINE
100
AcDbEllipse
 10
395.5306012946593
 20
367.6538565767878
 30
0.0
 11
2.0
 21
0.0
 31
0.0
210
0.0
220
0.0
230
1.0
 40
0.3420201433256688
 41
0.2979685845332389
 42
2.843624069056423
  0
ELLIPSE
  5
284
330
2
100
AcDbEntity
  8
HID
100
AcDbEllipse
 10
395.5306012946593
 20
367.6538565767878
 30
0.0
 11
2.0
 21
0.0
 31
0.0
210
0.0
220
0.0
230
1.0
 40
0.3420201433256688
 41
2.843624069056423
 42
6.581153891712824
  0
ELLIPSE
  5
285
330
2
100
AcDbEntity
  8
OUTLINE
100
AcDbEllipse
 10
395.5306012946593
 20
345.0805271172936
 30
0.0
 11
2.0
 21
0.0
 31
0.0
210
0.0
220
0.0
230
1.0
 40
0.3420201433256688
 41
0.297968584533651
 42
2.843624069056016
  0
ELLIPSE
  5
286
330
2
100
AcDbEntity
  8
HID
100
AcDbEllipse
 10
395.5306012946593
 20
345.0805271172936
 30
0.0
 11
2.0
 21
0.0
 31
0.0
210
0.0
220
0.0
230
1.0
 40
0.3420201433256688
 41
2.843624069056016
 42
6.581153891713235
  0
LINE
  5
287
330
2
100
AcDbEntity
  8
OUTLINE
100
AcDbLine
 10
404.0306012946595
 20
372.3388423216619
 30
0.0
 11
404.0306012946595
 21
372.387088225033
 31
0.0
  0
LINE
  5
288
330
2
100
AcDbEntity
  8
OUTLINE
100
AcDbLine
 10
-180.9693987053405
 20
372.3388423216619
 30
0.0
 11
-180.9693987053405
 21
372.3870882250331
 31
0.0
  0
LINE
  5
289
330
2
100
AcDbEntity
  8
OUTLINE
100
AcDbLine
 10
404.0306012946595
 20
372.387088225033
 30
0.0
 11
-180.9693987053405
 21
372.387088225033
 31
0.0
  0
LINE
  5
28A
330
2
100
AcDbEntity
  8
OUTLINE
100
AcDbLine
 10
-180.9693987053405
 20
372.3388423216619
 30
0.0
 11
-180.9693987053405
 21
317.6156193895547
 31
0.0
  0
LINE
  5
28B
330
2
100
AcDbEntity
  8
OUTLINE
100
AcDbLine
 10
-180.9693987053405
 20
372.3388423216619
 30
0.0
 11
404.0306012946593
 21
372.3388423216619
 31
0.0
  0
LINE
  5
28C
330
2
100
AcDbEntity
  8
OUTLINE
100
AcDbLine
 10
404.0306012946595
 20
317.6156193895546
 30
0.0
 11
404.0306012946595
 21
372.3388423216617
 31
0.0
  0
LINE
  5
28D
330
2
100
AcDbEntity
  8
OUTLINE
100
AcDbLine
 10
-180.9693987053405
 20
317.6156193895547
 30
0.0
 11
-180.9693987053405
 21
317.2394425431548
 31
0.0
  0
LINE
  5
28E
330
2
100
AcDbEntity
  8
OUTLINE
100
AcDbLine
 10
-180.9693987053405
 20
317.6156193895547
 30
0.0
 11
404.0306012946593
 21
317.6156193895547
 31
0.0
  0
LINE
  5
28F
330
2
100
AcDbEntity
  8
OUTLINE
100
AcDbLine
 10
404.0306012946595
 20
317.2394425431548
 30
0.0
 11
404.0306012946595
 21
317.6156193895546
 31
0.0
  0
LINE
  5
290
330
2
100
AcDbEntity
  8
OUTLINE
100
AcDbLine
 10
-180.9693987053406
 20
90.32191117841051
 30
0.0
 11
-180.9693987053406
 21
89.94633392818172
 31
0.0
  0
LINE
  5
291
330
2
100
AcDbEntity
  8
OUTLINE
100
AcDbLine
 10
-177.9693987053406
 20
87.2974911496051
 30
0.0
 11
-177.9693987053406
 21
87.67306839983382
 31
0.0
  0
LINE
  5
292
330
2
100
AcDbEntity
  8
OUTLINE
100
AcDbLine
 10
404.0306012946593
 20
89.94633392818172
 30
0.0
 11
404.0306012946593
 21
90.32191117841051
 31
0.0
  0
LINE
  5
293
330
2
100
AcDbEntity
  8
OUTLINE
100
AcDbLine
 10
401.0306012946593
 20
87.67306839983382
 30
0.0
 11
401.0306012946593
 21
87.2974911496051
 31
0.0
  0
LINE
  5
294
330
2
100
AcDbEntity
  8
HID
100
AcDbLine
 10
404.0306012946595
 20
371.587088225033
 30
0.0
 11
-180.9693987053405
 21
371.587088225033
 31
0.0
  0
LINE
  5
295
330
2
100
AcDbEntity
  8
HID
100
AcDbLine
 10
-177.9693987053405
 20
372.3870882250331
 30
0.0
 11
-177.9693987053405
 21
371.5870882250331
 31
0.0
  0
LINE
  5
296
330
2
100
AcDbEntity
  8
HID
100
AcDbLine
 10
401.0306012946593
 20
371.587088225033
 30
0.0
 11
401.0306012946593
 21
372.387088225033
 31
0.0
  0
LINE
  5
297
330
2
100
AcDbEntity
  8
OUTLINE
100
AcDbLine
 10
387.0306012946593
 20
87.29749114960531
 30
0.0
 11
387.0306012946593
 21
86.92191389937667
 31
0.0
  0
LINE
  5
298
330
2
100
AcDbEntity
  8
HID
100
AcDbLine
 10
379.0306012946593
 20
93.98549464224799
 30
0.0
 11
379.0306012946593
 21
94.36107189247634
 31
0.0
  0
LINE
  5
299
330
2
100
AcDbEntity
  8
OUTLINE
100
AcDbLine
 10
-163.9693987053406
 20
86.9219138993766
 30
0.0
 11
387.0306012946593
 21
86.92191389937645
 31
0.0
  0
LINE
  5
29A
330
2
100
AcDbEntity
  8
HID
100
AcDbLine
 10
387.0306012946593
 20
86.9219138993766
 30
0.0
 11
379.0306012946595
 21
93.98549464224787
 31
0.0
  0
LINE
  5
29B
330
2
100
AcDbEntity
  8
HID
100
AcDbLine
 10
379.0306012946593
 20
93.98549464224787
 30
0.0
 11
-155.9693987053406
 21
93.98549464224794
 31
0.0
  0
LINE
  5
29C
330
2
100
AcDbEntity
  8
HID
100
AcDbLine
 10
-155.9693987053406
 20
94.36107189247634
 30
0.0
 11
-155.9693987053406
 21
93.98549464224799
 31
0.0
  0
LINE
  5
29D
330
2
100
AcDbEntity
  8
OUTLINE
100
AcDbLine
 10
-163.9693987053406
 20
87.29749114960545
 30
0.0
 11
-163.9693987053406
 21
86.92191389937677
 31
0.0
  0
LINE
  5
29E
330
2
100
AcDbEntity
  8
HID
100
AcDbLine
 10
-155.9693987053406
 20
93.98549464224799
 30
0.0
 11
-163.9693987053405
 21
86.92191389937667
 31
0.0
  0
ELLIPSE
  5
29F
330
2
100
AcDbEntity
  8
OUTLINE
100
AcDbEllipse
 10
-172.4693987053405
 20
272.7164856499811
 30
0.0
 11
-0.0000000000000096
 21
-86.26046620228176
 31
0.0
210
0.0
220
0.0
230
1.0
 40
0.0289819903608853
 41
1.570796326794881
 42
1.575264674927869
  0
ELLIPSE
  5
2A0
330
2
100
AcDbEntity
  8
OUTLINE
100
AcDbEllipse
 10
-172.4693987053405
 20
178.9509649084784
 30
0.0
 11
-5.498107728628855
 21
184.9805687939479
 31
0.0
210
0.0
220
0.0
230
1.0
 40
0.0007798742546564
 41
5.21048320489028
 42
5.212764771861856
  0
ELLIPSE
  5
2A1
330
2
100
AcDbEntity
  8
OUTLINE
100
AcDbEllipse
 10
-172.4693987053405
 20
272.7164856499811
 30
0.0
 11
-0.0000000000000096
 21
-86.26046620228176
 31
0.0
210
0.0
220
0.0
230
1.0
 40
0.0289819903608853
 41
4.707920632251711
 42
4.712388980384709
  0
LINE
  5
2A2
330
2
100
AcDbEntity
  8
OUTLINE
100
AcDbLine
 10
-174.9693987053405
 20
272.7164856499796
 30
0.0
 11
-174.9805695384999
 21
273.1019261604568
 31
0.0
  0
ELLIPSE
  5
2A3
330
2
100
AcDbEntity
  8
OUTLINE
100
AcDbEllipse
 10
-172.4693987053405
 20
178.9509649084768
 30
0.0
 11
-5.498107728628896
 21
-184.9805687939515
 31
0.0
210
0.0
220
0.0
230
1.0
 40
0.0007798742546563
 41
4.212013188987658
 42
4.214294755959175
  0
LINE
  5
2A4
330
2
100
AcDbEntity
  8
OUTLINE
100
AcDbLine
 10
-169.9693987053406
 20
272.7164856499796
 30
0.0
 11
-169.9582278721812
 21
273.1019261604568
 31
0.0
  0
LINE
  5
2A5
330
2
100
AcDbEntity
  8
HID
100
AcDbLine
 10
-155.9693987053406
 20
94.36107189247634
 30
0.0
 11
-163.9693987053406
 21
87.29749114960494
 31
0.0
  0
LINE
  5
2A6
330
2
100
AcDbEntity
  8
HID
100
AcDbLine
 10
379.0306012946593
 20
94.3610718924762
 30
0.0
 11
-155.9693987053406
 21
94.36107189247634
 31
0.0
  0
LINE
  5
2A7
330
2
100
AcDbEntity
  8
HID
100
AcDbLine
 10
387.0306012946595
 20
87.29749114960482
 30
0.0
 11
379.0306012946595
 21
94.36107189247627
 31
0.0
  0
LINE
  5
2A8
330
2
100
AcDbEntity
  8
OUTLINE
100
AcDbLine
 10
387.0306012946593
 20
87.29749114960503
 30
0.0
 11
401.0306012946593
 21
87.29749114960503
 31
0.0
  0
LINE
  5
2A9
330
2
100
AcDbEntity
  8
OUTLINE
100
AcDbLine
 10
401.0306012946593
 20
87.29749114960489
 30
0.0
 11
404.0306012946593
 21
89.94633392818164
 31
0.0
  0
LINE
  5
2AA
330
2
100
AcDbEntity
  8
HID
100
AcDbLine
 10
-180.9693987053405
 20
316.863865292926
 30
0.0
 11
404.0306012946593
 21
316.863865292926
 31
0.0
  0
LINE
  5
2AB
330
2
100
AcDbEntity
  8
OUTLINE
100
AcDbLine
 10
-180.9693987053405
 20
89.94633392818167
 30
0.0
 11
-177.9693987053405
 21
87.29749114960489
 31
0.0
  0
LINE
  5
2AC
330
2
100
AcDbEntity
  8
OUTLINE
100
AcDbLine
 10
-177.9693987053406
 20
87.2974911496051
 30
0.0
 11
-163.9693987053406
 21
87.2974911496051
 31
0.0
  0
LINE
  5
2AD
330
2
100
AcDbEntity
  8
OUTLINE
100
AcDbLine
 10
-174.9693987053405
 20
272.7164856499795
 30
0.0
 11
-174.9693987053405
 21
267.3296042727774
 31
0.0
  0
LINE
  5
2AE
330
2
100
AcDbEntity
  8
OUTLINE
100
AcDbLine
 10
-169.9693987053405
 20
267.3296042727774
 30
0.0
 11
-169.9693987053405
 21
272.7164856499796
 31
0.0
  0
LINE
  5
2AF
330
2
100
AcDbEntity
  8
OUTLINE
100
AcDbLine
 10
-169.9694236629678
 20
273.1019261604568
 30
0.0
 11
-169.9582278721812
 21
273.1019261604568
 31
0.0
  0
LINE
  5
2B0
330
2
100
AcDbEntity
  8
OUTLINE
100
AcDbLine
 10
-174.9805695384999
 20
273.1019261604568
 30
0.0
 11
-174.9693737477133
 21
273.1019261604568
 31
0.0
  0
LINE
  5
2B1
330
2
100
AcDbEntity
  8
OUTLINE
100
AcDbLine
 10
-174.9805695384999
 20
267.7001340088086
 30
0.0
 11
-174.9805695384999
 21
273.1019261604568
 31
0.0
  0
LINE
  5
2B2
330
2
100
AcDbEntity
  8
OUTLINE
100
AcDbLine
 10
-169.9582278721812
 20
273.1019261604568
 30
0.0
 11
-169.9582278721812
 21
267.7001340088086
 31
0.0
  0
LINE
  5
2B3
330
2
100
AcDbEntity
  8
OUTLINE
100
AcDbLine
 10
-177.9693987053406
 20
87.67306839983382
 30
0.0
 11
401.0306012946593
 21
87.67306839983378
 31
0.0
  0
LINE
  5
2B4
330
2
100
AcDbEntity
  8
OUTLINE
100
AcDbLine
 10
-177.9693987053405
 20
87.67306839983382
 30
0.0
 11
-180.9693987053405
 21
90.32191117841056
 31
0.0
  0
LINE
  5
2B5
330
2
100
AcDbEntity
  8
OUTLINE
100
AcDbLine
 10
-180.9693987053405
 20
317.2394425431549
 30
0.0
 11
-180.9693987053406
 21
90.32191117841049
 31
0.0
  0
LINE
  5
2B6
330
2
100
AcDbEntity
  8
OUTLINE
100
AcDbLine
 10
-180.9693987053405
 20
317.2394425431549
 30
0.0
 11
404.0306012946593
 21
317.2394425431548
 31
0.0
  0
LINE
  5
2B7
330
2
100
AcDbEntity
  8
OUTLINE
100
AcDbLine
 10
404.0306012946595
 20
90.32191117841042
 30
0.0
 11
404.0306012946595
 21
317.2394425431548
 31
0.0
  0
LINE
  5
2B8
330
2
100
AcDbEntity
  8
OUTLINE
100
AcDbLine
 10
404.0306012946595
 20
90.32191117841051
 30
0.0
 11
401.0306012946593
 21
87.67306839983378
 31
0.0
  0
LINE
  5
2B9
330
2
100
AcDbEntity
  8
OUTLINE
100
AcDbLine
 10
398.0305763370322
 20
273.1019261604567
 30
0.0
 11
398.0417721278188
 21
273.1019261604567
 31
0.0
  0
ELLIPSE
  5
2BA
330
2
100
AcDbEntity
  8
OUTLINE
100
AcDbEllipse
 10
395.5306012946595
 20
272.7164856499787
 30
0.0
 11
-0.0000000000000096
 21
-86.26046620277312
 31
0.0
210
0.0
220
0.0
230
1.0
 40
0.0289819903607202
 41
1.570796326794909
 42
1.575264674927879
  0
LINE
  5
2BB
330
2
100
AcDbEntity
  8
OUTLINE
100
AcDbLine
 10
393.0194304615002
 20
267.7001340088086
 30
0.0
 11
393.0194304615002
 21
273.1019261604567
 31
0.0
  0
LINE
  5
2BC
330
2
100
AcDbEntity
  8
OUTLINE
100
AcDbLine
 10
393.0306012946595
 20
272.7164856499795
 30
0.0
 11
393.0306012946595
 21
267.3296042727773
 31
0.0
  0
ELLIPSE
  5
2BD
330
2
100
AcDbEntity
  8
OUTLINE
100
AcDbEllipse
 10
395.5306012946595
 20
178.9509649083052
 30
0.0
 11
-5.49810772862886
 21
184.9805687943287
 31
0.0
210
0.0
220
0.0
230
1.0
 40
0.0007798742546531
 41
5.21048320499417
 42
5.212764771965741
  0
LINE
  5
2BE
330
2
100
AcDbEntity
  8
OUTLINE
100
AcDbLine
 10
398.0306012946595
 20
267.3296042727774
 30
0.0
 11
398.0306012946595
 21
272.7164856499796
 31
0.0
  0
LINE
  5
2BF
330
2
100
AcDbEntity
  8
OUTLINE
100
AcDbLine
 10
398.0306012946595
 20
272.7164856499796
 30
0.0
 11
398.0417721278188
 21
273.1019261604565
 31
0.0
  0
LINE
  5
2C0
330
2
100
AcDbEntity
  8
OUTLINE
100
AcDbLine
 10
398.0417721278188
 20
273.1019261604566
 30
0.0
 11
398.0417721278188
 21
267.7001340088086
 31
0.0
  0
ELLIPSE
  5
2C1
330
2
100
AcDbEntity
  8
OUTLINE
100
AcDbEllipse
 10
395.5306012946595
 20
178.9509649083044
 30
0.0
 11
-5.498107728628904
 21
-184.9805687943305
 31
0.0
210
0.0
220
0.0
230
1.0
 40
0.0007798742546531
 41
4.212013188907206
 42
4.214294755878751
  0
LINE
  5
2C2
330
2
100
AcDbEntity
  8
OUTLINE
100
AcDbLine
 10
393.0306012946593
 20
272.7164856499796
 30
0.0
 11
393.0194304615
 21
273.1019261604565
 31
0.0
  0
LINE
  5
2C3
330
2
100
AcDbEntity
  8
OUTLINE
100
AcDbLine
 10
393.0194304615
 20
273.1019261604567
 30
0.0
 11
393.0306262522866
 21
273.1019261604567
 31
0.0
  0
ELLIPSE
  5
2C4
330
2
100
AcDbEntity
  8
OUTLINE
100
AcDbEllipse
 10
395.5306012946595
 20
272.7164856499787
 30
0.0
 11
-0.0000000000000096
 21
-86.26046620277312
 31
0.0
210
0.0
220
0.0
230
1.0
 40
0.0289819903607202
 41
4.707920632251718
 42
4.712388980384687
  0
LINE
  5
2C5
330
2
100
AcDbEntity
  8
OUTLINE
100
AcDbLine
 10
-173.9693987053405
 20
362.762278308543
 30
0.0
 11
-173.9693987053405
 21
363.7883387385201
 31
0.0
  0
LINE
  5
2C6
330
2
100
AcDbEntity
  8
OUTLINE
100
AcDbLine
 10
-173.9693987053405
 20
363.7883387385201
 30
0.0
 11
-170.9693987053405
 21
363.7883387385201
 31
0.0
  0
LINE
  5
2C7
330
2
100
AcDbEntity
  8
OUTLINE
100
AcDbLine
 10
-170.9693987053405
 20
363.0365846418913
 30
0.0
 11
-173.9693987053405
 21
363.0365846418913
 31
0.0
  0
LINE
  5
2C8
330
2
100
AcDbEntity
  8
OUTLINE
100
AcDbLine
 10
-170.9693987053405
 20
363.7883387385201
 30
0.0
 11
-170.9693987053405
 21
362.762278308543
 31
0.0
  0
LINE
  5
2C9
330
2
100
AcDbEntity
  8
HID
100
AcDbLine
 10
-170.9693987053405
 20
362.7622783085432
 30
0.0
 11
-170.9693987053405
 21
362.0105242119143
 31
0.0
  0
LINE
  5
2CA
330
2
100
AcDbEntity
  8
OUTLINE
100
AcDbLine
 10
-170.9693987053405
 20
362.762278308543
 30
0.0
 11
-173.9693987053405
 21
362.762278308543
 31
0.0
  0
LINE
  5
2CB
330
2
100
AcDbEntity
  8
HID
100
AcDbLine
 10
-173.9693987053405
 20
362.7622783085432
 30
0.0
 11
-173.9693987053405
 21
362.0105242119143
 31
0.0
  0
LINE
  5
2CC
330
2
100
AcDbEntity
  8
HID
100
AcDbLine
 10
-173.9693987053405
 20
362.0105242119143
 30
0.0
 11
-170.9693987053405
 21
362.0105242119143
 31
0.0
  0
LINE
  5
2CD
330
2
100
AcDbEntity
  8
OUTLINE
100
AcDbLine
 10
394.0306012946595
 20
363.7883387385199
 30
0.0
 11
397.0306012946595
 21
363.7883387385199
 31
0.0
  0
LINE
  5
2CE
330
2
100
AcDbEntity
  8
OUTLINE
100
AcDbLine
 10
397.0306012946595
 20
363.0365846418913
 30
0.0
 11
394.0306012946595
 21
363.0365846418913
 31
0.0
  0
LINE
  5
2CF
330
2
100
AcDbEntity
  8
OUTLINE
100
AcDbLine
 10
397.0306012946595
 20
363.7883387385201
 30
0.0
 11
397.0306012946595
 21
362.762278308543
 31
0.0
  0
LINE
  5
2D0
330
2
100
AcDbEntity
  8
HID
100
AcDbLine
 10
397.0306012946595
 20
362.7622783085432
 30
0.0
 11
397.0306012946595
 21
362.0105242119143
 31
0.0
  0
LINE
  5
2D1
330
2
100
AcDbEntity
  8
OUTLINE
100
AcDbLine
 10
397.0306012946595
 20
362.762278308543
 30
0.0
 11
394.0306012946595
 21
362.762278308543
 31
0.0
  0
LINE
  5
2D2
330
2
100
AcDbEntity
  8
HID
100
AcDbLine
 10
394.0306012946595
 20
362.0105242119143
 30
0.0
 11
397.0306012946595
 21
362.0105242119143
 31
0.0
  0
LINE
  5
2D3
330
2
100
AcDbEntity
  8
HID
100
AcDbLine
 10
394.0306012946595
 20
362.7622783085432
 30
0.0
 11
394.0306012946595
 21
362.0105242119143
 31
0.0
  0
LINE
  5
2D4
330
2
100
AcDbEntity
  8
OUTLINE
100
AcDbLine
 10
394.0306012946595
 20
362.762278308543
 30
0.0
 11
394.0306012946595
 21
363.7883387385201
 31
0.0
  0
LINE
  5
2D5
330
2
100
AcDbEntity
  8
HID
100
AcDbLine
 10
-169.9693987053405
 20
345.0805271172936
 30
0.0
 11
-169.9693987053405
 21
345.8322812139225
 31
0.0
  0
LINE
  5
2D6
330
2
100
AcDbEntity
  8
HID
100
AcDbLine
 10
-174.9693987053405
 20
345.0805271172936
 30
0.0
 11
-174.9693987053405
 21
345.8322812139227
 31
0.0
  0
LINE
  5
2D7
330
2
100
AcDbEntity
  8
HID
100
AcDbLine
 10
398.0306012946595
 20
345.0805271172935
 30
0.0
 11
398.0306012946595
 21
345.8322812139225
 31
0.0
  0
LINE
  5
2D8
330
2
100
AcDbEntity
  8
HID
100
AcDbLine
 10
393.0306012946595
 20
345.0805271172935
 30
0.0
 11
393.0306012946595
 21
345.8322812139225
 31
0.0
  0
LINE
  5
2D9
330
2
100
AcDbEntity
  8
HID
100
AcDbLine
 10
-174.9693987053405
 20
131.8204480427794
 30
0.0
 11
-174.9693987053405
 21
131.4448707925508
 31
0.0
  0
LINE
  5
2DA
330
2
100
AcDbEntity
  8
HID
100
AcDbLine
 10
-169.9693987053405
 20
131.8204480427794
 30
0.0
 11
-169.9693987053405
 21
131.4448707925508
 31
0.0
  0
LINE
  5
2DB
330
2
100
AcDbEntity
  8
HID
100
AcDbLine
 10
393.0306012946595
 20
131.8204480427794
 30
0.0
 11
393.0306012946595
 21
131.4448707925508
 31
0.0
  0
LINE
  5
2DC
330
2
100
AcDbEntity
  8
HID
100
AcDbLine
 10
398.0306012946595
 20
131.8204480427794
 30
0.0
 11
398.0306012946595
 21
131.4448707925508
 31
0.0
  0
LINE
  5
2DD
330
2
100
AcDbEntity
  8
HID
100
AcDbLine
 10
-166.9693987053405
 20
263.0040621285313
 30
0.0
 11
-166.9693987053405
 21
263.3796393787599
 31
0.0
  0
LINE
  5
2DE
330
2
100
AcDbEntity
  8
HID
100
AcDbLine
 10
-177.9693987053405
 20
263.0040621285313
 30
0.0
 11
-177.9693987053405
 21
263.37963937876
 31
0.0
  0
LINE
  5
2DF
330
2
100
AcDbEntity
  8
HID
100
AcDbLine
 10
401.0306012946593
 20
263.0040621285313
 30
0.0
 11
401.0306012946593
 21
263.3796393787599
 31
0.0
  0
LINE
  5
2E0
330
2
100
AcDbEntity
  8
HID
100
AcDbLine
 10
390.0306012946595
 20
263.0040621285313
 30
0.0
 11
390.0306012946595
 21
263.3796393787599
 31
0.0
  0
LINE
  5
2E1
330
2
100
AcDbEntity
  8
HID
100
AcDbLine
 10
-169.9693987053405
 20
367.6538565767878
 30
0.0
 11
-169.9693987053405
 21
368.4056106734161
 31
0.0
  0
LINE
  5
2E2
330
2
100
AcDbEntity
  8
HID
100
AcDbLine
 10
-174.9693987053405
 20
367.6538565767878
 30
0.0
 11
-174.9693987053405
 21
368.4056106734161
 31
0.0
  0
LINE
  5
2E3
330
2
100
AcDbEntity
  8
HID
100
AcDbLine
 10
398.0306012946595
 20
367.6538565767876
 30
0.0
 11
398.0306012946595
 21
368.4056106734161
 31
0.0
  0
LINE
  5
2E4
330
2
100
AcDbEntity
  8
HID
100
AcDbLine
 10
393.0306012946595
 20
367.6538565767876
 30
0.0
 11
393.0306012946595
 21
368.4056106734161
 31
0.0
  0
ELLIPSE
  5
2E5
330
2
100
AcDbEntity
  8
HID
100
AcDbEllipse
 10
-172.4693987053405
 20
345.0805271172936
 30
0.0
 11
2.5
 21
0.0
 31
0.0
210
0.0
220
0.0
230
1.0
 40
0.3420201433256692
 41
2.686443389401663
 42
6.738334571367706
  0
ELLIPSE
  5
2E6
330
2
100
AcDbEntity
  8
OUTLINE
100
AcDbEllipse
 10
-172.4693987053405
 20
345.0805271172936
 30
0.0
 11
2.5
 21
0.0
 31
0.0
210
0.0
220
0.0
230
1.0
 40
0.3420201433256692
 41
0.4551492641881219
 42
2.686443389401663
  0
ELLIPSE
  5
2E7
330
2
100
AcDbEntity
  8
OUTLINE
100
AcDbEllipse
 10
-172.4693987053405
 20
345.8322812139225
 30
0.0
 11
-2.5
 21
0.0
 31
0.0
210
0.0
220
0.0
230
1.0
 40
0.3420201433256691
 41
-0.0000000000000024
 42
6.28318530717958
  0
ELLIPSE
  5
2E8
330
2
100
AcDbEntity
  8
HID
100
AcDbEllipse
 10
395.5306012946595
 20
345.0805271172935
 30
0.0
 11
2.5
 21
0.0
 31
0.0
210
0.0
220
0.0
230
1.0
 40
0.3420201433256692
 41
2.68644338940167
 42
6.738334571367698
  0
ELLIPSE
  5
2E9
330
2
100
AcDbEntity
  8
OUTLINE
100
AcDbEllipse
 10
395.5306012946595
 20
345.0805271172935
 30
0.0
 11
2.5
 21
0.0
 31
0.0
210
0.0
220
0.0
230
1.0
 40
0.3420201433256692
 41
0.4551492641881146
 42
2.68644338940167
  0
ELLIPSE
  5
2EA
330
2
100
AcDbEntity
  8
OUTLINE
100
AcDbEllipse
 10
395.5306012946595
 20
345.8322812139225
 30
0.0
 11
-2.5
 21
0.0
 31
0.0
210
0.0
220
0.0
230
1.0
 40
0.3420201433256691
 41
-0.0000000000000024
 42
6.28318530717958
  0
ELLIPSE
  5
2EB
330
2
100
AcDbEntity
  8
OUTLINE
100
AcDbEllipse
 10
395.5306012946595
 20
263.0040621285313
 30
0.0
 11
5.5
 21
0.0
 31
0.0
210
0.0
220
0.0
230
1.0
 40
0.8829475928589275
 41
2.042658164074538
 42
3.102913232765058
  0
ELLIPSE
  5
2EC
330
2
100
AcDbEntity
  8
HID
100
AcDbEllipse
 10
395.5306012946595
 20
263.0040621285313
 30
0.0
 11
5.5
 21
0.0
 31
0.0
210
0.0
220
0.0
230
1.0
 40
0.8829475928589275
 41
3.102913232765058
 42
6.321864728004316
  0
ELLIPSE
  5
2ED
330
2
100
AcDbEntity
  8
OUTLINE
100
AcDbEllipse
 10
395.5306012946595
 20
263.0040621285313
 30
0.0
 11
5.5
 21
0.0
 31
0.0
210
0.0
220
0.0
230
1.0
 40
0.8829475928589275
 41
0.0386794208247326
 42
1.098934489515252
  0
ELLIPSE
  5
2EE
330
2
100
AcDbEntity
  8
OUTLINE
100
AcDbEllipse
 10
395.5306012946595
 20
272.7164856499795
 30
0.0
 11
2.5
 21
0.0
 31
0.0
210
0.0
220
0.0
230
1.0
 40
0.8829475928589275
 41
0.0
 42
3.141592653589792
  0
ELLIPSE
  5
2EF
330
2
100
AcDbEntity
  8
HID
100
AcDbEllipse
 10
-172.4693987053405
 20
131.4448707925508
 30
0.0
 11
2.5
 21
0.0
 31
0.0
210
0.0
220
0.0
230
1.0
 40
0.8829475928589275
 41
3.056416188908682
 42
6.368361771860683
  0
ELLIPSE
  5
2F0
330
2
100
AcDbEntity
  8
OUTLINE
100
AcDbEllipse
 10
-172.4693987053405
 20
131.4448707925508
 30
0.0
 11
2.5
 21
0.0
 31
0.0
210
0.0
220
0.0
230
1.0
 40
0.8829475928589275
 41
0.0851764646810993
 42
3.056416188908682
  0
ELLIPSE
  5
2F1
330
2
100
AcDbEntity
  8
HID
100
AcDbEllipse
 10
395.5306012946595
 20
131.4448707925507
 30
0.0
 11
2.5
 21
0.0
 31
0.0
210
0.0
220
0.0
230
1.0
 40
0.8829475928589275
 41
3.056416188908682
 42
6.368361771860683
  0
ELLIPSE
  5
2F2
330
2
100
AcDbEntity
  8
OUTLINE
100
AcDbEllipse
 10
395.5306012946595
 20
131.4448707925507
 30
0.0
 11
2.5
 21
0.0
 31
0.0
210
0.0
220
0.0
230
1.0
 40
0.8829475928589275
 41
0.0851764646810993
 42
3.056416188908682
  0
ELLIPSE
  5
2F3
330
2
100
AcDbEntity
  8
OUTLINE
100
AcDbEllipse
 10
-172.4693987053405
 20
263.0040621285313
 30
0.0
 11
5.5
 21
0.0
 31
0.0
210
0.0
220
0.0
230
1.0
 40
0.8829475928589275
 41
2.042658164074543
 42
3.102913232765058
  0
ELLIPSE
  5
2F4
330
2
100
AcDbEntity
  8
HID
100
AcDbEllipse
 10
-172.4693987053405
 20
263.0040621285313
 30
0.0
 11
5.5
 21
0.0
 31
0.0
210
0.0
220
0.0
230
1.0
 40
0.8829475928589275
 41
3.102913232765058
 42
6.321864728004322
  0
ELLIPSE
  5
2F5
330
2
100
AcDbEntity
  8
OUTLINE
100
AcDbEllipse
 10
-172.4693987053405
 20
263.0040621285313
 30
0.0
 11
5.5
 21
0.0
 31
0.0
210
0.0
220
0.0
230
1.0
 40
0.8829475928589275
 41
0.0386794208247372
 42
1.098934489515249
  0
ELLIPSE
  5
2F6
330
2
100
AcDbEntity
  8
OUTLINE
100
AcDbEllipse
 10
-172.4693987053405
 20
272.7164856499796
 30
0.0
 11
2.5
 21
0.0
 31
0.0
210
0.0
220
0.0
230
1.0
 40
0.8829475928589275
 41
-0.0000000000000255
 42
3.141592653589816
  0
ELLIPSE
  5
2F7
330
2
100
AcDbEntity
  8
OUTLINE
100
AcDbEllipse
 10
395.5306012946595
 20
273.0920629002081
 30
0.0
 11
-2.5
 21
0.0
 31
0.0
210
0.0
220
0.0
230
1.0
 40
0.8829475928589275
 41
3.146061001722765
 42
6.278716959046612
  0
ELLIPSE
  5
2F8
330
2
100
AcDbEntity
  8
OUTLINE
100
AcDbEllipse
 10
395.5306012946595
 20
263.3796393787599
 30
0.0
 11
-5.5
 21
0.0
 31
0.0
210
0.0
220
0.0
230
1.0
 40
0.8829475928589275
 41
5.186532384635903
 42
10.52143088331306
  0
ELLIPSE
  5
2F9
330
2
100
AcDbEntity
  8
OUTLINE
100
AcDbEllipse
 10
-172.4693987053405
 20
273.0920629002082
 30
0.0
 11
-2.5
 21
0.0
 31
0.0
210
0.0
220
0.0
230
1.0
 40
0.8829475928589275
 41
3.146061001722758
 42
6.278716959046619
  0
ELLIPSE
  5
2FA
330
2
100
AcDbEntity
  8
OUTLINE
100
AcDbEllipse
 10
-172.4693987053405
 20
263.3796393787599
 30
0.0
 11
-5.5
 21
0.0
 31
0.0
210
0.0
220
0.0
230
1.0
 40
0.8829475928589275
 41
5.186532384635903
 42
10.52143088331306
  0
ELLIPSE
  5
2FB
330
2
100
AcDbEntity
  8
OUTLINE
100
AcDbEllipse
 10
395.5306012946595
 20
131.8204480427794
 30
0.0
 11
-2.5
 21
0.0
 31
0.0
210
0.0
220
0.0
230
1.0
 40
0.8829475928589275
 41
0.0000000000000002
 42
6.283185307179584
  0
ELLIPSE
  5
2FC
330
2
100
AcDbEntity
  8
OUTLINE
100
AcDbEllipse
 10
-172.4693987053405
 20
131.8204480427795
 30
0.0
 11
-2.5
 21
0.0
 31
0.0
210
0.0
220
0.0
230
1.0
 40
0.8829475928589275
 41
0.0000000000000002
 42
6.283185307179584
  0
ELLIPSE
  5
2FD
330
2
100
AcDbEntity
  8
HID
100
AcDbEllipse
 10
-172.4693987053405
 20
367.6538565767878
 30
0.0
 11
2.5
 21
0.0
 31
0.0
210
0.0
220
0.0
230
1.0
 40
0.3420201433256692
 41
2.686443389401923
 42
6.738334571367452
  0
ELLIPSE
  5
2FE
330
2
100
AcDbEntity
  8
OUTLINE
100
AcDbEllipse
 10
-172.4693987053405
 20
367.6538565767878
 30
0.0
 11
2.5
 21
0.0
 31
0.0
210
0.0
220
0.0
230
1.0
 40
0.3420201433256692
 41
0.4551492641878664
 42
2.686443389401921
  0
ELLIPSE
  5
2FF
330
2
100
AcDbEntity
  8
OUTLINE
100
AcDbEllipse
 10
-172.4693987053405
 20
368.4056106734164
 30
0.0
 11
-2.5
 21
0.0
 31
0.0
210
0.0
220
0.0
230
1.0
 40
0.3420201433256691
 41
-0.0000000000000024
 42
6.28318530717958
  0
ELLIPSE
  5
300
330
2
100
AcDbEntity
  8
HID
100
AcDbEllipse
 10
395.5306012946595
 20
367.6538565767878
 30
0.0
 11
2.5
 21
0.0
 31
0.0
210
0.0
220
0.0
230
1.0
 40
0.3420201433256692
 41
2.686443389401917
 42
6.738334571367437
  0
ELLIPSE
  5
301
330
2
100
AcDbEntity
  8
OUTLINE
100
AcDbEllipse
 10
395.5306012946595
 20
367.6538565767878
 30
0.0
 11
2.5
 21
0.0
 31
0.0
210
0.0
220
0.0
230
1.0
 40
0.3420201433256692
 41
0.4551492641878535
 42
2.686443389401913
  0
ELLIPSE
  5
302
330
2
100
AcDbEntity
  8
OUTLINE
100
AcDbEllipse
 10
395.5306012946595
 20
368.4056106734163
 30
0.0
 11
-2.5
 21
0.0
 31
0.0
210
0.0
220
0.0
230
1.0
 40
0.3420201433256691
 41
-0.0000000000000024
 42
6.28318530717958
  0
MTEXT
  5
539
330
2
100
AcDbEntity
  8
ETC
100
AcDbMText
 10
-116.0547874212526
 20
618.954213716321
 30
0.0
 40
40.0
 41
560.7014595953986
 71
     1
 72
     5
  1
AGJS/AGJT-23F\P正面図
 73
     1
 44
1.0
1001
ACAD
1000
MTEXTBEGIN
1070
    73
1070
     1
1070
    44
1040
1.0
1070
    74
1070
     0
1000
MTEXTEND
1000
ACAD_MTEXT_DEFINED_HEIGHT_BEGIN
1070
    46
1040
153.8252104277078
1000
ACAD_MTEXT_DEFINED_HEIGHT_END
  0
DIMENSION
  5
AB9
330
2
100
AcDbEntity
  8
SIZE
100
AcDbDimension
  2
*D6
 10
390.5306012946594
 20
432.3490115112435
 30
0.0
 11
111.5306012946593
 21
441.7240115112435
 31
0.0
 70
    32
 71
     5
 42
558.0
  3
ISO-25
100
AcDbAlignedDimension
 13
-167.4693987053406
 23
357.7980882250332
 33
0.0
 14
390.5306012946594
 24
357.7980882250329
 34
0.0
100
AcDbRotatedDimension
1001
ACAD
1000
DSTYLE
1002
{
1070
    40
1040
5.0
1070
   271
1070
     1
1070
   272
1070
     1
1070
   341
1005
4E
1070
   342
1005
48
1002
}
  0
DIMENSION
  5
AC7
330
2
100
AcDbEntity
  8
SIZE
100
AcDbDimension
  2
*D7
 10
405.0306012946593
 20
459.1158949551704
 30
0.0
 11
111.5306012946593
 21
459.1158949551704
 31
0.0
 70
   160
 71
     5
 42
587.0
  3
ISO-25
100
AcDbAlignedDimension
 13
-181.9693987053407
 23
371.5870882250332
 33
0.0
 14
405.0306012946593
 24
371.587088225033
 34
0.0
100
AcDbRotatedDimension
1001
ACAD
1000
DSTYLE
1002
{
1070
    40
1040
5.0
1070
   271
1070
     1
1070
   272
1070
     1
1070
   341
1005
4E
1070
   342
1005
48
1002
}
  0
DIMENSION
  5
AD4
330
2
100
AcDbEntity
  8
SIZE
100
AcDbDimension
  2
*D8
 10
-224.5564975950879
 20
-201.4129117749668
 30
0.0
 11
-233.9314975950879
 21
77.98158822503314
 31
0.0
 70
    32
  1
559
 71
     5
 42
558.7889999999998
  3
ISO-25
100
AcDbAlignedDimension
 13
-167.4693987053406
 23
357.3760882250331
 33
0.0
 14
-167.6803987053407
 24
-201.4129117749668
 34
0.0
 50
90.0
100
AcDbRotatedDimension
1001
ACAD
1000
DSTYLE
1002
{
1070
    40
1040
5.0
1070
   271
1070
     1
1070
   272
1070
     1
1070
   341
1005
4E
1070
   342
1005
48
1002
}
  0
DIMENSION
  5
AE1
330
2
100
AcDbEntity
  8
SIZE
100
AcDbDimension
  2
*D9
 10
-277.1844995912074
 20
-215.4129117749668
 30
0.0
 11
-286.5594995912073
 21
78.46296527334752
 31
0.0
 70
    32
  1
588
 71
     5
 42
587.7517540966286
  3
ISO-25
100
AcDbAlignedDimension
 13
-180.9693987053405
 23
372.3388423216619
 33
0.0
 14
-181.9693987053407
 24
-215.4129117749668
 34
0.0
 50
90.0
100
AcDbRotatedDimension
1001
ACAD
1000
DSTYLE
1002
{
1070
    40
1040
5.0
1070
   271
1070
     1
1070
   272
1070
     1
1070
   341
1005
4E
1070
   342
1005
48
1002
}
  0
MULTILEADER
  5
B1E
330
2
100
AcDbEntity
  8
NOTE
 92
      592
310
50020000110000000C00000010000000090000000C00000016000000000000C00C00000013000000112700003C00000006000000020000002E134431D7F868C0797DE1627E4D784000000000000000001A65FC4F5C0469C0797DE1627E4D784000000000000000000C00000013000000010000000C00000014000000010000
310
0054000000070000000300000065715D95381866C0318E7CC1961577400000000000000000B1EDF1B9C93065C00AF50A4F127976400000000000000000B91909653C7166C0E1549C4B99E7764000000000000000000C00000013000000891300003C00000006000000020000008F45337DBA4466C089718C0698FE76400000
310
0000000000002E134431D7F868C0797DE1627E4D784000000000000000000C000000130000009A3A00003C000000060000000200000065F72099EEE86EC07C7DE1627E4D784000000000000000001C65FC4F5C0469C07C7DE1627E4D784000000000000000000C00000016000000000000C00C00000012000000FF7F00000C
310
00000017000000FFFFFFFF0C00000016000000000000C00C00000013000000993A0000B00000000B000000D5D2D706CA1F6FC0DFE347C9E4737840000000000000000000000000000000000000000000000000000000000000F03F000000000000F03F00000000000000000000000000000000342D5C552B32323035360063
310
0A000000010000000000000000002840000000000000F03F0000000000000000000000000000F03F0000000000000000000000000000000000000000726F6D616E732E7368780000626967666F6E742E73687800
100
AcDbMLeader
300
CONTEXT_DATA{
 40
1.0
 10
-249.2791257518649
 20
396.0433560188493
 30
0.0
 41
12.0
140
12.0
145
2.0
174
     1
175
     6
176
     2
177
     0
290
     1
304
4-%%C6
 11
0.0
 21
0.0
 31
1.0
340
22
 12
-202.1362686090078
 22
403.2433560188492
 32
0.0
 13
1.0
 23
0.0
 33
0.0
 42
0.0
 43
0.0
 44
0.0
 45
1.0
170
     1
 90
-1073741824
171
     3
172
     5
 91
-1073741824
141
0.0
 92
  8249340
291
     0
292
     0
173
     0
293
     0
142
0.0
143
0.0
294
     0
295
     0
296
     0
110
-169.5246247983137
120
359.5669699123397
130
0.0
111
1.0
121
0.0
131
0.0
112
0.0
122
1.0
132
0.0
297
     0
302
LEADER{
290
     1
291
     1
 10
-199.7762686090077
 20
388.8433560188492
 30
0.0
 11
-1.0
 21
0.0
 31
0.0
 90
        0
 40
0.36
304
LEADER_LINE{
 10
-169.5246247983137
 20
359.5669699123397
 30
0.0
 91
        0
305
}
303
}
301
}
340
50C
 90
   345088
170
     1
 91
-1056964608
341
25
171
    -2
290
     1
291
     1
 41
0.36
 42
12.0
172
     2
343
22
173
     1
 95
        6
174
     1
175
     2
 92
-1056964608
292
     0
 93
-1056964608
 10
1.0
 20
1.0
 30
1.0
 43
0.0
176
     0
293
     0
294
     0
178
     0
179
     3
 45
1.0
1001
ACAD_MLEADERVER
1070
     2
  0
LINE
  5
1087
330
2
100
AcDbEntity
  8
BASIS
  6
DASHDOT
 62
     6
100
AcDbLine
 10
111.5306012946594
 20
-245.7955185512223
 30
0.0
 11
111.5306012946594
 21
402.5883910454247
 31
0.0
  0
LINE
  5
1088
330
2
100
AcDbEntity
  8
ARRANGE
  6
Continuous
 62
     1
100
AcDbLine
 10
94.84648373025539
 20
-232.0970293393702
 30
0.0
 11
128.2147188590629
 21
-198.7287942105631
 31
0.0
  0
LINE
  5
1089
330
2
100
AcDbEntity
  8
ARRANGE
  6
Continuous
 62
     1
100
AcDbLine
 10
94.84648373025539
 20
-198.7287942105631
 30
0.0
 11
128.2147188590629
 21
-232.0970293393702
 31
0.0
  0
CIRCLE
  5
108A
330
2
100
AcDbEntity
  8
ARRANGE
100
AcDbCircle
 10
111.5306012946594
 20
-215.4129117749666
 30
0.0
 40
15.0
  0
ENDSEC
  0
SECTION
  2
OBJECTS
  0
DICTIONARY
  5
9
330
0
100
AcDbDictionary
281
     1
  3
ACAD_BACKGROUND
350
512
  3
ACAD_COLOR
350
45
  3
ACAD_GROUP
350
32
  3
ACAD_LAYOUT
350
16
  3
ACAD_MATERIAL
350
B
  3
ACAD_MLEADERSTYLE
350
50B
  3
ACAD_MLINESTYLE
350
33
  3
ACAD_PLOTSETTINGS
350
34
  3
ACAD_PLOTSTYLENAME
350
8
  3
ACAD_SCALELIST
350
46
  3
ACAD_TABLESTYLE
350
47
  3
ACAD_VISUALSTYLE
350
2C
  3
ACDB_RECOMPOSE_DATA
350
4F7
  3
AcDbVariableDictionary
350
4F8
  3
DWGPROPS
350
10BD
  0
DICTIONARY
  5
526
330
29
100
AcDbDictionary
280
     1
281
     1
  0
DICTIONARY
  5
1F
330
1E
100
AcDbDictionary
280
     1
281
     1
  3
ACAD_LAYERFILTERS
360
10BB
  3
ACAD_LAYERSTATES
360
20
  3
ACLYDICTIONARY
360
10BA
  0
DICTIONARY
  5
517
330
6
100
AcDbDictionary
280
     1
281
     1
  3
ADSK_XREC_LAYER_RECONCILED
360
518
  0
DICTIONARY
  5
51B
330
7B
100
AcDbDictionary
280
     1
281
     1
  3
ADSK_XREC_LAYER_RECONCILED
360
51C
  0
DICTIONARY
  5
3
330
2
100
AcDbDictionary
280
     1
281
     1
  3
ACAD_LAYOUTSELFREF
360
4
  0
DICTIONARY
  5
512
102
{ACAD_REACTORS
330
9
102
}
330
9
100
AcDbDictionary
281
     1
  0
DICTIONARY
  5
45
102
{ACAD_REACTORS
330
9
102
}
330
9
100
AcDbDictionary
281
     1
  0
DICTIONARY
  5
32
102
{ACAD_REACTORS
330
9
102
}
330
9
100
AcDbDictionary
281
     1
  0
DICTIONARY
  5
16
102
{ACAD_REACTORS
330
9
102
}
330
9
100
AcDbDictionary
281
     1
  3
Model
350
15
  3
レイアウト1
350
1A
  0
DICTIONARY
  5
B
102
{ACAD_REACTORS
330
9
102
}
330
9
100
AcDbDictionary
281
     1
  3
ByBlock
350
3D
  3
ByLayer
350
35
  3
Global
350
A
  0
DICTIONARY
  5
50B
102
{ACAD_REACTORS
330
9
102
}
330
9
100
AcDbDictionary
281
     1
  3
Standard
350
50C
  0
DICTIONARY
  5
33
102
{ACAD_REACTORS
330
9
102
}
330
9
100
AcDbDictionary
281
     1
  3
Standard
350
55
  0
DICTIONARY
  5
34
102
{ACAD_REACTORS
330
9
102
}
330
9
100
AcDbDictionary
281
     1
  0
ACDBDICTIONARYWDFLT
  5
8
102
{ACAD_REACTORS
330
9
102
}
330
9
100
AcDbDictionary
281
     1
  3
Normal
350
7
100
AcDbDictionaryWithDefault
340
7
  0
DICTIONARY
  5
46
102
{ACAD_REACTORS
330
9
102
}
330
9
100
AcDbDictionary
281
     1
  3
A0
350
59
  3
A1
350
5A
  3
A2
350
5B
  3
A3
350
5C
  3
A4
350
5D
  3
A5
350
5E
  3
A6
350
5F
  3
A7
350
60
  3
A8
350
61
  3
A9
350
62
  3
B0
350
63
  3
B1
350
64
  3
B2
350
65
  3
B3
350
66
  3
B4
350
67
  3
B5
350
68
  3
B6
350
69
  3
B7
350
6A
  3
B8
350
6B
  3
B9
350
6C
  3
C0
350
6D
  3
C1
350
6E
  3
C2
350
6F
  3
C3
350
70
  3
C4
350
71
  3
C5
350
72
  3
C6
350
73
  3
C7
350
74
  3
C8
350
75
  3
C9
350
76
  3
D0
350
77
  3
D1
350
78
  3
D2
350
79
  0
DICTIONARY
  5
47
102
{ACAD_REACTORS
330
9
102
}
330
9
100
AcDbDictionary
281
     1
  3
Standard
350
56
  0
DICTIONARY
  5
2C
102
{ACAD_REACTORS
330
9
102
}
330
9
100
AcDbDictionary
281
     1
  3
2dWireframe
350
502
  3
3D Hidden
350
503
  3
3dWireframe
350
58
  3
Basic
350
501
  3
Brighten
350
506
  3
ColorChange
350
50A
  3
Conceptual
350
504
  3
Dim
350
505
  3
Facepattern
350
509
  3
Flat
350
4FE
  3
FlatWithEdges
350
4FF
  3
Gouraud
350
2B
  3
GouraudWithEdges
350
500
  3
Linepattern
350
508
  3
Realistic
350
57
  3
Thicken
350
507
  0
XRECORD
  5
4F7
102
{ACAD_REACTORS
330
9
102
}
330
9
100
AcDbXrecord
280
     1
 90
        1
330
56
  0
DICTIONARY
  5
4F8
102
{ACAD_REACTORS
330
9
102
}
330
9
100
AcDbDictionary
281
     1
  3
CANNOSCALE
350
4FB
  3
CMLEADERSTYLE
350
4FA
  3
CTABLESTYLE
350
4F9
  3
DIMASSOC
350
532
  3
HIDETEXT
350
531
  3
INDEXCTL
350
530
  3
LIGHTINGUNITS
350
4FC
  3
MSLTSCALE
350
52E
  3
SORTENTS
350
52F
  0
XRECORD
  5
10BD
102
{ACAD_REACTORS
330
9
102
}
330
9
100
AcDbXrecord
280
     1
  1
DWGPROPS COOKIE
  2

  3

  4

  6

  7

  8
W000135
  9

300
=
301
=
302
=
303
=
304
=
305
=
306
=
307
=
308
=
309
=
 40
1.92330298611111
 41
2451686.550481944
 42
2454985.59815125
  1

 90
        0
  0
DICTIONARY
  5
10BB
102
{ACAD_REACTORS
330
1F
102
}
330
1F
100
AcDbDictionary
281
     1
  0
DICTIONARY
  5
20
102
{ACAD_REACTORS
330
1F
102
}
330
1F
100
AcDbDictionary
281
     1
  0
DICTIONARY
  5
10BA
102
{ACAD_REACTORS
330
1F
102
}
330
1F
100
AcDbDictionary
281
     1
1001
ACAD
1000
<All
  0
XRECORD
  5
518
102
{ACAD_REACTORS
330
517
102
}
330
517
100
AcDbXrecord
280
     1
290
     1
  0
XRECORD
  5
51C
102
{ACAD_REACTORS
330
51B
102
}
330
51B
100
AcDbXrecord
280
     1
290
     1
  0
XRECORD
  5
4
102
{ACAD_REACTORS
330
3
102
}
330
3
100
AcDbXrecord
280
     1
340
2
  0
LAYOUT
  5
15
102
{ACAD_XDICTIONARY
360
10BE
102
}
102
{ACAD_REACTORS
330
16
102
}
330
16
100
AcDbPlotSettings
  1

  2
\\ENGC3\QUE_LP1
  4

  6

 40
0.0
 41
0.0
 42
0.0
 43
0.0
 44
0.0
 45
0.0
 46
0.0
 47
0.0
 48
0.0
 49
0.0
140
0.0
141
0.0
142
1.0
143
1.0
 70
  1712
 72
     0
 73
     0
 74
     0
  7

 75
     0
147
1.0
148
0.0
149
0.0
100
AcDbLayout
  1
Model
 70
     1
 71
     0
 10
0.0
 20
0.0
 11
12.0
 21
9.0
 12
0.0
 22
0.0
 32
0.0
 14
0.0
 24
0.0
 34
0.0
 15
0.0
 25
0.0
 35
0.0
146
0.0
 13
0.0
 23
0.0
 33
0.0
 16
1.0
 26
0.0
 36
0.0
 17
0.0
 27
1.0
 37
0.0
 76
     0
330
2
331
B16
  0
LAYOUT
  5
1A
102
{ACAD_XDICTIONARY
360
1B
102
}
102
{ACAD_REACTORS
330
16
102
}
330
16
100
AcDbPlotSettings
  1

  2
Microsoft XPS Document Writer
  4
A4
  6

 40
3.174999952316281
 41
3.174999952316281
 42
3.175003051757812
 43
3.17498779296875
 44
210.0156707763672
 45
297.0106506347656
 46
0.0
 47
0.0
 48
0.0
 49
0.0
140
0.0
141
0.0
142
1.0
143
1.0
 70
   688
 72
     1
 73
     1
 74
     5
  7

 75
    16
147
1.0
148
0.0
149
0.0
100
AcDbLayout
  1
レイアウト1
 70
     1
 71
     1
 10
0.0
 20
0.0
 11
12.0
 21
9.0
 12
0.0
 22
0.0
 32
0.0
 14
-887.1248540513086
 24
-844.2833045499742
 34
0.0
 15
1886.767282591478
 25
890.4223836455795
 35
0.0
146
0.0
 13
0.0
 23
0.0
 33
0.0
 16
1.0
 26
0.0
 36
0.0
 17
0.0
 27
1.0
 37
0.0
 76
     0
330
17
1001
ACAD_PSEXT
1000
Microsoft XPS Document Writer
1000
Microsoft XPS Document Writer
1000
XPSPort:
1000

1070
     0
  0
MATERIAL
  5
3D
102
{ACAD_XDICTIONARY
360
3E
102
}
102
{ACAD_REACTORS
330
B
102
}
330
B
100
AcDbMaterial
  1
ByBlock
 72
     0
 43
0.0008202099737533
 43
0.0
 43
0.0
 43
0.0
 43
0.0
 43
0.0008202099737533
 43
0.0
 43
0.0
 43
0.0
 43
0.0
 43
1.0
 43
0.0
 43
0.0
 43
0.0
 43
0.0
 43
1.0
 77
     0
 47
0.0008202099737533
 47
0.0
 47
0.0
 47
0.0
 47
0.0
 47
0.0008202099737533
 47
0.0
 47
0.0
 47
0.0
 47
0.0
 47
1.0
 47
0.0
 47
0.0
 47
0.0
 47
0.0
 47
1.0
171
     0
 49
0.0008202099737533
 49
0.0
 49
0.0
 49
0.0
 49
0.0
 49
0.0008202099737533
 49
0.0
 49
0.0
 49
0.0
 49
0.0
 49
1.0
 49
0.0
 49
0.0
 49
0.0
 49
0.0
 49
1.0
175
     0
142
0.0008202099737533
142
0.0
142
0.0
142
0.0
142
0.0
142
0.0008202099737533
142
0.0
142
0.0
142
0.0
142
0.0
142
1.0
142
0.0
142
0.0
142
0.0
142
0.0
142
1.0
179
     0
144
0.0008202099737533
144
0.0
144
0.0
144
0.0
144
0.0
144
0.0008202099737533
144
0.0
144
0.0
144
0.0
144
0.0
144
1.0
144
0.0
144
0.0
144
0.0
144
0.0
144
1.0
147
0.0008202099737533
147
0.0
147
0.0
147
0.0
147
0.0
147
0.0008202099737533
147
0.0
147
0.0
147
0.0
147
0.0
147
1.0
147
0.0
147
0.0
147
0.0
147
0.0
147
1.0
  0
MATERIAL
  5
35
102
{ACAD_XDICTIONARY
360
36
102
}
102
{ACAD_REACTORS
330
B
102
}
330
B
100
AcDbMaterial
  1
ByLayer
 72
     0
 43
0.0008202099737533
 43
0.0
 43
0.0
 43
0.0
 43
0.0
 43
0.0008202099737533
 43
0.0
 43
0.0
 43
0.0
 43
0.0
 43
1.0
 43
0.0
 43
0.0
 43
0.0
 43
0.0
 43
1.0
 77
     0
 47
0.0008202099737533
 47
0.0
 47
0.0
 47
0.0
 47
0.0
 47
0.0008202099737533
 47
0.0
 47
0.0
 47
0.0
 47
0.0
 47
1.0
 47
0.0
 47
0.0
 47
0.0
 47
0.0
 47
1.0
171
     0
 49
0.0008202099737533
 49
0.0
 49
0.0
 49
0.0
 49
0.0
 49
0.0008202099737533
 49
0.0
 49
0.0
 49
0.0
 49
0.0
 49
1.0
 49
0.0
 49
0.0
 49
0.0
 49
0.0
 49
1.0
175
     0
142
0.0008202099737533
142
0.0
142
0.0
142
0.0
142
0.0
142
0.0008202099737533
142
0.0
142
0.0
142
0.0
142
0.0
142
1.0
142
0.0
142
0.0
142
0.0
142
0.0
142
1.0
179
     0
144
0.0008202099737533
144
0.0
144
0.0
144
0.0
144
0.0
144
0.0008202099737533
144
0.0
144
0.0
144
0.0
144
0.0
144
1.0
144
0.0
144
0.0
144
0.0
144
0.0
144
1.0
147
0.0008202099737533
147
0.0
147
0.0
147
0.0
147
0.0
147
0.0008202099737533
147
0.0
147
0.0
147
0.0
147
0.0
147
1.0
147
0.0
147
0.0
147
0.0
147
0.0
147
1.0
  0
MATERIAL
  5
A
102
{ACAD_XDICTIONARY
360
C
102
}
102
{ACAD_REACTORS
330
B
102
}
330
B
100
AcDbMaterial
  1
Global
 72
     0
 43
0.0008202099737533
 43
0.0
 43
0.0
 43
0.0
 43
0.0
 43
0.0008202099737533
 43
0.0
 43
0.0
 43
0.0
 43
0.0
 43
1.0
 43
0.0
 43
0.0
 43
0.0
 43
0.0
 43
1.0
 77
     0
 47
0.0008202099737533
 47
0.0
 47
0.0
 47
0.0
 47
0.0
 47
0.0008202099737533
 47
0.0
 47
0.0
 47
0.0
 47
0.0
 47
1.0
 47
0.0
 47
0.0
 47
0.0
 47
0.0
 47
1.0
171
     0
 49
0.0008202099737533
 49
0.0
 49
0.0
 49
0.0
 49
0.0
 49
0.0008202099737533
 49
0.0
 49
0.0
 49
0.0
 49
0.0
 49
1.0
 49
0.0
 49
0.0
 49
0.0
 49
0.0
 49
1.0
175
     0
142
0.0008202099737533
142
0.0
142
0.0
142
0.0
142
0.0
142
0.0008202099737533
142
0.0
142
0.0
142
0.0
142
0.0
142
1.0
142
0.0
142
0.0
142
0.0
142
0.0
142
1.0
179
     0
144
0.0008202099737533
144
0.0
144
0.0
144
0.0
144
0.0
144
0.0008202099737533
144
0.0
144
0.0
144
0.0
144
0.0
144
1.0
144
0.0
144
0.0
144
0.0
144
0.0
144
1.0
147
0.0008202099737533
147
0.0
147
0.0
147
0.0
147
0.0
147
0.0008202099737533
147
0.0
147
0.0
147
0.0
147
0.0
147
1.0
147
0.0
147
0.0
147
0.0
147
0.0
147
1.0
  0
MLEADERSTYLE
  5
50C
102
{ACAD_REACTORS
330
50B
330
B1E
102
}
330
50B
100
AcDbMLeaderStyle
170
     2
171
     1
172
     0
 90
        2
 40
0.0
 41
0.0
173
     1
 91
-1056964608
340
25
 92
       -2
290
     1
 42
2.0
291
     1
 43
0.36
  3
Standard
 44
4.0
300

342
22
174
     1
178
     6
175
     1
176
     0
 93
-1056964608
 45
4.0
292
     0
297
     0
 46
4.0
 94
-1056964608
 47
1.0
 49
1.0
140
1.0
293
     1
141
0.0
294
     1
177
     0
142
1.0
295
     0
296
     0
143
0.125
1001
ACAD_MLEADERVER
1070
     2
  0
MLINESTYLE
  5
55
102
{ACAD_REACTORS
330
33
102
}
330
33
100
AcDbMlineStyle
  2
STANDARD
 70
     0
  3

 62
   256
 51
90.0
 52
90.0
 71
     2
 49
0.5
 62
   256
  6
BYLAYER
 49
-0.5
 62
   256
  6
BYLAYER
  0
ACDBPLACEHOLDER
  5
7
102
{ACAD_REACTORS
330
8
102
}
330
8
  0
SCALE
  5
59
102
{ACAD_REACTORS
330
46
102
}
330
46
100
AcDbScale
 70
     0
300
1:1
140
1.0
141
1.0
290
     1
  0
SCALE
  5
5A
102
{ACAD_REACTORS
330
46
102
}
330
46
100
AcDbScale
 70
     0
300
1:2
140
1.0
141
2.0
290
     0
  0
SCALE
  5
5B
102
{ACAD_REACTORS
330
46
102
}
330
46
100
AcDbScale
 70
     0
300
1:4
140
1.0
141
4.0
290
     0
  0
SCALE
  5
5C
102
{ACAD_REACTORS
330
46
102
}
330
46
100
AcDbScale
 70
     0
300
1:5
140
1.0
141
5.0
290
     0
  0
SCALE
  5
5D
102
{ACAD_REACTORS
330
46
102
}
330
46
100
AcDbScale
 70
     0
300
1:8
140
1.0
141
8.0
290
     0
  0
SCALE
  5
5E
102
{ACAD_REACTORS
330
46
102
}
330
46
100
AcDbScale
 70
     0
300
1:10
140
1.0
141
10.0
290
     0
  0
SCALE
  5
5F
102
{ACAD_REACTORS
330
46
102
}
330
46
100
AcDbScale
 70
     0
300
1:16
140
1.0
141
16.0
290
     0
  0
SCALE
  5
60
102
{ACAD_REACTORS
330
46
102
}
330
46
100
AcDbScale
 70
     0
300
1:20
140
1.0
141
20.0
290
     0
  0
SCALE
  5
61
102
{ACAD_REACTORS
330
46
102
}
330
46
100
AcDbScale
 70
     0
300
1:30
140
1.0
141
30.0
290
     0
  0
SCALE
  5
62
102
{ACAD_REACTORS
330
46
102
}
330
46
100
AcDbScale
 70
     0
300
1:40
140
1.0
141
40.0
290
     0
  0
SCALE
  5
63
102
{ACAD_REACTORS
330
46
102
}
330
46
100
AcDbScale
 70
     0
300
1:50
140
1.0
141
50.0
290
     0
  0
SCALE
  5
64
102
{ACAD_REACTORS
330
46
102
}
330
46
100
AcDbScale
 70
     0
300
1:100
140
1.0
141
100.0
290
     0
  0
SCALE
  5
65
102
{ACAD_REACTORS
330
46
102
}
330
46
100
AcDbScale
 70
     0
300
2:1
140
2.0
141
1.0
290
     0
  0
SCALE
  5
66
102
{ACAD_REACTORS
330
46
102
}
330
46
100
AcDbScale
 70
     0
300
4:1
140
4.0
141
1.0
290
     0
  0
SCALE
  5
67
102
{ACAD_REACTORS
330
46
102
}
330
46
100
AcDbScale
 70
     0
300
8:1
140
8.0
141
1.0
290
     0
  0
SCALE
  5
68
102
{ACAD_REACTORS
330
46
102
}
330
46
100
AcDbScale
 70
     0
300
10:1
140
10.0
141
1.0
290
     0
  0
SCALE
  5
69
102
{ACAD_REACTORS
330
46
102
}
330
46
100
AcDbScale
 70
     0
300
100:1
140
100.0
141
1.0
290
     0
  0
SCALE
  5
6A
102
{ACAD_REACTORS
330
46
102
}
330
46
100
AcDbScale
 70
     0
300
1/128" = 1'-0"
140
0.0078125
141
12.0
290
     0
  0
SCALE
  5
6B
102
{ACAD_REACTORS
330
46
102
}
330
46
100
AcDbScale
 70
     0
300
1/64" = 1'-0"
140
0.015625
141
12.0
290
     0
  0
SCALE
  5
6C
102
{ACAD_REACTORS
330
46
102
}
330
46
100
AcDbScale
 70
     0
300
1/32" = 1'-0"
140
0.03125
141
12.0
290
     0
  0
SCALE
  5
6D
102
{ACAD_REACTORS
330
46
102
}
330
46
100
AcDbScale
 70
     0
300
1/16" = 1'-0"
140
0.0625
141
12.0
290
     0
  0
SCALE
  5
6E
102
{ACAD_REACTORS
330
46
102
}
330
46
100
AcDbScale
 70
     0
300
3/32" = 1'-0"
140
0.09375
141
12.0
290
     0
  0
SCALE
  5
6F
102
{ACAD_REACTORS
330
46
102
}
330
46
100
AcDbScale
 70
     0
300
1/8" = 1'-0"
140
0.125
141
12.0
290
     0
  0
SCALE
  5
70
102
{ACAD_REACTORS
330
46
102
}
330
46
100
AcDbScale
 70
     0
300
3/16" = 1'-0"
140
0.1875
141
12.0
290
     0
  0
SCALE
  5
71
102
{ACAD_REACTORS
330
46
102
}
330
46
100
AcDbScale
 70
     0
300
1/4" = 1'-0"
140
0.25
141
12.0
290
     0
  0
SCALE
  5
72
102
{ACAD_REACTORS
330
46
102
}
330
46
100
AcDbScale
 70
     0
300
3/8" = 1'-0"
140
0.375
141
12.0
290
     0
  0
SCALE
  5
73
102
{ACAD_REACTORS
330
46
102
}
330
46
100
AcDbScale
 70
     0
300
1/2" = 1'-0"
140
0.5
141
12.0
290
     0
  0
SCALE
  5
74
102
{ACAD_REACTORS
330
46
102
}
330
46
100
AcDbScale
 70
     0
300
3/4" = 1'-0"
140
0.75
141
12.0
290
     0
  0
SCALE
  5
75
102
{ACAD_REACTORS
330
46
102
}
330
46
100
AcDbScale
 70
     0
300
1" = 1'-0"
140
1.0
141
12.0
290
     0
  0
SCALE
  5
76
102
{ACAD_REACTORS
330
46
102
}
330
46
100
AcDbScale
 70
     0
300
1-1/2" = 1'-0"
140
1.5
141
12.0
290
     0
  0
SCALE
  5
77
102
{ACAD_REACTORS
330
46
102
}
330
46
100
AcDbScale
 70
     0
300
3" = 1'-0"
140
3.0
141
12.0
290
     0
  0
SCALE
  5
78
102
{ACAD_REACTORS
330
46
102
}
330
46
100
AcDbScale
 70
     0
300
6" = 1'-0"
140
6.0
141
12.0
290
     0
  0
SCALE
  5
79
102
{ACAD_REACTORS
330
46
102
}
330
46
100
AcDbScale
 70
     0
300
1'-0" = 1'-0"
140
12.0
141
12.0
290
     0
  0
TABLESTYLE
  5
56
102
{ACAD_XDICTIONARY
360
4F5
102
}
102
{ACAD_REACTORS
330
47
102
}
330
47
100
AcDbTableStyle
  3
Standard
 70
     0
 71
     0
 40
1.5
 41
1.5
280
     0
281
     0
  7
Standard
140
4.5
170
     2
 62
     0
 63
     7
283
     0
274
    -2
284
     1
 64
     0
275
    -2
285
     1
 65
     0
276
    -2
286
     1
 66
     0
277
    -2
287
     1
 67
     0
278
    -2
288
     1
 68
     0
279
    -2
289
     1
 69
     0
  7
Standard
140
6.0
170
     5
 62
     0
 63
     7
283
     0
274
    -2
284
     1
 64
     0
275
    -2
285
     1
 65
     0
276
    -2
286
     1
 66
     0
277
    -2
287
     1
 67
     0
278
    -2
288
     1
 68
     0
279
    -2
289
     1
 69
     0
  7
Standard
140
4.5
170
     5
 62
     0
 63
     7
283
     0
274
    -2
284
     1
 64
     0
275
    -2
285
     1
 65
     0
276
    -2
286
     1
 66
     0
277
    -2
287
     1
 67
     0
278
    -2
288
     1
 68
     0
279
    -2
289
     1
 69
     0
  0
VISUALSTYLE
  5
502
102
{ACAD_REACTORS
330
2C
102
}
330
2C
100
AcDbVisualStyle
  2
2dWireframe
 70
     4
 71
     0
 72
     2
 73
     0
 90
        0
 40
-0.6
 41
-30.0
 62
     5
 63
     7
 74
     1
 91
        4
 64
     7
 65
   257
 75
     1
175
     1
 42
1.0
 92
        0
 66
   257
 43
1.0
 76
     1
 77
     6
 78
     2
 67
     7
 79
     5
170
     0
171
     0
290
     0
174
     0
 93
        1
 44
0.0
173
     0
291
     0
 45
0.0
1001
ACAD
1000
AcDbSavedByObjectVersion
1070
     0
1000
AcDbSavedByObjectVersion
1070
     0
1000
AcDbSavedByObjectVersion
1070
     0
1000
AcDbSavedByObjectVersion
1070
     0
  0
VISUALSTYLE
  5
503
102
{ACAD_REACTORS
330
2C
102
}
330
2C
100
AcDbVisualStyle
  2
3D Hidden
 70
     6
 71
     1
 72
     2
 73
     2
 90
        0
 40
-0.6
 41
-30.0
 62
     5
 63
     7
 74
     2
 91
        2
 64
     7
 65
   257
 75
     2
175
     1
 42
40.0
 92
        0
 66
   257
 43
1.0
 76
     1
 77
     6
 78
     2
 67
     7
 79
     3
170
     0
171
     0
290
     0
174
     0
 93
        1
 44
0.0
173
     0
291
     0
 45
0.0
1001
ACAD
1000
AcDbSavedByObjectVersion
1070
     0
1000
AcDbSavedByObjectVersion
1070
     0
1000
AcDbSavedByObjectVersion
1070
     0
1000
AcDbSavedByObjectVersion
1070
     0
  0
VISUALSTYLE
  5
58
102
{ACAD_REACTORS
330
2C
102
}
330
2C
100
AcDbVisualStyle
  2
3dWireframe
 70
     5
 71
     0
 72
     2
 73
     0
 90
        0
 40
-0.6
 41
-30.0
 62
     5
 63
     7
 74
     1
 91
        4
 64
     7
 65
   257
 75
     1
175
     1
 42
1.0
 92
        0
 66
   257
 43
1.0
 76
     1
 77
     6
 78
     2
 67
     7
 79
     5
170
     0
171
     0
290
     0
174
     0
 93
        1
 44
0.0
173
     0
291
     0
 45
0.0
1001
ACAD
1000
AcDbSavedByObjectVersion
1070
     0
1000
AcDbSavedByObjectVersion
1070
     0
1000
AcDbSavedByObjectVersion
1070
     0
1000
AcDbSavedByObjectVersion
1070
     0
  0
VISUALSTYLE
  5
501
102
{ACAD_REACTORS
330
2C
102
}
330
2C
100
AcDbVisualStyle
  2
Basic
 70
     7
 71
     1
 72
     0
 73
     1
 90
        0
 40
-0.6
 41
-30.0
 62
     5
 63
     7
 74
     0
 91
        4
 64
     7
 65
   257
 75
     1
175
     1
 42
1.0
 92
        8
 66
     7
 43
1.0
 76
     1
 77
     6
 78
     2
 67
     7
 79
     5
170
     0
171
     0
290
     0
174
     0
 93
        1
 44
0.0
173
     0
291
     1
 45
0.0
1001
ACAD
1000
AcDbSavedByObjectVersion
1070
     0
1000
AcDbSavedByObjectVersion
1070
     0
1000
AcDbSavedByObjectVersion
1070
     0
1000
AcDbSavedByObjectVersion
1070
     0
  0
VISUALSTYLE
  5
506
102
{ACAD_REACTORS
330
2C
102
}
330
2C
100
AcDbVisualStyle
  2
Brighten
 70
    12
 71
     2
 72
     2
 73
     0
 90
        0
 40
-0.6
 41
-30.0
 62
     5
 63
     7
 74
     1
 91
        4
 64
     7
 65
   257
 75
     1
175
     1
 42
1.0
 92
        8
 66
     7
 43
1.0
 76
     1
 77
     6
 78
     2
 67
     7
 79
     5
170
     0
171
     0
290
     0
174
     0
 93
        1
 44
50.0
173
     0
291
     1
 45
0.0
1001
ACAD
1000
AcDbSavedByObjectVersion
1070
     0
1000
AcDbSavedByObjectVersion
1070
     0
1000
AcDbSavedByObjectVersion
1070
     0
1000
AcDbSavedByObjectVersion
1070
     0
  0
VISUALSTYLE
  5
50A
102
{ACAD_REACTORS
330
2C
102
}
330
2C
100
AcDbVisualStyle
  2
ColorChange
 70
    16
 71
     2
 72
     2
 73
     3
 90
        0
 40
-0.6
 41
-30.0
 62
     5
 63
     8
 74
     1
 91
        4
 64
     7
 65
   257
 75
     1
175
     1
 42
1.0
 92
        8
 66
     8
 43
1.0
 76
     1
 77
     6
 78
     2
 67
     7
 79
     5
170
     0
171
     0
290
     0
174
     0
 93
        1
 44
0.0
173
     0
291
     1
 45
0.0
1001
ACAD
1000
AcDbSavedByObjectVersion
1070
     0
1000
AcDbSavedByObjectVersion
1070
     0
1000
AcDbSavedByObjectVersion
1070
     0
1000
AcDbSavedByObjectVersion
1070
     0
  0
VISUALSTYLE
  5
504
102
{ACAD_REACTORS
330
2C
102
}
330
2C
100
AcDbVisualStyle
  2
Conceptual
 70
     9
 71
     3
 72
     2
 73
     0
 90
        0
 40
-0.6
 41
-30.0
 62
     5
 63
     7
 74
     2
 91
        2
 64
     7
 65
   257
 75
     1
175
     1
 42
40.0
 92
        8
 66
     7
 43
1.0
 76
     1
 77
     6
 78
     2
 67
     7
 79
     3
170
     0
171
     0
290
     0
174
     0
 93
        1
 44
0.0
173
     0
291
     0
 45
0.0
1001
ACAD
1000
AcDbSavedByObjectVersion
1070
     0
1000
AcDbSavedByObjectVersion
1070
     0
1000
AcDbSavedByObjectVersion
1070
     0
1000
AcDbSavedByObjectVersion
1070
     0
  0
VISUALSTYLE
  5
505
102
{ACAD_REACTORS
330
2C
102
}
330
2C
100
AcDbVisualStyle
  2
Dim
 70
    11
 71
     2
 72
     2
 73
     0
 90
        0
 40
-0.6
 41
-30.0
 62
     5
 63
     7
 74
     1
 91
        4
 64
     7
 65
   257
 75
     1
175
     1
 42
1.0
 92
        8
 66
     7
 43
1.0
 76
     1
 77
     6
 78
     2
 67
     7
 79
     5
170
     0
171
     0
290
     0
174
     0
 93
        1
 44
-50.0
173
     0
291
     1
 45
0.0
1001
ACAD
1000
AcDbSavedByObjectVersion
1070
     0
1000
AcDbSavedByObjectVersion
1070
     0
1000
AcDbSavedByObjectVersion
1070
     0
1000
AcDbSavedByObjectVersion
1070
     0
  0
VISUALSTYLE
  5
509
102
{ACAD_REACTORS
330
2C
102
}
330
2C
100
AcDbVisualStyle
  2
Facepattern
 70
    15
 71
     2
 72
     2
 73
     0
 90
        0
 40
-0.6
 41
-30.0
 62
     5
 63
     7
 74
     1
 91
        4
 64
     7
 65
   257
 75
     1
175
     1
 42
1.0
 92
        8
 66
     7
 43
1.0
 76
     1
 77
     6
 78
     2
 67
     7
 79
     5
170
     0
171
     0
290
     0
174
     0
 93
        1
 44
0.0
173
     0
291
     1
 45
0.0
1001
ACAD
1000
AcDbSavedByObjectVersion
1070
     0
1000
AcDbSavedByObjectVersion
1070
     0
1000
AcDbSavedByObjectVersion
1070
     0
1000
AcDbSavedByObjectVersion
1070
     0
  0
VISUALSTYLE
  5
4FE
102
{ACAD_REACTORS
330
2C
102
}
330
2C
100
AcDbVisualStyle
  2
Flat
 70
     0
 71
     2
 72
     1
 73
     1
 90
        2
 40
-0.6
 41
30.0
 62
     5
 63
     7
 74
     0
 91
        4
 64
     7
 65
   257
 75
     1
175
     1
 42
1.0
 92
        8
 66
     7
 43
1.0
 76
     1
 77
     6
 78
     2
 67
     7
 79
     5
170
     0
171
     0
290
     0
174
     0
 93
       13
 44
0.0
173
     0
291
     1
 45
0.0
1001
ACAD
1000
AcDbSavedByObjectVersion
1070
     0
1000
AcDbSavedByObjectVersion
1070
     0
1000
AcDbSavedByObjectVersion
1070
     0
1000
AcDbSavedByObjectVersion
1070
     0
  0
VISUALSTYLE
  5
4FF
102
{ACAD_REACTORS
330
2C
102
}
330
2C
100
AcDbVisualStyle
  2
FlatWithEdges
 70
     1
 71
     2
 72
     1
 73
     1
 90
        2
 40
-0.6
 41
30.0
 62
     5
 63
     7
 74
     1
 91
        4
 64
     7
 65
   257
 75
     1
175
     1
 42
1.0
 92
        0
 66
   257
 43
1.0
 76
     1
 77
     6
 78
     2
 67
     7
 79
     5
170
     0
171
     0
290
     0
174
     0
 93
       13
 44
0.0
173
     0
291
     1
 45
0.0
1001
ACAD
1000
AcDbSavedByObjectVersion
1070
     0
1000
AcDbSavedByObjectVersion
1070
     0
1000
AcDbSavedByObjectVersion
1070
     0
1000
AcDbSavedByObjectVersion
1070
     0
  0
VISUALSTYLE
  5
2B
102
{ACAD_REACTORS
330
2C
102
}
330
2C
100
AcDbVisualStyle
  2
Gouraud
 70
     2
 71
     2
 72
     2
 73
     1
 90
        2
 40
-0.6
 41
30.0
 62
     5
 63
     7
 74
     0
 91
        4
 64
     7
 65
   257
 75
     1
175
     1
 42
1.0
 92
        0
 66
     7
 43
1.0
 76
     1
 77
     6
 78
     2
 67
     7
 79
     5
170
     0
171
     0
290
     0
174
     0
 93
       13
 44
0.0
173
     0
291
     1
 45
0.0
1001
ACAD
1000
AcDbSavedByObjectVersion
1070
     0
1000
AcDbSavedByObjectVersion
1070
     0
1000
AcDbSavedByObjectVersion
1070
     0
1000
AcDbSavedByObjectVersion
1070
     0
  0
VISUALSTYLE
  5
500
102
{ACAD_REACTORS
330
2C
102
}
330
2C
100
AcDbVisualStyle
  2
GouraudWithEdges
 70
     3
 71
     2
 72
     2
 73
     1
 90
        2
 40
-0.6
 41
30.0
 62
     5
 63
     7
 74
     1
 91
        4
 64
     7
 65
   257
 75
     1
175
     1
 42
1.0
 92
        0
 66
   257
 43
1.0
 76
     1
 77
     6
 78
     2
 67
     7
 79
     5
170
     0
171
     0
290
     0
174
     0
 93
       13
 44
0.0
173
     0
291
     1
 45
0.0
1001
ACAD
1000
AcDbSavedByObjectVersion
1070
     0
1000
AcDbSavedByObjectVersion
1070
     0
1000
AcDbSavedByObjectVersion
1070
     0
1000
AcDbSavedByObjectVersion
1070
     0
  0
VISUALSTYLE
  5
508
102
{ACAD_REACTORS
330
2C
102
}
330
2C
100
AcDbVisualStyle
  2
Linepattern
 70
    14
 71
     2
 72
     2
 73
     0
 90
        0
 40
-0.6
 41
-30.0
 62
     5
 63
     7
 74
     1
 91
        4
 64
     7
 65
   257
 75
     7
175
     7
 42
1.0
 92
        8
 66
     7
 43
1.0
 76
     1
 77
     6
 78
     2
 67
     7
 79
     5
170
     0
171
     0
290
     0
174
     0
 93
        1
 44
0.0
173
     0
291
     1
 45
0.0
1001
ACAD
1000
AcDbSavedByObjectVersion
1070
     0
1000
AcDbSavedByObjectVersion
1070
     0
1000
AcDbSavedByObjectVersion
1070
     0
1000
AcDbSavedByObjectVersion
1070
     0
  0
VISUALSTYLE
  5
57
102
{ACAD_REACTORS
330
2C
102
}
330
2C
100
AcDbVisualStyle
  2
Realistic
 70
     8
 71
     2
 72
     2
 73
     0
 90
        0
 40
-0.6
 41
-30.0
 62
     5
 63
     7
 74
     1
 91
        0
 64
     7
 65
   257
 75
     1
175
     1
 42
1.0
 92
        8
 66
     8
 43
1.0
 76
     1
 77
     6
 78
     2
 67
     7
 79
     5
170
     0
171
     0
290
     0
174
     0
 93
       13
 44
0.0
173
     0
291
     0
 45
0.0
1001
ACAD
1000
AcDbSavedByObjectVersion
1070
     0
1000
AcDbSavedByObjectVersion
1070
     0
1000
AcDbSavedByObjectVersion
1070
     0
1000
AcDbSavedByObjectVersion
1070
     0
  0
VISUALSTYLE
  5
507
102
{ACAD_REACTORS
330
2C
102
}
330
2C
100
AcDbVisualStyle
  2
Thicken
 70
    13
 71
     2
 72
     2
 73
     0
 90
        0
 40
-0.6
 41
-30.0
 62
     5
 63
     7
 74
     1
 91
        4
 64
     7
 65
   257
 75
     1
175
     1
 42
1.0
 92
       12
 66
     7
 43
1.0
 76
     1
 77
     6
 78
     2
 67
     7
 79
     5
170
     0
171
     0
290
     0
174
     0
 93
        1
 44
0.0
173
     0
291
     1
 45
0.0
1001
ACAD
1000
AcDbSavedByObjectVersion
1070
     0
1000
AcDbSavedByObjectVersion
1070
     0
1000
AcDbSavedByObjectVersion
1070
     0
1000
AcDbSavedByObjectVersion
1070
     0
  0
DICTIONARYVAR
  5
4FB
102
{ACAD_REACTORS
330
4F8
102
}
330
4F8
100
DictionaryVariables
280
     0
  1
1:1
  0
DICTIONARYVAR
  5
4FA
102
{ACAD_REACTORS
330
4F8
102
}
330
4F8
100
DictionaryVariables
280
     0
  1
STANDARD
  0
DICTIONARYVAR
  5
4F9
102
{ACAD_REACTORS
330
4F8
102
}
330
4F8
100
DictionaryVariables
280
     0
  1
STANDARD
  0
DICTIONARYVAR
  5
532
102
{ACAD_REACTORS
330
4F8
102
}
330
4F8
100
DictionaryVariables
280
     0
  1
1
  0
DICTIONARYVAR
  5
531
102
{ACAD_REACTORS
330
4F8
102
}
330
4F8
100
DictionaryVariables
280
     0
  1
1
  0
DICTIONARYVAR
  5
530
102
{ACAD_REACTORS
330
4F8
102
}
330
4F8
100
DictionaryVariables
280
     0
  1
0
  0
DICTIONARYVAR
  5
4FC
102
{ACAD_REACTORS
330
4F8
102
}
330
4F8
100
DictionaryVariables
280
     0
  1
0
  0
DICTIONARYVAR
  5
52E
102
{ACAD_REACTORS
330
4F8
102
}
330
4F8
100
DictionaryVariables
280
     0
  1
1
  0
DICTIONARYVAR
  5
52F
102
{ACAD_REACTORS
330
4F8
102
}
330
4F8
100
DictionaryVariables
280
     0
  1
127
  0
DICTIONARY
  5
10BE
330
15
100
AcDbDictionary
280
     1
281
     1
  3
ACAD_XREC_ROUNDTRIP
360
10BF
  0
DICTIONARY
  5
1B
330
1A
100
AcDbDictionary
280
     1
281
     1
  3
ACAD_XREC_ROUNDTRIP
360
10C0
  3
ADSK_XREC_LAYOUTTHUMBNAIL
360
1C
  0
DICTIONARY
  5
3E
330
3D
100
AcDbDictionary
280
     1
281
     1
  3
ACAD_XREC_ROUNDTRIP
360
549
  3
BUMPTILE
360
3F
  3
DIFFUSETILE
360
40
  3
OPACITYTILE
360
41
  3
REFLECTIONTILE
360
42
  3
REFRACTIONTILE
360
43
  3
SPECULARTILE
360
44
  0
DICTIONARY
  5
36
330
35
100
AcDbDictionary
280
     1
281
     1
  3
ACAD_XREC_ROUNDTRIP
360
548
  3
BUMPTILE
360
37
  3
DIFFUSETILE
360
38
  3
OPACITYTILE
360
39
  3
REFLECTIONTILE
360
3A
  3
REFRACTIONTILE
360
3B
  3
SPECULARTILE
360
3C
  0
DICTIONARY
  5
C
330
A
100
AcDbDictionary
280
     1
281
     1
  3
ACAD_XREC_ROUNDTRIP
360
544
  3
BUMPTILE
360
D
  3
DIFFUSETILE
360
E
  3
OPACITYTILE
360
F
  3
REFLECTIONTILE
360
10
  3
REFRACTIONTILE
360
11
  3
SPECULARTILE
360
12
  0
DICTIONARY
  5
4F5
330
56
100
AcDbDictionary
280
     1
281
     1
  3
ACAD_ROUNDTRIP_2008_TABLESTYLE_CELLSTYLEMAP
360
10BC
  3
ACAD_XREC_ROUNDTRIP
360
10C1
  0
XRECORD
  5
10BF
102
{ACAD_REACTORS
330
10BE
102
}
330
10BE
100
AcDbXrecord
280
     1
102
SHADEPLOT
 70
     0
102
SHADEPLOTRESLEVEL
 70
     2
102
SHADEPLOTCUSTOMDPI
 70
   300
  0
XRECORD
  5
10C0
102
{ACAD_REACTORS
330
1B
102
}
330
1B
100
AcDbXrecord
280
     1
102
SHADEPLOT
 70
     0
102
SHADEPLOTRESLEVEL
 70
     2
102
SHADEPLOTCUSTOMDPI
 70
   300
  0
XRECORD
  5
1C
102
{ACAD_REACTORS
330
1B
102
}
330
1B
100
AcDbXrecord
280
     1
310
28000000B4000000870000000100080000000000EC5E0000000000000000000000010000000000000000000000000000FFFFFF000000000000000000000000000000000000000000000000000000000000000000330000006600000099000000CC000000FF00000000330000333300006633000099330000CC330000FF3300
310
0000660000336600006666000099660000CC660000FF66000000990000339900006699000099990000CC990000FF99000000CC000033CC000066CC000099CC0000CCCC0000FFCC000000FF000033FF000066FF000099FF0000CCFF0000FFFF000000003300330033006600330099003300CC003300FF003300003333003333
310
33006633330099333300CC333300FF33330000663300336633006666330099663300CC663300FF66330000993300339933006699330099993300CC993300FF99330000CC330033CC330066CC330099CC3300CCCC3300FFCC330000FF330033FF330066FF330099FF3300CCFF3300FFFF330000006600330066006600660099
310
006600CC006600FF00660000336600333366006633660099336600CC336600FF33660000666600336666006666660099666600CC666600FF66660000996600339966006699660099996600CC996600FF99660000CC660033CC660066CC660099CC6600CCCC6600FFCC660000FF660033FF660066FF660099FF6600CCFF6600
310
FFFF660000009900330099006600990099009900CC009900FF00990000339900333399006633990099339900CC339900FF33990000669900336699006666990099669900CC669900FF66990000999900339999006699990099999900CC999900FF99990000CC990033CC990066CC990099CC9900CCCC9900FFCC990000FF99
310
0033FF990066FF990099FF9900CCFF9900FFFF99000000CC003300CC006600CC009900CC00CC00CC00FF00CC000033CC003333CC006633CC009933CC00CC33CC00FF33CC000066CC003366CC006666CC009966CC00CC66CC00FF66CC000099CC003399CC006699CC009999CC00CC99CC00FF99CC0000CCCC0033CCCC0066CC
310
CC0099CCCC00CCCCCC00FFCCCC0000FFCC0033FFCC0066FFCC0099FFCC00CCFFCC00FFFFCC000000FF003300FF006600FF009900FF00CC00FF00FF00FF000033FF003333FF006633FF009933FF00CC33FF00FF33FF000066FF003366FF006666FF009966FF00CC66FF00FF66FF000099FF003399FF006699FF009999FF00CC
310
99FF00FF99FF0000CCFF0033CCFF0066CCFF0099CCFF00CCCCFF00FFCCFF0000FFFF0033FFFF0066FFFF0099FFFF00CCFFFF00FFFFFF00000000000D0D0D001A1A1A00282828003535350043434300505050005D5D5D006B6B6B00787878008686860093939300A1A1A100AEAEAE00BBBBBB00C9C9C900D6D6D600E4E4E400
310
F1F1F100FFFFFF0000000000000000000000000000000000000000000000000000000000000000000000000000000000E2E2E2E2E2E2E2E2E2E2E2E2E2E2E2E2E2E2E2E2E2E2E2E2E2E2E2E2E2E2E2E2E2E2E2E2E2E2E2E2E2E2E2E2E2E2E2E2E2E2E2E2E2E2E2E2E2E2E2E2E2E2E2E2E2E2E2E2E2E2E2E2E2E2E2E2E2E2E2
310
E2E2E2E2E2E2E2E2E2E2E2E2E2E2E2E2E2E2E2E2E2E2E2E2E2E2E2E2E2E2E2E2E2E2E2E2E2E2E2E2E2E2E2E2E2E2E2E2E2E2E2E2E2E2E2E2E2E2E2E2E2E2E2E2E2E2E2E2E2E2E2E2E2E2E2E2E2E2E2E2E2E2E2E2E2E2E2E2E2E2E2E2E2E2E2E2E2E2E2E2E2E2E2E2E2E2E2E2E2E2E2E2E2E2E2E2E2E2E2E2E2E2E2E2E2E2E2
310
E2E2E2E2E2E2E2E2E2E2E2E2E2E2E2E2E2E2E2E2E2E2E2E2E2E2E2E2E2E2E2E2E2E2E2E2E2E2E2E2E2E2E2E2E2E2E2E2E2E2E2E2E2E2E2E2E2E2E2E2E2E2E2E2E2E2E2E2E2E2E2E2E2E2E2E2E2E2E2E2E2E2E2E2E2E2E2E2E2E2E2E2E2E2E2E2E2E2E2E2E2E2E2E2E2E2E2E2E2E2E2E2E2E2E2E2E2E2E2E2E2E2E2E2E2E2E2
310
E2E2E2E2E2E2E2E2E2E2E2E2E2E2E2E2E2E2E2E2E2E2E2E2E2E2E2E2E2E2E2E2E2E2E2E2E2E2E2E2E2E2E2E2E2E2E2E2E2E2E2E2E2E2E2E2E2E2E2E2E2E2E2E2E2E2E2E2E2E2E2E2E2E2E2E2E2E2E2E2E2E2E2E2E2E2E2E2E2E2E2E2E2E2E2E2E2E2E2E2E2E2E2E2E2E2E2E2E2E2E2E2E2E2E2E2E2E2E2E2E2E2E2E2E2E2E2
310
E2E2E2E2E2E2E2E2E2E2E2E2E2E2E2E2E2E2E2E2E2E2E2E2E2E2E2E2E2E2E2E2E2E2E2E2E2E2E2E2E2E2E2E2E2E2E2E2E2E2E2E2E2E2E2E2E2E2E2E2E2E2E2E2E2E2E2E2E2E2E2E2E2E2E2E2E2E2E2E2E2E2E2E2E2E2E2E2E2E2E2E2E2E2E2E2E2E2E2E2E2E2E2E2E2E2E2E2E2E2E2E2E2E2E2E2E2E2E2E2E2E2E2E2E2E2E2
310
E2E2E2E2E2E2E2E2E2E2E2E2E2E2E2E2E2E2E2E2E2E2E2E2E2E2E2E2E2E2E2E2E2E2E2E2E2E2E2E2E2E2E2E2E2E2E2E2E2E2E2E2E2E2E2E2E2E2E2E2E2E2E2E2E2E2E2E2E2E2E2E2E2E2E2E2E2E2E2E2E2E2E2E2E2E2E2E2E2E2E2E2E2E2E2E2E2E2E2E2E2E2E2E2E2E2E2E2E2E2E2E2E2E2E2E2E2E2E2E2E2E2E2E2E2E2E2
310
E2E2E2E2E2E2E2E2E2E2E2E2E2E2E2E2E2E2E2E2E2E2E2E2E2E2E2E2E2E2E2E2E2E2E2E2E2E2E2E2E2E2E2E2E2E2E2E2E2E2E2E2E2E2E2E2E2E2E2E2E2E2E2E2E2E2E2E2E2E2E2E2E2E2E2E2E2E2E2E2E2E2E2E2E2E2E2E2E2E2E2E2E2E2E2E2E2E2E2E2E2E2E2E2E2E2E2E2E2E2E2E2E2E2E2E2E2E2E2E2E2E2E2E2E2E2E2
310
E2E2E2E2E2E2E2E2E2E2E2E2E2E2E2E2E2E2E2E2E2E2E2E2E2E2E2E2E2E2E2E2E2E2E2E2E2E2E2E2E2E2E2E2E2E2E2E2E2E2E2E2E2E2E2E2E2E2E2E2E2E2E2E2E2E2E2E2E2E2E2E2E2E2E2E2E2E2E2E2E2E2E2E2E2E2E2E2E2E2E2E2E2E2E2E2E2E2E2E2E2E2E2E2E2E2E2E2E2E2E2E2E2E2E2E2E2E2E2E2E2E2E2E2E2E2E2
310
E2E2E2E2E2E2E2E2E2E2E2E2E2E2E2E2E2E2E2E2E2E2E2E2E2E2E2E2E2E2E2E2E2E2E2E2E2E2E2E2E2E2E2E2E2E2E2E2E2E2E2E2E2E2E2E2E2E2E2E2E2E2E2E2E2E2E2E2E2E2E2E2E2E2E2E2E2E2E2E2E2E2E2E2E2E2E2E2E2E2E2E2E2E2E2E2E2E2E2E2E2E2E2E2E2E2E2E2E2E2E2E2E2E2E2E2E2E2E2E2E2E2E2E2E2E2E2
310
E2E2E2E2E2E2E2E2E2E2E2E2E2E2E2E2E2E2E2E2E2E2E2E2E2E2E2E2E2E2E2E2E2E2E2E2E2E2E2E2E2E2E2E2E2E2E2E2E2E2E2E2E2E2E2E2E2E2E2E2E2E2E2E2E2E2E2E2E2E2E2E2E2E2E2E2E2E2E2E2E2E2E2E2E2E2E2E2E2E2E2E2E2E2E2E2E2E2E2E2E2E2E2E2E2E2E2E2E2E2E2E2E2E2E2E2E2E2E2E2E2E2E2E2E2E2E2
310
E2E2E2E2E2E2E2E2E2E2E2E2E2E2E2E2E2E2E2E2E2E2E2E2E2E2E2E2E2E2E2E2E2E2E2E2E2E2E2E2E2E2E2E2E2E2E2E2E2E2E2E2E2E2E2E2E2E2E2E2E2E2E2E2E2E2E2E2E2E2E2E2E2E2E2E2E2E2E2E2E2E2E2E2E2E2E2E2E2E2E2E2E2E2E2E2E2E2E2E2E2E2E2E2E2E2E2E2E2E2E2E2E2E2E2E2E2E2E2E2E2E2E2E2E2E2E2
310
E2E2E2E2E2E2E2E2E2E2E2E2E2E2E2E2E2E2E2E2E2E2E2E2E2E2E2E2E2E2E2E2E2E2E2E2E2E2E2E2E2E2E2E2E2E2E2E2E2E2E2E2E2E2E2E2E2E2E2E2E2E2E2E2E2E2E2E2E2E2E2E2E2E2E2E2E2E2E2E2E2E2E2E2E2E2E2E2E2E2E2E2E2E2E2E2E2E2E2E2E2E2E2E2E2E2E2E2E2E2E2E2E2E2E2E2E2E2E2E2E2E2E2E2E2E2E2
310
E2E2E2E2E2E2E2E2E2E2E2E2E2E2E2E2E2E2E2E2E2E2E2E2E2E2E2E2E2E2E2E2E2E2E2E2E2E2E2E2E2E2E2E2E2E2E2E2E2E2E2E2E2E2E2E2E2E2E2E2E2E2E2E2E2E2E2E2E2E2E2E2E2E2E2E2E2E2E2E2E2E2E2E2E2E2E2E2E2E2E2E2E2E2E2E2E2E2E2E2E2E2E2E2E2E2E2E2E2E2E2E2E2E2E2E2E2E2E2E2E2E2E2E2E2E2E2
310
E2E2E2E2E2E2E2E2E2E2E2E2E2E2E2E2E2E2E2E2E2E2E2E2E2E2E2E2E2E2E2E2E2E2E2E2E2E2E2E2E2E2E2E2E2E2E2E2E2E2E2E2E2E2E2E2E2E2E2E2E2E2E2E2E2E2E2E2E2E2E2E2E2E2E2E2E2E2E2E2E2E2E2E2E2E2E2E2E2E2E2E2E2E2E2E2E2E2E2E2E2E2E2E2E2E2E2E2E2E2E2E2E2E2E2E2E2E2E2E2E2E2E2E2E2E2E2
310
E2E2E2E2E2E2E2E2E2E2E2E2E2E2E2E2E2E2E2E2E2E2E2E2E2E2E2E2E2E2E2E2E2E2E2E2E2E2E2E2E2E2E2E2E2E2E2E2E2E2E2E2E2E2E2E2E2E2E2E2E2E2E2E2E2E2E2E2E2E2E2E2E2E2E2E2E2E2E2E2E2E2E2E2E2E2E2E2E2E2E2E2E2E2E2E2E2E2E2E2E2E2E2E2E2E2E2E2E2E2E2E2E2E2E2E2E2E2E2E2E2E2E2E2E2E2E2
310
E2E2E2E2E2E2E2E2E2E2E2E2E2E2E2E2E2E2E2E2E2E2E2E2E2E2E2E2E2E2E2E2E2E2E2E2E2E2E2E2E2E2E2E2E2E2E2E2E2E2E2E2E2E2E2E2E2E2E2E2E2E2E2E2E2E2E2E2E2E2E2E2E2E2E2E2E2E2E2E2E2E2E2E2E2E2E2E2E2E2E2E2E2E2E2E2E2E2E2E2E2E2E2E2E2E2E2E2E2E2E2E2E2E2E2E2E2E2E2E2E2E2E2E2E2E2E2
310
E2E2E2E2E2E2E2E2E2E2E2E2E2E2E2E2E2E2E2E2E2E2E2E2E2E2E2E2E2E2E2E2E2E2E2E2E2E2E2E2E2E2E2E2E2E2E2E2E2E2E2E2E2E2E2E2E2E2E2E2E2E2E2E2E2E2E2E2E2E2E2E2E2E2E2E2E2E2E2E2E2E2E2E2E2E2E2E2E2E2E2E2E2E2E2E2E2E2E2E2E2E2E2E2E2E2E2E2E2E2E2E2E2E2E2E2E2E2E2E2E2E2E2E2E2E2E2
310
E2E2E2E2E2E2E2E2E2E2E2E2E2E2E2E2E2E2E2E2E2E2E2E2E2E2E2E2E2E2E2E2E2E2E2E2E2E2E2E2E2E2E2E2E2E2E2E2E2E2E2E2E2E2E2E2E2E2E2E2E2E2E2E2E2E2E2E2E2E2E2E2E2E2E2E2E2E2E2E2E2E2E2E2E2E2E2E2E2E2E2E2E2E2E2E2E2E2E2E2E2E2E2E2E2E2E2E2E2E2E2E2E2E2E2E2E2E2E2E2E2E2E2E2E2E2E2
310
E2E2E2E2E2E2E2E2E2E2E2E2E2E2E2E2E2E2E2E2E2E2E2E2E2E2E2E2E2E2E2E2E2E2E2E2E2E2E2E2E2E2E2E2E2E2E2E2E2E2E2E2E2E2E2E2E2E2E2E2E2E2E2E2E2E2E2E2E2E2E2E2E2E2E2E2E2E2E2E2E2E2E2E2E2E2E2E2E2E2E2E2E2E2E2E2E2E2E2E2E2E2E2E2E2E2E2E2E2E2E2E2E2E2E2E2E2E2E2E2E2E2E2E2E2E2E2
310
E2E2E2E2E2E2E2E2E2E2E2E2E2E2E2E2E2E2E2E2E2E2E2E2E2E2E2E2E2E2E2E2E2E2E2E2E2E2E2E2E2E2E2E2E2E2E2E2E2E2E2E2E2E2E2E2E2E2E2E2E2E2E2E2E2E2E2E2E2E2E2E2E2E2E2E2E2E2E2E2E2E2E2E2E2E2E2E2E2E2E2E2E2E2E2E2E2E2E2E2E2E2E2E2E2E2E2E2E2E2E2E2E2E2E2E2E2E2E2E2E2E2E2E2E2E2E2
310
E2E2E2E2E2E2E2E2E2E2E2E2E2E2E2E2E2E2E2E2E2E2E2E2E2E2E2E2E2E2E2E2E2E2E2E2E2E2E2E2E2E2E2E2E2E2E2E2E2E2E2E2E2E2E2E2E2E2E2E2E2E2E2E2E2E2E2E2E2E2E2E2E2E2E2E2E2E2E2E2E2E2E2E2E2E2E2E2E2E2E2E2E2E2E2E2E2E2E2E2E2E2E2E2E2E2E2E2E2E2E2E2E2E2E2E2E2E2E2E2E2E2E2E2E2E2E2
310
E2E2E2E2E2E2E2E2E2E2E2E2E2E2E2E2E2E2E2E2E2E2E2E2E2E2E2E2E2E2E2E2E2E2E2E2E2E2E2E2E2E2E2E2E2E2E2E2E2E2E2E2E2E2E2E2E2E2E2E2E2E2E2E2E2E2E2E2E2E2E2E2E2E2E2E2E2E2E2E2E2E2E2E2E2E2E2E2E2E2E2E2E2E2E2E2E2E2E2E2E2E2E2E2E2E2E2E2E2E2E2E2E2E2E2E2E2E2E2E2E2E2E2E2E2E2E2
310
E2E2E2E2E2E2E2E2E2E2E2E2E2E2E2E2E2E2E2E2E2E2E2E2E2E2E2E2E2E2E2E2E2E2E2E2E2E2E2E2E2E2E2E2E2E2E2E2E2E2E2E2E2E2E2E2E2E2E2E2E2E2E2E2E2E2E2E2E2E2E2E2E2E2E2E2E2E2E2E2E2E2E2E2E2E2E2E2E2E2E2E2E2E2E2E2E2E2E2E2E2E2E2E2E2E2E2E2E2E2E2E2E2E2E2E2E2E2E2E2E2E2E2E2E2E2E2
310
E2E2E2E2E2E2E2E2E2E2E2E2E2E2E2E2E2E2E2E2E2E2E2E2E2E2E2E2E2E2E2E2E2E2E2E2E2E2E2E2E2E2E2E2E2E2E2E2E2E2E2E2E2E2E2E2E2E2E2E2E2E2E2E2E2E2E2E2E2E2E2E2E2E2E2E2E2E2E2E2E2E2E2E2E2E2E2E2E2E2E2E2E2E2E2E2E2E2E2E2E2E2E2E2E2E2E2E2E2E2E2E2E2E2E2E2E2E2E2E2E2E2E2E2E2E2E2
310
E2E2E2E2E2E2E2E2E2E2E2E2E2E2E2E2E2E2E2E2E2E2E2E2E2E2E2E2E2E2E2E2E2E2E2E2E2E2E2E2E2E2E2E2E2E2E2E2E2E2E2E2E2E2E2E2E2E2E2E2E2E2E2E2E2E2E2E2E2E2E2E2E2E2E2E2E2E2E2E2E2E2E2E2E2E2E2E2E2E2E2E2E2E2E2E2E2E2E2E2E2E2E2E2E2E2E2E2E2E2E2E2E2E2E2E2E2E2E2E2E2E2E2E2E2E2E2
310
E2E2E2E2E2E2E2E2E2E2E2E2E2E2E2E2E2E2E2E2E2E2E2E2E2E2E2E2E2E2E2E2E2E2E2E2E2E2E2E2E2E2E2E2E2E2E2E2E2E2E2E2E2E2E2E2E2E2E2E2E2E2E2E2E2E2E2E2E2E2E2E2E2E2E2E2E2E2E2E2E2E2E2E2E2E2E2E2E2E2E2E2E2E2E2E2E2E2E2E2E2E2E2E2E2E2E2E2E2E2E2E2E2E2E2E2E2E2E2E2E2E2E2E2E2E2E2
310
E2E2E2E2E2E2E2E2E2E2E2E2E2E2E2E2E2E2E2E2E2E2E2E2E2E2E2E2E2E2E2E2E2E2E2E2E2E2E2E2E2E2E2E2E2E2E2E2E2E2E2E2E2E2E2E2E2E2E2E2E2E2E2E2E2E2E2E2E2E2E2E2E2E2E2E2E2E2E2E2E2E2E2E2E2E2E2E2E2E2E2E2E2E2E2E2E2E2E2E2E2E2E2E2E2E2E2E2E2E2E2E2E2E2E2E2E2E2E2E2E2E2E2E2E2E2E2
310
E2E2E2E2E2E2E2E2E2E2E2E2E2E2E2E2E2E2E2E2E2E2E2E2E2E2E2E2E2E2E2E2E2E2E2E2E2E2E2E2E2E2E2E2E2E2E2E2E2E2E2E2E2E2E2E2E2E2E2E2E2E2E2E2E2E2E2E2E2E2E2E2E2E2E2E2E2E2E2E2E2E2E2E2E2E2E2E2E2E2E2E2E2E2E2E2E2E2E2E2E2E2E2E2E2E2E2E2E2E2E2E2E2E2E2E2E2E2E2E2E2E2E2E2E2E2E2
310
E2E2E2E2E2E2E2E2E2E2E2E2E2E2E2E2E2E2E2E2E2E2E2E2E2E2E2E2E2E2E2E2E2E2E2E2E2E2E2E2E2E2E2E2E2E2E2E2E2E2E2E2E2E2E2E2E2E2E2E2E2E2E2E2E2E2E2E2E2E2E2E2E2E2E2E2E2E2E2E2E2E2E2E2E2E2E2E2E2E2E2E2E2E2E2E2E2E2E2E2E2E2E2E2E2E2E2E2E2E2E2E2E2E2E2E2E2E2E2E2E2E2E2E2E2E2E2
310
E2E2E2E2E2E2E2E2E2E2E2E2E2E2E2E2E2E2E2E2E2E2E2E2E2E2E2E2E2E2E2E2E2E2E2E2E2E2E2E2E2E2E2E2E2E2E2E2E2E2E2E2E2E2E2E2E2E2E2E2E2E2E2E2E2E2E2E2E2E2E2E2E2E2E2E2E2E2E2E2E2E2E2E2E2E2E2E2E2E2E2E2E2E2E2E2E2E2E2E2E2E2E2E2E2E2E2E2E2E2E2E2E2E2E2E2E2E2E2E2E2E2E2E2E2E2E2
310
E2E2E2E2E2E2E2E2E2E2E2E2E2E2E2E2E2E2E2E2E2E2E2E2E2E2E2E2E2E2E2E2E2E2E2E2E2E2E2E2E2E2E2E2E2E2E2E2E2E2E2E2E2E2E2E2E2E2E2E2E2E2E2E2E2E2E2E2E2E2E2E2E2E2E2E2E2E2E2E2E2E2E2E2E2E2E2E2E2E2E2E2E2E2E2E2E2E2E2E2E2E2E2E2E2E2E2E2E2E2E2E2E2E2E2E2E2E2E2E2E2E2E2E2E2E2E2
310
E2E2E2E2E2E2E2E2E2E2E2E2E2E2E2E2E2E2E2E2E2E2E2E2E2E2E2E2E2E2E2E2E2E2E2E2E2E2E2E2E2E2E2E2E2E2E2E2E2E2E2E2E2E2E2E2E2E2E2E2E2E2E2E2E2E2E2E2E2E2E2E2E2E2E2E2E2E2E2E2E2E2E2E2E2E2E2E2E2E2E2E2E2E2E2E2E2E2E2E2E2E2E2E2E2E2E2E2E2E2E2E2E2E2E2E2E2E2E2E2E2E2E2E2E2E2E2
310
E2E2E2E2E2E2E2E2E2E2E2E2E2E2E2E2E2E2E2E2E2E2E2E2E2E2E2E2E2E2E2E2E2E2E2E2E2E2E2E2E2E2E2E2E2E2E2E2E2E2E2E2E2E2E2E2E2E2E2E2E2E2E2E2E2E2E2E2E2E2E2E2E2E2E2E2E2E2E2E2E2E2E2E2E2E2E2E2E2E2E2E2E2E2E2E2E2E2E2E2E2E2E2E2E2E2E2E2E2E2E2E2E2E2E2E2E2E2E2E2E2E2E2E2E2E2E2
310
E2E2E2E2E2E2E2E2E2E2E2E2E2E2E2E2E2E2E2E2E2E2E2E2E2E2E2E2E2E2E2E2E2E2E2E2E2E2E2E2E2E2E2E2E2E2E2E2E2E2E2E2E2E2E2E2E2E2E2E2E2E2E2E2E2E2E2E2E2E2E2E2E2E2E2E2E2E2E2E2E2E2E2E2E2E2E2E2E2E2E2E2E2E2E2E2E2E2E2E2E2E2E2E2E2E2E2E2E2E2E2E2E2E2E2E2E2E2E2E2E2E2E2E2E2E2E2
310
E2E2E2E2E2E2E2E2E2E2E2E2E2E2E2E2E2E2E2E2E2E2E2E2E2E2E2E2E2E2E2E2E2E2E2E2E2E2E2E2E2E2E2E2E2E2E2E2E2E2E2E2E2E2E2E2E2E2E2E2E2E2E2E2E2E2E2E2E2E2E2E2E2E2E2E2E2E2E2E2E2E2E2E2E2E2E2E2E2E2E2E2E2E2E2E2E2E2E2E2E2E2E2E2E2E2E2E2E2E2E2E2E2E2E2E2E2E2E2E2E2E2E2E2E2E2E2
310
E2E2E2E2E2E2E2E2E2E2E2E2E2E2E2E2E2E2E2E2E2E2E2E2E2E2E2E2E2E2E2E2E2E2E2E2E2E2E2E2E2E2E2E2E2E2E2E2E2E2E2E2E2E2E2E2E2E2E2E2E2E2E2E2E2E2E2E2E2E2E2E2E2E2E2E2E2E2E2E2E2E2E2E2E2E2E2E2E2E2E2E2E2E2E2E2E2E2E2E2E2E2E2E2E2E2E2E2E2E2E2E2E2E2E2E2E2E2E2E2E2E2E2E2E2E2E2
310
E2E2E2E2E2E2E2E2E2E2E2E2E2E2E2E2E2E2E2E2E2E2E2E2E2E2E2E2E2E2E2E2E2E2E2E2E2E2E2E2E2E2E2E2E2E2E2E2E2E2E2E2E2E2E2E2E2E2E2E2E2E2E2E2E2E2E2E2E2E2E2E2E2E2E2E2E2E2E2E2E2E2E2E2E2E2E2E2E2E2E2E2E2E2E2E2E2E2E2E2E2E2E2E2E2E2E2E2E2E2E2E2E2E2E2E2E2E2E2E2E2E2E2E2E2E2E2
310
E2E2E2E2E2E2E2E2E2E2E2E2E2E2E2E2E2E2E2E2E2E2E2E2E2E2E2E2E2E2E2E2E2E2E2E2E2E2E2E2E2E2E2E2E2E2E2E2E2E2E2E2E2E2E2E2E2E2E2E2E2E2E2E2E2E2E2E2E2E2E2E2E2E2E2E2E2E2E2E2E2E2E2E2E2E2E2E2E2E2E2E2E2E2E2E2E2E2E2E2E2E2E2E2E2E2E2E2E2E2E2E2E2E2E2E2E2E2E2E2E2E2E2E2E2E2E2
310
E2E2E2E2E2E2E2E2E2E2E2E2E2E2E2E2E2E2E2E2E2E2E2E2E2E2E2E2E2E2E2E2E2E2E2E2E2E2E2E2E2E2E2E2E2E2E2E2E2E2E2E2E2E2E2E2E2E2E2E2E2E2E2E2E2E2E2E2E2E2E2E2E2E2E2E2E2E2E2E2E2E2E2E2E2E2E2E2E2E2E2E2E2E2E2E2E2E2E2E2E2E2E2E2E2E2E2E2E2E2E2E2E2E2E2E2E2E2E2E2E2E2E2E2E2E2E2
310
E2E2E2E2E2E2E2E2E2E2E2E2E2E2E2E2E2E2E2E2E2E2E2E2E2E2E2E2E2E2E2E2E2E2E2E2E2E2E2E2E2E2E2E2E2E2E2E2E2E2E2E2E2E2E2E2E2E2E2E2E2E2E2E2E2E2E2E2E2E2E2E2E2E2E2E2E2E2E2E2E2E2E2E2E2E2E2E2E2E2E2E2E2E2E2E2E2E2E2E2E2E2E2E2E2E2E2E2E2E2E2E2E2E2E2E2E2E2E2E2E2E2E2E2E2E2E2
310
E2E2E2E2E2E2E2E2E2E2E2E2E2E2E2E2E2E2E2E2E2E2E2E2E2E2E2E2E2E2E2E2E2E2E2E2E2E2E2E2E2E2E2E2E2E2E2E2E2E2E2E2E2E2E2E2E2E2E2E2E2E2E2E2E2E2E2E2E2E2E2E2E2E2E2E2E2E2E2E2E2E2E2E2E2E2E2E2E2E2E2E2E2E2E2E2E2E2E2E2E2E2E2E2E2E2E2E2E2E2E2E2E2E2E2E2E2E2E2E2E2E2E2E2E2E2E2
310
E2E2E2E2E2E2E2E2E2E2E2E2E2E2E2E2E2E2E2E2E2E2E2E2E2E2E2E2E2E2E2E2E2E2E2E2E2E2E2E2E2E2E2E2E2E2E2E2E2E2E2E2E2E2E2E2E2E2E2E2E2E2E2E2E2E2E2E2E2E2E2E2E2E2E2E2E2E2E2E2E2E2E2E2E2E2E2E2E2E2E2E2E2E2E2E2E2E2E2E2E2E2E2E2E2E2E2E2E2E2E2E2E2E2E2E2E2E2E2E2E2E2E2E2E2E2E2
310
E2E2E2E2E2E2E2E2E2E2E2E2E2E2E2E2E2E2E2E2E2E2E2E2E2E2E2E2E2E2E2E2E2E2E2E2E2E2E2E2E2E2E2E2E2E2E2E2E2E2E2E2E2E2E2E2E2E2E2E2E2E2E2E2E2E2E2E2E2E2E2E2E2E2E2E2E2E2E2E2E2E2E2E2E2E2E2E2E2E2E2E2E2E2E2E2E2E2E2E2E2E2E2E2E2E2E2E2E2E2E2E2E2E2E2E2E2E2E2E2E2E2E2E2E2E2E2
310
E2E2E2E2E2E2E2E2E2E2E2E2E2E2E2E2E2E2E2E2E2E2E2E2E2E2E2E2E2E2E2E2E2E2E2E2E2E2E2E2E2E2E2E2E2E2E2E2E2E2E2E2E2E2E2E2E2E2E2E2E2E2E2E2E2E2E2E2E2E2E2E2E2E2E2E2E2E2E2E2E2E2E2E2E2E2E2E2E2E2E2E2E2E2E2E2E2E2E2E2E2E2E2E2E2E2E2E2E2E2E2E2E2E2E2E2E2E2E2E2E2E2E2E2E2E2E2
310
E2E2E2E2E2E2E2E2E2E2E2E2E2E2E2E2E2E2E2E2E2E2E2E2E2E2E2E2E2E2E2E2E2E2E2E2E2E2E2E2E2E2E2E2E2E2E2E2E2E2E2E2E2E2E2E2E2E2E2E2E2E2E2E2E2E2E2E2E2E2E2E2E2E2E2E2E2E2E2E2E2E2E2E2E2E2E2E2E2E2E2E2E2E2E2E2E2E2E2E2E2E2E2E2E2E2E2E2E2E2E2E2E2E2E2E2E2E2E2E2E2E2E2E2E2E2E2
310
E2E2E2E2E2E2E2E2E2E2E2E2E2E2E2E2E2E2E2E2E2E2E2E2E2E2E2E2E2E2E2E2E2E2E2E2E2E2E2E2E2E2E2E2E2E2E2E2E2E2E2E2E2E2E2E2E2E2E2E2E2E2E2E2E2E2E2E2E2E2E2E2E2E2E2E2E2E2E2E2E2E2E2E2E2E2E2E2E2E2E2E2E2E2E2E2E2E2E2E2E2E2E2E2E2E2E2E2E2E2E2E2E2E2E2E2E2E2E2E2E2E2E2E2E2E2E2
310
E2E2E2E2E2E2E2E2E2E2E2E2E2E2E2E2E2E2E2E2E2E2E2E2E2E2E2E2E2E2E2E2E2E2E2E2E2E2E2E2E2E2E2E2E2E2E2E2E2E2E2E2E2E2E2E2E2E2E2E2E2E2E2E2E2E2E2E2E2E2E2E2E2E2E2E2E2E2E2E2E2E2E2E2E2E2E2E2E2E2E2E2E2E2E2E2E2E2E2E2E2E2E2E2E2E2E2E2E2E2E2E2E2E2E2E2E2E2E2E2E2E2E2E2E2E2E2
310
E2E2E2E2E2E2E2E2E2E2E2E2E2E2E2E2E2E2E2E2E2E2E2E2E2E2E2E2E2E2E2E2E2E2E2E2E2E2E2E2E2E2E2E2E2E2E2E2E2E2E2E2E2E2E2E2E2E2E2E2E2E2E2E2E2E2E2E2E2E2E2E2E2E2E2E2E2E2E2E2E2E2E2E2E2E2E2E2E2E2E2E2E2E2E2E2E2E2E2E2E2E2E2E2E2E2E2E2E2E2E2E2E2E2E2E2E2E2E2E2E2E2E2E2E2E2E2
310
E2E2E2E2E2E2E2E2E2E2E2E2E2E2E2E2E2E2E2E2E2E2E2E2E2E2E2E2E2E2E2E2E2E2E2E2E2E2E2E2E2E2E2E2E2E2E2E2E2E2E2E2E2E2E2E2E2E2E2E2E2E2E2E2E2E2E2E2E2E2E2E2E2E2E2E2E2E2E2E2E2E2E2E2E2E2E2E2E2E2E2E2E2E2E2E2E2E2E2E2E2E2E2E2E2E2E2E2E2E2E2E2E2E2E2E2E2E2E2E2E2E2E2E2E2E2E2
310
E2E2E2E2E2E2E2E2E2E2E2E2E2E2E2E2E2E2E2E2E2E2E2E2E2E2E2E2E2E2E2E2E2E2E2E2E2E2E2E2E2E2E2E2E2E2E2E2E2E2E2E2E2E2E2E2E2E2E2E2E2E2E2E2E2E2E2E2E2E2E2E2E2E2E2E2E2E2E2E2E2E2E2E2E2E2E2E2E2E2E2E2E2E2E2E2E2E2E2E2E2E2E2E2E2E2E2E2E2E2E2E2E2E2E2E2E2E2E2E2E2E2E2E2E2E2E2
310
E2E2E2E2E2E2E2E2E2E2E2E2E2E2E2E2E2E2E2E2E2E2E2E2E2E2E2E2E2E2E2E2E2E2E2E2E2E2E2E2E2E2E2E2E2E2E2E2E2E2E2E2E2E2E2E2E2E2E2E2E2E2E2E2E2E2E2E2E2E2E2E2E2E2E2E2E2E2E2E2E2E2E2E2E2E2E2E2E2E2E2E2E2E2E2E2E2E2E2E2E2E2E2E2E2E2E2E2E2E2E2E2E2E2E2E2E2E2E2E2E2E2E2E2E2E2E2
310
E2E2E2E2E2E2E2E2E2E2E2E2E2E2E2E2E2E2E2E2E2E2E2E2E2E2E2E2E2E2E2E2E2E2E2E2E2E2E2E2E2E2E2E2E2E2E2E2E2E2E2E2E2E2E2E2E2E2E2E2E2E2E2E2E2E2E2E2E2E2E2E2E2E2E2E2E2E2E2E2E2E2E2E2E2E2E2E2E2E2E2E2E2E2E2E2E2E2E2E2E2E2E2E2E2E2E2E2E2E2E2E2E2E2E2E2E2E2E2E2E2E2E2E2E2E2E2
310
E2E2E2E2E2E2E2E2E2E2E2E2E2E2E2E2E2E2E2E2E2E2E2E2E2E2E2E2E2E2E2E2E2E2E2E2E2E2E2E2E2E2E2E2E2E2E2E2E2E2E2E2E2E2E2E2E2E2E2E2E2E2E2E2E2E2E2E2E2E2E2E2E2E2E2E2E2E2E2E2E2E2E2E2E2E2E2E2E2E2E2E2E2E2E2E2E2E2E2E2E2E2E2E2E2E2E2E2E2E2E2E2E2E2E2E2E2E2E2E2E2E2E2E2E2E2E2
310
E2E2E2E2E2E2E2E2E2E2E2E2E2E2E2E2E2E2E2E2E2E2E2E2E2E2E2E2E2E2E2E2E2E2E2E2E2E2E2E2E2E2E2E2E2E2E2E2E2E2E2E2E2E2E2E2E2E2E2E2E2E2E2E2E2E2E2E2E2E2E2E2E2E2E2E2E2E2E2E2E2E2E2E2E2E2E2E2E2E2E2E2E2E2E2E2E2E2E2E2E2E2E2E2E2E2E2E2E2E2E2E2E2E2E2E2E2E2E2E2E2E2E2E2E2E2E2
310
E2E2E2E2E2E2E2E2E2E2E2E2E2E2E2E2E2E2E2E2E2E2E2E2E2E2E2E2E2E2E2E2E2E2E2E2E2E2E2E2E2E2E2E2E2E2E2E2E2E2E2E2E2E2E2E2E2E2E2E2E2E2E2E2E2E2E2E2E2E2E2E2E2E2E2E2E2E2E2E2E2E2E2E2E2E2E2E2E2E2E2E2E2E2E2E2E2E2E2E2E2E2E2E2E2E2E2E2E2E2E2E2E2E2E2E2E2E2E2E2E2E2E2E2E2E2E2
310
E2E2E2E2E2E2E2E2E2E2E2E2E2E2E2E2E2E2E2E2E2E2E2E2E2E2E2E2E2E2E2E2E2E2E2E2E2E2E2E2E2E2E2E2E2E2E2E2E2E2E2E2E2E2E2E2E2E2E2E2E2E2E2E2E2E2E2E2E2E2E2E2E2E2E2E2E2E2E2E2E2E2E2E2E2E2E2E2E2E2E2E2E2E2E2E2E2E2E2E2E2E2E2E2E2E2E2E2E2E2E2E2E2E2E2E2E2E2E2E2E2E2E2E2E2E2E2
310
E2E2E2E2E2E2E2E2E2E2E2E2E2E2E2E2E2E2E2E2E2E2E2E2E2E2E2E2E2E2E2E2E2E2E2E2E2E2E2E2E2E2E2E2E2E2E2E2E2E2E2E2E2E2E2E2E2E2E2E2E2E2E2E2E2E2E2E2E2E2E2E2E2E2E2E2E2E2E2E2E2E2E2E2E2E2E2E2E2E2E2E2E2E2E2E2E2E2E2E2E2E2E2E2E2E2E2E2E2E2E2E2E2E2E2E2E2E2E2E2E2E2E2E2E2E2E2
310
E2E2E2E2E2E2E2E2E2E2E2E2E2E2E2E2E2E2E2E2E2E2E2E2E2E2E2E2E2E2E2E2E2E2E2E2E2E2E2E2E2E2E2E2E2E2E2E2E2E2E2E2E2E2E2E2E2E2E2E2E2E2E2E2E2E2E2E2E2E2E2E2E2E2E2E2E2E2E2E2E2E2E2E2E2E2E2E2E2E2E2E2E2E2E2E2E2E2E2E2E2E2E2E2E2E2E2E2E2E2E2E2E2E2E2E2E2E2E2E2E2E2E2E2E2E2E2
310
E2E2E2E2E2E2E2E2E2E2E2E2E2E2E2E2E2E2E2E2E2E2E2E2E2E2E2E2E2E2E2E2E2E2E2E2E2E2E2E2E2E2E2E2E2E2E2E2E2E2E2E2E2E2E2E2E2E2E2E2E2E2E2E2E2E2E2E2E2E2E2E2E2E2E2E2E2E2E2E2E2E2E2E2E2E2E2E2E2E2E2E2E2E2E2E2E2E2E2E2E2E2E2E2E2E2E2E2E2E2E2E2E2E2E2E2E2E2E2E2E2E2E2E2E2E2E2
310
E2E2E2E2E2E2E2E2E2E2E2E2E2E2E2E2E2E2E2E2E2E2E2E2E2E2E2E2E2E2E2E2E2E2E2E2E2E2E2E2E2E2E2E2E2E2E2E2E2E2E2E2E2E2E2E2E2E2E2E2E2E2E2E2E2E2E2E2E2E2E2E2E2E2E2E2E2E2E2E2E2E2E2E2E2E2E2E2E2E2E2E2E2E2E2E2E2E2E2E2E2E2E2E2E2E2E2E2E2E2E2E2E2E2E2E2E2E2E2E2E2E2E2E2E2E2E2
310
E2E2E2E2E2E2E2E2E2E2E2E2E2E2E2E2E2E2E2E2E2E2E2E2E2E2E2E2E2E2E2E2E2E2E2E2E2E2E2E2E2E2E2E2E2E2E2E2E2E2E2E2E2E2E2E2E2E2E2E2E2E2E2E2E2E2E2E2E2E2E2E2E2E2E2E2E2E2E2E2E2E2E2E2E2E2E2E2E2E2E2E2E2E2E2E2E2E2E2E2E2E2E2E2E2E2E2E2E2E2E2E2E2E2E2E2E2E2E2E2E2E2E2E2E2E2E2
310
E2E2E2E2E2E2E2E2E2E2E2E2E2E2E2E2E2E2E2E2E2E2E2E2E2E2E2E2E2E2E2E2E2E2E2E2E2E2E2E2E2E2E2E2E2E2E2E2E2E2E2E2E2E2E2E2E2E2E2E2E2E2E2E2E2E2E2E2E2E2E2E2E2E2E2E2E2E2E2E2E2E2E2E2E2E2E2E2E2E2E2E2E2E2E2E2E2E2E2E2E2E2E2E2E2E2E2E2E2E2E2E2E2E2E2E2E2E2E2E2E2E2E2E2E2E2E2
310
E2E2E2E2E2E2E2E2E2E2E2E2E2E2E2E2E2E2E2E2E2E2E2E2E2E2E2E2E2E2E2E2E2E2E2E2E2E2E2E2E2E2E2E2E2E2E2E2E2E2E2E2E2E2E2E2E2E2E2E2E2E2E2E2E2E2E2E2E2E2E2E2E2E2E2E2E2E2E2E2E2E2E2E2E2E2E2E2E2E2E2E2E2E2E2E2E2E2E2E2E2E2E2E2E2E2E2E2E2E2E2E2E2E2E2E2E2E2E2E2E2E2E2E2E2E2E2
310
E2E2E2E2E2E2E2E2E2E2E2E2E2E2E2E2E2E2E2E2E2E2E2E2E2E2E2E2E2E2E2E2E2E2E2E2E2E2E2E2E2E2E2E2E2E2E2E2E2E2E2E2E2E2E2E2E2E2E2E2E2E2E2E2E2E2E2E2E2E2E2E2E2E2E2E2E2E2E2E2E2E2E2E2E2E2E2E2E2E2E2E2E2E2E2E2E2E2E2E2E2E2E2E2E2E2E2E2E2E2E2E2E2E2E2E2E2E2E2E2E2E2E2E2E2E2E2
310
E2E2E2E2E2E2E2E2E2E2E2E2E2E2E2E2E2E2E2E2E2E2E2E2E2E2E2E2E2E2E2E2E2E2E2E2E2E2E2E2E2E2E2E2E2E2E2E2E2E2E2E2E2E2E2E2E2E2E2E2E2E2E2E2E2E2E2E2E2E2E2E2E2E2E2E2E2E2E2E2E2E2E2E2E2E2E2E2E2E2E2E2E2E2E2E2E2E2E2E2E2E2E2E2E2E2E2E2E2E2E2E2E2E2E2E2E2E2E2E2E2E2E2E2E2E2E2
310
E2E2E2E2E2E2E2E2E2E2E2E2E2E2E2E2E2E2E2E2E2E2E2E2E2E2E2E2E2E2E2E2E2E2E2E2E2E2E2E2E2E2E2E2E2E2E2E2E2E2E2E2E2E2E2E2E2E2E2E2E2E2E2E2E2E2E2E2E2E2E2E2E2E2E2E2E2E2E2E2E2E2E2E2E2E2E2E2E2E2E2E2E2E2E2E2E2E2E2E2E2E2E2E2E2E2E2E2E2E2E2E2E2E2E2E2E2E2E2E2E2E2E2E2E2E2E2
310
E2E2E2E2E2E2E2E2E2E2E2E2E2E2E2E2E2E2E2E2E2E2E2E2E2E2E2E2E2E2E2E2E2E2E2E2E2E2E2E2E2E2E2E2E2E2E2E2E2E2E2E2E2E2E2E2E2E2E2E2E2E2E2E2E2E2E2E2E2E2E2E2E2E2E2E2E2E2E2E2E2E2E2E2E2E2E2E2E2E2E2E2E2E2E2E2E2E2E2E2E2E2E2E2E2E2E2E2E2E2E2E2E2E2E2E2E2E2E2E2E2E2E2E2E2E2E2
310
E2E2E2E2E2E2E2E2E2E2E2E2E2E2E2E2E2E2E2E2E2E2E2E2E2E2E2E2E2E2E2E2E2E2E2E2E2E2E2E2E2E2E2E2E2E2E2E2E2E2E2E2E2E2E2E2E2E2E2E2E2E2E2E2E2E2E2E2E2E2E2E2E2E2E2E2E2E2E2E2E2E2E2E2E2E2E2E2E2E2E2E2E2E2E2E2E2E2E2E2E2E2E2E2E2E2E2E2E2E2E2E2E2E2E2E2E2E2E2E2E2E2E2E2E2E2E2
310
E2E2E2E2E2E2E2E2E2E2E2E2E2E2E2E2E2E2E2E2E2E2E2E2E2E2E2E2E2E2E2E2E2E2E2E2E2E2E2E2E2E2E2E2E2E2E2E2E2E2E2E2E2E2E2E2E2E2E2E2E2E2E2E2E2E2E2E2E2E2E2E2E2E2E2E2E2E2E2E2E2E2E2E2E2E2E2E2E2E2E2E2E2E2E2E2E2E2E2E2E2E2E2E2E2E2E2E2E2E2E2E2E2E2E2E2E2E2E2E2E2E2E2E2E2E2E2
310
E2E2E2E2E2E2E2E2E2E2E2E2E2E2E2E2E2E2E2E2E2E2E2E2E2E2E2E2E2E2E2E2E2E2E2E2E2E2E2E2E2E2E2E2E2E2E2E2E2E2E2E2E2E2E2E2E2E2E2E2E2E2E2E2E2E2E2E2E2E2E2E2E2E2E2E2E2E2E2E2E2E2E2E2E2E2E2E2E2E2E2E2E2E2E2E2E2E2E2E2E2E2E2E2E2E2E2E2E2E2E2E2E2E2E2E2E2E2E2E2E2E2E2E2E2E2E2
310
E2E2E2E2E2E2E2E2E2E2E2E2E2E2E2E2E2E2E2E2E2E2E2E2E2E2E2E2E2E2E2E2E2E2E2E2E2E2E2E2E2E2E2E2E2E2E2E2E2E2E2E2E2E2E2E2E2E2E2E2E2E2E2E2E2E2E2E2E2E2E2E2E2E2E2E2E2E2E2E2E2E2E2E2E2E2E2E2E2E2E2E2E2E2E2E2E2E2E2E2E2E2E2E2E2E2E2E2E2E2E2E2E2E2E2E2E2E2E2E2E2E2E2E2E2E2E2
310
E2E2E2E2E2E2E2E2E2E2E2E2E2E2E2E2E2E2E2E2E2E2E2E2E2E2E2E2E2E2E2E2E2E2E2E2E2E2E2E2E2E2E2E2E2E2E2E2E2E2E2E2E2E2E2E2E2E2E2E2E2E2E2E2E2E2E2E2E2E2E2E2E2E2E2E2E2E2E2E2E2E2E2E2E2E2E2E2E2E2E2E2E2E2E2E2E2E2E2E2E2E2E2E2E2E2E2E2E2E2E2E2E2E2E2E2E2E2E2E2E2E2E2E2E2E2E2
310
E2E2E2E2E2E2E2E2E2E2E2E2E2E2E2E2E2E2E2E2E2E2E2E2E2E2E2E2E2E2E2E2E2E2E2E2E2E2E2E2E2E2E2E2E2E2E2E2E2E2E2E2E2E2E2E2E2E2E2E2E2E2E2E2E2E2E2E2E2E2E2E2E2E2E2E2E2E2E2E2E2E2E2E2E2E2E2E2E2E2E2E2E2E2E2E2E2E2E2E2E2E2E2E2E2E2E2E2E2E2E2E2E2E2E2E2E2E2E2E2E2E2E2E2E2E2E2
310
E2E2E2E2E2E2E2E2E2E2E2E2E2E2E2E2E2E2E2E2E2E2E2E2E2E2E2E2E2E2E2E2E2E2E2E2E2E2E2E2E2E2E2E2E2E2E2E2E2E2E2E2E2E2E2E2E2E2E2E2E2E2E2E2E2E2E2E2E2E2E2E2E2E2E2E2E2E2E2E2E2E2E2E2E2E2E2E2E2E2E2E2E2E2E2E2E2E2E2E2E2E2E2E2E2E2E2E2E2E2E2E2E2E2E2E2E2E2E2E2E2E2E2E2E2E2E2
310
E2E2E2E2E2E2E2E2E2E2E2E2E2E2E2E2E2E2E2E2E2E2E2E2E2E2E2E2E2E2E2E2E2E2E2E2E2E2E2E2E2E2E2E2E2E2E2E2E2E2E2E2E2E2E2E2E2E2E2E2E2E2E2E2E2E2E2E2E2E2E2E2E2E2E2E2E2E2E2E2E2E2E2E2E2E2E2E2E2E2E2E2E2E2E2E2E2E2E2E2E2E2E2E2E2E2E2E2E2E2E2E2E2E2E2E2E2E2E2E2E2E2E2E2E2E2E2
310
E2E2E2E2E2E2E2E2E2E2E2E2E2E2E2E2E2E2E2E2E2E2E2E2E2E2E2E2E2E2E2E2E2E2E2E2E2E2E2E2E2E2E2E2E2E2E2E2E2E2E2E2E2E2E2E2E2E2E2E2E2E2E2E2E2E2E2E2E2E2E2E2E2E2E2E2E2E2E2E2E2E2E2E2E2E2E2E2E2E2E2E2E2E2E2E2E2E2E2E2E2E2E2E2E2E2E2E2E2E2E2E2E2E2E2E2E2E2E2E2E2E2E2E2E2E2E2
310
E2E2E2E2E2E2E2E2E2E2E2E2E2E2E2E2E2E2E2E2E2E2E2E2E2E2E2E2E2E2E2E2E2E2E2E2E2E2E2E2E2E2E2E2E2E2E2E2E2E2E2E2E2E2E2E2E2E2E2E2E2E2E2E2E2E2E2E2E2E2E2E2E2E2E2E2E2E2E2E2E2E2E2E2E2E2E2E2E2E2E2E2E2E2E2E2E2E2E2E2E2E2E2E2E2E2E2E2E2E2E2E2E2E2E2E2E2E2E2E2E2E2E2E2E2E2E2
310
E2E2E2E2E2E2E2E2E2E2E2E2E2E2E2E2E2E2E2E2E2E2E2E2E2E2E2E2E2E2E2E2E2E2E2E2E2E2E2E2E2E2E2E2E2E2E2E2E2E2E2E2E2E2E2E2E2E2E2E2E2E2E2E2E2E2E2E2E2E2E2E2E2E2E2E2E2E2E2E2E2E2E2E2E2E2E2E2E2E2E2E2E2E2E2E2E2E2E2E2E2E2E2E2E2E2E2E2E2E2E2E2E2E2E2E2E2E2E2E2E2E2E2E2E2E2E2
310
E2E2E2E2E2E2E2E2E2E2E2E2E2E2E2E2E2E2E2E2E2E2E2E2E2E2E2E2E2E2E2E2E2E2E2E2E2E2E2E2E2E2E2E2E2E2E2E2E2E2E2E2E2E2E2E2E2E2E2E2E2E2E2E2E2E2E2E2E2E2E2E2E2E2E2E2E2E2E2E2E2E2E2E2E2E2E2E2E2E2E2E2E2E2E2E2E2E2E2E2E2E2E2E2E2E2E2E2E2E2E2E2E2E2E2E2E2E2E2E2E2E2E2E2E2E2E2
310
E2E2E2E2E2E2E2E2E2E2E2E2E2E2E2E2E2E2E2E2E2E2E2E2E2E2E2E2E2E2E2E2E2E2E2E2E2E2E2E2E2E2E2E2E2E2E2E2E2E2E2E2E2E2E2E2E2E2E2E2E2E2E2E2E2E2E2E2E2E2E2E2E2E2E2E2E2E2E2E2E2E2E2E2E2E2E2E2E2E2E2E2E2E2E2E2E2E2E2E2E2E2E2E2E2E2E2E2E2E2E2E2E2E2E2E2E2E2E2E2E2E2E2E2E2E2E2
310
E2E2E2E2E2E2E2E2E2E2E2E2E2E2E2E2E2E2E2E2E2E2E2E2E2E2E2E2E2E2E2E2E2E2E2E2E2E2E2E2E2E2E2E2E2E2E2E2E2E2E2E2E2E2E2E2E2E2E2E2E2E2E2E2E2E2E2E2E2E2E2E2E2E2E2E2E2E2E2E2E2E2E2E2E2E2E2E2E2E2E2E2E2E2E2E2E2E2E2E2E2E2E2E2E2E2E2E2E2E2E2E2E2E2E2E2E2E2E2E2E2E2E2E2E2E2E2
310
E2E2E2E2E2E2E2E2E2E2E2E2E2E2E2E2E2E2E2E2E2E2E2E2E2E2E2E2E2E2E2E2E2E2E2E2E2E2E2E2E2E2E2E2E2E2E2E2E2E2E2E2E2E2E2E2E2E2E2E2E2E2E2E2E2E2E2E2E2E2E2E2E2E2E2E2E2E2E2E2E2E2E2E2E2E2E2E2E2E2E2E2E2E2E2E2E2E2E2E2E2E2E2E2E2E2E2E2E2E2E2E2E2E2E2E2E2E2E2E2E2E2E2E2E2E2E2
310
E2E2E2E2E2E2E2E2E2E2E2E2E2E2E2E2E2E2E2E2E2E2E2E2E2E2E2E2E2E2E2E2E2E2E2E2E2E2E2E2E2E2E2E2E2E2E2E2E2E2E2E2E2E2E2E2E2E2E2E2E2E2E2E2E2E2E2E2E2E2E2E2E2E2E2E2E2E2E2E2E2E2E2E2E2E2E2E2E2E2E2E2E2E2E2E2E2E2E2E2E2E2E2E2E2E2E2E2E2E2E2E2E2E2E2E2E2E2E2E2E2E2E2E2E2E2E2
310
E2E2E2E2E2E2E2E2E2E2E2E2E2E2E2E2E2E2E2E2E2E2E2E2E2E2E2E2E2E2E2E2E2E2E2E2E2E2E2E2E2E2E2E2E2E2E2E2E2E2E2E2E2E2E2E2E2E2E2E2E2E2E2E2E2E2E2E2E2E2E2E2E2E2E2E2E2E2E2E2E2E2E2E2E2E2E2E2E2E2E2E2E2E2E2E2E2E2E2E2E2E2E2E2E2E2E2E2E2E2E2E2E2E2E2E2E2E2E2E2E2E2E2E2E2E2E2
310
E2E2E2E2E2E2E2E2E2E2E2E2E2E2E2E2E2E2E2E2E2E2E2E2E2E2E2E2E2E2E2E2E2E2E2E2E2E2E2E2E2E2E2E2E2E2E2E2E2E2E2E2E2E2E2E2E2E2E2E2E2E2E2E2E2E2E2E2E2E2E2E2E2E2E2E2E2E2E2E2E2E2E2E2E2E2E2E2E2E2E2E2E2E2E2E2E2E2E2E2E2E2E2E2E2E2E2E2E2E2E2E2E2E2E2E2E2E2E2E2E2E2E2E2E2E2E2
310
E2E2E2E2E2E2E2E2E2E2E2E2E2E2E2E2E2E2E2E2E2E2E2E2E2E2E2E2E2E2E2E2E2E2E2E2E2E2E2E2E2E2E2E2E2E2E2E2E2E2E2E2E2E2E2E2E2E2E2E2E2E2E2E2E2E2E2E2E2E2E2E2E2E2E2E2E2E2E2E2E2E2E2E2E2E2E2E2E2E2E2E2E2E2E2E2E2E2E2E2E2E2E2E2E2E2E2E2E2E2E2E2E2E2E2E2E2E2E2E2E2E2E2E2E2E2E2
310
E2E2E2E2E2E2E2E2E2E2E2E2E2E2E2E2E2E2E2E2E2E2E2E2E2E2E2E2E2E2E2E2E2E2E2E2E2E2E2E2E2E2E2E2E2E2E2E2E2E2E2E2E2E2E2E2E2E2E2E2E2E2E2E2E2E2E2E2E2E2E2E2E2E2E2E2E2E2E2E2E2E2E2E2E2E2E2E2E2E2E2E2E2E2E2E2E2E2E2E2E2E2E2E2E2E2E2E2E2E2E2E2E2E2E2E2E2E2E2E2E2E2E2E2E2E2E2
310
E2E2E2E2E2E2E2E2E2E2E2E2E2E2E2E2E2E2E2E2E2E2E2E2E2E2E2E2E2E2E2E2E2E2E2E2E2E2E2E2E2E2E2E2E2E2E2E2E2E2E2E2E2E2E2E2E2E2E2E2E2E2E2E2E2E2E2E2E2E2E2E2E2E2E2E2E2E2E2E2E2E2E2E2E2E2E2E2E2E2E2E2E2E2E2E2E2E2E2E2E2E2E2E2E2E2E2E2E2E2E2E2E2E2E2E2E2E2E2E2E2E2E2E2E2E2E2
310
E2E2E2E2E2E2E2E2E2E2E2E2E2E2E2E2E2E2E2E2E2E2E2E2E2E2E2E2E2E2E2E2E2E2E2E2E2E2E2E2E2E2E2E2E2E2E2E2E2E2E2E2E2E2E2E2E2E2E2E2E2E2E2E2E2E2E2E2E2E2E2E2E2E2E2E2E2E2E2E2E2E2E2E2E2E2E2E2E2E2E2E2E2E2E2E2E2E2E2E2E2E2E2E2E2E2E2E2E2E2E2E2E2E2E2E2E2E2E2E2E2E2E2E2E2E2E2
310
E2E2E2E2E2E2E2E2E2E2E2E2E2E2E2E2E2E2E2E2E2E2E2E2E2E2E2E2E2E2E2E2E2E2E2E2E2E2E2E2E2E2E2E2E2E2E2E2E2E2E2E2E2E2E2E2E2E2E2E2E2E2E2E2E2E2E2E2E2E2E2E2E2E2E2E2E2E2E2E2E2E2E2E2E2E2E2E2E2E2E2E2E2E2E2E2E2E2E2E2E2E2E2E2E2E2E2E2E2E2E2E2E2E2E2E2E2E2E2E2E2E2E2E2E2E2E2
310
E2E2E2E2E2E2E2E2E2E2E2E2E2E2E2E2E2E2E2E2E2E2E2E2E2E2E2E2E2E2E2E2E2E2E2E2E2E2E2E2E2E2E2E2E2E2E2E2E2E2E2E2E2E2E2E2E2E2E2E2E2E2E2E2E2E2E2E2E2E2E2E2E2E2E2E2E2E2E2E2E2E2E2E2E2E2E2E2E2E2E2E2E2E2E2E2E2E2E2E2E2E2E2E2E2E2E2E2E2E2E2E2E2E2E2E2E2E2E2E2E2E2E2E2E2E2E2
310
E2E2E2E2E2E2E2E2E2E2E2E2E2E2E2E2E2E2E2E2E2E2E2E2E2E2E2E2E2E2E2E2E2E2E2E2E2E2E2E2E2E2E2E2E2E2E2E2E2E2E2E2E2E2E2E2E2E2E2E2E2E2E2E2E2E2E2E2E2E2E2E2E2E2E2E2E2E2E2E2E2E2E2E2E2E2E2E2E2E2E2E2E2E2E2E2E2E2E2E2E2E2E2E2E2E2E2E2E2E2E2E2E2E2E2E2E2E2E2E2E2E2E2E2E2E2E2
310
E2E2E2E2E2E2E2E2E2E2E2E2E2E2E2E2E2E2E2E2E2E2E2E2E2E2E2E2E2E2E2E2E2E2E2E2E2E2E2E2E2E2E2E2E2E2E2E2E2E2E2E2E2E2E2E2E2E2E2E2E2E2E2E2E2E2E2E2E2E2E2E2E2E2E2E2E2E2E2E2E2E2E2E2E2E2E2E2E2E2E2E2E2E2E2E2E2E2E2E2E2E2E2E2E2E2E2E2E2E2E2E2E2E2E2E2E2E2E2E2E2E2E2E2E2E2E2
310
E2E2E2E2E2E2E2E2E2E2E2E2E2E2E2E2E2E2E2E2E2E2E2E2E2E2E2E2E2E2E2E2E2E2E2E2E2E2E2E2E2E2E2E2E2E2E2E2E2E2E2E2E2E2E2E2E2E2E2E2E2E2E2E2E2E2E2E2E2E2E2E2E2E2E2E2E2E2E2E2E2E2E2E2E2E2E2E2E2E2E2E2E2E2E2E2E2E2E2E2E2E2E2E2E2E2E2E2E2E2E2E2E2E2E2E2E2E2E2E2E2E2E2E2E2E2E2
310
E2E2E2E2E2E2E2E2E2E2E2E2E2E2E2E2E2E2E2E2E2E2E2E2E2E2E2E2E2E2E2E2E2E2E2E2E2E2E2E2E2E2E2E2E2E2E2E2E2E2E2E2E2E2E2E2E2E2E2E2E2E2E2E2E2E2E2E2E2E2E2E2E2E2E2E2E2E2E2E2E2E2E2E2E2E2E2E2E2E2E2E2E2E2E2E2E2E2E2E2E2E2E2E2E2E2E2E2E2E2E2E2E2E2E2E2E2E2E2E2E2E2E2E2E2E2E2
310
E2E2E2E2E2E2E2E2E2E2E2E2E2E2E2E2E2E2E2E2E2E2E2E2E2E2E2E2E2E2E2E2E2E2E2E2E2E2E2E2E2E2E2E2E2E2E2E2E2E2E2E2E2E2E2E2E2E2E2E2E2E2E2E2E2E2E2E2E2E2E2E2E2E2E2E2E2E2E2E2E2E2E2E2E2E2E2E2E2E2E2E2E2E2E2E2E2E2E2E2E2E2E2E2E2E2E2E2E2E2E2E2E2E2E2E2E2E2E2E2E2E2E2E2E2E2E2
310
E2E2E2E2E2E2E2E2E2E2E2E2E2E2E2E2E2E2E2E2E2E2E2E2E2E2E2E2E2E2E2E2E2E2E2E2E2E2E2E2E2E2E2E2E2E2E2E2E2E2E2E2E2E2E2E2E2E2E2E2E2E2E2E2E2E2E2E2E2E2E2E2E2E2E2E2E2E2E2E2E2E2E2E2E2E2E2E2E2E2E2E2E2E2E2E2E2E2E2E2E2E2E2E2E2E2E2E2E2E2E2E2E2E2E2E2E2E2E2E2E2E2E2E2E2E2E2
310
E2E2E2E2E2E2E2E2E2E2E2E2E2E2E2E2E2E2E2E2E2E2E2E2E2E2E2E2E2E2E2E2E2E2E2E2E2E2E2E2E2E2E2E2E2E2E2E2E2E2E2E2E2E2E2E2E2E2E2E2E2E2E2E2E2E2E2E2E2E2E2E2E2E2E2E2E2E2E2E2E2E2E2E2E2E2E2E2E2E2E2E2E2E2E2E2E2E2E2E2E2E2E2E2E2E2E2E2E2E2E2E2E2E2E2E2E2E2E2E2E2E2E2E2E2E2E2
310
E2E2E2E2E2E2E2E2E2E2E2E2E2E2E2E2E2E2E2E2E2E2E2E2E2E2E2E2E2E2E2E2E2E2E2E2E2E2E2E2E2E2E2E2E2E2E2E2E2E2E2E2E2E2E2E2E2E2E2E2E2E2E2E2E2E2E2E2E2E2E2E2E2E2E2E2E2E2E2E2E2E2E2E2E2E2E2E2E2E2E2E2E2E2E2E2E2E2E2E2E2E2E2E2E2E2E2E2E2E2E2E2E2E2E2E2E2E2E2E2E2E2E2E2E2E2E2
310
E2E2E2E2E2E2E2E2E2E2E2E2E2E2E2E2E2E2E2E2E2E2E2E2E2E2E2E2E2E2E2E2E2E2E2E2E2E2E2E2E2E2E2E2E2E2E2E2E2E2E2E2E2E2E2E2E2E2E2E2E2E2E2E2E2E2E2E2E2E2E2E2E2E2E2E2E2E2E2E2E2E2E2E2E2E2E2E2E2E2E2E2E2E2E2E2E2E2E2E2E2E2E2E2E2E2E2E2E2E2E2E2E2E2E2E2E2E2E2E2E2E2E2E2E2E2E2
310
E2E2E2E2E2E2E2E2E2E2E2E2E2E2E2E2E2E2E2E2E2E2E2E2E2E2E2E2E2E2E2E2E2E2E2E2E2E2E2E2E2E2E2E2E2E2E2E2E2E2E2E2E2E2E2E2E2E2E2E2E2E2E2E2E2E2E2E2E2E2E2E2E2E2E2E2E2E2E2E2E2E2E2E2E2E2E2E2E2E2E2E2E2E2E2E2E2E2E2E2E2E2E2E2E2E2E2E2E2E2E2E2E2E2E2E2E2E2E2E2E2E2E2E2E2E2E2
310
E2E2E2E2E2E2E2E2E2E2E2E2E2E2E2E2E2E2E2E2E2E2E2E2E2E2E2E2E2E2E2E2E2E2E2E2E2E2E2E2E2E2E2E2E2E2E2E2E2E2E2E2E2E2E2E2E2E2E2E2E2E2E2E2E2E2E2E2E2E2E2E2E2E2E2E2E2E2E2E2E2E2E2E2E2E2E2E2E2E2E2E2E2E2E2E2E2E2E2E2E2E2E2E2E2E2E2E2E2E2E2E2E2E2E2E2E2E2E2E2E2E2E2E2E2E2E2
310
E2E2E2E2E2E2E2E2E2E2E2E2E2E2E2E2E2E2E2E2E2E2E2E2E2E2E2E2E2E2E2E2E2E2E2E2E2E2E2E2E2E2E2E2E2E2E2E2E2E2E2E2E2E2E2E2E2E2E2E2E2E2E2E2E2E2E2E2E2E2E2E2E2E2E2E2E2E2E2E2E2E2E2E2E2E2E2E2E2E2E2E2E2E2E2E2E2E2E2E2E2E2E2E2E2E2E2E2E2E2E2E2E2E2E2E2E2E2E2E2E2E2E2E2E2E2E2
310
E2E2E2E2E2E2E2E2E2E2E2E2E2E2E2E2E2E2E2E2E2E2E2E2E2E2E2E2E2E2E2E2E2E2E2E2E2E2E2E2E2E2E2E2E2E2E2E2E2E2E2E2E2E2E2E2E2E2E2E2E2E2E2E2E2E2E2E2E2E2E2E2E2E2E2E2E2E2E2E2E2E2E2E2E2E2E2E2E2E2E2E2E2E2E2E2E2E2E2E2E2E2E2E2E2E2E2E2E2E2E2E2E2E2E2E2E2E2E2E2E2E2E2E2E2E2E2
310
E2E2E2E2E2E2E2E2E2E2E2E2E2E2E2E2E2E2E2E2E2E2E2E2E2E2E2E2E2E2E2E2E2E2E2E2E2E2E2E2E2E2E2E2E2E2E2E2E2E2E2E2E2E2E2E2E2E2E2E2E2E2E2E2E2E2E2E2E2E2E2E2E2E2E2E2E2E2E2E2E2E2E2E2E2E2E2E2E2E2E2E2E2E2E2E2E2E2E2E2E2E2E2E2E2E2E2E2E2E2E2E2E2E2E2E2E2E2E2E2E2E2E2E2E2E2E2
310
E2E2E2E2E2E2E2E2E2E2E2E2E2E2E2E2E2E2E2E2E2E2E2E2E2E2E2E2E2E2E2E2E2E2E2E2E2E2E2E2E2E2E2E2E2E2E2E2E2E2E2E2E2E2E2E2E2E2E2E2E2E2E2E2E2E2E2E2E2E2E2E2E2E2E2E2E2E2E2E2E2E2E2E2E2E2E2E2E2E2E2E2E2E2E2E2E2E2E2E2E2E2E2E2E2E2E2E2E2E2E2E2E2E2E2E2E2E2E2E2E2E2E2E2E2E2E2
310
E2E2E2E2E2E2E2E2E2E2E2E2E2E2E2E2E2E2E2E2E2E2E2E2E2E2E2E2E2E2E2E2E2E2E2E2E2E2E2E2E2E2E2E2E2E2E2E2E2E2E2E2E2E2E2E2E2E2E2E2E2E2E2E2E2E2E2E2E2E2E2E2E2E2E2E2E2E2E2E2E2E2E2E2E2E2E2E2E2E2E2E2E2E2E2E2E2E2E2E2E2E2E2E2E2E2E2E2E2E2E2E2E2E2E2E2E2E2E2E2E2E2E2E2E2E2E2
310
E2E2E2E2E2E2E2E2E2E2E2E2E2E2E2E2E2E2E2E2E2E2E2E2E2E2E2E2E2E2E2E2E2E2E2E2E2E2E2E2E2E2E2E2E2E2E2E2E2E2E2E2E2E2E2E2E2E2E2E2E2E2E2E2E2E2E2E2E2E2E2E2E2E2E2E2E2E2E2E2E2E2E2E2E2E2E2E2E2E2E2E2E2E2E2E2E2E2E2E2E2E2E2E2E2E2E2E2E2E2E2E2E2E2E2E2E2E2E2E2E2E2E2E2E2E2E2
310
E2E2E2E2E2E2E2E2E2E2E2E2E2E2E2E2E2E2E2E2E2E2E2E2E2E2E2E2E2E2E2E2E2E2E2E2E2E2E2E2E2E2E2E2E2E2E2E2E2E2E2E2E2E2E2E2E2E2E2E2E2E2E2E2E2E2E2E2E2E2E2E2E2E2E2E2E2E2E2E2E2E2E2E2E2E2E2E2E2E2E2E2E2E2E2E2E2E2E2E2E2E2E2E2E2E2E2E2E2E2E2E2E2E2E2E2E2E2E2E2E2E2E2E2E2E2E2
310
E2E2E2E2E2E2E2E2E2E2E2E2E2E2E2E2E2E2E2E2E2E2E2E2E2E2E2E2E2E2E2E2E2E2E2E2E2E2E2E2E2E2E2E2E2E2E2E2E2E2E2E2E2E2E2E2E2E2E2E2E2E2E2E2E2E2E2E2E2E2E2E2E2E2E2E2E2E2E2E2E2E2E2E2E2E2E2E2E2E2E2E2E2E2E2E2E2E2E2E2E2E2E2E2E2E2E2E2E2E2E2E2E2E2E2E2E2E2E2E2E2E2E2E2E2E2E2
310
E2E2E2E2E2E2E2E2E2E2E2E2E2E2E2E2E2E2E2E2E2E2E2E2E2E2E2E2E2E2E2E2E2E2E2E2E2E2E2E2E2E2E2E2E2E2E2E2E2E2E2E2E2E2E2E2E2E2E2E2E2E2E2E2E2E2E2E2E2E2E2E2E2E2E2E2E2E2E2E2E2E2E2E2E2E2E2E2E2E2E2E2E2E2E2E2E2E2E2E2E2E2E2E2E2E2E2E2E2E2E2E2E2E2E2E2E2E2E2E2E2E2E2E2E2E2E2
310
E2E2E2E2E2E2E2E2E2E2E2E2E2E2E2E2E2E2E2E2E2E2E2E2E2E2E2E2E2E2E2E2E2E2E2E2E2E2E2E2E2E2E2E2E2E2E2E2E2E2E2E2E2E2E2E2E2E2E2E2E2E2E2E2E2E2E2E2E2E2E2E2E2E2E2E2E2E2E2E2E2E2E2E2E2E2E2E2E2E2E2E2E2E2E2E2E2E2E2E2E2E2E2E2E2E2E2E2E2E2E2E2E2E2E2E2E2E2E2E2E2E2E2E2E2E2E2
310
E2E2E2E2E2E2E2E2E2E2E2E2E2E2E2E2E2E2E2E2E2E2E2E2E2E2E2E2E2E2E2E2E2E2E2E2E2E2E2E2E2E2E2E2E2E2E2E2E2E2E2E2E2E2E2E2E2E2E2E2E2E2E2E2E2E2E2E2E2E2E2E2E2E2E2E2E2E2E2E2E2E2E2E2E2E2E2E2E2E2E2E2E2E2E2E2E2E2E2E2E2E2E2E2E2E2E2E2E2E2E2E2E2E2E2E2E2E2E2E2E2E2E2E2E2E2E2
310
E2E2E2E2E2E2E2E2E2E2E2E2E2E2E2E2E2E2E2E2E2E2E2E2E2E2E2E2E2E2E2E2E2E2E2E2E2E2E2E2E2E2E2E2E2E2E2E2E2E2E2E2E2E2E2E2E2E2E2E2E2E2E2E2E2E2E2E2E2E2E2E2E2E2E2E2E2E2E2E2E2E2E2E2E2E2E2E2E2E2E2E2E2E2E2E2E2E2E2E2E2E2E2E2E2E2E2E2E2E2E2E2E2E2E2E2E2E2E2E2E2E2E2E2E2E2E2
310
E2E2E2E2E2E2E2E2E2E2E2E2E2E2E2E2E2E2E2E2E2E2E2E2E2E2E2E2E2E2E2E2E2E2E2E2E2E2E2E2E2E2E2E2E2E2E2E2E2E2E2E2E2E2E2E2E2E2E2E2E2E2E2E2E2E2E2E2E2E2E2E2E2E2E2E2E2E2E2E2E2E2E2E2E2E2E2E2E2E2E2E2E2E2E2E2E2E2E2E2E2E2E2E2E2E2E2E2E2E2E2E2E2E2E2E2E2E2E2E2E2E2E2E2E2E2E2
310
E2E2E2E2E2E2E2E2E2E2E2E2E2E2E2E2E2E2E2E2E2E2E2E2E2E2E2E2E2E2E2E2E2E2E2E2E2E2E2E2E2E2E2E2E2E2E2E2E2E2E2E2E2E2E2E2E2E2E2E2E2E2E2E2E2E2E2E2E2E2E2E2E2E2E2E2E2E2E2E2E2E2E2E2E2E2E2E2E2E2E2E2E2E2E2E2E2E2E2E2E2E2E2E2E2E2E2E2E2E2E2E2E2E2E2E2E2E2E2E2E2E2E2E2E2E2E2
310
E2E2E2E2E2E2E2E2E2E2E2E2E2E2E2E2E2E2E2E2E2E2E2E2E2E2E2E2E2E2E2E2E2E2E2E2E2E2E2E2E2E2E2E2E2E2E2E2E2E2E2E2E2E2E2E2E2E2E2E2E2E2E2E2E2E2E2E2E2E2E2E2E2E2E2E2E2E2E2E2E2E2E2E2E2E2E2E2E2E2E2E2E2E2E2E2E2E2E2E2E2E2E2E2E2E2E2E2E2E2E2E2E2E2E2E2E2E2E2E2E2E2E2E2E2E2E2
310
E2E2E2E2E2E2E2E2E2E2E2E2E2E2E2E2E2E2E2E2E2E2E2E2E2E2E2E2E2E2E2E2E2E2E2E2E2E2E2E2E2E2E2E2E2E2E2E2E2E2E2E2E2E2E2E2E2E2E2E2E2E2E2E2E2E2E2E2E2E2E2E2E2E2E2E2E2E2E2E2E2E2E2E2E2E2E2E2E2E2E2E2E2E2E2E2E2E2E2E2E2E2E2E2E2E2E2E2E2E2E2E2E2E2E2E2E2E2E2E2E2E2E2E2E2E2E2
310
E2E2E2E2E2E2E2E2E2E2E2E2E2E2E2E2E2E2E2E2E2E2E2E2E2E2E2E2E2E2E2E2E2E2E2E2E2E2E2E2E2E2E2E2E2E2E2E2E2E2E2E2E2E2E2E2E2E2E2E2E2E2E2E2E2E2E2E2E2E2E2E2E2E2E2E2E2E2E2E2E2E2E2E2E2E2E2E2E2E2E2E2E2E2E2E2E2E2E2E2E2E2E2E2E2E2E2E2E2E2E2E2E2E2E2E2E2E2E2E2E2E2E2E2E2E2E2
310
E2E2E2E2E2E2E2E2E2E2E2E2E2E2E2E2E2E2E2E2E2E2E2E2E2E2E2E2E2E2E2E2E2E2E2E2E2E2E2E2E2E2E2E2E2E2E2E2E2E2E2E2E2E2E2E2E2E2E2E2E2E2E2E2E2E2E2E2E2E2E2E2E2E2E2E2E2E2E2E2E2E2E2E2E2E2E2E2E2E2E2E2E2E2E2E2E2E2E2E2E2E2E2E2E2E2E2E2E2E2E2E2E2E2E2E2E2E2E2E2E2E2E2E2E2E2E2
310
E2E2E2E2E2E2E2E2E2E2E2E2E2E2E2E2E2E2E2E2E2E2E2E2E2E2E2E2E2E2E2E2E2E2E2E2E2E2E2E2E2E2E2E2E2E2E2E2E2E2E2E2E2E2E2E2E2E2E2E2E2E2E2E2E2E2E2E2E2E2E2E2E2E2E2E2E2E2E2E2E2E2E2E2E2E2E2E2E2E2E2E2E2E2E2E2E2E2E2E2E2E2E2E2E2E2E2E2E2E2E2E2E2E2E2E2E2E2E2E2E2E2E2E2E2E2E2
310
E2E2E2E2E2E2E2E2E2E2E2E2E2E2E2E2E2E2E2E2E2E2E2E2E2E2E2E2E2E2E2E2E2E2E2E2E2E2E2E2E2E2E2E2E2E2E2E2E2E2E2E2E2E2E2E2E2E2E2E2E2E2E2E2E2E2E2E2E2E2E2E2E2E2E2E2E2E2E2E2E2E2E2E2E2E2E2E2E2E2E2E2E2E2E2E2E2E2E2E2E2E2E2E2E2E2E2E2E2E2E2E2E2E2E2E2E2E2E2E2E2E2E2E2E2E2E2
310
E2E2E2E2E2E2E2E2E2E2E2E2E2E2E2E2E2E2E2E2E2E2E2E2E2E2E2E2E2E2E2E2E2E2E2E2E2E2E2E2E2E2E2E2E2E2E2E2E2E2E2E2E2E2E2E2E2E2E2E2E2E2E2E2E2E2E2E2E2E2E2E2E2E2E2E2E2E2E2E2E2E2E2E2E2E2E2E2E2E2E2E2E2E2E2E2E2E2E2E2E2E2E2E2E2E2E2E2E2E2E2E2E2E2E2E2E2E2E2E2E2E2E2E2E2E2E2
310
E2E2E2E2E2E2E2E2E2E2E2E2E2E2E2E2E2E2E2E2E2E2E2E2E2E2E2E2E2E2E2E2E2E2E2E2E2E2E2E2E2E2E2E2E2E2E2E2E2E2E2E2E2E2E2E2E2E2E2E2E2E2E2E2E2E2E2E2E2E2E2E2E2E2E2E2E2E2E2E2E2E2E2E2E2E2E2E2E2E2E2E2E2E2E2E2E2E2E2E2E2E2E2E2E2E2E2E2E2E2E2E2E2E2E2E2E2E2E2E2E2E2E2E2E2E2E2
310
E2E2E2E2E2E2E2E2E2E2E2E2E2E2E2E2E2E2E2E2E2E2E2E2E2E2E2E2E2E2E2E2E2E2E2E2E2E2E2E2E2E2E2E2E2E2E2E2E2E2E2E2E2E2E2E2E2E2E2E2E2E2E2E2E2E2E2E2E2E2E2E2E2E2E2E2E2E2E2E2E2E2E2E2E2E2E2E2E2E2E2E2E2E2E2E2E2E2E2E2E2E2E2E2E2E2E2E2E2E2E2E2E2E2E2E2E2E2E2E2E2E2E2E2E2E2E2
310
E2E2E2E2E2E2E2E2E2E2E2E2E2E2E2E2E2E2E2E2E2E2E2E2E2E2E2E2E2E2E2E2E2E2E2E2E2E2E2E2E2E2E2E2E2E2E2E2E2E2E2E2E2E2E2E2E2E2E2E2E2E2E2E2E2E2E2E2E2E2E2E2E2E2E2E2E2E2E2E2E2E2E2E2E2E2E2E2E2E2E2E2E2E2E2E2E2E2E2E2E2E2E2E2E2E2E2E2E2E2E2E2E2E2E2E2E2E2E2E2E2E2E2E2E2E2E2
310
E2E2E2E2E2E2E2E2E2E2E2E2E2E2E2E2E2E2E2E2E2E2E2E2E2E2E2E2E2E2E2E2E2E2E2E2E2E2E2E2E2E2E2E2E2E2E2E2E2E2E2E2E2E2E2E2E2E2E2E2E2E2E2E2E2E2E2E2E2E2E2E2E2E2E2E2E2E2E2E2E2E2E2E2E2E2E2E2E2E2E2E2E2E2E2E2E2E2E2E2E2E2E2E2E2E2E2E2E2E2E2E2E2E2E2E2E2E2E2E2E2E2E2E2E2E2E2
310
E2E2E2E2E2E2E2E2E2E2E2E2E2E2E2E2E2E2E2E2E2E2E2E2E2E2E2E2E2E2E2E2E2E2E2E2E2E2E2E2E2E2E2E2E2E2E2E2E2E2E2E2E2E2E2E2E2E2E2E2E2E2E2E2E2E2E2E2E2E2E2E2E2E2E2E2E2E2E2E2E2E2E2E2E2E2E2E2E2E2E2E2E2E2E2E2E2E2E2E2E2E2E2E2E2E2E2E2E2E2E2E2E2E2E2E2E2E2E2E2E2E2E2E2E2E2E2
310
E2E2E2E2E2E2E2E2E2E2E2E2E2E2E2E2E2E2E2E2E2E2E2E2E2E2E2E2E2E2E2E2E2E2E2E2E2E2E2E2E2E2E2E2E2E2E2E2E2E2E2E2E2E2E2E2E2E2E2E2E2E2E2E2E2E2E2E2E2E2E2E2E2E2E2E2E2E2E2E2E2E2E2E2E2E2E2E2E2E2E2E2E2E2E2E2E2E2E2E2E2E2E2E2E2E2E2E2E2E2E2E2E2E2E2E2E2E2E2E2E2E2E2E2E2E2E2
310
E2E2E2E2E2E2E2E2E2E2E2E2E2E2E2E2E2E2E2E2E2E2E2E2E2E2E2E2E2E2E2E2E2E2E2E2E2E2E2E2E2E2E2E2E2E2E2E2E2E2E2E2E2E2E2E2E2E2E2E2E2E2E2E2E2E2E2E2E2E2E2E2E2E2E2E2E2E2E2E2E2E2E2E2E2E2E2E2E2E2E2E2E2E2E2E2E2E2E2E2E2E2E2E2E2E2E2E2E2E2E2E2E2E2E2E2E2E2E2E2E2E2E2E2E2E2E2
310
E2E2E2E2E2E2E2E2E2E2E2E2E2E2E2E2E2E2E2E2E2E2E2E2E2E2E2E2E2E2E2E2E2E2E2E2E2E2E2E2E2E2E2E2E2E2E2E2E2E2E2E2E2E2E2E2E2E2E2E2E2E2E2E2E2E2E2E2E2E2E2E2E2E2E2E2E2E2E2E2E2E2E2E2E2E2E2E2E2E2E2E2E2E2E2E2E2E2E2E2E2E2E2E2E2E2E2E2E2E2E2E2E2E2E2E2E2E2E2E2E2E2E2E2E2E2E2
310
E2E2E2E2E2E2E2E2E2E2E2E2E2E2E2E2E2E2E2E2E2E2E2E2E2E2E2E2E2E2E2E2E2E2E2E2E2E2E2E2E2E2E2E2E2E2E2E2E2E2E2E2E2E2E2E2E2E2E2E2E2E2E2E2E2E2E2E2E2E2E2E2E2E2E2E2E2E2E2E2E2E2E2E2E2E2E2E2E2E2E2E2E2E2E2E2E2E2E2E2E2E2E2E2E2E2E2E2E2E2E2E2E2E2E2E2E2E2E2E2E2E2E2E2E2E2E2
310
E2E2E2E2E2E2E2E2E2E2E2E2E2E2E2E2E2E2E2E2E2E2E2E2E2E2E2E2E2E2E2E2E2E2E2E2E2E2E2E2E2E2E2E2E2E2E2E2E2E2E2E2E2E2E2E2E2E2E2E2E2E2E2E2E2E2E2E2E2E2E2E2E2E2E2E2E2E2E2E2E2E2E2E2E2E2E2E2E2E2E2E2E2E2E2E2E2E2E2E2E2E2E2E2E2E2E2E2E2E2E2E2E2E2E2E2E2E2E2E2E2E2E2E2E2E2E2
310
E2E2E2E2E2E2E2E2E2E2E2E2E2E2E2E2E2E2E2E2E2E2E2E2E2E2E2E2E2E2E2E2E2E2E2E2E2E2E2E2E2E2E2E2E2E2E2E2E2E2E2E2E2E2E2E2E2E2E2E2E2E2E2E2E2E2E2E2E2E2E2E2E2E2E2E2E2E2E2E2E2E2E2E2E2E2E2E2E2E2E2E2E2E2E2E2E2E2E2E2E2E2E2E2E2E2E2E2E2E2E2E2E2E2E2E2E2E2E2E2E2E2E2E2E2E2E2
310
E2E2E2E2E2E2E2E2E2E2E2E2E2E2E2E2E2E2E2E2E2E2E2E2E2E2E2E2E2E2E2E2E2E2E2E2E2E2E2E2E2E2E2E2E2E2E2E2E2E2E2E2E2E2E2E2E2E2E2E2E2E2E2E2E2E2E2E2E2E2E2E2E2E2E2E2E2E2E2E2E2E2E2E2E2E2E2E2E2E2E2E2E2E2E2E2E2E2E2E2E2E2E2E2E2E2E2E2E2E2E2E2E2E2E2E2E2E2E2E2E2E2E2E2E2E2E2
310
E2E2E2E2E2E2E2E2E2E2E2E2E2E2E2E2E2E2E2E2E2E2E2E2E2E2E2E2E2E2E2E2E2E2E2E2E2E2E2E2E2E2E2E2E2E2E2E2E2E2E2E2E2E2E2E2E2E2E2E2E2E2E2E2E2E2E2E2E2E2E2E2E2E2E2E2E2E2E2E2E2E2E2E2E2E2E2E2E2E2E2E2E2E2E2E2E2E2E2E2E2E2E2E2E2E2E2E2E2E2E2E2E2E2E2E2E2E2E2E2E2E2E2E2E2E2E2
310
E2E2E2E2E2E2E2E2E2E2E2E2E2E2E2E2E2E2E2E2E2E2E2E2E2E2E2E2E2E2E2E2E2E2E2E2E2E2E2E2E2E2E2E2E2E2E2E2E2E2E2E2E2E2E2E2E2E2E2E2E2E2E2E2E2E2E2E2E2E2E2E2E2E2E2E2E2E2E2E2E2E2E2E2E2E2E2E2E2E2E2E2E2E2E2E2E2E2E2E2E2E2E2E2E2E2E2E2E2E2E2E2E2E2E2E2E2E2E2E2E2E2E2E2E2E2E2
310
E2E2E2E2E2E2E2E2E2E2E2E2E2E2E2E2E2E2E2E2E2E2E2E2E2E2E2E2E2E2E2E2E2E2E2E2E2E2E2E2E2E2E2E2E2E2E2E2E2E2E2E2E2E2E2E2E2E2E2E2E2E2E2E2E2E2E2E2E2E2E2E2E2E2E2E2E2E2E2E2E2E2E2E2E2E2E2E2E2E2E2E2E2E2E2E2E2E2E2E2E2E2E2E2E2E2E2E2E2E2E2E2E2E2E2E2E2E2E2E2E2E2E2E2E2E2E2
310
E2E2E2E2E2E2E2E2E2E2E2E2E2E2E2E2E2E2E2E2E2E2E2E2E2E2E2E2E2E2E2E2E2E2E2E2E2E2E2E2E2E2E2E2E2E2E2E2E2E2E2E2E2E2E2E2E2E2E2E2E2E2E2E2E2E2E2E2E2E2E2E2E2E2E2E2E2E2E2E2E2E2E2E2E2E2E2E2E2E2E2E2E2E2E2E2E2E2E2E2E2E2E2E2E2E2E2E2E2E2E2E2E2E2E2E2E2E2E2E2E2E2E2E2E2E2E2
310
E2E2E2E2E2E2E2E2E2E2E2E2E2E2E2E2E2E2E2E2E2E2E2E2E2E2E2E2E2E2E2E2E2E2E2E2E2E2E2E2E2E2E2E2E2E2E2E2E2E2E2E2E2E2E2E2E2E2E2E2E2E2E2E2E2E2E2E2E2E2E2E2E2E2E2E2E2E2E2E2E2E2E2E2E2E2E2E2E2E2E2E2E2E2E2E2E2E2E2E2E2E2E2E2E2E2E2E2E2E2E2E2E2E2E2E2E2E2E2E2E2E2E2E2E2E2E2
310
E2E2E2E2E2E2E2E2E2E2E2E2E2E2E2E2E2E2E2E2E2E2E2E2E2E2E2E2E2E2E2E2E2E2E2E2E2E2E2E2E2E2E2E2E2E2E2E2E2E2E2E2E2E2E2E2E2E2E2E2E2E2E2E2E2E2E2E2E2E2E2E2E2E2E2E2E2E2E2E2E2E2E2E2E2E2E2E2E2E2E2E2E2E2E2E2E2E2E2E2E2E2E2E2E2E2E2E2E2E2E2E2E2E2E2E2E2E2E2E2E2E2E2E2E2E2E2
310
E2E2E2E2E2E2E2E2E2E2E2E2E2E2E2E2E2E2E2E2E2E2E2E2E2E2E2E2E2E2E2E2E2E2E2E2E2E2E2E2E2E2E2E2E2E2E2E2E2E2E2E2E2E2E2E2E2E2E2E2E2E2E2E2E2E2E2E2E2E2E2E2E2E2E2E2E2E2E2E2E2E2E2E2E2E2E2E2E2E2E2E2E2E2E2E2E2E2E2E2E2E2E2E2E2E2E2E2E2E2E2E2E2E2E2E2E2E2E2E2E2E2E2E2E2E2E2
310
E2E2E2E2E2E2E2E2E2E2E2E2E2E2E2E2E2E2E2E2E2E2E2E2E2E2E2E2E2E2E2E2E2E2E2E2E2E2E2E2E2E2E2E2E2E2E2E2E2E2E2E2E2E2E2E2E2E2E2E2E2E2E2E2E2E2E2E2E2E2E2E2E2E2E2E2E2E2E2E2E2E2E2E2E2E2E2E2E2E2E2E2E2E2E2E2E2E2E2E2E2E2E2E2E2E2E2E2E2E2E2E2E2E2E2E2E2E2E2E2E2E2E2E2E2E2E2
310
E2E2E2E2E2E2E2E2E2E2E2E2E2E2E2E2E2E2E2E2E2E2E2E2E2E2E2E2E2E2E2E2E2E2E2E2E2E2E2E2E2E2E2E2E2E2E2E2E2E2E2E2E2E2E2E2E2E2E2E2E2E2E2E2E2E2E2E2E2E2E2E2E2E2E2E2E2E2E2E2E2E2E2E2E2E2E2E2E2E2E2E2E2E2E2E2E2E2E2E2E2E2E2E2E2E2E2E2E2E2E2E2E2E2E2E2E2E2E2E2E2E2E2E2E2E2E2
310
E2E2E2E2E2E2E2E2E2E2E2E2E2E2E2E2E2E2E2E2E2E2E2E2E2E2E2E2E2E2E2E2E2E2E2E2E2E2E2E2E2E2E2E2E2E2E2E2E2E2E2E2E2E2E2E2E2E2E2E2E2E2E2E2E2E2E2E2E2E2E2E2E2E2E2E2E2E2E2E2E2E2E2E2E2E2E2E2E2E2E2E2E2E2E2E2E2E2E2E2E2E2E2E2E2E2E2E2E2E2E2E2E2E2E2E2E2E2E2E2E2E2E2E2E2E2E2
310
E2E2E2E2E2E2E2E2E2E2E2E2E2E2E2E2E2E2E2E2E2E2E2E2E2E2E2E2E2E2E2E2E2E2E2E2E2E2E2E2E2E2E2E2E2E2E2E2E2E2E2E2E2E2E2E2E2E2E2E2E2E2E2E2E2E2E2E2E2E2E2E2E2E2E2E2E2E2E2E2E2E2E2E2E2E2E2E2E2E2E2E2E2E2E2E2E2E2E2E2E2E2E2E2E2E2E2E2E2E2E2E2E2E2E2E2E2E2E2E2E2E2E2E2E2E2E2
310
E2E2E2E2E2E2E2E2E2E2E2E2E2E2E2E2E2E2E2E2E2E2E2E2E2E2E2E2E2E2E2E2E2E2E2E2E2E2E2E2E2E2E2E2E2E2E2E2E2E2E2E2E2E2E2E2E2E2E2E2E2E2E2E2E2E2E2E2E2E2E2E2E2E2E2E2E2E2E2E2E2E2E2E2E2E2E2E2E2E2E2E2E2E2E2E2E2E2E2E2E2E2E2E2E2E2E2E2E2E2E2E2E2E2E2E2E2E2E2E2E2E2E2E2E2E2E2
310
E2E2E2E2E2E2E2E2E2E2E2E2E2E2E2E2E2E2E2E2E2E2E2E2E2E2E2E2E2E2E2E2E2E2E2E2E2E2E2E2E2E2E2E2E2E2E2E2E2E2E2E2E2E2E2E2E2E2E2E2E2E2E2E2E2E2E2E2E2E2E2E2E2E2E2E2E2E2E2E2E2E2E2E2E2E2E2E2E2E2E2E2E2E2E2E2E2E2E2E2E2E2E2E2E2E2E2E2E2E2E2E2E2E2E2E2E2E2E2E2E2E2E2E2E2E2E2
310
E2E2E2E2E2E2E2E2E2E2E2E2E2E2E2E2E2E2E2E2E2E2E2E2E2E2E2E2E2E2E2E2E2E2E2E2E2E2E2E2E2E2E2E2E2E2E2E2E2E2E2E2E2E2E2E2E2E2E2E2E2E2E2E2E2E2E2E2E2E2E2E2E2E2E2E2E2E2E2E2E2E2E2E2E2E2E2E2E2E2E2E2E2E2E2E2E2E2E2E2E2E2E2E2E2E2E2E2E2E2E2E2E2E2E2E2E2E2E2E2E2E2E2E2E2E2E2
310
E2E2E2E2E2E2E2E2E2E2E2E2E2E2E2E2E2E2E2E2E2E2E2E2E2E2E2E2E2E2E2E2E2E2E2E2E2E2E2E2E2E2E2E2E2E2E2E2E2E2E2E2E2E2E2E2E2E2E2E2E2E2E2E2E2E2E2E2E2E2E2E2E2E2E2E2E2E2E2E2E2E2E2E2E2E2E2E2E2E2E2E2E2E2E2E2E2E2E2E2E2E2E2E2E2E2E2E2E2E2E2E2E2E2E2E2E2E2E2E2E2E2E2E2E2E2E2
310
E2E2E2E2E2E2E2E2E2E2E2E2E2E2E2E2E2E2E2E2E2E2E2E2E2E2E2E2E2E2E2E2E2E2E2E2E2E2E2E2E2E2E2E2E2E2E2E2E2E2E2E2E2E2E2E2E2E2E2E2E2E2E2E2E2E2E2E2E2E2E2E2E2E2E2E2E2E2E2E2E2E2E2E2E2E2E2E2E2E2E2E2E2E2E2E2E2E2E2E2E2E2E2E2E2E2E2E2E2E2E2E2E2E2E2E2E2E2E2E2E2E2E2E2E2E2E2
310
E2E2E2E2E2E2E2E2E2E2E2E2E2E2E2E2E2E2E2E2E2E2E2E2E2E2E2E2E2E2E2E2E2E2E2E2E2E2E2E2E2E2E2E2E2E2E2E2E2E2E2E2E2E2E2E2E2E2E2E2E2E2E2E2E2E2E2E2E2E2E2E2E2E2E2E2E2E2E2E2E2E2E2E2E2E2E2E2E2E2E2E2E2E2E2E2E2E2E2E2E2E2E2E2E2E2E2E2E2E2E2E2E2E2E2E2E2E2E2E2E2E2E2E2E2E2E2
310
E2E2E2E2E2E2E2E2E2E2E2E2E2E2E2E2E2E2E2E2E2E2E2E2E2E2E2E2E2E2E2E2E2E2E2E2E2E2E2E2E2E2E2E2E2E2E2E2E2E2E2E2E2E2E2E2E2E2E2E2E2E2E2E2E2E2E2E2E2E2E2E2E2E2E2E2E2E2E2E2E2E2E2E2E2E2E2E2E2E2E2E2E2E2E2E2E2E2E2E2E2E2E2E2E2E2E2E2E2E2E2E2E2E2E2E2E2E2E2E2E2E2E2E2E2E2E2
310
E2E2E2E2E2E2E2E2E2E2E2E2E2E2E2E2E2E2E2E2E2E2E2E2E2E2E2E2E2E2E2E2E2E2E2E2E2E2E2E2E2E2E2E2E2E2E2E2E2E2E2E2E2E2E2E2E2E2E2E2E2E2E2E2E2E2E2E2E2E2E2E2E2E2E2E2E2E2E2E2E2E2E2E2E2E2E2E2E2E2E2E2E2E2E2E2E2E2E2E2E2E2E2E2E2E2E2E2E2E2E2E2E2E2E2E2E2E2E2E2E2E2E2E2E2E2E2
310
E2E2E2E2E2E2E2E2E2E2E2E2E2E2E2E2E2E2E2E2E2E2E2E2E2E2E2E2E2E2E2E2E2E2E2E2E2E2E2E2E2E2E2E2E2E2E2E2E2E2E2E2E2E2E2E2E2E2E2E2E2E2E2E2E2E2E2E2E2E2E2E2E2E2E2E2E2E2E2E2E2E2E2E2E2E2E2E2E2E2E2E2E2E2E2E2E2E2E2E2E2E2E2E2E2E2E2E2E2E2E2E2E2E2E2E2E2E2E2E2E2E2E2E2E2E2E2
310
E2E2E2E2E2E2E2E2E2E2E2E2E2E2E2E2E2E2E2E2E2E2E2E2E2E2E2E2E2E2E2E2E2E2E2E2E2E2E2E2E2E2E2E2E2E2E2E2E2E2E2E2E2E2E2E2E2E2E2E2E2E2E2E2E2E2E2E2E2E2E2E2E2E2E2E2E2E2E2E2E2E2E2E2E2E2E2E2E2E2E2E2E2E2E2E2E2E2E2E2E2E2E2E2E2E2E2E2E2E2E2E2E2E2E2E2E2E2E2E2E2E2E2E2E2E2E2
310
E2E2E2E2E2E2E2E2E2E2E2E2E2E2E2E2E2E2E2E2E2E2E2E2E2E2E2E2E2E2E2E2E2E2E2E2E2E2E2E2E2E2E2E2E2E2E2E2E2E2E2E2E2E2E2E2E2E2E2E2E2E2E2E2E2E2E2E2E2E2E2E2E2E2E2E2E2E2E2E2E2E2E2E2E2E2E2E2E2E2E2E2E2E2E2E2E2E2E2E2E2E2E2E2E2E2E2E2E2E2E2E2E2E2E2E2E2E2E2E2E2E2E2E2E2E2E2
310
E2E2E2E2E2E2E2E2E2E2E2E2E2E2E2E2E2E2E2E2E2E2E2E2E2E2E2E2E2E2E2E2E2E2E2E2E2E2E2E2E2E2E2E2E2E2E2E2E2E2E2E2E2E2E2E2E2E2E2E2E2E2E2E2E2E2E2E2E2E2E2E2E2E2E2E2E2E2E2E2E2E2E2E2E2E2E2E2E2E2E2E2E2E2E2E2E2E2E2E2E2E2E2E2E2E2E2E2E2E2E2E2E2E2E2E2E2E2E2E2E2E2E2E2E2E2E2
310
E2E2E2E2E2E2E2E2E2E2E2E2E2E2E2E2E2E2E2E2E2E2E2E2E2E2E2E2E2E2E2E2E2E2E2E2E2E2E2E2E2E2E2E2E2E2E2E2E2E2E2E2E2E2E2E2E2E2E2E2E2E2E2E2E2E2E2E2E2E2E2E2E2E2E2E2E2E2E2E2E2E2E2E2E2E2E2E2E2E2E2E2E2E2E2E2E2E2E2E2E2E2E2E2E2E2E2E2E2E2E2E2E2E2E2E2E2E2E2E2E2E2E2E2E2E2E2
310
E2E2E2E2E2E2E2E2E2E2E2E2E2E2E2E2E2E2E2E2E2E2E2E2E2E2E2E2E2E2E2E2E2E2E2E2E2E2E2E2E2E2E2E2E2E2E2E2E2E2E2E2E2E2E2E2E2E2E2E2E2E2E2E2E2E2E2E2E2E2E2E2E2E2E2E2E2E2E2E2E2E2E2E2E2E2E2E2E2E2E2E2E2E2E2E2E2E2E2E2E2E2E2E2E2E2E2E2E2E2E2E2E2E2E2E2E2E2E2E2E2E2E2E2E2E2E2
310
E2E2E2E2E2E2E2E2E2E2E2E2E2E2E2E2E2E2E2E2E2E2E2E2E2E2E2E2E2E2E2E2E2E2E2E2E2E2E2E2E2E2E2E2E2E2E2E2E2E2E2E2E2E2E2E2E2E2E2E2E2E2E2E2E2E2E2E2E2E2E2E2E2E2E2E2E2E2E2E2E2E2E2E2E2E2E2E2E2E2E2E2E2E2E2E2E2E2E2E2E2E2E2E2E2E2E2E2E2E2E2E2E2E2E2E2E2E2E2E2E2E2E2E2E2E2E2
310
E2E2E2E2E2E2E2E2E2E2E2E2E2E2E2E2E2E2E2E2E2E2E2E2E2E2E2E2E2E2E2E2E2E2E2E2E2E2E2E2E2E2E2E2E2E2E2E2E2E2E2E2E2E2E2E2E2E2E2E2E2E2E2E2E2E2E2E2E2E2E2E2E2E2E2E2E2E2E2E2E2E2E2E2E2E2E2E2E2E2E2E2E2E2E2E2E2E2E2E2E2E2E2E2E2E2E2E2E2E2E2E2E2E2E2E2E2E2E2E2E2E2E2E2E2E2E2
310
E2E2E2E2E2E2E2E2E2E2E2E2E2E2E2E2E2E2E2E2E2E2E2E2E2E2E2E2E2E2E2E2E2E2E2E2E2E2E2E2E2E2E2E2E2E2E2E2E2E2E2E2E2E2E2E2E2E2E2E2E2E2E2E2E2E2E2E2E2E2E2E2E2E2E2E2E2E2E2E2E2E2E2E2E2E2E2E2E2E2E2E2E2E2E2E2E2E2E2E2E2E2E2E2E2E2E2E2E2E2E2E2E2E2E2E2E2E2E2E2E2E2E2E2E2E2E2
310
E2E2E2E2E2E2E2E2E2E2E2E2E2E2E2E2E2E2E2E2E2E2E2E2E2E2E2E2E2E2E2E2E2E2E2E2E2E2E2E2E2E2E2E2E2E2E2E2E2E2E2E2E2E2E2E2E2E2E2E2E2E2E2E2E2E2E2E2E2E2E2E2E2E2E2E2E2E2E2E2E2E2E2E2E2E2E2E2E2E2E2E2E2E2E2E2E2E2E2E2E2E2E2E2E2E2E2E2E2E2E2E2E2E2E2E2E2E2E2E2E2E2E2E2E2E2E2
310
E2E2E2E2E2E2E2E2E2E2E2E2E2E2E2E2E2E2E2E2E2E2E2E2E2E2E2E2E2E2E2E2E2E2E2E2E2E2E2E2E2E2E2E2E2E2E2E2E2E2E2E2E2E2E2E2E2E2E2E2E2E2E2E2E2E2E2E2E2E2E2E2E2E2E2E2E2E2E2E2E2E2E2E2E2E2E2E2E2E2E2E2E2E2E2E2E2E2E2E2E2E2E2E2E2E2E2E2E2E2E2E2E2E2E2E2E2E2E2E2E2E2E2E2E2E2E2
310
E2E2E2E2E2E2E2E2E2E2E2E2E2E2E2E2E2E2E2E2E2E2E2E2E2E2E2E2E2E2E2E2E2E2E2E2E2E2E2E2E2E2E2E2E2E2E2E2E2E2E2E2E2E2E2E2E2E2E2E2E2E2E2E2E2E2E2E2E2E2E2E2E2E2E2E2E2E2E2E2E2E2E2E2E2E2E2E2E2E2E2E2E2E2E2E2E2E2E2E2E2E2E2E2E2E2E2E2E2E2E2E2E2E2E2E2E2E2E2E2E2E2E2E2E2E2E2
310
E2E2E2E2E2E2E2E2E2E2E2E2E2E2E2E2E2E2E2E2E2E2E2E2E2E2E2E2E2E2E2E2E2E2E2E2E2E2E2E2E2E2E2E2E2E2E2E2E2E2E2E2E2E2E2E2E2E2E2E2E2E2E2E2E2E2E2E2E2E2E2E2E2E2E2E2E2E2E2E2E2E2E2E2E2E2E2E2E2E2E2E2E2E2E2E2E2E2E2E2E2E2E2E2E2E2E2E2E2E2E2E2E2E2E2E2E2E2E2E2E2E2E2E2E2E2E2
310
E2E2E2E2E2E2E2E2E2E2E2E2E2E2E2E2E2E2E2E2E2E2E2E2E2E2E2E2E2E2E2E2E2E2E2E2E2E2E2E2E2E2E2E2E2E2E2E2E2E2E2E2E2E2E2E2E2E2E2E2E2E2E2E2E2E2E2E2E2E2E2E2E2E2E2E2E2E2E2E2E2E2E2E2E2E2E2E2E2E2E2E2E2E2E2E2E2E2E2E2E2E2E2E2E2E2E2E2E2E2E2E2E2E2E2E2E2E2E2E2E2E2E2E2E2E2E2
310
E2E2E2E2E2E2E2E2E2E2E2E2E2E2E2E2E2E2E2E2E2E2E2E2E2E2E2E2E2E2E2E2E2E2E2E2E2E2E2E2E2E2E2E2E2E2E2E2E2E2E2E2E2E2E2E2E2E2E2E2E2E2E2E2E2E2E2E2E2E2E2E2E2E2E2E2E2E2E2E2E2E2E2E2E2E2E2E2E2E2E2E2E2E2E2E2E2E2E2E2E2E2E2E2E2E2E2E2E2E2E2E2E2E2E2E2E2E2E2E2E2E2E2E2E2E2E2
310
E2E2E2E2E2E2E2E2E2E2E2E2E2E2E2E2E2E2E2E2E2E2E2E2E2E2E2E2E2E2E2E2E2E2E2E2E2E2E2E2E2E2E2E2E2E2E2E2E2E2E2E2E2E2E2E2E2E2E2E2E2E2E2E2E2E2E2E2E2E2E2E2E2E2E2E2E2E2E2E2E2E2E2E2E2E2E2E2E2E2E2E2E2E2E2E2E2E2E2E2E2E2E2E2E2E2E2E2E2E2E2E2E2E2E2E2E2E2E2E2E2E2E2E2E2E2E2
310
E2E2E2E2E2E2E2E2E2E2E2E2E2E2E2E2E2E2E2E2E2E2E2E2E2E2E2E2E2E2E2E2E2E2E2E2E2E2E2E2E2E2E2E2E2E2E2E2E2E2E2E2E2E2E2E2E2E2E2E2E2E2E2E2E2E2E2E2E2E2E2E2E2E2E2E2E2E2E2E2E2E2E2E2E2E2E2E2E2E2E2E2E2E2E2E2E2E2E2E2E2E2E2E2E2E2E2E2E2E2E2E2E2E2E2E2E2E2E2E2E2E2E2E2E2E2E2
310
E2E2E2E2E2E2E2E2E2E2E2E2E2E2E2E2E2E2E2E2E2E2E2E2E2E2E2E2E2E2E2E2E2E2E2E2E2E2E2E2E2E2E2E2E2E2E2E2E2E2E2E2E2E2E2E2E2E2E2E2E2E2E2E2E2E2E2E2E2E2E2E2E2E2E2E2E2E2E2E2E2E2E2E2E2E2E2E2E2E2E2E2E2E2E2E2E2E2E2E2E2E2E2E2E2E2E2E2E2E2E2E2E2E2E2E2E2E2E2E2E2E2E2E2E2E2E2
310
E2E2E2E2E2E2E2E2E2E2E2E2E2E2E2E2E2E2E2E2E2E2E2E2E2E2E2E2E2E2E2E2E2E2E2E2E2E2E2E2E2E2E2E2E2E2E2E2E2E2E2E2E2E2E2E2E2E2E2E2E2E2E2E2E2E2E2E2E2E2E2E2E2E2E2E2E2E2E2E2E2E2E2E2E2E2E2E2E2E2E2E2E2E2E2E2E2E2E2E2E2E2E2E2E2E2E2E2E2E2E2E2E2E2E2E2E2E2E2E2E2E2E2E2E2E2E2
310
E2E2E2E2E2E2E2E2E2E2E2E2E2E2E2E2E2E2E2E2E2E2E2E2E2E2E2E2E2E2E2E2E2E2E2E2E2E2E2E2E2E2E2E2E2E2E2E2E2E2E2E2E2E2E2E2E2E2E2E2E2E2E2E2E2E2E2E2E2E2E2E2E2E2E2E2E2E2E2E2E2E2E2E2E2E2E2E2E2E2E2E2E2E2E2E2E2E2E2E2E2E2E2E2E2E2E2E2E2E2E2E2E2E2E2E2E2E2E2E2E2E2E2E2E2E2E2
310
E2E2E2E2E2E2E2E2E2E2E2E2E2E2E2E2E2E2E2E2E2E2E2E2E2E2E2E2E2E2E2E2E2E2E2E2E2E2E2E2E2E2E2E2E2E2E2E2E2E2E2E2E2E2E2E2E2E2E2E2E2E2E2E2E2E2E2E2E2E2E2E2E2E2E2E2E2E2E2E2E2E2E2E2E2E2E2E2E2E2E2E2E2E2E2E2E2E2E2E2E2E2E2E2E2E2E2E2E2E2E2E2E2E2E2E2E2E2E2E2E2E2E2E2E2E2E2
310
E2E2E2E2E2E2E2E2E2E2E2E2E2E2E2E2E2E2E2E2E2E2E2E2E2E2E2E2E2E2E2E2E2E2E2E2E2E2E2E2E2E2E2E2E2E2E2E2E2E2E2E2E2E2E2E2E2E2E2E2E2E2E2E2E2E2E2E2E2E2E2E2E2E2E2E2E2E2E2E2E2E2E2E2E2E2E2E2E2E2E2E2E2E2E2E2E2E2E2E2E2E2E2E2E2E2E2E2E2E2E2E2E2E2E2E2E2E2E2E2E2E2E2E2E2E2E2
310
E2E2E2E2E2E2E2E2E2E2E2E2E2E2E2E2E2E2E2E2E2E2E2E2E2E2E2E2E2E2E2E2E2E2E2E2E2E2E2E2E2E2E2E2E2E2E2E2E2E2E2E2E2E2E2E2E2E2E2E2E2E2E2E2E2E2E2E2E2E2E2E2E2E2E2E2E2E2E2E2E2E2E2E2E2E2E2E2E2E2E2E2E2E2E2E2E2E2E2E2E2E2E2E2E2E2E2E2E2E2E2E2E2E2E2E2E2E2E2E2E2E2E2E2E2E2E2
310
E2E2E2E2E2E2E2E2E2E2E2E2E2E2E2E2E2E2E2E2E2E2E2E2E2E2E2E2E2E2E2E2E2E2E2E2E2E2E2E2E2E2E2E2E2E2E2E2E2E2E2E2E2E2E2E2E2E2E2E2E2E2E2E2E2E2E2E2E2E2E2E2E2E2E2E2E2E2E2E2E2E2E2E2E2E2E2E2E2E2E2E2E2E2E2E2E2E2E2E2E2E2E2E2E2E2E2E2E2E2E2E2E2E2E2E2E2E2E2E2E2E2E2E2E2E2E2
310
E2E2E2E2E2E2E2E2E2E2E2E2E2E2E2E2E2E2E2E2E2E2E2E2E2E2E2E2E2E2E2E2E2E2E2E2E2E2E2E2E2E2E2E2E2E2E2E2E2E2E2E2E2E2E2E2E2E2E2E2E2E2E2E2E2E2E2E2E2E2E2E2E2E2E2E2E2E2E2E2E2E2E2E2E2E2E2E2E2E2E2E2E2E2E2E2E2E2E2E2E2E2E2E2E2E2E2E2E2E2E2E2E2E2E2E2E2E2E2E2E2E2E2E2E2E2E2
310
E2E2E2E2E2E2E2E2E2E2E2E2E2E2E2E2E2E2E2E2E2E2E2E2E2E2E2E2E2E2E2E2E2E2E2E2E2E2E2E2E2E2E2E2E2E2E2E2E2E2E2E2E2E2E2E2E2E2E2E2E2E2E2E2E2E2E2E2E2E2E2E2E2E2E2E2E2E2E2E2E2E2E2E2E2E2E2E2E2E2E2E2E2E2E2E2E2E2E2E2E2E2E2E2E2E2E2E2E2E2E2E2E2E2E2E2E2E2E2E2E2E2E2E2E2E2E2
310
E2E2E2E2E2E2E2E2E2E2E2E2E2E2E2E2E2E2E2E2E2E2E2E2E2E2E2E2E2E2E2E2E2E2E2E2E2E2E2E2E2E2E2E2E2E2E2E2E2E2E2E2E2E2E2E2E2E2E2E2E2E2E2E2E2E2E2E2E2E2E2E2E2E2E2E2E2E2E2E2E2E2E2E2E2E2E2E2E2E2E2E2E2E2E2E2E2E2E2E2E2E2E2E2E2E2E2E2E2E2E2E2E2E2E2E2E2E2E2E2E2E2E2E2E2E2E2
310
E2E2E2E2E2E2E2E2E2E2E2E2E2E2E2E2E2E2E2E2E2E2E2E2E2E2E2E2E2E2E2E2E2E2E2E2E2E2E2E2E2E2E2E2E2E2E2E2E2E2E2E2E2E2E2E2E2E2E2E2E2E2E2E2E2E2E2E2E2E2E2E2E2E2E2E2E2E2E2E2E2E2E2E2E2E2E2E2E2E2E2E2E2E2E2E2E2E2E2E2E2E2E2E2E2E2E2E2E2E2E2E2E2E2E2E2E2E2E2E2E2E2E2E2E2E2E2
310
E2E2E2E2E2E2E2E2E2E2E2E2E2E2E2E2E2E2E2E2E2E2E2E2E2E2E2E2E2E2E2E2E2E2E2E2E2E2E2E2E2E2E2E2E2E2E2E2E2E2E2E2E2E2E2E2E2E2E2E2E2E2E2E2E2E2E2E2E2E2E2E2E2E2E2E2E2E2E2E2E2E2E2E2E2E2E2E2E2E2E2E2E2E2E2E2E2E2E2E2E2E2E2E2E2E2E2E2E2E2E2E2E2E2E2E2E2E2E2E2E2E2E2E2E2E2E2
310
E2E2E2E2E2E2E2E2E2E2E2E2E2E2E2E2E2E2E2E2E2E2E2E2E2E2E2E2E2E2E2E2E2E2E2E2E2E2E2E2E2E2E2E2E2E2E2E2E2E2E2E2E2E2E2E2E2E2E2E2E2E2E2E2E2E2E2E2E2E2E2E2E2E2E2E2E2E2E2E2E2E2E2E2E2E2E2E2E2E2E2E2E2E2E2E2E2E2E2E2E2E2E2E2E2E2E2E2E2E2E2E2E2E2E2E2E2E2E2E2E2E2E2E2E2E2E2
310
E2E2E2E2E2E2E2E2E2E2E2E2E2E2E2E2E2E2E2E2E2E2E2E2E2E2E2E2E2E2E2E2E2E2E2E2E2E2E2E2E2E2E2E2E2E2E2E2E2E2E2E2E2E2E2E2E2E2E2E2E2E2E2E2E2E2E2E2E2E2E2E2E2E2E2E2E2E2E2E2E2E2E2E2E2E2E2E2E2E2E2E2E2E2E2E2E2E2E2E2E2E2E2E2E2E2E2E2E2E2E2E2E2E2E2E2E2E2E2E2E2E2E2E2E2E2E2
310
E2E2E2E2E2E2E2E2E2E2E2E2E2E2E2E2E2E2E2E2E2E2E2E2E2E2E2E2E2E2E2E2E2E2E2E2E2E2E2E2E2E2E2E2E2E2E2E2E2E2E2E2E2E2E2E2E2E2E2E2E2E2E2E2E2E2E2E2E2E2E2E2E2E2E2E2E2E2E2E2E2E2E2E2E2E2E2E2E2E2E2E2E2E2E2E2E2E2E2E2E2E2E2E2E2E2E2E2E2E2E2E2E2E2E2E2E2E2E2E2E2E2E2E2E2E2E2
310
E2E2E2E2E2E2E2E2E2E2E2E2E2E2E2E2E2E2E2E2E2E2E2E2E2E2E2E2E2E2E2E2E2E2E2E2E2E2E2E2E2E2E2E2E2E2E2E2E2E2E2E2E2E2E2E2E2E2E2E2E2E2E2E2E2E2E2E2E2E2E2E2E2E2E2E2E2E2E2E2E2E2E2E2E2E2E2E2E2E2E2E2E2E2E2E2E2E2E2E2E2E2E2E2E2E2E2E2E2E2E2E2E2E2E2E2E2E2E2E2E2E2E2E2E2E2E2
310
E2E2E2E2E2E2E2E2E2E2E2E2E2E2E2E2E2E2E2E2E2E2E2E2E2E2E2E2E2E2E2E2E2E2E2E2E2E2E2E2E2E2E2E2E2E2E2E2E2E2E2E2E2E2E2E2E2E2E2E2E2E2E2E2E2E2E2E2E2E2E2E2E2E2E2E2E2E2E2E2E2E2E2E2E2E2E2E2E2E2E2E2E2E2E2E2E2E2E2E2E2E2E2E2E2E2E2E2E2E2E2E2E2E2E2E2E2E2E2E2E2E2E2E2E2E2E2
310
E2E2E2E2E2E2E2E2E2E2E2E2E2E2E2E2E2E2E2E2E2E2E2E2E2E2E2E2E2E2E2E2E2E2E2E2E2E2E2E2E2E2E2E2E2E2E2E2E2E2E2E2E2E2E2E2E2E2E2E2E2E2E2E2E2E2E2E2E2E2E2E2E2E2E2E2E2E2E2E2E2E2E2E2E2E2E2E2E2E2E2E2E2E2E2E2E2E2E2E2E2E2E2E2E2E2E2E2E2E2E2E2E2E2E2E2E2E2E2E2E2E2E2E2E2E2E2
310
E2E2E2E2E2E2E2E2E2E2E2E2E2E2E2E2E2E2E2E2E2E2E2E2E2E2E2E2E2E2E2E2E2E2E2E2E2E2E2E2E2E2E2E2E2E2E2E2E2E2E2E2E2E2E2E2E2E2E2E2E2E2E2E2E2E2E2E2E2E2E2E2E2E2E2E2E2E2E2E2E2E2E2E2E2E2E2E2E2E2E2E2E2E2E2E2E2E2E2E2E2E2E2E2E2E2E2E2E2E2E2E2E2E2E2E2E2E2E2E2E2E2E2E2E2E2E2
310
E2E2E2E2E2E2E2E2E2E2E2E2E2E2E2E2E2E2E2E2E2E2E2E2E2E2E2E2E2E2E2E2E2E2E2E2E2E2E2E2E2E2E2E2E2E2E2E2E2E2E2E2E2E2E2E2E2E2E2E2E2E2E2E2E2E2E2E2E2E2E2E2E2E2E2E2E2E2E2E2E2E2E2E2E2E2E2E2E2E2E2E2E2E2E2E2E2E2E2E2E2E2E2E2E2E2E2E2E2E2E2E2E2E2E2E2E2E2E2E2E2E2E2E2E2E2E2
310
E2E2E2E2E2E2E2E2E2E2E2E2E2E2E2E2E2E2E2E2E2E2E2E2E2E2E2E2E2E2E2E2E2E2E2E2E2E2E2E2E2E2E2E2E2E2E2E2E2E2E2E2E2E2E2E2E2E2E2E2E2E2E2E2E2E2E2E2E2E2E2E2E2E2E2E2E2E2E2E2E2E2E2E2E2E2E2E2E2E2E2
  0
XRECORD
  5
549
102
{ACAD_REACTORS
330
3E
102
}
330
3E
100
AcDbXrecord
280
     1
102
MATERIAL
148
0.0
149
0.0
149
0.0
 93
        0
 94
      127
282
     0
 72
     0
 77
     0
171
     0
175
     0
179
     0
273
     0
  0
XRECORD
  5
3F
102
{ACAD_REACTORS
330
3E
102
}
330
3E
100
AcDbXrecord
280
     1
270
     1
271
     1
  0
XRECORD
  5
40
102
{ACAD_REACTORS
330
3E
102
}
330
3E
100
AcDbXrecord
280
     1
270
     1
271
     1
  0
XRECORD
  5
41
102
{ACAD_REACTORS
330
3E
102
}
330
3E
100
AcDbXrecord
280
     1
270
     1
271
     1
  0
XRECORD
  5
42
102
{ACAD_REACTORS
330
3E
102
}
330
3E
100
AcDbXrecord
280
     1
270
     1
271
     1
  0
XRECORD
  5
43
102
{ACAD_REACTORS
330
3E
102
}
330
3E
100
AcDbXrecord
280
     1
270
     1
271
     1
  0
XRECORD
  5
44
102
{ACAD_REACTORS
330
3E
102
}
330
3E
100
AcDbXrecord
280
     1
270
     1
271
     1
  0
XRECORD
  5
548
102
{ACAD_REACTORS
330
36
102
}
330
36
100
AcDbXrecord
280
     1
102
MATERIAL
148
0.0
149
0.0
149
0.0
 93
        0
 94
      127
282
     0
 72
     0
 77
     0
171
     0
175
     0
179
     0
273
     0
  0
XRECORD
  5
37
102
{ACAD_REACTORS
330
36
102
}
330
36
100
AcDbXrecord
280
     1
270
     1
271
     1
  0
XRECORD
  5
38
102
{ACAD_REACTORS
330
36
102
}
330
36
100
AcDbXrecord
280
     1
270
     1
271
     1
  0
XRECORD
  5
39
102
{ACAD_REACTORS
330
36
102
}
330
36
100
AcDbXrecord
280
     1
270
     1
271
     1
  0
XRECORD
  5
3A
102
{ACAD_REACTORS
330
36
102
}
330
36
100
AcDbXrecord
280
     1
270
     1
271
     1
  0
XRECORD
  5
3B
102
{ACAD_REACTORS
330
36
102
}
330
36
100
AcDbXrecord
280
     1
270
     1
271
     1
  0
XRECORD
  5
3C
102
{ACAD_REACTORS
330
36
102
}
330
36
100
AcDbXrecord
280
     1
270
     1
271
     1
  0
XRECORD
  5
544
102
{ACAD_REACTORS
330
C
102
}
330
C
100
AcDbXrecord
280
     1
102
MATERIAL
148
0.0
149
0.0
149
0.0
 93
        0
 94
      127
282
     0
 72
     0
 77
     0
171
     0
175
     0
179
     0
273
     0
  0
XRECORD
  5
D
102
{ACAD_REACTORS
330
C
102
}
330
C
100
AcDbXrecord
280
     1
270
     1
271
     1
  0
XRECORD
  5
E
102
{ACAD_REACTORS
330
C
102
}
330
C
100
AcDbXrecord
280
     1
270
     1
271
     1
  0
XRECORD
  5
F
102
{ACAD_REACTORS
330
C
102
}
330
C
100
AcDbXrecord
280
     1
270
     1
271
     1
  0
XRECORD
  5
10
102
{ACAD_REACTORS
330
C
102
}
330
C
100
AcDbXrecord
280
     1
270
     1
271
     1
  0
XRECORD
  5
11
102
{ACAD_REACTORS
330
C
102
}
330
C
100
AcDbXrecord
280
     1
270
     1
271
     1
  0
XRECORD
  5
12
102
{ACAD_REACTORS
330
C
102
}
330
C
100
AcDbXrecord
280
     1
270
     1
271
     1
  0
CELLSTYLEMAP
  5
10BC
102
{ACAD_REACTORS
330
4F5
102
}
330
4F5
100
AcDbCellStyleMap
 90
        3
300
CELLSTYLE
  1
TABLEFORMAT_BEGIN
 90
        5
170
     1
 91
        0
 92
    32768
 62
   257
 93
        1
300
CONTENTFORMAT
  1
CONTENTFORMAT_BEGIN
 90
        0
 91
        0
 92
        4
 93
        0
300

 40
0.0
140
1.0
 94
        5
 62
     0
340
22
144
6.0
309
CONTENTFORMAT_END
171
     1
301
MARGIN
  1
CELLMARGIN_BEGIN
 40
1.5
 40
1.5
 40
1.5
 40
1.5
 40
0.18
 40
0.18
309
CELLMARGIN_END
 94
        6
 95
        1
302
GRIDFORMAT
  1
GRIDFORMAT_BEGIN
 90
        0
 91
        1
 62
     0
 92
       -2
340
0
 93
        0
 40
0.045
309
GRIDFORMAT_END
 95
        2
302
GRIDFORMAT
  1
GRIDFORMAT_BEGIN
 90
        0
 91
        1
 62
     0
 92
       -2
340
0
 93
        0
 40
0.045
309
GRIDFORMAT_END
 95
        4
302
GRIDFORMAT
  1
GRIDFORMAT_BEGIN
 90
        0
 91
        1
 62
     0
 92
       -2
340
0
 93
        0
 40
0.045
309
GRIDFORMAT_END
 95
        8
302
GRIDFORMAT
  1
GRIDFORMAT_BEGIN
 90
        0
 91
        1
 62
     0
 92
       -2
340
0
 93
        0
 40
0.045
309
GRIDFORMAT_END
 95
       16
302
GRIDFORMAT
  1
GRIDFORMAT_BEGIN
 90
        0
 91
        1
 62
     0
 92
       -2
340
0
 93
        0
 40
0.045
309
GRIDFORMAT_END
 95
       32
302
GRIDFORMAT
  1
GRIDFORMAT_BEGIN
 90
        0
 91
        1
 62
     0
 92
       -2
340
0
 93
        0
 40
0.045
309
GRIDFORMAT_END
309
TABLEFORMAT_END
  1
CELLSTYLE_BEGIN
 90
        1
 91
        1
300
_TITLE
309
CELLSTYLE_END
300
CELLSTYLE
  1
TABLEFORMAT_BEGIN
 90
        5
170
     1
 91
        0
 92
        0
 62
   257
 93
        1
300
CONTENTFORMAT
  1
CONTENTFORMAT_BEGIN
 90
        0
 91
        0
 92
        4
 93
        0
300

 40
0.0
140
1.0
 94
        5
 62
     0
340
22
144
4.5
309
CONTENTFORMAT_END
171
     1
301
MARGIN
  1
CELLMARGIN_BEGIN
 40
1.5
 40
1.5
 40
1.5
 40
1.5
 40
0.18
 40
0.18
309
CELLMARGIN_END
 94
        6
 95
        1
302
GRIDFORMAT
  1
GRIDFORMAT_BEGIN
 90
        0
 91
        1
 62
     0
 92
       -2
340
0
 93
        0
 40
0.045
309
GRIDFORMAT_END
 95
        2
302
GRIDFORMAT
  1
GRIDFORMAT_BEGIN
 90
        0
 91
        1
 62
     0
 92
       -2
340
0
 93
        0
 40
0.045
309
GRIDFORMAT_END
 95
        4
302
GRIDFORMAT
  1
GRIDFORMAT_BEGIN
 90
        0
 91
        1
 62
     0
 92
       -2
340
0
 93
        0
 40
0.045
309
GRIDFORMAT_END
 95
        8
302
GRIDFORMAT
  1
GRIDFORMAT_BEGIN
 90
        0
 91
        1
 62
     0
 92
       -2
340
0
 93
        0
 40
0.045
309
GRIDFORMAT_END
 95
       16
302
GRIDFORMAT
  1
GRIDFORMAT_BEGIN
 90
        0
 91
        1
 62
     0
 92
       -2
340
0
 93
        0
 40
0.045
309
GRIDFORMAT_END
 95
       32
302
GRIDFORMAT
  1
GRIDFORMAT_BEGIN
 90
        0
 91
        1
 62
     0
 92
       -2
340
0
 93
        0
 40
0.045
309
GRIDFORMAT_END
309
TABLEFORMAT_END
  1
CELLSTYLE_BEGIN
 90
        2
 91
        1
300
_HEADER
309
CELLSTYLE_END
300
CELLSTYLE
  1
TABLEFORMAT_BEGIN
 90
        5
170
     1
 91
        0
 92
        0
 62
   257
 93
        1
300
CONTENTFORMAT
  1
CONTENTFORMAT_BEGIN
 90
        0
 91
        0
 92
        4
 93
        0
300

 40
0.0
140
1.0
 94
        2
 62
     0
340
22
144
4.5
309
CONTENTFORMAT_END
171
     1
301
MARGIN
  1
CELLMARGIN_BEGIN
 40
1.5
 40
1.5
 40
1.5
 40
1.5
 40
0.18
 40
0.18
309
CELLMARGIN_END
 94
        6
 95
        1
302
GRIDFORMAT
  1
GRIDFORMAT_BEGIN
 90
        0
 91
        1
 62
     0
 92
       -2
340
0
 93
        0
 40
0.045
309
GRIDFORMAT_END
 95
        2
302
GRIDFORMAT
  1
GRIDFORMAT_BEGIN
 90
        0
 91
        1
 62
     0
 92
       -2
340
0
 93
        0
 40
0.045
309
GRIDFORMAT_END
 95
        4
302
GRIDFORMAT
  1
GRIDFORMAT_BEGIN
 90
        0
 91
        1
 62
     0
 92
       -2
340
0
 93
        0
 40
0.045
309
GRIDFORMAT_END
 95
        8
302
GRIDFORMAT
  1
GRIDFORMAT_BEGIN
 90
        0
 91
        1
 62
     0
 92
       -2
340
0
 93
        0
 40
0.045
309
GRIDFORMAT_END
 95
       16
302
GRIDFORMAT
  1
GRIDFORMAT_BEGIN
 90
        0
 91
        1
 62
     0
 92
       -2
340
0
 93
        0
 40
0.045
309
GRIDFORMAT_END
 95
       32
302
GRIDFORMAT
  1
GRIDFORMAT_BEGIN
 90
        0
 91
        1
 62
     0
 92
       -2
340
0
 93
        0
 40
0.045
309
GRIDFORMAT_END
309
TABLEFORMAT_END
  1
CELLSTYLE_BEGIN
 90
        3
 91
        2
300
_DATA
309
CELLSTYLE_END
  0
XRECORD
  5
10C1
102
{ACAD_REACTORS
330
4F5
102
}
330
4F5
100
AcDbXrecord
280
     1
102
ACAD_ROUNDTRIP_PRE2007_TABLESTYLE
 90
        4
 91
        0
  1

 92
        4
 93
        0
  2

 94
        4
 95
        0
  3

  0
ENDSEC
  0
EOF
