  0
SECTION
  2
HEADER
  9
$ACADVER
  1
AC1015
  9
$ACADMAINTVER
 70
    20
  9
$DWGCODEPAGE
  3
ANSI_932
  9
$INSBASE
 10
0.0
 20
0.0
 30
0.0
  9
$EXTMIN
 10
1228.952155930481
 20
-337.3839279104605
 30
-0.00000001
  9
$EXTMAX
 10
2160.96478349883
 20
820.2290354394458
 30
0.00000001
  9
$LIMMIN
 10
0.0
 20
0.0
  9
$LIMMAX
 10
420.0
 20
297.0
  9
$ORTHOMODE
 70
     1
  9
$REGENMODE
 70
     1
  9
$FILLMODE
 70
     1
  9
$QTEXTMODE
 70
     0
  9
$MIRRTEXT
 70
     1
  9
$LTSCALE
 40
1.0
  9
$ATTMODE
 70
     1
  9
$TEXTSIZE
 40
43.66586864911549
  9
$TRACEWID
 40
1.0
  9
$TEXTSTYLE
  7
Standard
  9
$CLAYER
  8
0
  9
$CELTYPE
  6
ByLayer
  9
$CECOLOR
 62
   256
  9
$CELTSCALE
 40
1.0
  9
$DISPSILH
 70
     0
  9
$DIMSCALE
 40
5.0
  9
$DIMASZ
 40
2.5
  9
$DIMEXO
 40
0.625
  9
$DIMDLI
 40
3.75
  9
$DIMRND
 40
0.5
  9
$DIMDLE
 40
0.0
  9
$DIMEXE
 40
1.25
  9
$DIMTP
 40
0.0
  9
$DIMTM
 40
0.0
  9
$DIMTXT
 40
2.5
  9
$DIMCEN
 40
2.5
  9
$DIMTSZ
 40
0.0
  9
$DIMTOL
 70
     0
  9
$DIMLIM
 70
     0
  9
$DIMTIH
 70
     0
  9
$DIMTOH
 70
     0
  9
$DIMSE1
 70
     0
  9
$DIMSE2
 70
     0
  9
$DIMTAD
 70
     1
  9
$DIMZIN
 70
     8
  9
$DIMBLK
  1
OPEN30
  9
$DIMASO
 70
     1
  9
$DIMSHO
 70
     1
  9
$DIMPOST
  1

  9
$DIMAPOST
  1

  9
$DIMALT
 70
     0
  9
$DIMALTD
 70
     3
  9
$DIMALTF
 40
0.03937007874016
  9
$DIMLFAC
 40
1.0
  9
$DIMTOFL
 70
     1
  9
$DIMTVP
 40
0.0
  9
$DIMTIX
 70
     0
  9
$DIMSOXD
 70
     0
  9
$DIMSAH
 70
     0
  9
$DIMBLK1
  1

  9
$DIMBLK2
  1

  9
$DIMSTYLE
  2
ISO-25
  9
$DIMCLRD
 70
     0
  9
$DIMCLRE
 70
     0
  9
$DIMCLRT
 70
     0
  9
$DIMTFAC
 40
1.0
  9
$DIMGAP
 40
0.625
  9
$DIMJUST
 70
     0
  9
$DIMSD1
 70
     0
  9
$DIMSD2
 70
     0
  9
$DIMTOLJ
 70
     0
  9
$DIMTZIN
 70
     8
  9
$DIMALTZ
 70
     0
  9
$DIMALTTZ
 70
     0
  9
$DIMUPT
 70
     0
  9
$DIMDEC
 70
     1
  9
$DIMTDEC
 70
     1
  9
$DIMALTU
 70
     2
  9
$DIMALTTD
 70
     3
  9
$DIMTXSTY
  7
Standard
  9
$DIMAUNIT
 70
     0
  9
$DIMADEC
 70
     0
  9
$DIMALTRND
 40
0.0
  9
$DIMAZIN
 70
     0
  9
$DIMDSEP
 70
    46
  9
$DIMATFIT
 70
     3
  9
$DIMFRAC
 70
     0
  9
$DIMLDRBLK
  1
DOTSMALL
  9
$DIMLUNIT
 70
     2
  9
$DIMLWD
 70
    -2
  9
$DIMLWE
 70
    -2
  9
$DIMTMOVE
 70
     0
  9
$LUNITS
 70
     2
  9
$LUPREC
 70
     4
  9
$SKETCHINC
 40
1.0
  9
$FILLETRAD
 40
10.0
  9
$AUNITS
 70
     0
  9
$AUPREC
 70
     0
  9
$MENU
  1
.
  9
$ELEVATION
 40
0.0
  9
$PELEVATION
 40
0.0
  9
$THICKNESS
 40
0.0
  9
$LIMCHECK
 70
     0
  9
$CHAMFERA
 40
10.0
  9
$CHAMFERB
 40
10.0
  9
$CHAMFERC
 40
20.0
  9
$CHAMFERD
 40
0.0
  9
$SKPOLY
 70
     0
  9
$TDCREATE
 40
2451686.550481944
  9
$TDUCREATE
 40
2451686.175481945
  9
$TDUPDATE
 40
2454986.393151968
  9
$TDUUPDATE
 40
2454986.018151968
  9
$TDINDWG
 40
1.8423361806
  9
$TDUSRTIMER
 40
1.8423341898
  9
$USRTIMER
 70
     1
  9
$ANGBASE
 50
0.0
  9
$ANGDIR
 70
     0
  9
$PDMODE
 70
     0
  9
$PDSIZE
 40
0.0
  9
$PLINEWID
 40
0.0
  9
$SPLFRAME
 70
     0
  9
$SPLINETYPE
 70
     6
  9
$SPLINESEGS
 70
     8
  9
$HANDSEED
  5
C6D
  9
$SURFTAB1
 70
     6
  9
$SURFTAB2
 70
     6
  9
$SURFTYPE
 70
     6
  9
$SURFU
 70
     6
  9
$SURFV
 70
     6
  9
$UCSBASE
  2

  9
$UCSNAME
  2

  9
$UCSORG
 10
0.0
 20
0.0
 30
0.0
  9
$UCSXDIR
 10
1.0
 20
0.0
 30
0.0
  9
$UCSYDIR
 10
0.0
 20
1.0
 30
0.0
  9
$UCSORTHOREF
  2

  9
$UCSORTHOVIEW
 70
     0
  9
$UCSORGTOP
 10
0.0
 20
0.0
 30
0.0
  9
$UCSORGBOTTOM
 10
0.0
 20
0.0
 30
0.0
  9
$UCSORGLEFT
 10
0.0
 20
0.0
 30
0.0
  9
$UCSORGRIGHT
 10
0.0
 20
0.0
 30
0.0
  9
$UCSORGFRONT
 10
0.0
 20
0.0
 30
0.0
  9
$UCSORGBACK
 10
0.0
 20
0.0
 30
0.0
  9
$PUCSBASE
  2

  9
$PUCSNAME
  2

  9
$PUCSORG
 10
0.0
 20
0.0
 30
0.0
  9
$PUCSXDIR
 10
1.0
 20
0.0
 30
0.0
  9
$PUCSYDIR
 10
0.0
 20
1.0
 30
0.0
  9
$PUCSORTHOREF
  2

  9
$PUCSORTHOVIEW
 70
     0
  9
$PUCSORGTOP
 10
0.0
 20
0.0
 30
0.0
  9
$PUCSORGBOTTOM
 10
0.0
 20
0.0
 30
0.0
  9
$PUCSORGLEFT
 10
0.0
 20
0.0
 30
0.0
  9
$PUCSORGRIGHT
 10
0.0
 20
0.0
 30
0.0
  9
$PUCSORGFRONT
 10
0.0
 20
0.0
 30
0.0
  9
$PUCSORGBACK
 10
0.0
 20
0.0
 30
0.0
  9
$USERI1
 70
     0
  9
$USERI2
 70
     0
  9
$USERI3
 70
     0
  9
$USERI4
 70
     0
  9
$USERI5
 70
     0
  9
$USERR1
 40
0.0
  9
$USERR2
 40
0.0
  9
$USERR3
 40
0.0
  9
$USERR4
 40
0.0
  9
$USERR5
 40
0.0
  9
$WORLDVIEW
 70
     1
  9
$SHADEDGE
 70
     3
  9
$SHADEDIF
 70
    70
  9
$TILEMODE
 70
     1
  9
$MAXACTVP
 70
    48
  9
$PINSBASE
 10
0.0
 20
0.0
 30
0.0
  9
$PLIMCHECK
 70
     0
  9
$PEXTMIN
 10
-1151.520202254302
 20
-965.556304254887
 30
0.0
  9
$PEXTMAX
 10
2127.908310053115
 20
1290.869170724722
 30
0.0
  9
$PLIMMIN
 10
0.0
 20
0.0
  9
$PLIMMAX
 10
12.0
 20
9.0
  9
$UNITMODE
 70
     0
  9
$VISRETAIN
 70
     1
  9
$PLINEGEN
 70
     0
  9
$PSLTSCALE
 70
     1
  9
$TREEDEPTH
 70
  3020
  9
$CMLSTYLE
  2
Standard
  9
$CMLJUST
 70
     0
  9
$CMLSCALE
 40
20.0
  9
$PROXYGRAPHICS
 70
     1
  9
$MEASUREMENT
 70
     1
  9
$CELWEIGHT
370
    -1
  9
$ENDCAPS
280
     0
  9
$JOINSTYLE
280
     0
  9
$LWDISPLAY
290
     0
  9
$INSUNITS
 70
     4
  9
$HYPERLINKBASE
  1

  9
$STYLESHEET
  1

  9
$XEDIT
290
     1
  9
$CEPSNTYPE
380
     0
  9
$PSTYLEMODE
290
     1
  9
$FINGERPRINTGUID
  2
{270A1288-67E8-4FFF-8D53-85625374155F}
  9
$VERSIONGUID
  2
{71C0EB74-C242-4E63-A19B-BD7BD0BABD97}
  9
$EXTNAMES
290
     1
  9
$PSVPSCALE
 40
0.0
  9
$OLESTARTUP
290
     0
  0
ENDSEC
  0
SECTION
  2
CLASSES
  0
CLASS
  1
ACDBDICTIONARYWDFLT
  2
AcDbDictionaryWithDefault
  3
ObjectDBX Classes
 90
        0
280
     0
281
     0
  0
CLASS
  1
ACDBPLACEHOLDER
  2
AcDbPlaceHolder
  3
ObjectDBX Classes
 90
        0
280
     0
281
     0
  0
CLASS
  1
LAYOUT
  2
AcDbLayout
  3
ObjectDBX Classes
 90
        0
280
     0
281
     0
  0
CLASS
  1
ACME_DOCUMENT
  2
AcMeDoc
  3
AcMeServices
 90
    32768
280
     1
281
     0
  0
CLASS
  1
ACMESTATEMGR
  2
AcMeStateMgr
  3
AcMeServices
 90
    33792
280
     0
281
     0
  0
CLASS
  1
ACMESCOPE
  2
AcMeScope
  3
AcMeServices
 90
    33792
280
     0
281
     0
  0
CLASS
  1
ACMECOMMANDHISTORY
  2
AcMeCommandHistory
  3
AcMeServices
 90
    33792
280
     0
281
     0
  0
CLASS
  1
ACRFINSADJUSTERMGR
  2
AcRfInsAdjusterMgr
  3
AcMeServices
 90
    33792
280
     0
281
     0
  0
CLASS
  1
DICTIONARYVAR
  2
AcDbDictionaryVar
  3
ObjectDBX Classes
 90
        0
280
     0
281
     0
  0
CLASS
  1
ACIMSYSVARMAN
  2
AcImSysVarManager
  3
AcMeServices
 90
    33792
280
     0
281
     0
  0
CLASS
  1
ACIMREALSYSVAR
  2
AcImRealSysVar
  3
AcMeServices
 90
    33792
280
     0
281
     0
  0
CLASS
  1
ACIMINTSYSVAR
  2
AcImIntSysVar
  3
AcMeServices
 90
    33792
280
     0
281
     0
  0
CLASS
  1
ACMEDRAWINGMAN
  2
AcMeDrawingMan
  3
AcMeServices
 90
    33792
280
     0
281
     0
  0
CLASS
  1
ACMEVIEW
  2
AcMeView
  3
AcMeServices
 90
    33792
280
     0
281
     0
  0
CLASS
  1
ACDBENTITYCACHE
  2
AcMeEntityCache
  3
AcMeServices
 90
    33792
280
     0
281
     0
  0
CLASS
  1
ACGREFMASTER
  2
AcGrefMaster
  3
AcAttribServices
 90
    33792
280
     0
281
     0
  0
CLASS
  1
AMIMASTER
  2
AmiMaster
  3
AmiServices
 90
    33792
280
     0
281
     0
  0
CLASS
  1
ACASGREFMASTER
  2
AcAsGrefMaster
  3
AutoSurfResolverServices
 90
    33792
280
     0
281
     0
  0
CLASS
  1
ADAPPL
  2
AcAdAppl
  3
DesignerServices
 90
    33792
280
     0
281
     0
  0
CLASS
  1
DEPMGR
  2
AcAdDepMgr
  3
DesignerServices
 90
    33792
280
     0
281
     0
  0
CLASS
  1
PARAMMGR
  2
AcAdParamMgr
  3
DesignerServices
 90
    33792
280
     0
281
     0
  0
CLASS
  1
PARAMSCOPE
  2
AcAdParamScope
  3
DesignerServices
 90
    33792
280
     0
281
     0
  0
CLASS
  1
ACIMSTRSYSVAR
  2
AcImStrSysVar
  3
AcMeServices
 90
    33792
280
     0
281
     0
  0
CLASS
  1
NAMEDAPPL
  2
AcAdNamedAppl
  3
DesignerServices
 90
    33792
280
     0
281
     0
  0
CLASS
  1
ADHNTMPLT
  2
AdHoleNoteTemplateMgr
  3
DesignerServices
 90
    33792
280
     0
281
     0
  0
CLASS
  1
AM_HNTEMPLATE_MGR_NAME
  2
AdHoleNoteTemplateMgrName
  3
DesignerServices
 90
    33792
280
     0
281
     0
  0
CLASS
  1
ACADGREFMODULE
  2
AcAdGrefModule
  3
AdGrefServices
 90
    33792
280
     0
281
     0
  0
CLASS
  1
AM_DRAWING_MGR
  2
AcDmDwgMgr
  3
AcMechDwgViewMgmt
 90
    33792
280
     0
281
     0
  0
CLASS
  1
AM_DWG_DOCUMENT
  2
AcDmDwgDocument
  3
AcMechDwgViewMgmt
 90
    33792
280
     0
281
     0
  0
CLASS
  1
AM_DWG_SHEET
  2
AcDmSheet
  3
AcMechDwgViewMgmt
 90
    33792
280
     0
281
     0
  0
CLASS
  1
AM_VIEWDIMPARMAP
  2
AcDmViewDimParMap
  3
AcMechDwgViewMgmt
 90
    33792
280
     0
281
     0
  0
CLASS
  1
AM_DWGMGR_NAME
  2
AcDmDwgMgrName
  3
AcMechDwgViewMgmt
 90
    33792
280
     0
281
     0
  0
CLASS
  1
ACAMPROJECT
  2
AcAmProject
  3
DesignerAssemblies
 90
    33792
280
     0
281
     0
  0
CLASS
  1
ACAMGRCOMPSET
  2
AcAmGrCompSet
  3
DesignerAssemblies
 90
    32768
280
     1
281
     0
  0
CLASS
  1
ACAMGRCOMPDEFSET
  2
AcAmGrCompDefSet
  3
DesignerAssemblies
 90
    33792
280
     0
281
     0
  0
CLASS
  1
ACAMGRCOMPDEF
  2
AcAmGrCompDef
  3
DesignerAssemblies
 90
    33792
280
     0
281
     0
  0
CLASS
  1
ACCMCONTEXT
  2
AcCmContext
  3
DesignerAssemblies
 90
    33792
280
     0
281
     0
  0
CLASS
  1
ACAMCOMPDEF
  2
AcAmCompDef
  3
DesignerAssemblies
 90
    33792
280
     0
281
     0
  0
CLASS
  1
ACAMCOMPDEFMGR
  2
AcAmCompDefMgr
  3
DesignerAssemblies
 90
    33792
280
     0
281
     0
  0
CLASS
  1
AMCONTEXTMGR
  2
AcAmContextMgr
  3
DesignerAssemblies
 90
    33792
280
     0
281
     0
  0
CLASS
  1
ACAMCONTEXTMODELER
  2
AcAmContextModeler
  3
DesignerAssemblies
 90
    33792
280
     0
281
     0
  0
CLASS
  1
ACMDATADICTIONARY
  2
AcmDataDictionary
  3
"AcmSymBB|Product Description: AutoCAD Mechanical|Company: Autodesk, Inc."
 90
    33792
280
     0
281
     0
  0
CLASS
  1
ACMDATAENTRYBLOCK
  2
AcmDataEntryBlock
  3
AcmSymBB|Product Description: AutoCAD Mechanical|Company: Autodesk, Inc.
 90
    33792
280
     0
281
     0
  0
CLASS
  1
ACDMVIEWGEOM
  2
AcDmViewGeometry
  3
AcMechDwgViewMgmt
 90
    33792
280
     0
281
     1
  0
CLASS
  1
CBROWSERAPPOBJECT
  2
CBrowserAppObject
  3
McadcomServices
 90
    33792
280
     0
281
     0
  0
CLASS
  1
IM_STATIC_MAN
  2
AcImStaticVarManager
  3
AcMeServices
 90
    33792
280
     0
281
     0
  0
CLASS
  1
ASAPP
  2
AcAsAppObject
  3
AutoSurfServices
 90
    33792
280
     0
281
     0
  0
CLASS
  1
ACIMDBLSTATICVAR
  2
AcImDblStaticVar
  3
AcMeServices
 90
    33792
280
     0
281
     0
  0
CLASS
  1
ACIMSTRSTATICVAR
  2
AcImStrStaticVar
  3
AcMeServices
 90
    33792
280
     0
281
     0
  0
CLASS
  1
ACIMINTSTATICVAR
  2
AcImIntStaticVar
  3
AcMeServices
 90
    33792
280
     0
281
     0
  0
CLASS
  1
CATALOGSTATE
  2
AcAmCatalogState
  3
DesignerAssemblies
 90
    33792
280
     0
281
     0
  0
CLASS
  1
DM_PLACEHOLDER
  2
AcDmSelsetPlaceholder
  3
AcMechDwgViewMgmt
 90
    33792
280
     0
281
     0
  0
CLASS
  1
LAYER_INDEX
  2
AcDbLayerIndex
  3
ObjectDBX Classes
 90
    32768
280
     0
281
     0
  0
CLASS
  1
IDBUFFER
  2
AcDbIdBuffer
  3
ObjectDBX Classes
 90
    32768
280
     0
281
     0
  0
CLASS
  1
ACAMEXTERNALCOMPDEF
  2
AcAmExternalCompDef
  3
DesignerAssemblies
 90
    33792
280
     0
281
     0
  0
CLASS
  1
ACCMBODY
  2
AcCmBody
  3
DesignerAssemblies
 90
    33792
280
     0
281
     0
  0
CLASS
  1
ACAMGRCOMP
  2
AcAmGrComp
  3
DesignerAssemblies
 90
    33792
280
     0
281
     0
  0
CLASS
  1
ACAMCOMPFEEDBACK
  2
AcAmCompFeedback
  3
DesignerAssemblies
 90
    33792
280
     0
281
     0
  0
CLASS
  1
ACAMCOMP
  2
AcAmComp
  3
DesignerAssemblies
 90
    33792
280
     0
281
     0
  0
CLASS
  1
ACAMGRCOMPCLONE
  2
AcAmGrCompClone
  3
DesignerAssemblies
 90
    33792
280
     0
281
     0
  0
CLASS
  1
ACAMCLONEREACTOR
  2
AcAmGrCompCloneReactor
  3
DesignerAssemblies
 90
    33792
280
     0
281
     0
  0
CLASS
  1
AGDICTIONARY
  2
AgDictionary
  3
AccelView
 90
    33793
280
     0
281
     0
  0
CLASS
  1
EDGEID
  2
AcAdEdgeId
  3
DesignerServices
 90
    33792
280
     0
281
     0
  0
CLASS
  1
ACADPARTLINEDGRES
  2
AcAdPartLinEdgRes
  3
AdGrefServices
 90
    33792
280
     0
281
     0
  0
CLASS
  1
ACRFINSADJ
  2
AcRfInsAdjuster
  3
AcMeServices
 90
    33792
280
     0
281
     0
  0
CLASS
  1
STREFID
  2
AcAdStraightRefId
  3
DesignerServices
 90
    33792
280
     0
281
     0
  0
CLASS
  1
ACMEAXIS
  2
AcImAxisDisplay
  3
AcMeServices
 90
    33792
280
     0
281
     1
  0
CLASS
  1
FACEID
  2
AcAdFaceId
  3
DesignerServices
 90
    33792
280
     0
281
     0
  0
CLASS
  1
DEPEDGESECONDARYDEPID
  2
AcAdDepEdgeSecondaryDepId
  3
DesignerServices
 90
    33792
280
     0
281
     0
  0
CLASS
  1
ACADPARTPLANARFACERES
  2
AcAdPartPlanarFaceRes
  3
AdGrefServices
 90
    33792
280
     0
281
     0
  0
CLASS
  1
ACMEPOINT
  2
AcImPointDisplay
  3
AcMeServices
 90
    33792
280
     0
281
     1
  0
CLASS
  1
ACMELINEARARROW
  2
AcImLinearArrowDisplay
  3
AcMeServices
 90
    33792
280
     0
281
     1
  0
CLASS
  1
ACAMEXPR
  2
AcAmExpr
  3
DesignerAssemblies
 90
    33792
280
     0
281
     0
  0
CLASS
  1
ACCMDISTPLPL
  2
AcCmDistPlPl
  3
DesignerAssemblies
 90
    33792
280
     0
281
     0
  0
CLASS
  1
ACCMCONSTREACTOR
  2
AcCmConstraintReactor
  3
DesignerAssemblies
 90
    33792
280
     0
281
     0
  0
CLASS
  1
ACAMVIEWENTITYFILTER
  2
AcAmViewEntityFilter
  3
DesignerAssemblies
 90
    33792
280
     0
281
     0
  0
CLASS
  1
ACAMGRBLOCKRECORD
  2
AcAmGrBlockRecord
  3
DesignerAssemblies
 90
    33792
280
     0
281
     0
  0
CLASS
  1
ACAMVIEWREACTOR
  2
AcAmViewReactor
  3
DesignerAssemblies
 90
    33792
280
     0
281
     0
  0
CLASS
  1
AMVIEW
  2
AcAmView
  3
DesignerAssemblies
 90
    33792
280
     0
281
     0
  0
CLASS
  1
ACAMVIEWCONTEXT
  2
AcAmViewContext
  3
DesignerAssemblies
 90
    33792
280
     0
281
     0
  0
CLASS
  1
ACAMCOMPVIEWREACTOR
  2
AcAmGrCompViewReactor
  3
DesignerAssemblies
 90
    33792
280
     0
281
     0
  0
CLASS
  1
ACAMGRCOMPVIEW
  2
AcAmGrCompView
  3
DesignerAssemblies
 90
    33792
280
     0
281
     0
  0
CLASS
  1
SURFACEID
  2
AcAdSurfaceId
  3
DesignerServices
 90
    33792
280
     0
281
     0
  0
CLASS
  1
AM_GREF_PLANE
  2
AcDmGrefPlnDef
  3
AcMechDwgViewMgmt
 90
    33792
280
     0
281
     0
  0
CLASS
  1
AM_GREF_AXIS
  2
AcDmGrefAxisDef
  3
AcMechDwgViewMgmt
 90
    33792
280
     0
281
     0
  0
CLASS
  1
AM_BASE_VIEW_ORIENT
  2
AcDmBaseViewOr
  3
AcMechDwgViewMgmt
 90
    33792
280
     0
281
     0
  0
CLASS
  1
AM_DWG_VIEWPORT
  2
AcDmViewport
  3
AcMechDwgViewMgmt
 90
    33792
280
     0
281
     0
  0
CLASS
  1
AM_VIEW_DISPLAY
  2
AcDmDwgViewDisplay
  3
AcMechDwgViewMgmt
 90
    33792
280
     0
281
     0
  0
CLASS
  1
AM_BASE_VIEW
  2
AcDmBaseView
  3
AcMechDwgViewMgmt
 90
    33792
280
     0
281
     0
  0
CLASS
  1
ACDMVWEDLINE
  2
AcDmViewEdgeLine
  3
AcMechDwgViewMgmt
 90
    33792
280
     0
281
     1
  0
CLASS
  1
ACDMVWEDARC
  2
AcDmViewEdgeArc
  3
AcMechDwgViewMgmt
 90
    33792
280
     0
281
     1
  0
CLASS
  1
ACDMVWEDCIRC
  2
AcDmViewEdgeCircle
  3
AcMechDwgViewMgmt
 90
    33792
280
     0
281
     1
  0
CLASS
  1
AM_ORTHO_VIEW_ORIENT
  2
AcDmOrthoViewOr
  3
AcMechDwgViewMgmt
 90
    33792
280
     0
281
     0
  0
CLASS
  1
AM_ORTHO_VIEW
  2
AcDmOrthoView
  3
AcMechDwgViewMgmt
 90
    33792
280
     0
281
     0
  0
CLASS
  1
CNRREFID
  2
AcAdCornerId
  3
DesignerServices
 90
    33792
280
     0
281
     0
  0
CLASS
  1
ACADPARTPOINTRES
  2
AcAdPartPointRes
  3
AdGrefServices
 90
    33792
280
     0
281
     0
  0
CLASS
  1
AM_VIEWDIMLINEAR
  2
AcDmViewDimLinear
  3
AcMechDwgViewMgmt
 90
    33792
280
     0
281
     0
  0
CLASS
  1
ACADPARTCIRCEDGRES
  2
AcAdPartCircEdgRes
  3
AdGrefServices
 90
    33792
280
     0
281
     0
  0
CLASS
  1
CIRREFID
  2
AcAdCircleRefId
  3
DesignerServices
 90
    33792
280
     0
281
     0
  0
CLASS
  1
ACADPARTCYLINDERFACERES
  2
AcAdPartCylinderFaceRes
  3
AdGrefServices
 90
    33792
280
     0
281
     0
  0
CLASS
  1
ACCMDISTLNLN
  2
AcCmDistLnLn
  3
DesignerAssemblies
 90
    33792
280
     0
281
     0
  0
CLASS
  1
ACMECIRCARC
  2
AcImCircArcDisplay
  3
AcMeServices
 90
    33792
280
     0
281
     1
  0
CLASS
  1
ACCMDISTPTLN
  2
AcCmDistPtLn
  3
DesignerAssemblies
 90
    33792
280
     0
281
     0
  0
CLASS
  1
ACRFATTGENMGR
  2
AcRfAttGeneralMgr
  3
AcAttribServices
 90
    33792
280
     0
281
     0
  0
CLASS
  1
FEEDBACK
  2
AcAmFeedback
  3
DesignerAssemblies
 90
    33792
280
     0
281
     1
  0
CLASS
  1
ACAMTRIAXISSYMBOL
  2
AcAmTriAxisSymbol
  3
DesignerAssemblies
 90
    33792
280
     0
281
     0
  0
CLASS
  1
ACAMROTAXISSYMBOL
  2
AcAmRotAxisSymbol
  3
DesignerAssemblies
 90
    33792
280
     0
281
     0
  0
CLASS
  1
ACAMTEXTCIRCLESYMBOL
  2
AcAmTextCircleSymbol
  3
DesignerAssemblies
 90
    33792
280
     0
281
     0
  0
CLASS
  1
ACCMTANCLCL
  2
AcCmTanClCl
  3
AcCmServices
 90
    33792
280
     0
281
     0
  0
CLASS
  1
ACCMANGVECVEC
  2
AcCmAngVecVec
  3
DesignerAssemblies
 90
    33792
280
     0
281
     0
  0
CLASS
  1
ACMEROTATIONARROW
  2
AcImRotationArrowDisplay
  3
AcMeServices
 90
    33792
280
     0
281
     1
  0
CLASS
  1
ACDMVWEDSPLINE
  2
AcDmViewEdgeSpline
  3
AcMechDwgViewMgmt
 90
    33792
280
     0
281
     1
  0
CLASS
  1
SILEDGEID
  2
AcAdSilhouetteEdgeId
  3
DesignerServices
 90
    33792
280
     0
281
     0
  0
CLASS
  1
ACAMVECTORSYMBOL
  2
AcAmVectorSymbol
  3
DesignerAssemblies
 90
    33792
280
     0
281
     0
  0
CLASS
  1
ACCMTANCLPL
  2
AcCmTanClPl
  3
AcCmServices
 90
    33792
280
     0
281
     0
  0
CLASS
  1
AM_VIEW_SELECT_FILTER
  2
AcDmSelectViewEntFilter
  3
AcMechDwgViewMgmt
 90
    33792
280
     0
281
     0
  0
CLASS
  1
ACME_DATABASE
  2
AcMeDbDatabase
  3
AcMeServices
 90
    33792
280
     0
281
     0
  0
CLASS
  1
ACME_DOCUMENT
  2
AcMeDbDoc
  3
AcMeServices
 90
    33792
280
     0
281
     0
  0
CLASS
  1
AMGSETTINGSOBJ
  2
AmgSettingsObj
  3
"AcadM|Product Description: AutoCAD Mechanical|Company: Autodesk, Inc."
 90
    33792
280
     0
281
     0
  0
CLASS
  1
GSMANAGER
  2
AcMeGSManager
  3
AcMeServices
 90
    33792
280
     0
281
     0
  0
CLASS
  1
AMDTINTERNALREACTOR
  2
AmdtInternalReactor
  3
AcMeServices
 90
    33792
280
     0
281
     0
  0
CLASS
  1
ACGREFACADMASTER
  2
AcGrefacadMaster
  3
AcGrefServices
 90
    33792
280
     0
281
     0
  0
CLASS
  1
AMDTMENUSTATEMGR
  2
AmdtMenuStateMgr
  3
McadcomServices
 90
    33792
280
     0
281
     0
  0
CLASS
  1
AMDTMCOMMENUSTATE
  2
AmdtMcomMenuState
  3
McadcomServices
 90
    33792
280
     0
281
     0
  0
CLASS
  1
MAPIAMMOUDLE
  2
MApiAmModule
  3
MApiAmServices
 90
    33792
280
     0
281
     0
  0
CLASS
  1
AMDTDMMENUSTATE
  2
AmdtDmMenuState
  3
AcMechDwgViewMgmt
 90
    33792
280
     0
281
     0
  0
CLASS
  1
AMDTADMENUSTATE
  2
AmdtAdMenuState
  3
DesignerServices
 90
    33792
280
     0
281
     0
  0
CLASS
  1
AMDTAMMENUSTATE
  2
AmdtAmMenuState
  3
DesignerAssemblies
 90
    33792
280
     0
281
     0
  0
CLASS
  1
MAPIADMODULE
  2
MApiAdModule
  3
MApiAdServices
 90
    33792
280
     0
281
     0
  0
CLASS
  1
ACAMCOMPENT
  2
AcAmCompEnt
  3
DesignerAssemblies
 90
    33792
280
     0
281
     1
  0
CLASS
  1
ACAMCOMPENTCLONE
  2
AcAmCompEntClone
  3
DesignerAssemblies
 90
    33792
280
     0
281
     1
  0
CLASS
  1
ACAMCOMPENTVIEW
  2
AcAmCompEntView
  3
DesignerAssemblies
 90
    33792
280
     0
281
     1
  0
CLASS
  1
AM_CLDFLTS
  2
AcDmClDflts
  3
AcMechDwgViewMgmt
 90
    33792
280
     0
281
     0
  0
CLASS
  1
AMDTBROWSERDBTAB
  2
AmdtBrowserDbTab
  3
McadcomServices
 90
    33792
280
     0
281
     0
  0
CLASS
  1
AMGOBJPROPCFG
  2
AmgObjPropCfg
  3
"AmgLay|Product Description: AutoCAD Mechanical|Company: Autodesk, Inc."
 90
    33793
280
     0
281
     0
  0
CLASS
  1
ACDMVWEDELLIPSE
  2
AcDmViewEdgeEllipse
  3
AcMechDwgViewMgmt
 90
    33792
280
     0
281
     1
  0
CLASS
  1
ACAMGFILTERDAT
  2
AcAmgFilterDat
  3
"AcadM|Product Description: AutoCAD Mechanical|Company: Autodesk, Inc."
 90
    33792
280
     0
281
     0
  0
CLASS
  1
AMDTMAPISURFMOUDULE
  2
AmdtMApiSurfModule
  3
MApiSurfServices
 90
    33792
280
     0
281
     0
  0
CLASS
  1
ACDMPARTVIEWDATA
  2
AcDmPartViewData
  3
AcMechDwgViewMgmt
 90
    33792
280
     0
281
     0
  0
CLASS
  1
ACDMDISPLAYATTRIBS
  2
AcDmDisplayAttribs
  3
AcMechDwgViewMgmt
 90
    33792
280
     0
281
     0
  0
CLASS
  1
ACDMBODYINSTANCEDATA
  2
AcDmBodyInstanceData
  3
AcMechDwgViewMgmt
 90
    33792
280
     0
281
     0
  0
CLASS
  1
ACMSTANDARDISO
  2
AcmStandardISO
  3
"Amdt_StdImp|Product Description: AutoCAD Mechanical|Company: Autodesk, Inc."
 90
    33792
280
     0
281
     0
  0
CLASS
  1
AMDTEDGESTANDARDISO
  2
AmdtEdgeStdISO
  3
"Amdt_StdImp|Product Description: AutoCAD Mechanical|Company: Autodesk, Inc."
 90
    33792
280
     0
281
     0
  0
CLASS
  1
ACMSURFSTANDARDISO
  2
AcmSurfTextStdISO
  3
"Amdt_StdImp|Product Description: AutoCAD Mechanical|Company: Autodesk, Inc."
 90
    33792
280
     0
281
     0
  0
CLASS
  1
ACMFCFSTANDARDISO
  2
AcmFCFStdISO
  3
"Amdt_StdImp|Product Description: AutoCAD Mechanical|Company: Autodesk, Inc."
 90
    33792
280
     0
281
     0
  0
CLASS
  1
ACMWELDSTANDARDISO
  2
AcmWeldingStdISO
  3
"Amdt_StdImp|Product Description: AutoCAD Mechanical|Company: Autodesk, Inc."
 90
    33792
280
     0
281
     0
  0
CLASS
  1
ACMIDSTANDARDISO
  2
AcmIdStdISO
  3
"Amdt_StdImp|Product Description: AutoCAD Mechanical|Company: Autodesk, Inc."
 90
    33792
280
     0
281
     0
  0
CLASS
  1
ACMDATUMSTANDARDISO
  2
AcmDatumStdISO
  3
"Amdt_StdImp|Product Description: AutoCAD Mechanical|Company: Autodesk, Inc."
 90
    33792
280
     0
281
     0
  0
CLASS
  1
ACMBOMSTANDARDISO
  2
AcmBOMStdISO
  3
"Amdt_StdImp|Product Description: AutoCAD Mechanical|Company: Autodesk, Inc."
 90
    33792
280
     0
281
     0
  0
CLASS
  1
ACMDETAILSTANDARDISO
  2
AmdtDetailSymStdISO
  3
"Amdt_StdImp|Product Description: AutoCAD Mechanical|Company: Autodesk, Inc."
 90
    33792
280
     0
281
     0
  0
CLASS
  1
ACMSECTIONSTANDARDISO
  2
AmdtSectionSymStdISO
  3
"Amdt_StdImp|Product Description: AutoCAD Mechanical|Company: Autodesk, Inc."
 90
    33792
280
     0
281
     0
  0
CLASS
  1
ACMCENTERLINESTANDARDISO
  2
AmdtCenterLineStdISO
  3
"Amdt_StdImp|Product Description: AutoCAD Mechanical|Company: Autodesk, Inc."
 90
    33792
280
     0
281
     0
  0
CLASS
  1
ACMTHREADLINESTANDARDISO
  2
AmdtThreadLineStdISO
  3
"Amdt_StdImp|Product Description: AutoCAD Mechanical|Company: Autodesk, Inc."
 90
    33792
280
     0
281
     0
  0
CLASS
  1
ACAMGLAYSTD
  2
AcAmgLayStd
  3
"AmgLay|Product Description: AutoCAD Mechanical|Company: Autodesk, Inc."
 90
    33792
280
     0
281
     0
  0
CLASS
  1
ACAMGDIMSTD
  2
AcAmgDimStd
  3
"AmgDim|Product Description: AutoCAD Mechanical|Company: Autodesk, Inc."
 90
    33792
280
     0
281
     0
  0
CLASS
  1
ACAMGTITLESTD
  2
AcAmgTitleStd
  3
"AmgTitle|Product Description: AutoCAD Mechanical|Company: Autodesk, Inc."
 90
    36863
280
     0
281
     0
  0
CLASS
  1
AMDTFORMULAUPDATEDISPATCHER
  2
AmdtFormulaUpdateDispatcher
  3
AcMeServices
 90
    33792
280
     0
281
     0
  0
CLASS
  1
PARAM
  2
AcAdParam
  3
DesignerServices
 90
    33792
280
     0
281
     0
  0
CLASS
  1
ACMEPLINE
  2
AcImPlineDisplay
  3
AcMeServices
 90
    33792
280
     0
281
     1
  0
CLASS
  1
ACCMDISTLNPL
  2
AcCmDistLnPl
  3
AcCmServices
 90
    33792
280
     0
281
     0
  0
CLASS
  1
ACCMDISTPTPL
  2
AcCmDistPtPl
  3
DesignerAssemblies
 90
    33792
280
     0
281
     0
  0
CLASS
  1
ACMNOTESTANDARDISO
  2
AmdtNoteStdISO
  3
"Amdt_StdImp|Product Description: AutoCAD Mechanical|Company: Autodesk, Inc."
 90
    33792
280
     0
281
     0
  0
CLASS
  1
AMDTNOTETEMPLATEDB
  2
AmdtNoteTemplateDB
  3
AcmSymBB|Product Description: AutoCAD Mechanical|Company: Autodesk, Inc.
 90
    33792
280
     0
281
     0
  0
CLASS
  1
TABLESTYLE
  2
AcDbTableStyle
  3
ObjectDBX Classes
 90
     4095
280
     0
281
     0
  0
CLASS
  1
AM_VIEW_GROUP_FILTER
  2
AcDmGroupViewEntFilter
  3
AcMechDwgViewMgmt
 90
    33792
280
     0
281
     0
  0
CLASS
  1
MATERIAL
  2
AcDbMaterial
  3
ObjectDBX Classes
 90
     1153
280
     0
281
     0
  0
CLASS
  1
VISUALSTYLE
  2
AcDbVisualStyle
  3
ObjectDBX Classes
 90
     4095
280
     0
281
     0
  0
CLASS
  1
SCALE
  2
AcDbScale
  3
ObjectDBX Classes
 90
     1153
280
     0
281
     0
  0
CLASS
  1
MLEADERSTYLE
  2
AcDbMLeaderStyle
  3
ACDB_MLEADERSTYLE_CLASS
 90
     4095
280
     0
281
     0
  0
CLASS
  1
EXACTERMXREFMAP
  2
ExAcTermXrefMap
  3
EXAC_SERVICE
 90
    33793
280
     0
281
     0
  0
CLASS
  1
NPOCOLLECTION
  2
AcDbImpNonPersistentObjectsCollection
  3
ObjectDBX Classes
 90
     1153
280
     0
281
     0
  0
CLASS
  1
ACMTAPERSTANDARDISO
  2
AcmTaperStdISO
  3
"Amdt_StdImp|Product Description: AutoCAD Mechanical|Company: Autodesk, Inc."
 90
    33792
280
     0
281
     0
  0
CLASS
  1
ACMANOOTATIONVIEWSTANDARDISO
  2
AmdtAnViewStdISO
  3
"Amdt_StdImp|Product Description: AutoCAD Mechanical|Company: Autodesk, Inc."
 90
    33792
280
     0
281
     0
  0
CLASS
  1
LIGHT
  2
AcDbLight
  3
SCENEOE
 90
    33793
280
     0
281
     1
  0
CLASS
  1
SOLID_BACKGROUND
  2
AcDbSolidBackground
  3
SCENEOE
 90
     4095
280
     0
281
     0
  0
CLASS
  1
AM_ABS_PLANE
  2
AcDmAbsPlnDef
  3
AcMechDwgViewMgmt
 90
    33792
280
     0
281
     0
  0
CLASS
  1
AM_ABS_AXIS
  2
AcDmAbsAxisDef
  3
AcMechDwgViewMgmt
 90
    33792
280
     0
281
     0
  0
CLASS
  1
AM_ADCIRCTRLINE
  2
AcAdBullsEyeCl
  3
DesignerServices
 90
    33792
280
     0
281
     0
  0
CLASS
  1
AM_ADLINCTRLINE
  2
AcAdLineCl
  3
DesignerServices
 90
    33792
280
     0
281
     0
  0
CLASS
  1
CELLSTYLEMAP
  2
AcDbCellStyleMap
  3
ObjectDBX Classes
 90
     1152
280
     0
281
     0
  0
CLASS
  1
MULTILEADER
  2
AcDbMLeader
  3
ACDB_MLEADER_CLASS
 90
     1025
280
     0
281
     1
  0
ENDSEC
  0
SECTION
  2
TABLES
  0
TABLE
  2
VPORT
  5
29
102
{ACAD_XDICTIONARY
360
4F3
102
}
330
0
100
AcDbSymbolTable
 70
     1
  0
VPORT
  5
636
330
29
100
AcDbSymbolTableRecord
100
AcDbViewportTableRecord
  2
*Active
 70
     0
 10
0.0
 20
0.0
 11
1.0
 21
1.0
 12
-878.5858480554404
 22
62.49389903565043
 13
0.0
 23
0.0
 14
10.0
 24
10.0
 15
10.0
 25
10.0
 16
0.0
 26
0.0
 36
1037.518668812406
 17
2573.544317770096
 27
178.9286547288422
 37
0.0
 40
1166.55205959199
 41
1.807989690721649
 42
50.0
 43
0.0
 44
0.0
 50
0.0
 51
0.0
 71
     0
 72
   100
 73
     1
 74
     2
 75
     0
 76
     0
 77
     0
 78
     0
281
     4
 65
     0
110
0.0
120
0.0
130
0.0
111
1.0
121
0.0
131
0.0
112
0.0
122
1.0
132
0.0
 79
     0
146
0.0
  0
ENDTAB
  0
TABLE
  2
LTYPE
  5
24
330
0
100
AcDbSymbolTable
 70
     5
  0
LTYPE
  5
25
330
24
100
AcDbSymbolTableRecord
100
AcDbLinetypeTableRecord
  2
ByBlock
 70
     0
  3

 72
    65
 73
     0
 40
0.0
  0
LTYPE
  5
26
330
24
100
AcDbSymbolTableRecord
100
AcDbLinetypeTableRecord
  2
ByLayer
 70
     0
  3

 72
    65
 73
     0
 40
0.0
  0
LTYPE
  5
13
330
24
100
AcDbSymbolTableRecord
100
AcDbLinetypeTableRecord
  2
Continuous
 70
     0
  3
Solid line
 72
    65
 73
     0
 40
0.0
  0
LTYPE
  5
14D
330
24
100
AcDbSymbolTableRecord
100
AcDbLinetypeTableRecord
  2
HIDDEN
 70
     0
  3
Hidden __ __ __ __ __ __ __ __ __ __ __ __ __ _
 72
    65
 73
     2
 40
9.524999999999996
 49
6.349999999999997
 74
     0
 49
-3.174999999999998
 74
     0
  0
LTYPE
  5
7C
330
24
100
AcDbSymbolTableRecord
100
AcDbLinetypeTableRecord
  2
AM_ISO08W050
 70
     0
  3
____ . ____ . ____ . ____ . ____ . ____ . ____
 72
    65
 73
     4
 40
18.0
 49
12.0
 74
     0
 49
-1.5
 74
     0
 49
3.0
 74
     0
 49
-1.5
 74
     0
  0
LTYPE
  5
650
330
24
100
AcDbSymbolTableRecord
100
AcDbLinetypeTableRecord
  2
DASHDOT
 70
     0
  3
____ _ ____ _ ____ _ ____ _ ____ _ ____ _ ____
 72
    65
 73
     4
 40
5.5
 49
4.0
 74
     0
 49
-0.6
 74
     0
 49
0.3
 74
     0
 49
-0.6
 74
     0
  0
ENDTAB
  0
TABLE
  2
LAYER
  5
1E
102
{ACAD_XDICTIONARY
360
1F
102
}
330
0
100
AcDbSymbolTable
 70
    12
  0
LAYER
  5
6
102
{ACAD_XDICTIONARY
360
4E4
102
}
330
1E
100
AcDbSymbolTableRecord
100
AcDbLayerTableRecord
  2
0
 70
     0
 62
     7
  6
Continuous
370
    -3
390
7
  0
LAYER
  5
510
330
1E
100
AcDbSymbolTableRecord
100
AcDbLayerTableRecord
  2
Defpoints
 70
     0
 62
     7
  6
Continuous
290
     0
370
    -3
390
7
  0
LAYER
  5
651
330
1E
100
AcDbSymbolTableRecord
100
AcDbLayerTableRecord
  2
SIZE
 70
     0
 62
    30
  6
Continuous
370
    -3
390
7
  0
LAYER
  5
652
330
1E
100
AcDbSymbolTableRecord
100
AcDbLayerTableRecord
  2
OUTLINE
 70
     0
 62
     3
  6
Continuous
370
    -3
390
7
  0
LAYER
  5
653
330
1E
100
AcDbSymbolTableRecord
100
AcDbLayerTableRecord
  2
DETAIL
 70
     0
 62
     5
  6
Continuous
370
    -3
390
7
  0
LAYER
  5
654
330
1E
100
AcDbSymbolTableRecord
100
AcDbLayerTableRecord
  2
BASIS
 70
     0
 62
     6
  6
DASHDOT
370
    -3
390
7
  0
LAYER
  5
655
330
1E
100
AcDbSymbolTableRecord
100
AcDbLayerTableRecord
  2
NOTE
 70
     0
 62
     4
  6
Continuous
370
    -3
390
7
  0
LAYER
  5
656
330
1E
100
AcDbSymbolTableRecord
100
AcDbLayerTableRecord
  2
ARRANGE
 70
     0
 62
     1
  6
Continuous
370
    -3
390
7
  0
LAYER
  5
657
330
1E
100
AcDbSymbolTableRecord
100
AcDbLayerTableRecord
  2
ETC
 70
     0
 62
    61
  6
Continuous
370
    -3
390
7
  0
ENDTAB
  0
TABLE
  2
STYLE
  5
21
330
0
100
AcDbSymbolTable
 70
     2
  0
STYLE
  5
22
330
21
100
AcDbSymbolTableRecord
100
AcDbTextStyleTableRecord
  2
Standard
 70
     0
 40
0.0
 41
1.0
 50
0.0
 71
     0
 42
43.66586864911549
  3
romans.shx
  4
bigfont.shx
  0
STYLE
  5
658
330
21
100
AcDbSymbolTableRecord
100
AcDbTextStyleTableRecord
  2
STANDARD1
 70
     0
 40
0.0
 41
1.0
 50
0.0
 71
     0
 42
3.5
  3
MONOTXT
  4
BIGFONT
  0
ENDTAB
  0
TABLE
  2
VIEW
  5
27
330
0
100
AcDbSymbolTable
 70
     0
  0
ENDTAB
  0
TABLE
  2
UCS
  5
28
330
0
100
AcDbSymbolTable
 70
     0
  0
ENDTAB
  0
TABLE
  2
APPID
  5
2D
330
0
100
AcDbSymbolTable
 70
     8
  0
APPID
  5
2E
330
2D
100
AcDbSymbolTableRecord
100
AcDbRegAppTableRecord
  2
ACAD
 70
     0
  0
APPID
  5
1D
330
2D
100
AcDbSymbolTableRecord
100
AcDbRegAppTableRecord
  2
ACAD_PSEXT
 70
     0
  0
APPID
  5
7D
330
2D
100
AcDbSymbolTableRecord
100
AcDbRegAppTableRecord
  2
AcAecLayerStandard
 70
     0
  0
APPID
  5
4C1
330
2D
100
AcDbSymbolTableRecord
100
AcDbRegAppTableRecord
  2
ACATTRIBSERVICES
 70
     0
  0
APPID
  5
4DA
330
2D
100
AcDbSymbolTableRecord
100
AcDbRegAppTableRecord
  2
ACAD_MLEADERVER
 70
     0
  0
APPID
  5
4E2
330
2D
100
AcDbSymbolTableRecord
100
AcDbRegAppTableRecord
  2
ACAD_DSTYLE_DIMJAG
 70
     0
  0
APPID
  5
4E3
330
2D
100
AcDbSymbolTableRecord
100
AcDbRegAppTableRecord
  2
ACAD_DSTYLE_DIMTALN
 70
     0
  0
APPID
  5
BA3
330
2D
100
AcDbSymbolTableRecord
100
AcDbRegAppTableRecord
  2
ACAD_EXEMPT_FROM_CAD_STANDARDS
 70
     0
  0
ENDTAB
  0
TABLE
  2
DIMSTYLE
  5
2F
330
0
100
AcDbSymbolTable
 70
     3
100
AcDbDimStyleTable
 71
     1
340
30
  0
DIMSTYLE
105
30
102
{ACAD_REACTORS
330
50F
330
51D
330
52A
330
537
330
544
330
551
330
55E
330
578
330
585
330
592
330
59F
330
5AC
330
5B9
330
5C6
330
5E2
330
5EF
330
5FC
330
61C
102
}
330
2F
100
AcDbSymbolTableRecord
100
AcDbDimStyleTableRecord
  2
ISO-25
 70
     0
 41
2.5
 42
0.625
 43
3.75
 44
1.25
 73
     0
 74
     0
 77
     1
 78
     8
140
2.5
141
2.5
143
0.03937007874016
147
0.625
171
     3
172
     1
271
     2
272
     2
274
     3
283
     0
284
     8
340
22
  0
DIMSTYLE
105
659
330
2F
100
AcDbSymbolTableRecord
100
AcDbDimStyleTableRecord
  2
STANDARD
 70
     0
275
     1
279
     2
284
     8
285
     8
286
     8
340
22
  0
ENDTAB
  0
TABLE
  2
BLOCK_RECORD
  5
1
330
0
100
AcDbSymbolTable
 70
    24
  0
BLOCK_RECORD
  5
2
102
{ACAD_XDICTIONARY
360
3
102
}
330
1
100
AcDbSymbolTableRecord
100
AcDbBlockTableRecord
  2
*Model_Space
340
15
  0
BLOCK_RECORD
  5
17
330
1
100
AcDbSymbolTableRecord
100
AcDbBlockTableRecord
  2
*Paper_Space
340
1A
  0
BLOCK_RECORD
  5
48
330
1
100
AcDbSymbolTableRecord
100
AcDbBlockTableRecord
  2
_OPEN30
340
0
102
{BLKREFS
331
5DC
331
5DD
331
BC0
331
BC1
331
BC9
331
BCA
331
BD2
331
BD3
331
BDB
331
BDC
331
BE4
331
BE5
331
BED
331
BEE
331
BF6
331
BF7
331
BFF
331
C00
331
C08
331
C09
331
C11
331
C12
331
C1A
331
C1B
331
C25
331
C26
331
C30
331
C31
331
C39
331
C3A
331
C42
331
C43
331
C4B
331
C4C
331
C54
331
C55
331
C5D
331
C5E
102
}
  0
BLOCK_RECORD
  5
4E
330
1
100
AcDbSymbolTableRecord
100
AcDbBlockTableRecord
  2
_DOTSMALL
340
0
  0
BLOCK_RECORD
  5
511
330
1
100
AcDbSymbolTableRecord
100
AcDbBlockTableRecord
  2
*D2
340
0
  0
BLOCK_RECORD
  5
51E
330
1
100
AcDbSymbolTableRecord
100
AcDbBlockTableRecord
  2
*D3
340
0
  0
BLOCK_RECORD
  5
52B
330
1
100
AcDbSymbolTableRecord
100
AcDbBlockTableRecord
  2
*D4
340
0
  0
BLOCK_RECORD
  5
538
330
1
100
AcDbSymbolTableRecord
100
AcDbBlockTableRecord
  2
*D5
340
0
  0
BLOCK_RECORD
  5
545
330
1
100
AcDbSymbolTableRecord
100
AcDbBlockTableRecord
  2
*D6
340
0
  0
BLOCK_RECORD
  5
552
330
1
100
AcDbSymbolTableRecord
100
AcDbBlockTableRecord
  2
*D7
340
0
  0
BLOCK_RECORD
  5
55F
330
1
100
AcDbSymbolTableRecord
100
AcDbBlockTableRecord
  2
*D8
340
0
  0
BLOCK_RECORD
  5
579
330
1
100
AcDbSymbolTableRecord
100
AcDbBlockTableRecord
  2
*D9
340
0
  0
BLOCK_RECORD
  5
586
330
1
100
AcDbSymbolTableRecord
100
AcDbBlockTableRecord
  2
*D10
340
0
  0
BLOCK_RECORD
  5
593
330
1
100
AcDbSymbolTableRecord
100
AcDbBlockTableRecord
  2
*D11
340
0
  0
BLOCK_RECORD
  5
5A0
330
1
100
AcDbSymbolTableRecord
100
AcDbBlockTableRecord
  2
*D12
340
0
  0
BLOCK_RECORD
  5
5AD
330
1
100
AcDbSymbolTableRecord
100
AcDbBlockTableRecord
  2
*D13
340
0
  0
BLOCK_RECORD
  5
5BA
330
1
100
AcDbSymbolTableRecord
100
AcDbBlockTableRecord
  2
*D14
340
0
  0
BLOCK_RECORD
  5
5C7
330
1
100
AcDbSymbolTableRecord
100
AcDbBlockTableRecord
  2
*D15
340
0
  0
BLOCK_RECORD
  5
5D6
330
1
100
AcDbSymbolTableRecord
100
AcDbBlockTableRecord
  2
*D16
340
0
  0
BLOCK_RECORD
  5
5E3
330
1
100
AcDbSymbolTableRecord
100
AcDbBlockTableRecord
  2
*D17
340
0
  0
BLOCK_RECORD
  5
5F0
330
1
100
AcDbSymbolTableRecord
100
AcDbBlockTableRecord
  2
*D18
340
0
  0
BLOCK_RECORD
  5
5FD
330
1
100
AcDbSymbolTableRecord
100
AcDbBlockTableRecord
  2
*D19
340
0
  0
BLOCK_RECORD
  5
61D
330
1
100
AcDbSymbolTableRecord
100
AcDbBlockTableRecord
  2
*D20
340
0
  0
BLOCK_RECORD
  5
64B
330
1
100
AcDbSymbolTableRecord
100
AcDbBlockTableRecord
  2
_DOTBLANK
340
0
  0
BLOCK_RECORD
  5
65A
330
1
100
AcDbSymbolTableRecord
100
AcDbBlockTableRecord
  2
A$C4770057F
340
0
  0
ENDTAB
  0
ENDSEC
  0
SECTION
  2
BLOCKS
  0
BLOCK
  5
5
330
2
100
AcDbEntity
  8
0
100
AcDbBlockBegin
  2
*Model_Space
 70
     0
 10
0.0
 20
0.0
 30
0.0
  3
*Model_Space
  1

  0
ENDBLK
  5
14
330
2
100
AcDbEntity
  8
0
100
AcDbBlockEnd
  0
BLOCK
  5
18
330
17
100
AcDbEntity
 67
     1
  8
0
100
AcDbBlockBegin
  2
*Paper_Space
 70
     0
 10
0.0
 20
0.0
 30
0.0
  3
*Paper_Space
  1

  0
ENDBLK
  5
19
330
17
100
AcDbEntity
 67
     1
  8
0
100
AcDbBlockEnd
  0
BLOCK
  5
49
330
48
100
AcDbEntity
  8
0
100
AcDbBlockBegin
  2
_OPEN30
 70
     0
 10
0.0
 20
0.0
 30
0.0
  3
_OPEN30
  1

  0
LINE
  5
4A
330
48
100
AcDbEntity
  8
0
  6
ByBlock
 62
     0
100
AcDbLine
 10
-1.0
 20
0.26794919
 30
0.0
 11
0.0
 21
0.0
 31
0.0
  0
LINE
  5
4B
330
48
100
AcDbEntity
  8
0
  6
ByBlock
 62
     0
100
AcDbLine
 10
0.0
 20
0.0
 30
0.0
 11
-1.0
 21
-0.26794919
 31
0.0
  0
LINE
  5
4C
330
48
100
AcDbEntity
  8
0
  6
ByBlock
 62
     0
100
AcDbLine
 10
0.0
 20
0.0
 30
0.0
 11
-1.0
 21
0.0
 31
0.0
  0
ENDBLK
  5
4D
330
48
100
AcDbEntity
  8
0
100
AcDbBlockEnd
  0
BLOCK
  5
4F
330
4E
100
AcDbEntity
  8
0
100
AcDbBlockBegin
  2
_DOTSMALL
 70
     0
 10
0.0
 20
0.0
 30
0.0
  3
_DOTSMALL
  1

  0
POLYLINE
  5
50
330
4E
100
AcDbEntity
  8
0
  6
ByBlock
 62
     0
100
AcDb2dPolyline
 66
     1
 10
0.0
 20
0.0
 30
0.0
 70
     1
 40
0.5
 41
0.5
  0
VERTEX
  5
51
330
50
100
AcDbEntity
  8
0
  6
ByBlock
 62
     0
100
AcDbVertex
100
AcDb2dVertex
 10
-0.0625
 20
0.0
 30
0.0
 42
1.0
  0
VERTEX
  5
52
330
50
100
AcDbEntity
  8
0
  6
ByBlock
 62
     0
100
AcDbVertex
100
AcDb2dVertex
 10
0.0625
 20
0.0
 30
0.0
 42
1.0
  0
SEQEND
  5
53
330
50
100
AcDbEntity
  8
0
  6
ByBlock
 62
     0
  0
ENDBLK
  5
54
330
4E
100
AcDbEntity
  8
0
100
AcDbBlockEnd
  0
BLOCK
  5
512
330
511
100
AcDbEntity
  8
0
100
AcDbBlockBegin
  2
*D2
 70
     1
 10
0.0
 20
0.0
 30
0.0
  3
*D2
  1

  0
LINE
  5
BEA
330
511
100
AcDbEntity
  8
SIZE
 62
     0
370
    -2
100
AcDbLine
 10
1370.708310053114
 20
512.287814451778
 30
0.0
 11
1370.708310053114
 21
645.3355681562356
 31
0.0
  0
LINE
  5
BEB
330
511
100
AcDbEntity
  8
SIZE
 62
     0
370
    -2
100
AcDbLine
 10
1435.708310053114
 20
615.7878144517781
 30
0.0
 11
1435.708310053114
 21
645.3355681562356
 31
0.0
  0
LINE
  5
BEC
330
511
100
AcDbEntity
  8
SIZE
 62
     0
370
    -2
100
AcDbLine
 10
1383.208310053114
 20
639.0855681562356
 30
0.0
 11
1423.208310053114
 21
639.0855681562356
 31
0.0
  0
INSERT
  5
BED
330
511
100
AcDbEntity
  8
SIZE
 62
     0
370
    -2
100
AcDbBlockReference
  2
_OPEN30
 10
1370.708310053114
 20
639.0855681562356
 30
0.0
 41
12.5
 42
12.5
 43
12.5
 50
180.0
  0
INSERT
  5
BEE
330
511
100
AcDbEntity
  8
SIZE
 62
     0
370
    -2
100
AcDbBlockReference
  2
_OPEN30
 10
1435.708310053114
 20
639.0855681562356
 30
0.0
 41
12.5
 42
12.5
 43
12.5
  0
MTEXT
  5
BEF
330
511
100
AcDbEntity
  8
SIZE
 62
     0
100
AcDbMText
 10
1403.208310053114
 20
648.4605681562356
 30
0.0
 40
12.5
 41
0.0
 71
     5
 72
     1
  1
65
 73
     1
 44
1.0
1001
ACAD
1000
MTEXTBEGIN
1070
    73
1070
     1
1070
    44
1040
1.0
1070
    74
1070
     0
1000
MTEXTEND
  0
POINT
  5
BF0
330
511
100
AcDbEntity
  8
Defpoints
 62
     0
100
AcDbPoint
 10
1370.708310053114
 20
509.162814451778
 30
0.0
  0
POINT
  5
BF1
330
511
100
AcDbEntity
  8
Defpoints
 62
     0
100
AcDbPoint
 10
1435.708310053114
 20
612.6628144517781
 30
0.0
  0
POINT
  5
BF2
330
511
100
AcDbEntity
  8
Defpoints
 62
     0
100
AcDbPoint
 10
1435.708310053114
 20
639.0855681562356
 30
0.0
  0
ENDBLK
  5
513
330
511
100
AcDbEntity
  8
0
100
AcDbBlockEnd
  0
BLOCK
  5
51F
330
51E
100
AcDbEntity
  8
0
100
AcDbBlockBegin
  2
*D3
 70
     1
 10
0.0
 20
0.0
 30
0.0
  3
*D3
  1

  0
LINE
  5
BF3
330
51E
100
AcDbEntity
  8
SIZE
 62
     0
370
    -2
100
AcDbLine
 10
1435.708310053114
 20
615.7878144517781
 30
0.0
 11
1435.708310053114
 21
645.3355681562356
 31
0.0
  0
LINE
  5
BF4
330
51E
100
AcDbEntity
  8
SIZE
 62
     0
370
    -2
100
AcDbLine
 10
1668.708310053114
 20
615.7878144517781
 30
0.0
 11
1668.708310053114
 21
645.3355681562356
 31
0.0
  0
LINE
  5
BF5
330
51E
100
AcDbEntity
  8
SIZE
 62
     0
370
    -2
100
AcDbLine
 10
1448.208310053114
 20
639.0855681562356
 30
0.0
 11
1656.208310053114
 21
639.0855681562356
 31
0.0
  0
INSERT
  5
BF6
330
51E
100
AcDbEntity
  8
SIZE
 62
     0
370
    -2
100
AcDbBlockReference
  2
_OPEN30
 10
1435.708310053114
 20
639.0855681562356
 30
0.0
 41
12.5
 42
12.5
 43
12.5
 50
180.0
  0
INSERT
  5
BF7
330
51E
100
AcDbEntity
  8
SIZE
 62
     0
370
    -2
100
AcDbBlockReference
  2
_OPEN30
 10
1668.708310053114
 20
639.0855681562356
 30
0.0
 41
12.5
 42
12.5
 43
12.5
  0
MTEXT
  5
BF8
330
51E
100
AcDbEntity
  8
SIZE
 62
     0
100
AcDbMText
 10
1552.208310053114
 20
648.4605681562356
 30
0.0
 40
12.5
 41
0.0
 71
     5
 72
     1
  1
233
 73
     1
 44
1.0
1001
ACAD
1000
MTEXTBEGIN
1070
    73
1070
     1
1070
    44
1040
1.0
1070
    74
1070
     0
1000
MTEXTEND
  0
POINT
  5
BF9
330
51E
100
AcDbEntity
  8
Defpoints
 62
     0
100
AcDbPoint
 10
1435.708310053114
 20
612.6628144517781
 30
0.0
  0
POINT
  5
BFA
330
51E
100
AcDbEntity
  8
Defpoints
 62
     0
100
AcDbPoint
 10
1668.708310053114
 20
612.6628144517781
 30
0.0
  0
POINT
  5
BFB
330
51E
100
AcDbEntity
  8
Defpoints
 62
     0
100
AcDbPoint
 10
1668.708310053114
 20
639.0855681562356
 30
0.0
  0
ENDBLK
  5
520
330
51E
100
AcDbEntity
  8
0
100
AcDbBlockEnd
  0
BLOCK
  5
52C
330
52B
100
AcDbEntity
  8
0
100
AcDbBlockBegin
  2
*D4
 70
     1
 10
0.0
 20
0.0
 30
0.0
  3
*D4
  1

  0
LINE
  5
BFC
330
52B
100
AcDbEntity
  8
SIZE
 62
     0
370
    -2
100
AcDbLine
 10
1668.708310053114
 20
615.7878144517781
 30
0.0
 11
1668.708310053114
 21
645.3355681562356
 31
0.0
  0
LINE
  5
BFD
330
52B
100
AcDbEntity
  8
SIZE
 62
     0
370
    -2
100
AcDbLine
 10
1783.708310053114
 20
615.7878144517781
 30
0.0
 11
1783.708310053114
 21
645.3355681562356
 31
0.0
  0
LINE
  5
BFE
330
52B
100
AcDbEntity
  8
SIZE
 62
     0
370
    -2
100
AcDbLine
 10
1681.208310053114
 20
639.0855681562356
 30
0.0
 11
1771.208310053114
 21
639.0855681562356
 31
0.0
  0
INSERT
  5
BFF
330
52B
100
AcDbEntity
  8
SIZE
 62
     0
370
    -2
100
AcDbBlockReference
  2
_OPEN30
 10
1668.708310053114
 20
639.0855681562356
 30
0.0
 41
12.5
 42
12.5
 43
12.5
 50
180.0
  0
INSERT
  5
C00
330
52B
100
AcDbEntity
  8
SIZE
 62
     0
370
    -2
100
AcDbBlockReference
  2
_OPEN30
 10
1783.708310053114
 20
639.0855681562356
 30
0.0
 41
12.5
 42
12.5
 43
12.5
  0
MTEXT
  5
C01
330
52B
100
AcDbEntity
  8
SIZE
 62
     0
100
AcDbMText
 10
1726.208310053114
 20
648.4605681562356
 30
0.0
 40
12.5
 41
0.0
 71
     5
 72
     1
  1
115
 73
     1
 44
1.0
1001
ACAD
1000
MTEXTBEGIN
1070
    73
1070
     1
1070
    44
1040
1.0
1070
    74
1070
     0
1000
MTEXTEND
  0
POINT
  5
C02
330
52B
100
AcDbEntity
  8
Defpoints
 62
     0
100
AcDbPoint
 10
1668.708310053114
 20
612.6628144517781
 30
0.0
  0
POINT
  5
C03
330
52B
100
AcDbEntity
  8
Defpoints
 62
     0
100
AcDbPoint
 10
1783.708310053114
 20
612.6628144517781
 30
0.0
  0
POINT
  5
C04
330
52B
100
AcDbEntity
  8
Defpoints
 62
     0
100
AcDbPoint
 10
1783.708310053114
 20
639.0855681562356
 30
0.0
  0
ENDBLK
  5
52D
330
52B
100
AcDbEntity
  8
0
100
AcDbBlockEnd
  0
BLOCK
  5
539
330
538
100
AcDbEntity
  8
0
100
AcDbBlockBegin
  2
*D5
 70
     1
 10
0.0
 20
0.0
 30
0.0
  3
*D5
  1

  0
LINE
  5
C05
330
538
100
AcDbEntity
  8
SIZE
 62
     0
370
    -2
100
AcDbLine
 10
1783.708310053114
 20
615.7878144517781
 30
0.0
 11
1783.708310053114
 21
645.3355681562356
 31
0.0
  0
LINE
  5
C06
330
538
100
AcDbEntity
  8
SIZE
 62
     0
370
    -2
100
AcDbLine
 10
2016.708310053114
 20
615.677814451778
 30
0.0
 11
2016.708310053114
 21
645.3355681562356
 31
0.0
  0
LINE
  5
C07
330
538
100
AcDbEntity
  8
SIZE
 62
     0
370
    -2
100
AcDbLine
 10
1796.208310053114
 20
639.0855681562356
 30
0.0
 11
2004.208310053114
 21
639.0855681562356
 31
0.0
  0
INSERT
  5
C08
330
538
100
AcDbEntity
  8
SIZE
 62
     0
370
    -2
100
AcDbBlockReference
  2
_OPEN30
 10
1783.708310053114
 20
639.0855681562356
 30
0.0
 41
12.5
 42
12.5
 43
12.5
 50
180.0
  0
INSERT
  5
C09
330
538
100
AcDbEntity
  8
SIZE
 62
     0
370
    -2
100
AcDbBlockReference
  2
_OPEN30
 10
2016.708310053114
 20
639.0855681562356
 30
0.0
 41
12.5
 42
12.5
 43
12.5
  0
MTEXT
  5
C0A
330
538
100
AcDbEntity
  8
SIZE
 62
     0
100
AcDbMText
 10
1900.208310053114
 20
648.4605681562356
 30
0.0
 40
12.5
 41
0.0
 71
     5
 72
     1
  1
233
 73
     1
 44
1.0
1001
ACAD
1000
MTEXTBEGIN
1070
    73
1070
     1
1070
    44
1040
1.0
1070
    74
1070
     0
1000
MTEXTEND
  0
POINT
  5
C0B
330
538
100
AcDbEntity
  8
Defpoints
 62
     0
100
AcDbPoint
 10
1783.708310053114
 20
612.6628144517781
 30
0.0
  0
POINT
  5
C0C
330
538
100
AcDbEntity
  8
Defpoints
 62
     0
100
AcDbPoint
 10
2016.708310053114
 20
612.552814451778
 30
0.0
  0
POINT
  5
C0D
330
538
100
AcDbEntity
  8
Defpoints
 62
     0
100
AcDbPoint
 10
2016.708310053114
 20
639.0855681562356
 30
0.0
  0
ENDBLK
  5
53A
330
538
100
AcDbEntity
  8
0
100
AcDbBlockEnd
  0
BLOCK
  5
546
330
545
100
AcDbEntity
  8
0
100
AcDbBlockBegin
  2
*D6
 70
     1
 10
0.0
 20
0.0
 30
0.0
  3
*D6
  1

  0
LINE
  5
C0E
330
545
100
AcDbEntity
  8
SIZE
 62
     0
370
    -2
100
AcDbLine
 10
2016.708310053114
 20
615.677814451778
 30
0.0
 11
2016.708310053114
 21
645.3355681562356
 31
0.0
  0
LINE
  5
C0F
330
545
100
AcDbEntity
  8
SIZE
 62
     0
370
    -2
100
AcDbLine
 10
2081.708310053113
 20
535.287814451775
 30
0.0
 11
2081.708310053113
 21
645.3355681562356
 31
0.0
  0
LINE
  5
C10
330
545
100
AcDbEntity
  8
SIZE
 62
     0
370
    -2
100
AcDbLine
 10
2029.208310053114
 20
639.0855681562356
 30
0.0
 11
2069.208310053113
 21
639.0855681562356
 31
0.0
  0
INSERT
  5
C11
330
545
100
AcDbEntity
  8
SIZE
 62
     0
370
    -2
100
AcDbBlockReference
  2
_OPEN30
 10
2016.708310053114
 20
639.0855681562356
 30
0.0
 41
12.5
 42
12.5
 43
12.5
 50
180.0
  0
INSERT
  5
C12
330
545
100
AcDbEntity
  8
SIZE
 62
     0
370
    -2
100
AcDbBlockReference
  2
_OPEN30
 10
2081.708310053113
 20
639.0855681562356
 30
0.0
 41
12.5
 42
12.5
 43
12.5
  0
MTEXT
  5
C13
330
545
100
AcDbEntity
  8
SIZE
 62
     0
100
AcDbMText
 10
2049.208310053113
 20
648.4605681562356
 30
0.0
 40
12.5
 41
0.0
 71
     5
 72
     1
  1
65
 73
     1
 44
1.0
1001
ACAD
1000
MTEXTBEGIN
1070
    73
1070
     1
1070
    44
1040
1.0
1070
    74
1070
     0
1000
MTEXTEND
  0
POINT
  5
C14
330
545
100
AcDbEntity
  8
Defpoints
 62
     0
100
AcDbPoint
 10
2016.708310053114
 20
612.552814451778
 30
0.0
  0
POINT
  5
C15
330
545
100
AcDbEntity
  8
Defpoints
 62
     0
100
AcDbPoint
 10
2081.708310053113
 20
532.162814451775
 30
0.0
  0
POINT
  5
C16
330
545
100
AcDbEntity
  8
Defpoints
 62
     0
100
AcDbPoint
 10
2081.708310053113
 20
639.0855681562356
 30
0.0
  0
ENDBLK
  5
547
330
545
100
AcDbEntity
  8
0
100
AcDbBlockEnd
  0
BLOCK
  5
553
330
552
100
AcDbEntity
  8
0
100
AcDbBlockBegin
  2
*D7
 70
     1
 10
0.0
 20
0.0
 30
0.0
  3
*D7
  1

  0
LINE
  5
BE1
330
552
100
AcDbEntity
  8
SIZE
 62
     0
370
    -2
100
AcDbLine
 10
1361.208310053114
 20
599.7159342364263
 30
0.0
 11
1361.208310053114
 21
673.7106830170539
 31
0.0
  0
LINE
  5
BE2
330
552
100
AcDbEntity
  8
SIZE
 62
     0
370
    -2
100
AcDbLine
 10
2091.208310053113
 20
600.177814451775
 30
0.0
 11
2091.208310053113
 21
673.7106830170539
 31
0.0
  0
LINE
  5
BE3
330
552
100
AcDbEntity
  8
SIZE
 62
     0
370
    -2
100
AcDbLine
 10
1373.708310053114
 20
667.4606830170539
 30
0.0
 11
2078.708310053113
 21
667.4606830170539
 31
0.0
  0
INSERT
  5
BE4
330
552
100
AcDbEntity
  8
SIZE
 62
     0
370
    -2
100
AcDbBlockReference
  2
_OPEN30
 10
1361.208310053114
 20
667.4606830170539
 30
0.0
 41
12.5
 42
12.5
 43
12.5
 50
180.0
  0
INSERT
  5
BE5
330
552
100
AcDbEntity
  8
SIZE
 62
     0
370
    -2
100
AcDbBlockReference
  2
_OPEN30
 10
2091.208310053113
 20
667.4606830170539
 30
0.0
 41
12.5
 42
12.5
 43
12.5
  0
MTEXT
  5
BE6
330
552
100
AcDbEntity
  8
SIZE
 62
     0
100
AcDbMText
 10
1726.208310053113
 20
676.8356830170539
 30
0.0
 40
12.5
 41
0.0
 71
     5
 72
     1
  1
730
 73
     1
 44
1.0
1001
ACAD
1000
MTEXTBEGIN
1070
    73
1070
     1
1070
    44
1040
1.0
1070
    74
1070
     0
1000
MTEXTEND
  0
POINT
  5
BE7
330
552
100
AcDbEntity
  8
Defpoints
 62
     0
100
AcDbPoint
 10
1361.208310053114
 20
596.5909342364263
 30
0.0
  0
POINT
  5
BE8
330
552
100
AcDbEntity
  8
Defpoints
 62
     0
100
AcDbPoint
 10
2091.208310053113
 20
597.052814451775
 30
0.0
  0
POINT
  5
BE9
330
552
100
AcDbEntity
  8
Defpoints
 62
     0
100
AcDbPoint
 10
2091.208310053113
 20
667.4606830170539
 30
0.0
  0
ENDBLK
  5
554
330
552
100
AcDbEntity
  8
0
100
AcDbBlockEnd
  0
BLOCK
  5
560
330
55F
100
AcDbEntity
  8
0
100
AcDbBlockBegin
  2
*D8
 70
     1
 10
0.0
 20
0.0
 30
0.0
  3
*D8
  1

  0
LINE
  5
C20
330
55F
100
AcDbEntity
  8
SIZE
 62
     0
370
    -2
100
AcDbLine
 10
2081.708310053114
 20
116.927814451775
 30
0.0
 11
2081.708310053114
 21
-337.3839279104605
 31
0.0
  0
LINE
  5
C21
330
55F
100
AcDbEntity
  8
SIZE
 62
     0
370
    -2
100
AcDbLine
 10
2069.708310053114
 20
-261.182185548225
 30
0.0
 11
2069.708310053114
 21
-337.3839279104605
 31
0.0
  0
LINE
  5
C22
330
55F
100
AcDbEntity
  8
SIZE
 62
     0
370
    -2
100
AcDbLine
 10
2057.208310053114
 20
-331.1339279104605
 30
0.0
 11
2044.708310053114
 21
-331.1339279104605
 31
0.0
  0
LINE
  5
C23
330
55F
100
AcDbEntity
  8
SIZE
 62
     0
370
    -2
100
AcDbLine
 10
2094.208310053114
 20
-331.1339279104605
 30
0.0
 11
2134.631472474344
 21
-331.1339279104605
 31
0.0
  0
LINE
  5
C24
330
55F
100
AcDbEntity
  8
SIZE
 62
     0
370
    -2
100
AcDbLine
 10
2069.708310053114
 20
-331.1339279104605
 30
0.0
 11
2081.708310053114
 21
-331.1339279104605
 31
0.0
  0
INSERT
  5
C25
330
55F
100
AcDbEntity
  8
SIZE
 62
     0
370
    -2
100
AcDbBlockReference
  2
_OPEN30
 10
2069.708310053114
 20
-331.1339279104605
 30
0.0
 41
12.5
 42
12.5
 43
12.5
  0
INSERT
  5
C26
330
55F
100
AcDbEntity
  8
SIZE
 62
     0
370
    -2
100
AcDbBlockReference
  2
_OPEN30
 10
2081.708310053114
 20
-331.1339279104605
 30
0.0
 41
12.5
 42
12.5
 43
12.5
 50
180.0
  0
MTEXT
  5
C27
330
55F
100
AcDbEntity
  8
SIZE
 62
     0
100
AcDbMText
 10
2122.280281998154
 20
-321.7589279104605
 30
0.0
 40
12.5
 41
0.0
 71
     5
 72
     1
  1
12
 73
     1
 44
1.0
1001
ACAD
1000
MTEXTBEGIN
1070
    73
1070
     1
1070
    44
1040
1.0
1070
    74
1070
     0
1000
MTEXTEND
  0
POINT
  5
C28
330
55F
100
AcDbEntity
  8
Defpoints
 62
     0
100
AcDbPoint
 10
2081.708310053114
 20
120.052814451775
 30
0.0
  0
POINT
  5
C29
330
55F
100
AcDbEntity
  8
Defpoints
 62
     0
100
AcDbPoint
 10
2069.708310053114
 20
-258.057185548225
 30
0.0
  0
POINT
  5
C2A
330
55F
100
AcDbEntity
  8
Defpoints
 62
     0
100
AcDbPoint
 10
2069.708310053114
 20
-331.1339279104605
 30
0.0
  0
ENDBLK
  5
561
330
55F
100
AcDbEntity
  8
0
100
AcDbBlockEnd
  0
BLOCK
  5
57A
330
579
100
AcDbEntity
  8
0
100
AcDbBlockBegin
  2
*D9
 70
     1
 10
0.0
 20
0.0
 30
0.0
  3
*D9
  1

  0
LINE
  5
C17
330
579
100
AcDbEntity
  8
SIZE
 62
     0
370
    -2
100
AcDbLine
 10
2069.708310053114
 20
-261.182185548225
 30
0.0
 11
2069.708310053114
 21
-337.3839279104605
 31
0.0
  0
LINE
  5
C18
330
579
100
AcDbEntity
  8
SIZE
 62
     0
370
    -2
100
AcDbLine
 10
1370.708310053114
 20
-261.0721855482219
 30
0.0
 11
1370.708310053114
 21
-337.3839279104605
 31
0.0
  0
LINE
  5
C19
330
579
100
AcDbEntity
  8
SIZE
 62
     0
370
    -2
100
AcDbLine
 10
2057.208310053114
 20
-331.1339279104605
 30
0.0
 11
1383.208310053114
 21
-331.1339279104605
 31
0.0
  0
INSERT
  5
C1A
330
579
100
AcDbEntity
  8
SIZE
 62
     0
370
    -2
100
AcDbBlockReference
  2
_OPEN30
 10
2069.708310053114
 20
-331.1339279104605
 30
0.0
 41
12.5
 42
12.5
 43
12.5
  0
INSERT
  5
C1B
330
579
100
AcDbEntity
  8
SIZE
 62
     0
370
    -2
100
AcDbBlockReference
  2
_OPEN30
 10
1370.708310053114
 20
-331.1339279104605
 30
0.0
 41
12.5
 42
12.5
 43
12.5
 50
180.0
  0
MTEXT
  5
C1C
330
579
100
AcDbEntity
  8
SIZE
 62
     0
100
AcDbMText
 10
1720.208310053114
 20
-321.7589279104605
 30
0.0
 40
12.5
 41
0.0
 71
     5
 72
     1
  1
699
 73
     1
 44
1.0
1001
ACAD
1000
MTEXTBEGIN
1070
    73
1070
     1
1070
    44
1040
1.0
1070
    74
1070
     0
1000
MTEXTEND
  0
POINT
  5
C1D
330
579
100
AcDbEntity
  8
Defpoints
 62
     0
100
AcDbPoint
 10
2069.708310053114
 20
-258.057185548225
 30
0.0
  0
POINT
  5
C1E
330
579
100
AcDbEntity
  8
Defpoints
 62
     0
100
AcDbPoint
 10
1370.708310053114
 20
-257.9471855482219
 30
0.0
  0
POINT
  5
C1F
330
579
100
AcDbEntity
  8
Defpoints
 62
     0
100
AcDbPoint
 10
1370.708310053114
 20
-331.1339279104605
 30
0.0
  0
ENDBLK
  5
57B
330
579
100
AcDbEntity
  8
0
100
AcDbBlockEnd
  0
BLOCK
  5
587
330
586
100
AcDbEntity
  8
0
100
AcDbBlockBegin
  2
*D10
 70
     1
 10
0.0
 20
0.0
 30
0.0
  3
*D10
  1

  0
LINE
  5
C51
330
586
100
AcDbEntity
  8
SIZE
 62
     0
370
    -2
100
AcDbLine
 10
1429.583310053114
 20
609.5528144517782
 30
0.0
 11
1280.173958019726
 21
609.5528144517782
 31
0.0
  0
LINE
  5
C52
330
586
100
AcDbEntity
  8
SIZE
 62
     0
370
    -2
100
AcDbLine
 10
1360.973310053114
 20
492.552814451778
 30
0.0
 11
1280.173958019726
 21
492.552814451778
 31
0.0
  0
LINE
  5
C53
330
586
100
AcDbEntity
  8
SIZE
 62
     0
370
    -2
100
AcDbLine
 10
1286.423958019726
 20
597.0528144517782
 30
0.0
 11
1286.423958019726
 21
505.052814451778
 31
0.0
  0
INSERT
  5
C54
330
586
100
AcDbEntity
  8
SIZE
 62
     0
370
    -2
100
AcDbBlockReference
  2
_OPEN30
 10
1286.423958019726
 20
609.5528144517782
 30
0.0
 41
12.5
 42
12.5
 43
12.5
 50
90.0
  0
INSERT
  5
C55
330
586
100
AcDbEntity
  8
SIZE
 62
     0
370
    -2
100
AcDbBlockReference
  2
_OPEN30
 10
1286.423958019726
 20
492.552814451778
 30
0.0
 41
12.5
 42
12.5
 43
12.5
 50
270.0
  0
MTEXT
  5
C56
330
586
100
AcDbEntity
  8
SIZE
 62
     0
100
AcDbMText
 10
1277.048958019726
 20
551.0528144517783
 30
0.0
 40
12.5
 41
0.0
 71
     5
 72
     1
  1
117
 11
0.0000000000000001
 21
1.0
 31
0.0
 73
     1
 44
1.0
1001
ACAD
1000
MTEXTBEGIN
1070
    73
1070
     1
1070
    44
1040
1.0
1070
    74
1070
     0
1000
MTEXTEND
  0
POINT
  5
C57
330
586
100
AcDbEntity
  8
Defpoints
 62
     0
100
AcDbPoint
 10
1432.708310053114
 20
609.5528144517782
 30
0.0
  0
POINT
  5
C58
330
586
100
AcDbEntity
  8
Defpoints
 62
     0
100
AcDbPoint
 10
1364.098310053114
 20
492.552814451778
 30
0.0
  0
POINT
  5
C59
330
586
100
AcDbEntity
  8
Defpoints
 62
     0
100
AcDbPoint
 10
1286.423958019726
 20
492.552814451778
 30
0.0
  0
ENDBLK
  5
588
330
586
100
AcDbEntity
  8
0
100
AcDbBlockEnd
  0
BLOCK
  5
594
330
593
100
AcDbEntity
  8
0
100
AcDbBlockBegin
  2
*D11
 70
     1
 10
0.0
 20
0.0
 30
0.0
  3
*D11
  1

  0
LINE
  5
C48
330
593
100
AcDbEntity
  8
SIZE
 62
     0
370
    -2
100
AcDbLine
 10
1360.973310053114
 20
492.552814451778
 30
0.0
 11
1280.173958019726
 21
492.552814451778
 31
0.0
  0
LINE
  5
C49
330
593
100
AcDbEntity
  8
SIZE
 62
     0
370
    -2
100
AcDbLine
 10
1364.473310053114
 20
100.052814451778
 30
0.0
 11
1280.173958019726
 21
100.052814451778
 31
0.0
  0
LINE
  5
C4A
330
593
100
AcDbEntity
  8
SIZE
 62
     0
370
    -2
100
AcDbLine
 10
1286.423958019726
 20
480.052814451778
 30
0.0
 11
1286.423958019726
 21
112.552814451778
 31
0.0
  0
INSERT
  5
C4B
330
593
100
AcDbEntity
  8
SIZE
 62
     0
370
    -2
100
AcDbBlockReference
  2
_OPEN30
 10
1286.423958019726
 20
492.552814451778
 30
0.0
 41
12.5
 42
12.5
 43
12.5
 50
90.0
  0
INSERT
  5
C4C
330
593
100
AcDbEntity
  8
SIZE
 62
     0
370
    -2
100
AcDbBlockReference
  2
_OPEN30
 10
1286.423958019726
 20
100.052814451778
 30
0.0
 41
12.5
 42
12.5
 43
12.5
 50
270.0
  0
MTEXT
  5
C4D
330
593
100
AcDbEntity
  8
SIZE
 62
     0
100
AcDbMText
 10
1277.048958019726
 20
296.3028144517783
 30
0.0
 40
12.5
 41
0.0
 71
     5
 72
     1
  1
392.5
 11
0.0000000000000001
 21
1.0
 31
0.0
 73
     1
 44
1.0
1001
ACAD
1000
MTEXTBEGIN
1070
    73
1070
     1
1070
    44
1040
1.0
1070
    74
1070
     0
1000
MTEXTEND
  0
POINT
  5
C4E
330
593
100
AcDbEntity
  8
Defpoints
 62
     0
100
AcDbPoint
 10
1364.098310053114
 20
492.552814451778
 30
0.0
  0
POINT
  5
C4F
330
593
100
AcDbEntity
  8
Defpoints
 62
     0
100
AcDbPoint
 10
1367.598310053114
 20
100.052814451778
 30
0.0
  0
POINT
  5
C50
330
593
100
AcDbEntity
  8
Defpoints
 62
     0
100
AcDbPoint
 10
1286.423958019726
 20
100.052814451778
 30
0.0
  0
ENDBLK
  5
595
330
593
100
AcDbEntity
  8
0
100
AcDbBlockEnd
  0
BLOCK
  5
5A1
330
5A0
100
AcDbEntity
  8
0
100
AcDbBlockBegin
  2
*D12
 70
     1
 10
0.0
 20
0.0
 30
0.0
  3
*D12
  1

  0
LINE
  5
C3F
330
5A0
100
AcDbEntity
  8
SIZE
 62
     0
370
    -2
100
AcDbLine
 10
1364.473310053114
 20
100.052814451778
 30
0.0
 11
1280.173958019726
 21
100.052814451778
 31
0.0
  0
LINE
  5
C40
330
5A0
100
AcDbEntity
  8
SIZE
 62
     0
370
    -2
100
AcDbLine
 10
1364.473310053114
 20
-51.94718554822194
 30
0.0
 11
1280.173958019726
 21
-51.94718554822191
 31
0.0
  0
LINE
  5
C41
330
5A0
100
AcDbEntity
  8
SIZE
 62
     0
370
    -2
100
AcDbLine
 10
1286.423958019726
 20
87.552814451778
 30
0.0
 11
1286.423958019726
 21
-39.44718554822191
 31
0.0
  0
INSERT
  5
C42
330
5A0
100
AcDbEntity
  8
SIZE
 62
     0
370
    -2
100
AcDbBlockReference
  2
_OPEN30
 10
1286.423958019726
 20
100.052814451778
 30
0.0
 41
12.5
 42
12.5
 43
12.5
 50
90.0
  0
INSERT
  5
C43
330
5A0
100
AcDbEntity
  8
SIZE
 62
     0
370
    -2
100
AcDbBlockReference
  2
_OPEN30
 10
1286.423958019726
 20
-51.94718554822191
 30
0.0
 41
12.5
 42
12.5
 43
12.5
 50
270.0
  0
MTEXT
  5
C44
330
5A0
100
AcDbEntity
  8
SIZE
 62
     0
100
AcDbMText
 10
1277.048958019726
 20
24.05281445177826
 30
0.0
 40
12.5
 41
0.0
 71
     5
 72
     1
  1
152
 11
0.0000000000000001
 21
1.0
 31
0.0
 73
     1
 44
1.0
1001
ACAD
1000
MTEXTBEGIN
1070
    73
1070
     1
1070
    44
1040
1.0
1070
    74
1070
     0
1000
MTEXTEND
  0
POINT
  5
C45
330
5A0
100
AcDbEntity
  8
Defpoints
 62
     0
100
AcDbPoint
 10
1367.598310053114
 20
100.052814451778
 30
0.0
  0
POINT
  5
C46
330
5A0
100
AcDbEntity
  8
Defpoints
 62
     0
100
AcDbPoint
 10
1367.598310053114
 20
-51.94718554822194
 30
0.0
  0
POINT
  5
C47
330
5A0
100
AcDbEntity
  8
Defpoints
 62
     0
100
AcDbPoint
 10
1286.423958019726
 20
-51.94718554822191
 30
0.0
  0
ENDBLK
  5
5A2
330
5A0
100
AcDbEntity
  8
0
100
AcDbBlockEnd
  0
BLOCK
  5
5AE
330
5AD
100
AcDbEntity
  8
0
100
AcDbBlockBegin
  2
*D13
 70
     1
 10
0.0
 20
0.0
 30
0.0
  3
*D13
  1

  0
LINE
  5
C5A
330
5AD
100
AcDbEntity
  8
SIZE
 62
     0
370
    -2
100
AcDbLine
 10
1364.473310053114
 20
-51.94718554822194
 30
0.0
 11
1280.173958019726
 21
-51.94718554822191
 31
0.0
  0
LINE
  5
C5B
330
5AD
100
AcDbEntity
  8
SIZE
 62
     0
370
    -2
100
AcDbLine
 10
1364.473310053114
 20
-254.9471855482219
 30
0.0
 11
1280.173958019726
 21
-254.9471855482218
 31
0.0
  0
LINE
  5
C5C
330
5AD
100
AcDbEntity
  8
SIZE
 62
     0
370
    -2
100
AcDbLine
 10
1286.423958019726
 20
-64.44718554822191
 30
0.0
 11
1286.423958019726
 21
-242.4471855482218
 31
0.0
  0
INSERT
  5
C5D
330
5AD
100
AcDbEntity
  8
SIZE
 62
     0
370
    -2
100
AcDbBlockReference
  2
_OPEN30
 10
1286.423958019726
 20
-51.94718554822191
 30
0.0
 41
12.5
 42
12.5
 43
12.5
 50
90.0
  0
INSERT
  5
C5E
330
5AD
100
AcDbEntity
  8
SIZE
 62
     0
370
    -2
100
AcDbBlockReference
  2
_OPEN30
 10
1286.423958019726
 20
-254.9471855482218
 30
0.0
 41
12.5
 42
12.5
 43
12.5
 50
270.0
  0
MTEXT
  5
C5F
330
5AD
100
AcDbEntity
  8
SIZE
 62
     0
100
AcDbMText
 10
1277.048958019726
 20
-153.4471855482216
 30
0.0
 40
12.5
 41
0.0
 71
     5
 72
     1
  1
203
 11
0.0000000000000001
 21
1.0
 31
0.0
 73
     1
 44
1.0
1001
ACAD
1000
MTEXTBEGIN
1070
    73
1070
     1
1070
    44
1040
1.0
1070
    74
1070
     0
1000
MTEXTEND
  0
POINT
  5
C60
330
5AD
100
AcDbEntity
  8
Defpoints
 62
     0
100
AcDbPoint
 10
1367.598310053114
 20
-51.94718554822194
 30
0.0
  0
POINT
  5
C61
330
5AD
100
AcDbEntity
  8
Defpoints
 62
     0
100
AcDbPoint
 10
1367.598310053114
 20
-254.9471855482219
 30
0.0
  0
POINT
  5
C62
330
5AD
100
AcDbEntity
  8
Defpoints
 62
     0
100
AcDbPoint
 10
1286.423958019726
 20
-254.9471855482218
 30
0.0
  0
ENDBLK
  5
5AF
330
5AD
100
AcDbEntity
  8
0
100
AcDbBlockEnd
  0
BLOCK
  5
5BB
330
5BA
100
AcDbEntity
  8
0
100
AcDbBlockBegin
  2
*D14
 70
     1
 10
0.0
 20
0.0
 30
0.0
  3
*D14
  1

  0
LINE
  5
C36
330
5BA
100
AcDbEntity
  8
SIZE
 62
     0
370
    -2
100
AcDbLine
 10
1358.083310053114
 20
-264.4471855482219
 30
0.0
 11
1238.327155930481
 21
-264.4471855482219
 31
0.0
  0
LINE
  5
C37
330
5BA
100
AcDbEntity
  8
SIZE
 62
     0
370
    -2
100
AcDbLine
 10
1362.083310053114
 20
614.0528144517782
 30
0.0
 11
1238.327155930481
 21
614.0528144517783
 31
0.0
  0
LINE
  5
C38
330
5BA
100
AcDbEntity
  8
SIZE
 62
     0
370
    -2
100
AcDbLine
 10
1244.577155930481
 20
-251.9471855482219
 30
0.0
 11
1244.577155930481
 21
601.5528144517783
 31
0.0
  0
INSERT
  5
C39
330
5BA
100
AcDbEntity
  8
SIZE
 62
     0
370
    -2
100
AcDbBlockReference
  2
_OPEN30
 10
1244.577155930481
 20
-264.4471855482219
 30
0.0
 41
12.5
 42
12.5
 43
12.5
 50
270.0
  0
INSERT
  5
C3A
330
5BA
100
AcDbEntity
  8
SIZE
 62
     0
370
    -2
100
AcDbBlockReference
  2
_OPEN30
 10
1244.577155930481
 20
614.0528144517783
 30
0.0
 41
12.5
 42
12.5
 43
12.5
 50
90.0
  0
MTEXT
  5
C3B
330
5BA
100
AcDbEntity
  8
SIZE
 62
     0
100
AcDbMText
 10
1235.202155930481
 20
174.8028144517784
 30
0.0
 40
12.5
 41
0.0
 71
     5
 72
     1
  1
878.5
 11
0.0000000000000001
 21
1.0
 31
0.0
 73
     1
 44
1.0
1001
ACAD
1000
MTEXTBEGIN
1070
    73
1070
     1
1070
    44
1040
1.0
1070
    74
1070
     0
1000
MTEXTEND
  0
POINT
  5
C3C
330
5BA
100
AcDbEntity
  8
Defpoints
 62
     0
100
AcDbPoint
 10
1361.208310053114
 20
-264.4471855482219
 30
0.0
  0
POINT
  5
C3D
330
5BA
100
AcDbEntity
  8
Defpoints
 62
     0
100
AcDbPoint
 10
1365.208310053114
 20
614.0528144517782
 30
0.0
  0
POINT
  5
C3E
330
5BA
100
AcDbEntity
  8
Defpoints
 62
     0
100
AcDbPoint
 10
1244.577155930481
 20
614.0528144517783
 30
0.0
  0
ENDBLK
  5
5BC
330
5BA
100
AcDbEntity
  8
0
100
AcDbBlockEnd
  0
BLOCK
  5
5C8
330
5C7
100
AcDbEntity
  8
0
100
AcDbBlockBegin
  2
*D15
 70
     1
 10
0.0
 20
0.0
 30
0.0
  3
*D15
  1

  0
LINE
  5
C2B
330
5C7
100
AcDbEntity
  8
SIZE
 62
     0
370
    -2
100
AcDbLine
 10
1364.473310053114
 20
506.0528144517781
 30
0.0
 11
1310.158817995238
 21
506.0528144517781
 31
0.0
  0
LINE
  5
C2C
330
5C7
100
AcDbEntity
  8
SIZE
 62
     0
370
    -2
100
AcDbLine
 10
1360.973310053114
 20
492.552814451778
 30
0.0
 11
1310.158817995238
 21
492.552814451778
 31
0.0
  0
LINE
  5
C2D
330
5C7
100
AcDbEntity
  8
SIZE
 62
     0
370
    -2
100
AcDbLine
 10
1316.408817995238
 20
518.5528144517781
 30
0.0
 11
1316.408817995238
 21
531.0528144517781
 31
0.0
  0
LINE
  5
C2E
330
5C7
100
AcDbEntity
  8
SIZE
 62
     0
370
    -2
100
AcDbLine
 10
1316.408817995238
 20
480.052814451778
 30
0.0
 11
1316.408817995238
 21
424.9932906422542
 31
0.0
  0
LINE
  5
C2F
330
5C7
100
AcDbEntity
  8
SIZE
 62
     0
370
    -2
100
AcDbLine
 10
1316.408817995238
 20
506.0528144517781
 30
0.0
 11
1316.408817995238
 21
492.552814451778
 31
0.0
  0
INSERT
  5
C30
330
5C7
100
AcDbEntity
  8
SIZE
 62
     0
370
    -2
100
AcDbBlockReference
  2
_OPEN30
 10
1316.408817995238
 20
506.0528144517781
 30
0.0
 41
12.5
 42
12.5
 43
12.5
 50
270.0
  0
INSERT
  5
C31
330
5C7
100
AcDbEntity
  8
SIZE
 62
     0
370
    -2
100
AcDbBlockReference
  2
_OPEN30
 10
1316.408817995238
 20
492.552814451778
 30
0.0
 41
12.5
 42
12.5
 43
12.5
 50
90.0
  0
MTEXT
  5
C32
330
5C7
100
AcDbEntity
  8
SIZE
 62
     0
100
AcDbMText
 10
1307.033817995238
 20
446.2730525470163
 30
0.0
 40
12.5
 41
0.0
 71
     5
 72
     1
  1
13.5
 11
0.0000000000000001
 21
1.0
 31
0.0
 73
     1
 44
1.0
1001
ACAD
1000
MTEXTBEGIN
1070
    73
1070
     1
1070
    44
1040
1.0
1070
    74
1070
     0
1000
MTEXTEND
  0
POINT
  5
C33
330
5C7
100
AcDbEntity
  8
Defpoints
 62
     0
100
AcDbPoint
 10
1367.598310053114
 20
506.0528144517781
 30
0.0
  0
POINT
  5
C34
330
5C7
100
AcDbEntity
  8
Defpoints
 62
     0
100
AcDbPoint
 10
1364.098310053114
 20
492.552814451778
 30
0.0
  0
POINT
  5
C35
330
5C7
100
AcDbEntity
  8
Defpoints
 62
     0
100
AcDbPoint
 10
1316.408817995238
 20
492.552814451778
 30
0.0
  0
ENDBLK
  5
5C9
330
5C7
100
AcDbEntity
  8
0
100
AcDbBlockEnd
  0
BLOCK
  5
5D7
330
5D6
100
AcDbEntity
  8
0
100
AcDbBlockBegin
  2
*D16
 70
     1
 10
0.0
 20
0.0
 30
0.0
  3
*D16
  1

  0
LINE
  5
5D9
330
5D6
100
AcDbEntity
  8
0
 62
     0
370
    -2
100
AcDbLine
 10
2090.333310053114
 20
614.0528144517782
 30
0.0
 11
2160.96478349883
 21
614.0528144517782
 31
0.0
  0
LINE
  5
5DA
330
5D6
100
AcDbEntity
  8
0
 62
     0
370
    -2
100
AcDbLine
 10
2091.443310053113
 20
515.552814451775
 30
0.0
 11
2160.96478349883
 21
515.552814451775
 31
0.0
  0
LINE
  5
5DB
330
5D6
100
AcDbEntity
  8
0
 62
     0
370
    -2
100
AcDbLine
 10
2154.71478349883
 20
601.5528144517782
 30
0.0
 11
2154.71478349883
 21
528.052814451775
 31
0.0
  0
INSERT
  5
5DC
330
5D6
100
AcDbEntity
  8
0
 62
     0
370
    -2
100
AcDbBlockReference
  2
_OPEN30
 10
2154.71478349883
 20
614.0528144517782
 30
0.0
 41
12.5
 42
12.5
 43
12.5
 50
90.0
  0
INSERT
  5
5DD
330
5D6
100
AcDbEntity
  8
0
 62
     0
370
    -2
100
AcDbBlockReference
  2
_OPEN30
 10
2154.71478349883
 20
515.552814451775
 30
0.0
 41
12.5
 42
12.5
 43
12.5
 50
270.0
  0
MTEXT
  5
5DE
330
5D6
100
AcDbEntity
  8
0
 62
     0
100
AcDbMText
 10
2145.33978349883
 20
564.8028144517767
 30
0.0
 40
12.5
 41
0.0
 71
     5
 72
     1
  1
98.5
 11
0.0000000000000001
 21
1.0
 31
0.0
 73
     1
 44
1.0
1001
ACAD
1000
MTEXTBEGIN
1070
    73
1070
     1
1070
    44
1040
1.0
1070
    74
1070
     0
1000
MTEXTEND
  0
POINT
  5
5DF
330
5D6
100
AcDbEntity
  8
Defpoints
 62
     0
100
AcDbPoint
 10
2087.208310053114
 20
614.0528144517782
 30
0.0
  0
POINT
  5
5E0
330
5D6
100
AcDbEntity
  8
Defpoints
 62
     0
100
AcDbPoint
 10
2088.318310053113
 20
515.552814451775
 30
0.0
  0
POINT
  5
5E1
330
5D6
100
AcDbEntity
  8
Defpoints
 62
     0
100
AcDbPoint
 10
2154.71478349883
 20
515.552814451775
 30
0.0
  0
ENDBLK
  5
5D8
330
5D6
100
AcDbEntity
  8
0
100
AcDbBlockEnd
  0
BLOCK
  5
5E4
330
5E3
100
AcDbEntity
  8
0
100
AcDbBlockBegin
  2
*D17
 70
     1
 10
0.0
 20
0.0
 30
0.0
  3
*D17
  1

  0
LINE
  5
BD8
330
5E3
100
AcDbEntity
  8
SIZE
 62
     0
370
    -2
100
AcDbLine
 10
2091.443310053113
 20
515.552814451775
 30
0.0
 11
2160.96478349883
 21
515.552814451775
 31
0.0
  0
LINE
  5
BD9
330
5E3
100
AcDbEntity
  8
SIZE
 62
     0
370
    -2
100
AcDbLine
 10
2087.833310053114
 20
123.052814451775
 30
0.0
 11
2160.96478349883
 21
123.052814451775
 31
0.0
  0
LINE
  5
BDA
330
5E3
100
AcDbEntity
  8
SIZE
 62
     0
370
    -2
100
AcDbLine
 10
2154.71478349883
 20
503.052814451775
 30
0.0
 11
2154.71478349883
 21
135.552814451775
 31
0.0
  0
INSERT
  5
BDB
330
5E3
100
AcDbEntity
  8
SIZE
 62
     0
370
    -2
100
AcDbBlockReference
  2
_OPEN30
 10
2154.71478349883
 20
515.552814451775
 30
0.0
 41
12.5
 42
12.5
 43
12.5
 50
90.0
  0
INSERT
  5
BDC
330
5E3
100
AcDbEntity
  8
SIZE
 62
     0
370
    -2
100
AcDbBlockReference
  2
_OPEN30
 10
2154.71478349883
 20
123.052814451775
 30
0.0
 41
12.5
 42
12.5
 43
12.5
 50
270.0
  0
MTEXT
  5
BDD
330
5E3
100
AcDbEntity
  8
SIZE
 62
     0
100
AcDbMText
 10
2145.33978349883
 20
319.3028144517754
 30
0.0
 40
12.5
 41
0.0
 71
     5
 72
     1
  1
392.5
 11
0.0000000000000001
 21
1.0
 31
0.0
 73
     1
 44
1.0
1001
ACAD
1000
MTEXTBEGIN
1070
    73
1070
     1
1070
    44
1040
1.0
1070
    74
1070
     0
1000
MTEXTEND
  0
POINT
  5
BDE
330
5E3
100
AcDbEntity
  8
Defpoints
 62
     0
100
AcDbPoint
 10
2088.318310053113
 20
515.552814451775
 30
0.0
  0
POINT
  5
BDF
330
5E3
100
AcDbEntity
  8
Defpoints
 62
     0
100
AcDbPoint
 10
2084.708310053114
 20
123.052814451775
 30
0.0
  0
POINT
  5
BE0
330
5E3
100
AcDbEntity
  8
Defpoints
 62
     0
100
AcDbPoint
 10
2154.71478349883
 20
123.052814451775
 30
0.0
  0
ENDBLK
  5
5E5
330
5E3
100
AcDbEntity
  8
0
100
AcDbBlockEnd
  0
BLOCK
  5
5F1
330
5F0
100
AcDbEntity
  8
0
100
AcDbBlockBegin
  2
*D18
 70
     1
 10
0.0
 20
0.0
 30
0.0
  3
*D18
  1

  0
LINE
  5
BCF
330
5F0
100
AcDbEntity
  8
SIZE
 62
     0
370
    -2
100
AcDbLine
 10
2087.833310053114
 20
123.052814451775
 30
0.0
 11
2160.96478349883
 21
123.052814451775
 31
0.0
  0
LINE
  5
BD0
330
5F0
100
AcDbEntity
  8
SIZE
 62
     0
370
    -2
100
AcDbLine
 10
2075.943310053114
 20
-51.94718554822497
 30
0.0
 11
2160.96478349883
 21
-51.94718554822499
 31
0.0
  0
LINE
  5
BD1
330
5F0
100
AcDbEntity
  8
SIZE
 62
     0
370
    -2
100
AcDbLine
 10
2154.71478349883
 20
110.552814451775
 30
0.0
 11
2154.71478349883
 21
-39.44718554822499
 31
0.0
  0
INSERT
  5
BD2
330
5F0
100
AcDbEntity
  8
SIZE
 62
     0
370
    -2
100
AcDbBlockReference
  2
_OPEN30
 10
2154.71478349883
 20
123.052814451775
 30
0.0
 41
12.5
 42
12.5
 43
12.5
 50
90.0
  0
INSERT
  5
BD3
330
5F0
100
AcDbEntity
  8
SIZE
 62
     0
370
    -2
100
AcDbBlockReference
  2
_OPEN30
 10
2154.71478349883
 20
-51.94718554822499
 30
0.0
 41
12.5
 42
12.5
 43
12.5
 50
270.0
  0
MTEXT
  5
BD4
330
5F0
100
AcDbEntity
  8
SIZE
 62
     0
100
AcDbMText
 10
2145.33978349883
 20
35.55281445177535
 30
0.0
 40
12.5
 41
0.0
 71
     5
 72
     1
  1
175
 11
0.0000000000000001
 21
1.0
 31
0.0
 73
     1
 44
1.0
1001
ACAD
1000
MTEXTBEGIN
1070
    73
1070
     1
1070
    44
1040
1.0
1070
    74
1070
     0
1000
MTEXTEND
  0
POINT
  5
BD5
330
5F0
100
AcDbEntity
  8
Defpoints
 62
     0
100
AcDbPoint
 10
2084.708310053114
 20
123.052814451775
 30
0.0
  0
POINT
  5
BD6
330
5F0
100
AcDbEntity
  8
Defpoints
 62
     0
100
AcDbPoint
 10
2072.818310053114
 20
-51.94718554822497
 30
0.0
  0
POINT
  5
BD7
330
5F0
100
AcDbEntity
  8
Defpoints
 62
     0
100
AcDbPoint
 10
2154.71478349883
 20
-51.94718554822499
 30
0.0
  0
ENDBLK
  5
5F2
330
5F0
100
AcDbEntity
  8
0
100
AcDbBlockEnd
  0
BLOCK
  5
5FE
330
5FD
100
AcDbEntity
  8
0
100
AcDbBlockBegin
  2
*D19
 70
     1
 10
0.0
 20
0.0
 30
0.0
  3
*D19
  1

  0
LINE
  5
BC6
330
5FD
100
AcDbEntity
  8
SIZE
 62
     0
370
    -2
100
AcDbLine
 10
2075.943310053114
 20
-51.94718554822497
 30
0.0
 11
2160.96478349883
 21
-51.94718554822499
 31
0.0
  0
LINE
  5
BC7
330
5FD
100
AcDbEntity
  8
SIZE
 62
     0
370
    -2
100
AcDbLine
 10
2075.943310053114
 20
-254.947185548225
 30
0.0
 11
2160.96478349883
 21
-254.947185548225
 31
0.0
  0
LINE
  5
BC8
330
5FD
100
AcDbEntity
  8
SIZE
 62
     0
370
    -2
100
AcDbLine
 10
2154.71478349883
 20
-64.44718554822499
 30
0.0
 11
2154.71478349883
 21
-242.447185548225
 31
0.0
  0
INSERT
  5
BC9
330
5FD
100
AcDbEntity
  8
SIZE
 62
     0
370
    -2
100
AcDbBlockReference
  2
_OPEN30
 10
2154.71478349883
 20
-51.94718554822499
 30
0.0
 41
12.5
 42
12.5
 43
12.5
 50
90.0
  0
INSERT
  5
BCA
330
5FD
100
AcDbEntity
  8
SIZE
 62
     0
370
    -2
100
AcDbBlockReference
  2
_OPEN30
 10
2154.71478349883
 20
-254.947185548225
 30
0.0
 41
12.5
 42
12.5
 43
12.5
 50
270.0
  0
MTEXT
  5
BCB
330
5FD
100
AcDbEntity
  8
SIZE
 62
     0
100
AcDbMText
 10
2145.33978349883
 20
-153.4471855482246
 30
0.0
 40
12.5
 41
0.0
 71
     5
 72
     1
  1
203
 11
0.0000000000000001
 21
1.0
 31
0.0
 73
     1
 44
1.0
1001
ACAD
1000
MTEXTBEGIN
1070
    73
1070
     1
1070
    44
1040
1.0
1070
    74
1070
     0
1000
MTEXTEND
  0
POINT
  5
BCC
330
5FD
100
AcDbEntity
  8
Defpoints
 62
     0
100
AcDbPoint
 10
2072.818310053114
 20
-51.94718554822497
 30
0.0
  0
POINT
  5
BCD
330
5FD
100
AcDbEntity
  8
Defpoints
 62
     0
100
AcDbPoint
 10
2072.818310053114
 20
-254.947185548225
 30
0.0
  0
POINT
  5
BCE
330
5FD
100
AcDbEntity
  8
Defpoints
 62
     0
100
AcDbPoint
 10
2154.71478349883
 20
-254.947185548225
 30
0.0
  0
ENDBLK
  5
5FF
330
5FD
100
AcDbEntity
  8
0
100
AcDbBlockEnd
  0
BLOCK
  5
61E
330
61D
100
AcDbEntity
  8
0
100
AcDbBlockBegin
  2
*D20
 70
     1
 10
0.0
 20
0.0
 30
0.0
  3
*D20
  1

  0
LINE
  5
BBD
330
61D
100
AcDbEntity
  8
SIZE
 62
     0
370
    -2
100
AcDbLine
 10
2022.943310053114
 20
609.5528144517784
 30
0.0
 11
2160.96478349883
 21
609.5528144517784
 31
0.0
  0
LINE
  5
BBE
330
61D
100
AcDbEntity
  8
SIZE
 62
     0
370
    -2
100
AcDbLine
 10
2091.333310053113
 20
515.552814451775
 30
0.0
 11
2160.96478349883
 21
515.552814451775
 31
0.0
  0
LINE
  5
BBF
330
61D
100
AcDbEntity
  8
SIZE
 62
     0
370
    -2
100
AcDbLine
 10
2154.71478349883
 20
597.0528144517784
 30
0.0
 11
2154.71478349883
 21
528.052814451775
 31
0.0
  0
INSERT
  5
BC0
330
61D
100
AcDbEntity
  8
SIZE
 62
     0
370
    -2
100
AcDbBlockReference
  2
_OPEN30
 10
2154.71478349883
 20
609.5528144517784
 30
0.0
 41
12.5
 42
12.5
 43
12.5
 50
90.0
  0
INSERT
  5
BC1
330
61D
100
AcDbEntity
  8
SIZE
 62
     0
370
    -2
100
AcDbBlockReference
  2
_OPEN30
 10
2154.71478349883
 20
515.552814451775
 30
0.0
 41
12.5
 42
12.5
 43
12.5
 50
270.0
  0
MTEXT
  5
BC2
330
61D
100
AcDbEntity
  8
SIZE
 62
     0
100
AcDbMText
 10
2145.33978349883
 20
562.5528144517771
 30
0.0
 40
12.5
 41
0.0
 71
     5
 72
     1
  1
94
 11
0.0000000000000001
 21
1.0
 31
0.0
 73
     1
 44
1.0
1001
ACAD
1000
MTEXTBEGIN
1070
    73
1070
     1
1070
    44
1040
1.0
1070
    74
1070
     0
1000
MTEXTEND
  0
POINT
  5
BC3
330
61D
100
AcDbEntity
  8
Defpoints
 62
     0
100
AcDbPoint
 10
2019.818310053114
 20
609.5528144517784
 30
0.0
  0
POINT
  5
BC4
330
61D
100
AcDbEntity
  8
Defpoints
 62
     0
100
AcDbPoint
 10
2088.208310053113
 20
515.552814451775
 30
0.0
  0
POINT
  5
BC5
330
61D
100
AcDbEntity
  8
Defpoints
 62
     0
100
AcDbPoint
 10
2154.71478349883
 20
515.552814451775
 30
0.0
  0
ENDBLK
  5
61F
330
61D
100
AcDbEntity
  8
0
100
AcDbBlockEnd
  0
BLOCK
  5
64C
330
64B
100
AcDbEntity
  8
0
100
AcDbBlockBegin
  2
_DOTBLANK
 70
     0
 10
0.0
 20
0.0
 30
0.0
  3
_DOTBLANK
  1

  0
CIRCLE
  5
64D
330
64B
100
AcDbEntity
  8
0
  6
Continuous
 62
     7
100
AcDbCircle
 10
0.0
 20
0.0
 30
0.0
 40
0.5
  0
LINE
  5
64E
330
64B
100
AcDbEntity
  8
0
  6
Continuous
 62
     7
100
AcDbLine
 10
-0.5
 20
0.0
 30
0.0
 11
-1.0
 21
0.0
 31
0.0
  0
ENDBLK
  5
64F
330
64B
100
AcDbEntity
  8
0
100
AcDbBlockEnd
  0
BLOCK
  5
8FC
330
65A
100
AcDbEntity
  8
0
100
AcDbBlockBegin
  2
A$C4770057F
 70
     0
 10
0.0
 20
0.0
 30
0.0
  3
A$C4770057F
  1

  0
TEXT
  5
65B
330
65A
100
AcDbEntity
  8
ETC
  6
Continuous
 62
    61
100
AcDbText
 10
2500.826583640748
 20
2165.470197225919
 30
0.0
 40
90.0
  1
PUHY-P960_1010SCM-E1_1
 50
0.000003
 41
0.6030590000000001
  7
STANDARD1
100
AcDbText
  0
LINE
  5
65C
330
65A
100
AcDbEntity
  8
NOTE
  6
Continuous
 62
     4
100
AcDbLine
 10
745.0761556407478
 20
1506.106777225919
 30
0.0
 11
745.0761556407478
 21
1448.106776225919
 31
0.0
  0
LINE
  5
65D
330
65A
100
AcDbEntity
  8
NOTE
  6
Continuous
 62
     4
100
AcDbLine
 10
774.0761556407478
 20
1477.106777225919
 30
0.0
 11
716.0761546407477
 21
1477.106777225919
 31
0.0
  0
LINE
  5
65E
330
65A
100
AcDbEntity
  8
NOTE
  6
Continuous
 62
     4
100
AcDbLine
 10
745.0761556407478
 20
1356.106774225919
 30
0.0
 11
745.0761556407478
 21
1298.106773225919
 31
0.0
  0
LINE
  5
65F
330
65A
100
AcDbEntity
  8
NOTE
  6
Continuous
 62
     4
100
AcDbLine
 10
774.0761556407478
 20
1327.106774225919
 30
0.0
 11
716.0761546407477
 21
1327.106774225919
 31
0.0
  0
LINE
  5
660
330
65A
100
AcDbEntity
  8
NOTE
  6
Continuous
 62
     4
100
AcDbLine
 10
745.0761556407478
 20
1206.106772225919
 30
0.0
 11
745.0761556407478
 21
1148.106770225919
 31
0.0
  0
LINE
  5
661
330
65A
100
AcDbEntity
  8
NOTE
  6
Continuous
 62
     4
100
AcDbLine
 10
774.0761556407478
 20
1177.106771225919
 30
0.0
 11
716.0761546407477
 21
1177.106771225919
 31
0.0
  0
LINE
  5
662
330
65A
100
AcDbEntity
  8
NOTE
  6
Continuous
 62
     4
100
AcDbLine
 10
745.0761556407478
 20
1056.106769225919
 30
0.0
 11
745.0761556407478
 21
998.1067682259192
 31
0.0
  0
LINE
  5
663
330
65A
100
AcDbEntity
  8
NOTE
  6
Continuous
 62
     4
100
AcDbLine
 10
774.0761556407478
 20
1027.106768225919
 30
0.0
 11
716.0761546407477
 21
1027.106768225919
 31
0.0
  0
LINE
  5
664
330
65A
100
AcDbEntity
  8
NOTE
  6
Continuous
 62
     4
100
AcDbLine
 10
745.0761556407478
 20
906.1067662259191
 30
0.0
 11
745.0761556407478
 21
848.1067652259191
 31
0.0
  0
LINE
  5
665
330
65A
100
AcDbEntity
  8
NOTE
  6
Continuous
 62
     4
100
AcDbLine
 10
774.0761556407478
 20
877.1067652259191
 30
0.0
 11
716.0761546407477
 21
877.1067652259191
 31
0.0
  0
LINE
  5
666
330
65A
100
AcDbEntity
  8
NOTE
  6
Continuous
 62
     4
100
AcDbLine
 10
1929.076171640748
 20
906.1067662259191
 30
0.0
 11
1929.076171640748
 21
848.1067652259191
 31
0.0
  0
LINE
  5
667
330
65A
100
AcDbEntity
  8
NOTE
  6
Continuous
 62
     4
100
AcDbLine
 10
1958.076172640748
 20
877.1067652259191
 30
0.0
 11
1900.076171640748
 21
877.1067652259191
 31
0.0
  0
LINE
  5
668
330
65A
100
AcDbEntity
  8
NOTE
  6
Continuous
 62
     4
100
AcDbLine
 10
1929.076171640748
 20
1056.106769225919
 30
0.0
 11
1929.076171640748
 21
998.1067682259192
 31
0.0
  0
LINE
  5
669
330
65A
100
AcDbEntity
  8
NOTE
  6
Continuous
 62
     4
100
AcDbLine
 10
1958.076172640748
 20
1027.106768225919
 30
0.0
 11
1900.076171640748
 21
1027.106768225919
 31
0.0
  0
LINE
  5
66A
330
65A
100
AcDbEntity
  8
NOTE
  6
Continuous
 62
     4
100
AcDbLine
 10
1929.076171640748
 20
1206.106772225919
 30
0.0
 11
1929.076171640748
 21
1148.106770225919
 31
0.0
  0
LINE
  5
66B
330
65A
100
AcDbEntity
  8
NOTE
  6
Continuous
 62
     4
100
AcDbLine
 10
1958.076172640748
 20
1177.106771225919
 30
0.0
 11
1900.076171640748
 21
1177.106771225919
 31
0.0
  0
LINE
  5
66C
330
65A
100
AcDbEntity
  8
NOTE
  6
Continuous
 62
     4
100
AcDbLine
 10
1929.076171640748
 20
1356.106774225919
 30
0.0
 11
1929.076171640748
 21
1298.106773225919
 31
0.0
  0
LINE
  5
66D
330
65A
100
AcDbEntity
  8
NOTE
  6
Continuous
 62
     4
100
AcDbLine
 10
1958.076172640748
 20
1327.106774225919
 30
0.0
 11
1900.076171640748
 21
1327.106774225919
 31
0.0
  0
LINE
  5
66E
330
65A
100
AcDbEntity
  8
NOTE
  6
Continuous
 62
     4
100
AcDbLine
 10
1929.076171640748
 20
1506.106777225919
 30
0.0
 11
1929.076171640748
 21
1448.106776225919
 31
0.0
  0
LINE
  5
66F
330
65A
100
AcDbEntity
  8
NOTE
  6
Continuous
 62
     4
100
AcDbLine
 10
1958.076172640748
 20
1477.106777225919
 30
0.0
 11
1900.076171640748
 21
1477.106777225919
 31
0.0
  0
ARC
  5
670
330
65A
100
AcDbEntity
  8
DETAIL
  6
Continuous
 62
     5
100
AcDbCircle
 10
1337.076163640748
 20
1177.106771225919
 30
0.0
 40
361.000007
100
AcDbArc
 50
90.0
 51
270.0
  0
ARC
  5
671
330
65A
100
AcDbEntity
  8
DETAIL
  6
Continuous
 62
     5
100
AcDbCircle
 10
1337.076163640748
 20
1177.106771225919
 30
0.0
 40
361.000007
100
AcDbArc
 50
270.0
 51
90.0
  0
ARC
  5
672
330
65A
100
AcDbEntity
  8
DETAIL
  6
Continuous
 62
     5
100
AcDbCircle
 10
731.0761556407478
 20
847.7636192259192
 30
0.0
 40
4.0
100
AcDbArc
 50
180.0
 51
225.0
  0
ARC
  5
673
330
65A
100
AcDbEntity
  8
DETAIL
  6
Continuous
 62
     5
100
AcDbCircle
 10
777.7330106407478
 20
801.1067642259192
 30
0.0
 40
4.0
100
AcDbArc
 50
225.0
 51
270.0
  0
ARC
  5
674
330
65A
100
AcDbEntity
  8
DETAIL
  6
Continuous
 62
     5
100
AcDbCircle
 10
1943.076171640748
 20
847.7636192259192
 30
0.0
 40
4.0
100
AcDbArc
 50
315.0
 51
0.0
  0
CIRCLE
  5
675
330
65A
100
AcDbEntity
  8
DETAIL
  6
Continuous
 62
     5
100
AcDbCircle
 10
1929.076171640748
 20
1477.106777225919
 30
0.0
 40
12.5
  0
CIRCLE
  5
676
330
65A
100
AcDbEntity
  8
DETAIL
  6
Continuous
 62
     5
100
AcDbCircle
 10
1929.076171640748
 20
1477.106777225919
 30
0.0
 40
4.0
  0
CIRCLE
  5
677
330
65A
100
AcDbEntity
  8
DETAIL
  6
Continuous
 62
     5
100
AcDbCircle
 10
745.0761556407478
 20
1477.106777225919
 30
0.0
 40
12.5
  0
CIRCLE
  5
678
330
65A
100
AcDbEntity
  8
DETAIL
  6
Continuous
 62
     5
100
AcDbCircle
 10
745.0761556407478
 20
1477.106777225919
 30
0.0
 40
4.0
  0
CIRCLE
  5
679
330
65A
100
AcDbEntity
  8
DETAIL
  6
Continuous
 62
     5
100
AcDbCircle
 10
1929.076171640748
 20
1327.106774225919
 30
0.0
 40
12.5
  0
CIRCLE
  5
67A
330
65A
100
AcDbEntity
  8
DETAIL
  6
Continuous
 62
     5
100
AcDbCircle
 10
1929.076171640748
 20
1327.106774225919
 30
0.0
 40
4.0
  0
CIRCLE
  5
67B
330
65A
100
AcDbEntity
  8
DETAIL
  6
Continuous
 62
     5
100
AcDbCircle
 10
745.0761556407478
 20
1327.106774225919
 30
0.0
 40
12.5
  0
CIRCLE
  5
67C
330
65A
100
AcDbEntity
  8
DETAIL
  6
Continuous
 62
     5
100
AcDbCircle
 10
745.0761556407478
 20
1327.106774225919
 30
0.0
 40
4.0
  0
ARC
  5
67D
330
65A
100
AcDbEntity
  8
DETAIL
  6
Continuous
 62
     5
100
AcDbCircle
 10
1896.419316640748
 20
801.1067642259192
 30
0.0
 40
4.0
100
AcDbArc
 50
270.0
 51
315.0
  0
CIRCLE
  5
67E
330
65A
100
AcDbEntity
  8
DETAIL
  6
Continuous
 62
     5
100
AcDbCircle
 10
1929.076171640748
 20
1177.106771225919
 30
0.0
 40
12.5
  0
CIRCLE
  5
67F
330
65A
100
AcDbEntity
  8
DETAIL
  6
Continuous
 62
     5
100
AcDbCircle
 10
1929.076171640748
 20
1177.106771225919
 30
0.0
 40
4.0
  0
CIRCLE
  5
680
330
65A
100
AcDbEntity
  8
DETAIL
  6
Continuous
 62
     5
100
AcDbCircle
 10
745.0761556407478
 20
1177.106771225919
 30
0.0
 40
12.5
  0
CIRCLE
  5
681
330
65A
100
AcDbEntity
  8
DETAIL
  6
Continuous
 62
     5
100
AcDbCircle
 10
745.0761556407478
 20
1177.106771225919
 30
0.0
 40
4.0
  0
CIRCLE
  5
682
330
65A
100
AcDbEntity
  8
DETAIL
  6
Continuous
 62
     5
100
AcDbCircle
 10
1929.076171640748
 20
1027.106768225919
 30
0.0
 40
12.5
  0
CIRCLE
  5
683
330
65A
100
AcDbEntity
  8
DETAIL
  6
Continuous
 62
     5
100
AcDbCircle
 10
1929.076171640748
 20
1027.106768225919
 30
0.0
 40
4.0
  0
CIRCLE
  5
684
330
65A
100
AcDbEntity
  8
DETAIL
  6
Continuous
 62
     5
100
AcDbCircle
 10
745.0761556407478
 20
1027.106768225919
 30
0.0
 40
12.5
  0
CIRCLE
  5
685
330
65A
100
AcDbEntity
  8
DETAIL
  6
Continuous
 62
     5
100
AcDbCircle
 10
745.0761556407478
 20
1027.106768225919
 30
0.0
 40
4.0
  0
CIRCLE
  5
686
330
65A
100
AcDbEntity
  8
DETAIL
  6
Continuous
 62
     5
100
AcDbCircle
 10
1929.076171640748
 20
877.1067652259191
 30
0.0
 40
12.5
  0
CIRCLE
  5
687
330
65A
100
AcDbEntity
  8
DETAIL
  6
Continuous
 62
     5
100
AcDbCircle
 10
1929.076171640748
 20
877.1067652259191
 30
0.0
 40
4.0
  0
CIRCLE
  5
688
330
65A
100
AcDbEntity
  8
DETAIL
  6
Continuous
 62
     5
100
AcDbCircle
 10
745.0761556407478
 20
877.1067652259191
 30
0.0
 40
12.5
  0
CIRCLE
  5
689
330
65A
100
AcDbEntity
  8
DETAIL
  6
Continuous
 62
     5
100
AcDbCircle
 10
745.0761556407478
 20
877.1067652259191
 30
0.0
 40
4.0
  0
ARC
  5
68A
330
65A
100
AcDbEntity
  8
DETAIL
  6
Continuous
 62
     5
100
AcDbCircle
 10
832.3517166407478
 20
930.1909692259192
 30
0.0
 40
1.199999999999999
100
AcDbArc
 50
304.9999999999974
 51
58.73579000000302
  0
ARC
  5
68B
330
65A
100
AcDbEntity
  8
DETAIL
  6
Continuous
 62
     5
100
AcDbCircle
 10
828.3218756407476
 20
924.4393852259191
 30
0.0
 40
1.199999999999999
100
AcDbArc
 50
124.9999999999974
 51
215.1566890000058
  0
ARC
  5
68C
330
65A
100
AcDbEntity
  8
DETAIL
  6
Continuous
 62
     5
100
AcDbCircle
 10
1187.076163640748
 20
1177.106771225919
 30
0.0
 40
440.0000079999999
100
AcDbArc
 50
215.1566890000058
 51
224.8441640000026
  0
ARC
  5
68D
330
65A
100
AcDbEntity
  8
DETAIL
  6
Continuous
 62
     5
100
AcDbCircle
 10
874.2532716407479
 20
865.9809352259191
 30
0.0
 40
1.199999999999999
100
AcDbArc
 50
315.0
 51
44.84416400000262
  0
ARC
  5
68E
330
65A
100
AcDbEntity
  8
DETAIL
  6
Continuous
 62
     5
100
AcDbCircle
 10
861.8081476407478
 20
853.5358122259193
 30
0.0
 40
1.199999999999999
100
AcDbArc
 50
224.850141999998
 51
315.0
  0
ARC
  5
68F
330
65A
100
AcDbEntity
  8
DETAIL
  6
Continuous
 62
     5
100
AcDbCircle
 10
1187.076163640748
 20
1177.106771225919
 30
0.0
 40
460.0000089999999
100
AcDbArc
 50
215.149079
 51
224.850141999998
  0
ARC
  5
690
330
65A
100
AcDbEntity
  8
DETAIL
  6
Continuous
 62
     5
100
AcDbCircle
 10
809.9728046407479
 20
911.5912272259192
 30
0.0
 40
1.199999999999999
100
AcDbArc
 50
35.14907900000004
 51
124.9999999999974
  0
ARC
  5
691
330
65A
100
AcDbEntity
  8
DETAIL
  6
Continuous
 62
     5
100
AcDbCircle
 10
803.1897996407478
 20
909.7715742259191
 30
0.0
 40
1.199999999999999
100
AcDbArc
 50
187.2091419999966
 51
304.9999999999974
  0
ARC
  5
692
330
65A
100
AcDbEntity
  8
DETAIL
  6
Continuous
 62
     5
100
AcDbCircle
 10
797.9661106407479
 20
951.0683362259191
 30
0.0
 40
1.199999999999999
100
AcDbArc
 50
58.73579000000302
 51
187.2091419999966
  0
ARC
  5
693
330
65A
100
AcDbEntity
  8
DETAIL
  6
Continuous
 62
     5
100
AcDbCircle
 10
1691.800610640748
 20
1424.022573225919
 30
0.0
 40
1.199999999999999
100
AcDbArc
 50
124.9999999999974
 51
238.735790000003
  0
ARC
  5
694
330
65A
100
AcDbEntity
  8
DETAIL
  6
Continuous
 62
     5
100
AcDbCircle
 10
1695.830451640748
 20
1429.774157225919
 30
0.0
 40
1.199999999999999
100
AcDbArc
 50
304.9999999999974
 51
35.15668900000576
  0
ARC
  5
695
330
65A
100
AcDbEntity
  8
DETAIL
  6
Continuous
 62
     5
100
AcDbCircle
 10
1337.076163640748
 20
1177.106771225919
 30
0.0
 40
440.0000079999999
100
AcDbArc
 50
35.15668900000576
 51
44.84416400000262
  0
ARC
  5
696
330
65A
100
AcDbEntity
  8
DETAIL
  6
Continuous
 62
     5
100
AcDbCircle
 10
1649.899055640748
 20
1488.232607225919
 30
0.0
 40
1.199999999999999
100
AcDbArc
 50
135.0
 51
224.8441640000026
  0
ARC
  5
697
330
65A
100
AcDbEntity
  8
DETAIL
  6
Continuous
 62
     5
100
AcDbCircle
 10
1662.344179640748
 20
1500.677730225919
 30
0.0
 40
1.199999999999999
100
AcDbArc
 50
44.85014199999799
 51
135.0
  0
ARC
  5
698
330
65A
100
AcDbEntity
  8
DETAIL
  6
Continuous
 62
     5
100
AcDbCircle
 10
1337.076163640748
 20
1177.106771225919
 30
0.0
 40
460.0000089999999
100
AcDbArc
 50
35.14907900000004
 51
44.85014199999799
  0
ARC
  5
699
330
65A
100
AcDbEntity
  8
DETAIL
  6
Continuous
 62
     5
100
AcDbCircle
 10
1714.179522640748
 20
1442.622315225919
 30
0.0
 40
1.199999999999999
100
AcDbArc
 50
215.149079
 51
304.9999999999974
  0
ARC
  5
69A
330
65A
100
AcDbEntity
  8
DETAIL
  6
Continuous
 62
     5
100
AcDbCircle
 10
1720.962527640748
 20
1444.441968225919
 30
0.0
 40
1.199999999999999
100
AcDbArc
 50
7.209141999996574
 51
124.9999999999974
  0
ARC
  5
69B
330
65A
100
AcDbEntity
  8
DETAIL
  6
Continuous
 62
     5
100
AcDbCircle
 10
1726.186216640748
 20
1403.145206225919
 30
0.0
 40
1.199999999999999
100
AcDbArc
 50
238.735790000003
 51
7.209141999996574
  0
LINE
  5
69C
330
65A
100
AcDbEntity
  8
DETAIL
  6
Continuous
 62
     5
100
AcDbLine
 10
1945.904599640748
 20
844.9351922259191
 30
0.0
 11
1899.247743640748
 21
798.2783372259191
 31
0.0
  0
LINE
  5
69D
330
65A
100
AcDbEntity
  8
DETAIL
  6
Continuous
 62
     5
100
AcDbLine
 10
1727.376730640748
 20
1403.295796225919
 30
0.0
 11
1722.153041640748
 21
1444.592557225919
 31
0.0
  0
LINE
  5
69E
330
65A
100
AcDbEntity
  8
DETAIL
  6
Continuous
 62
     5
100
AcDbLine
 10
1691.177828640748
 20
1422.996834225919
 30
0.0
 11
1725.563434640748
 21
1402.119466225919
 31
0.0
  0
LINE
  5
69F
330
65A
100
AcDbEntity
  8
DETAIL
  6
Continuous
 62
     5
100
AcDbLine
 10
827.6335836407477
 20
925.4223672259191
 30
0.0
 11
833.0400086407477
 21
929.2079862259191
 31
0.0
  0
LINE
  5
6A0
330
65A
100
AcDbEntity
  8
DETAIL
  6
Continuous
 62
     5
100
AcDbLine
 10
803.8780906407477
 20
908.7885922259191
 30
0.0
 11
809.2845126407478
 21
912.5742092259191
 31
0.0
  0
LINE
  5
6A1
330
65A
100
AcDbEntity
  8
DETAIL
  6
Continuous
 62
     5
100
AcDbLine
 10
1696.518743640748
 20
1428.791175225919
 30
0.0
 11
1691.112318640748
 21
1425.005556225919
 31
0.0
  0
LINE
  5
6A2
330
65A
100
AcDbEntity
  8
DETAIL
  6
Continuous
 62
     5
100
AcDbLine
 10
1720.274236640747
 20
1445.424950225919
 30
0.0
 11
1714.867814640748
 21
1441.639333225919
 31
0.0
  0
LINE
  5
6A3
330
65A
100
AcDbEntity
  8
DETAIL
  6
Continuous
 62
     5
100
AcDbLine
 10
862.6566756407479
 20
852.6872832259192
 30
0.0
 11
875.1017996407476
 21
865.1324072259191
 31
0.0
  0
LINE
  5
6A4
330
65A
100
AcDbEntity
  8
DETAIL
  6
Continuous
 62
     5
100
AcDbLine
 10
1661.495651640748
 20
1501.526259225919
 30
0.0
 11
1649.050527640748
 21
1489.081135225919
 31
0.0
  0
LINE
  5
6A5
330
65A
100
AcDbEntity
  8
DETAIL
  6
Continuous
 62
     5
100
AcDbLine
 10
777.7330106407478
 20
797.1067642259192
 30
0.0
 11
1896.419316640748
 21
797.1067642259192
 31
0.0
  0
LINE
  5
6A6
330
65A
100
AcDbEntity
  8
DETAIL
  6
Continuous
 62
     5
100
AcDbLine
 10
796.7755966407478
 20
950.9177462259192
 30
0.0
 11
801.999285640748
 21
909.6209852259191
 31
0.0
  0
LINE
  5
6A7
330
65A
100
AcDbEntity
  8
DETAIL
  6
Continuous
 62
     5
100
AcDbLine
 10
832.9744986407476
 20
931.2167082259191
 30
0.0
 11
798.5888926407477
 21
952.0940762259192
 31
0.0
  0
LINE
  5
6A8
330
65A
100
AcDbEntity
  8
DETAIL
  6
Continuous
 62
     5
100
AcDbLine
 10
774.9045836407476
 20
798.2783372259191
 30
0.0
 11
728.2477276407478
 21
844.9351922259191
 31
0.0
  0
LINE
  5
6A9
330
65A
100
AcDbEntity
  8
DETAIL
  6
Continuous
 62
     5
100
AcDbLine
 10
774.9045836407476
 20
1555.935205225919
 30
0.0
 11
728.2477276407478
 21
1509.278350225919
 31
0.0
  0
LINE
  5
6AA
330
65A
100
AcDbEntity
  8
DETAIL
  6
Continuous
 62
     5
100
AcDbLine
 10
777.7330106407478
 20
1557.106778225919
 30
0.0
 11
1896.419316640748
 21
1557.106778225919
 31
0.0
  0
LINE
  5
6AB
330
65A
100
AcDbEntity
  8
DETAIL
  6
Continuous
 62
     5
100
AcDbLine
 10
1945.904599640748
 20
1509.278350225919
 30
0.0
 11
1899.247743640748
 21
1555.935205225919
 31
0.0
  0
ARC
  5
6AC
330
65A
100
AcDbEntity
  8
DETAIL
  6
Continuous
 62
     5
100
AcDbCircle
 10
1896.419316640748
 20
1553.106778225919
 30
0.0
 40
4.0
100
AcDbArc
 50
45.0
 51
90.0
  0
ARC
  5
6AD
330
65A
100
AcDbEntity
  8
DETAIL
  6
Continuous
 62
     5
100
AcDbCircle
 10
777.7330106407478
 20
1553.106778225919
 30
0.0
 40
4.0
100
AcDbArc
 50
90.0
 51
135.0
  0
ARC
  5
6AE
330
65A
100
AcDbEntity
  8
DETAIL
  6
Continuous
 62
     5
100
AcDbCircle
 10
1943.076171640748
 20
1506.449923225919
 30
0.0
 40
4.0
100
AcDbArc
 50
0.0
 51
45.0
  0
ARC
  5
6AF
330
65A
100
AcDbEntity
  8
DETAIL
  6
Continuous
 62
     5
100
AcDbCircle
 10
731.0761556407478
 20
1506.449923225919
 30
0.0
 40
4.0
100
AcDbArc
 50
135.0
 51
180.0
  0
LINE
  5
6B0
330
65A
100
AcDbEntity
  8
DETAIL
  6
Continuous
 62
     5
100
AcDbLine
 10
1947.076172640748
 20
1506.449923225919
 30
0.0
 11
1947.076172640748
 21
847.7636192259192
 31
0.0
  0
LINE
  5
6B1
330
65A
100
AcDbEntity
  8
DETAIL
  6
Continuous
 62
     5
100
AcDbLine
 10
727.0761546407477
 20
1506.449923225919
 30
0.0
 11
727.0761546407477
 21
847.7636192259192
 31
0.0
  0
LINE
  5
6B2
330
65A
100
AcDbEntity
  8
BASIS
  6
DASHDOT
 62
     6
100
AcDbLine
 10
646.5658386407478
 20
1177.106771225919
 30
0.0
 11
2029.008278640748
 21
1177.106771225919
 31
0.0
  0
LINE
  5
6B3
330
65A
100
AcDbEntity
  8
BASIS
  6
DASHDOT
 62
     6
100
AcDbLine
 10
1337.076163640748
 20
730.6231842259192
 30
0.0
 11
1337.076163640748
 21
1623.590358225919
 31
0.0
  0
TEXT
  5
6B4
330
65A
100
AcDbEntity
  8
NOTE
  6
Continuous
 62
     4
100
AcDbText
 10
565.1367556407478
 20
1117.986883225919
 30
0.0
 40
55.0
  1
吸込
 50
0.000003
 41
0.703125
  7
STANDARD1
100
AcDbText
  0
TEXT
  5
6B5
330
65A
100
AcDbEntity
  8
NOTE
  6
Continuous
 62
     4
100
AcDbText
 10
565.1367556407478
 20
1185.343211225919
 30
0.0
 40
55.0
  1
空気
 50
0.000003
 41
0.703125
  7
STANDARD1
100
AcDbText
  0
LINE
  5
6B6
330
65A
100
AcDbEntity
  8
NOTE
  6
Continuous
 62
     4
100
AcDbLine
 10
567.7092486407477
 20
1308.722671225919
 30
0.0
 11
567.7092486407477
 21
1358.722672225919
 31
0.0
  0
LINE
  5
6B7
330
65A
100
AcDbEntity
  8
NOTE
  6
Continuous
 62
     4
100
AcDbLine
 10
608.3953366407479
 20
1358.722672225919
 30
0.0
 11
567.7092486407477
 21
1358.722672225919
 31
0.0
  0
LINE
  5
6B8
330
65A
100
AcDbEntity
  8
NOTE
  6
Continuous
 62
     4
100
AcDbLine
 10
608.3953366407479
 20
1308.722671225919
 30
0.0
 11
567.7092486407477
 21
1308.722671225919
 31
0.0
  0
LINE
  5
6B9
330
65A
100
AcDbEntity
  8
NOTE
  6
Continuous
 62
     4
100
AcDbLine
 10
608.3953366407479
 20
1308.722671225919
 30
0.0
 11
608.3953366407479
 21
1283.722670225919
 31
0.0
  0
LINE
  5
6BA
330
65A
100
AcDbEntity
  8
NOTE
  6
Continuous
 62
     4
100
AcDbLine
 10
608.3953366407479
 20
1383.722672225919
 30
0.0
 11
608.3953366407479
 21
1358.722672225919
 31
0.0
  0
LINE
  5
6BB
330
65A
100
AcDbEntity
  8
NOTE
  6
Continuous
 62
     4
100
AcDbLine
 10
608.3953366407479
 20
1383.722672225919
 30
0.0
 11
658.2913826407478
 21
1333.722671225919
 31
0.0
  0
LINE
  5
6BC
330
65A
100
AcDbEntity
  8
NOTE
  6
Continuous
 62
     4
100
AcDbLine
 10
658.2913826407478
 20
1333.722671225919
 30
0.0
 11
608.3953366407479
 21
1283.722670225919
 31
0.0
  0
LINE
  5
6BD
330
65A
100
AcDbEntity
  8
NOTE
  6
Continuous
 62
     4
100
AcDbLine
 10
609.0477826407477
 20
1000.560565225919
 30
0.0
 11
609.0477826407477
 21
975.5605652259191
 31
0.0
  0
LINE
  5
6BE
330
65A
100
AcDbEntity
  8
NOTE
  6
Continuous
 62
     4
100
AcDbLine
 10
658.9438286407478
 20
1025.560566225919
 30
0.0
 11
609.0477826407477
 21
975.5605652259191
 31
0.0
  0
LINE
  5
6BF
330
65A
100
AcDbEntity
  8
NOTE
  6
Continuous
 62
     4
100
AcDbLine
 10
609.0477826407477
 20
1075.560566225919
 30
0.0
 11
658.9438286407478
 21
1025.560566225919
 31
0.0
  0
LINE
  5
6C0
330
65A
100
AcDbEntity
  8
NOTE
  6
Continuous
 62
     4
100
AcDbLine
 10
609.0477826407477
 20
1000.560565225919
 30
0.0
 11
568.3616936407479
 21
1000.560565225919
 31
0.0
  0
LINE
  5
6C1
330
65A
100
AcDbEntity
  8
NOTE
  6
Continuous
 62
     4
100
AcDbLine
 10
609.0477826407477
 20
1050.560566225919
 30
0.0
 11
568.3616936407479
 21
1050.560566225919
 31
0.0
  0
LINE
  5
6C2
330
65A
100
AcDbEntity
  8
NOTE
  6
Continuous
 62
     4
100
AcDbLine
 10
568.3616936407479
 20
1000.560565225919
 30
0.0
 11
568.3616936407479
 21
1050.560566225919
 31
0.0
  0
LINE
  5
6C3
330
65A
100
AcDbEntity
  8
NOTE
  6
Continuous
 62
     4
100
AcDbLine
 10
609.0477826407477
 20
1075.560566225919
 30
0.0
 11
609.0477826407477
 21
1050.560566225919
 31
0.0
  0
ARC
  5
6C4
330
65A
100
AcDbEntity
  8
OUTLINE
  6
Continuous
 62
     3
100
AcDbCircle
 10
731.0761556407478
 20
847.7636192259192
 30
0.0
 40
4.0
100
AcDbArc
 50
180.0
 51
225.0
  0
ARC
  5
6C5
330
65A
100
AcDbEntity
  8
OUTLINE
  6
Continuous
 62
     3
100
AcDbCircle
 10
777.7330106407478
 20
801.1067642259192
 30
0.0
 40
4.0
100
AcDbArc
 50
225.0
 51
270.0
  0
ARC
  5
6C6
330
65A
100
AcDbEntity
  8
OUTLINE
  6
Continuous
 62
     3
100
AcDbCircle
 10
1943.076171640748
 20
847.7636192259192
 30
0.0
 40
4.0
100
AcDbArc
 50
315.0
 51
0.0
  0
ARC
  5
6C7
330
65A
100
AcDbEntity
  8
OUTLINE
  6
Continuous
 62
     3
100
AcDbCircle
 10
1896.419316640748
 20
801.1067642259192
 30
0.0
 40
4.0
100
AcDbArc
 50
270.0
 51
315.0
  0
LINE
  5
6C8
330
65A
100
AcDbEntity
  8
OUTLINE
  6
Continuous
 62
     3
100
AcDbLine
 10
1945.904599640748
 20
844.9351922259191
 30
0.0
 11
1899.247743640748
 21
798.2783372259191
 31
0.0
  0
LINE
  5
6C9
330
65A
100
AcDbEntity
  8
OUTLINE
  6
Continuous
 62
     3
100
AcDbLine
 10
777.7330106407478
 20
797.1067642259192
 30
0.0
 11
1896.419316640748
 21
797.1067642259192
 31
0.0
  0
LINE
  5
6CA
330
65A
100
AcDbEntity
  8
OUTLINE
  6
Continuous
 62
     3
100
AcDbLine
 10
774.9045836407476
 20
798.2783372259191
 30
0.0
 11
728.2477276407478
 21
844.9351922259191
 31
0.0
  0
LINE
  5
6CB
330
65A
100
AcDbEntity
  8
OUTLINE
  6
Continuous
 62
     3
100
AcDbLine
 10
774.9045836407476
 20
1555.935205225919
 30
0.0
 11
728.2477276407478
 21
1509.278350225919
 31
0.0
  0
LINE
  5
6CC
330
65A
100
AcDbEntity
  8
OUTLINE
  6
Continuous
 62
     3
100
AcDbLine
 10
777.7330106407478
 20
1557.106778225919
 30
0.0
 11
1896.419316640748
 21
1557.106778225919
 31
0.0
  0
LINE
  5
6CD
330
65A
100
AcDbEntity
  8
OUTLINE
  6
Continuous
 62
     3
100
AcDbLine
 10
1945.904599640748
 20
1509.278350225919
 30
0.0
 11
1899.247743640748
 21
1555.935205225919
 31
0.0
  0
ARC
  5
6CE
330
65A
100
AcDbEntity
  8
OUTLINE
  6
Continuous
 62
     3
100
AcDbCircle
 10
1896.419316640748
 20
1553.106778225919
 30
0.0
 40
4.0
100
AcDbArc
 50
45.0
 51
90.0
  0
ARC
  5
6CF
330
65A
100
AcDbEntity
  8
OUTLINE
  6
Continuous
 62
     3
100
AcDbCircle
 10
777.7330106407478
 20
1553.106778225919
 30
0.0
 40
4.0
100
AcDbArc
 50
90.0
 51
135.0
  0
ARC
  5
6D0
330
65A
100
AcDbEntity
  8
OUTLINE
  6
Continuous
 62
     3
100
AcDbCircle
 10
1943.076171640748
 20
1506.449923225919
 30
0.0
 40
4.0
100
AcDbArc
 50
0.0
 51
45.0
  0
ARC
  5
6D1
330
65A
100
AcDbEntity
  8
OUTLINE
  6
Continuous
 62
     3
100
AcDbCircle
 10
731.0761556407478
 20
1506.449923225919
 30
0.0
 40
4.0
100
AcDbArc
 50
135.0
 51
180.0
  0
LINE
  5
6D2
330
65A
100
AcDbEntity
  8
OUTLINE
  6
Continuous
 62
     3
100
AcDbLine
 10
1947.076172640748
 20
1506.449923225919
 30
0.0
 11
1947.076172640748
 21
847.7636192259192
 31
0.0
  0
LINE
  5
6D3
330
65A
100
AcDbEntity
  8
OUTLINE
  6
Continuous
 62
     3
100
AcDbLine
 10
727.0761546407477
 20
1506.449923225919
 30
0.0
 11
727.0761546407477
 21
847.7636192259192
 31
0.0
  0
LINE
  5
6D4
330
65A
100
AcDbEntity
  8
NOTE
  6
Continuous
 62
     4
100
AcDbLine
 10
1028.076159640748
 20
922.3567642259192
 30
0.0
 11
1028.076159640748
 21
961.8567642259192
 31
0.0
  0
LINE
  5
6D5
330
65A
100
AcDbEntity
  8
NOTE
  6
Continuous
 62
     4
100
AcDbLine
 10
1047.826159640748
 20
942.1067642259192
 30
0.0
 11
1008.326159640748
 21
942.1067642259192
 31
0.0
  0
LINE
  5
6D6
330
65A
100
AcDbEntity
  8
NOTE
  6
Continuous
 62
     4
100
AcDbLine
 10
1111.076161640748
 20
911.1067632259191
 30
0.0
 11
1111.076161640748
 21
967.1067642259192
 31
0.0
  0
LINE
  5
6D7
330
65A
100
AcDbEntity
  8
NOTE
  6
Continuous
 62
     4
100
AcDbLine
 10
1139.076161640748
 20
939.1067642259191
 30
0.0
 11
1083.076160640748
 21
939.1067642259191
 31
0.0
  0
LINE
  5
6D8
330
65A
100
AcDbEntity
  8
NOTE
  6
Continuous
 62
     4
100
AcDbLine
 10
1028.076170640748
 20
942.1067542259192
 30
0.0
 11
1053.948269640748
 21
921.089008225919
 31
0.0
  0
LINE
  5
6D9
330
65A
100
AcDbEntity
  8
NOTE
  6
Continuous
 62
     4
100
AcDbLine
 10
1028.076170640748
 20
942.1067542259192
 30
0.0
 11
1039.973192640747
 21
910.9688032259191
 31
0.0
  0
LINE
  5
6DA
330
65A
100
AcDbEntity
  8
NOTE
  6
Continuous
 62
     4
100
AcDbLine
 10
1334.049100640748
 20
519.5861422259191
 30
0.0
 11
1028.076170640748
 21
942.1067542259192
 31
0.0
  0
LINE
  5
6DB
330
65A
100
AcDbEntity
  8
NOTE
  6
Continuous
 62
     4
100
AcDbLine
 10
1111.076173640748
 20
939.1067282259191
 30
0.0
 11
1139.988547640748
 21
922.518003225919
 31
0.0
  0
LINE
  5
6DC
330
65A
100
AcDbEntity
  8
NOTE
  6
Continuous
 62
     4
100
AcDbLine
 10
1111.076173640748
 20
939.1067282259191
 30
0.0
 11
1127.820660640748
 21
910.2842842259191
 31
0.0
  0
LINE
  5
6DD
330
65A
100
AcDbEntity
  8
NOTE
  6
Continuous
 62
     4
100
AcDbLine
 10
1410.047605640748
 20
641.744135225919
 30
0.0
 11
1111.076173640748
 21
939.1067282259191
 31
0.0
  0
TEXT
  5
6DE
330
65A
100
AcDbEntity
  8
NOTE
  6
Continuous
 62
     4
100
AcDbText
 10
1343.588687640748
 20
532.1496512259191
 30
0.0
 40
55.0
  1
RL2 %%C15.88
 50
0.000003
 41
0.6309520000000001
  7
STANDARD1
100
AcDbText
  0
LINE
  5
6DF
330
65A
100
AcDbEntity
  8
NOTE
  6
Continuous
 62
     4
100
AcDbLine
 10
1334.049100640748
 20
519.5861422259191
 30
0.0
 11
1647.657172640748
 21
519.5861422259191
 31
0.0
  0
TEXT
  5
6E0
330
65A
100
AcDbEntity
  8
NOTE
  6
Continuous
 62
     4
100
AcDbText
 10
1418.097990640748
 20
657.6866392259191
 30
0.0
 40
55.0
  1
RG2 %%C28.58
 50
0.000003
 41
0.6309520000000001
  7
STANDARD1
100
AcDbText
  0
LINE
  5
6E1
330
65A
100
AcDbEntity
  8
NOTE
  6
Continuous
 62
     4
100
AcDbLine
 10
1410.047605640748
 20
641.744135225919
 30
0.0
 11
1723.655677640748
 21
641.744135225919
 31
0.0
  0
LINE
  5
6E2
330
65A
100
AcDbEntity
  8
SIZE
  6
Continuous
 62
    30
100
AcDbLine
 10
727.0761546407477
 20
807.7636192259191
 30
0.0
 11
727.0761546407477
 21
521.758759225919
 31
0.0
  0
LINE
  5
6E3
330
65A
100
AcDbEntity
  8
SIZE
  6
Continuous
 62
    30
100
AcDbLine
 10
1028.076159640748
 20
907.3567642259192
 30
0.0
 11
1028.076159640748
 21
521.758759225919
 31
0.0
  0
LINE
  5
6E4
330
65A
100
AcDbEntity
  8
SIZE
  6
Continuous
 62
    30
100
AcDbLine
 10
737.0761546407477
 20
551.758759225919
 30
0.0
 11
1018.076159640748
 21
551.758759225919
 31
0.0
  0
CIRCLE
  5
6E5
330
65A
100
AcDbEntity
  8
SIZE
  6
Continuous
 62
    30
100
AcDbCircle
 10
727.0761546407477
 20
551.758759225919
 30
0.0
 40
5.0
  0
LINE
  5
6E6
330
65A
100
AcDbEntity
  8
SIZE
  6
Continuous
 62
    30
100
AcDbLine
 10
732.0761546407477
 20
551.758759225919
 30
0.0
 11
737.0761546407477
 21
551.758759225919
 31
0.0
  0
CIRCLE
  5
6E7
330
65A
100
AcDbEntity
  8
SIZE
  6
Continuous
 62
    30
100
AcDbCircle
 10
1028.076159640748
 20
551.758759225919
 30
0.0
 40
5.0
  0
LINE
  5
6E8
330
65A
100
AcDbEntity
  8
SIZE
  6
Continuous
 62
    30
100
AcDbLine
 10
1023.076159640748
 20
551.758759225919
 30
0.0
 11
1018.076159640748
 21
551.758759225919
 31
0.0
  0
TEXT
  5
6E9
330
65A
100
AcDbEntity
  8
SIZE
  6
Continuous
 62
    30
100
AcDbText
 10
813.9333004978906
 20
566.7587592259191
 30
0.0
 40
55.0
  1
301
 41
0.9
 72
     1
 11
877.5761576407479
 21
566.7587592259191
 31
0.0
100
AcDbText
  0
POINT
  5
6EA
330
65A
100
AcDbEntity
  8
Defpoints
  6
Continuous
 62
     7
100
AcDbPoint
 10
727.0761546407477
 20
827.7636192259192
 30
0.0
  0
POINT
  5
6EB
330
65A
100
AcDbEntity
  8
Defpoints
  6
Continuous
 62
     7
100
AcDbPoint
 10
1028.076159640748
 20
927.3567642259191
 30
0.0
  0
POINT
  5
6EC
330
65A
100
AcDbEntity
  8
Defpoints
  6
Continuous
 62
     7
100
AcDbPoint
 10
1028.076159640748
 20
551.758759225919
 30
0.0
  0
LINE
  5
6ED
330
65A
100
AcDbEntity
  8
SIZE
  6
Continuous
 62
    30
100
AcDbLine
 10
1028.076159640748
 20
907.3567642259192
 30
0.0
 11
1028.076159640748
 21
521.758759225919
 31
0.0
  0
LINE
  5
6EE
330
65A
100
AcDbEntity
  8
SIZE
  6
Continuous
 62
    30
100
AcDbLine
 10
1111.076161640748
 20
891.1067632259191
 30
0.0
 11
1111.076161640748
 21
521.758759225919
 31
0.0
  0
LINE
  5
6EF
330
65A
100
AcDbEntity
  8
SIZE
  6
Continuous
 62
    30
100
AcDbLine
 10
1018.076159640748
 20
551.758759225919
 30
0.0
 11
1008.076159640748
 21
551.758759225919
 31
0.0
  0
LINE
  5
6F0
330
65A
100
AcDbEntity
  8
SIZE
  6
Continuous
 62
    30
100
AcDbLine
 10
1121.076161640748
 20
551.758759225919
 30
0.0
 11
1131.076161640748
 21
551.758759225919
 31
0.0
  0
LINE
  5
6F1
330
65A
100
AcDbEntity
  8
SIZE
  6
Continuous
 62
    30
100
AcDbLine
 10
1028.076159640748
 20
551.758759225919
 30
0.0
 11
1111.076161640748
 21
551.758759225919
 31
0.0
  0
CIRCLE
  5
6F2
330
65A
100
AcDbEntity
  8
SIZE
  6
Continuous
 62
    30
100
AcDbCircle
 10
1028.076159640748
 20
551.758759225919
 30
0.0
 40
5.0
  0
LINE
  5
6F3
330
65A
100
AcDbEntity
  8
SIZE
  6
Continuous
 62
    30
100
AcDbLine
 10
1023.076159640748
 20
551.758759225919
 30
0.0
 11
1018.076159640748
 21
551.758759225919
 31
0.0
  0
CIRCLE
  5
6F4
330
65A
100
AcDbEntity
  8
SIZE
  6
Continuous
 62
    30
100
AcDbCircle
 10
1111.076161640748
 20
551.758759225919
 30
0.0
 40
5.0
  0
LINE
  5
6F5
330
65A
100
AcDbEntity
  8
SIZE
  6
Continuous
 62
    30
100
AcDbLine
 10
1116.076161640748
 20
551.758759225919
 30
0.0
 11
1121.076161640748
 21
551.758759225919
 31
0.0
  0
TEXT
  5
6F6
330
65A
100
AcDbEntity
  8
SIZE
  6
Continuous
 62
    30
100
AcDbText
 10
1022.433303497891
 20
566.7587592259191
 30
0.0
 40
55.0
  1
83
 41
0.9
 72
     1
 11
1069.576160640748
 21
566.7587592259191
 31
0.0
100
AcDbText
  0
POINT
  5
6F7
330
65A
100
AcDbEntity
  8
Defpoints
  6
Continuous
 62
     7
100
AcDbPoint
 10
1028.076159640748
 20
927.3567642259191
 30
0.0
  0
POINT
  5
6F8
330
65A
100
AcDbEntity
  8
Defpoints
  6
Continuous
 62
     7
100
AcDbPoint
 10
1111.076161640748
 20
911.1067632259191
 30
0.0
  0
POINT
  5
6F9
330
65A
100
AcDbEntity
  8
Defpoints
  6
Continuous
 62
     7
100
AcDbPoint
 10
1111.076161640748
 20
551.758759225919
 30
0.0
  0
LINE
  5
6FA
330
65A
100
AcDbEntity
  8
SIZE
  6
Continuous
 62
    30
100
AcDbLine
 10
1063.076160640748
 20
939.1067642259191
 30
0.0
 11
614.1671686407478
 21
939.1067642259191
 31
0.0
  0
LINE
  5
6FB
330
65A
100
AcDbEntity
  8
SIZE
  6
Continuous
 62
    30
100
AcDbLine
 10
757.7330106407478
 20
797.1067642259192
 30
0.0
 11
614.1671686407478
 21
797.1067642259192
 31
0.0
  0
LINE
  5
6FC
330
65A
100
AcDbEntity
  8
SIZE
  6
Continuous
 62
    30
100
AcDbLine
 10
644.1671686407478
 20
929.1067642259191
 30
0.0
 11
644.1671686407478
 21
807.106764225919
 31
0.0
  0
LINE
  5
6FD
330
65A
100
AcDbEntity
  8
SIZE
  6
Continuous
 62
    30
100
AcDbLine
 10
644.1671686407478
 20
797.1067642259192
 30
0.0
 11
644.1671686407478
 21
628.3716572259192
 31
0.0
  0
CIRCLE
  5
6FE
330
65A
100
AcDbEntity
  8
SIZE
  6
Continuous
 62
    30
100
AcDbCircle
 10
644.1671686407478
 20
939.1067642259191
 30
0.0
 40
5.0
  0
LINE
  5
6FF
330
65A
100
AcDbEntity
  8
SIZE
  6
Continuous
 62
    30
100
AcDbLine
 10
644.1671686407478
 20
934.1067642259192
 30
0.0
 11
644.1671686407478
 21
929.1067642259191
 31
0.0
  0
CIRCLE
  5
700
330
65A
100
AcDbEntity
  8
SIZE
  6
Continuous
 62
    30
100
AcDbCircle
 10
644.1671686407478
 20
797.1067642259192
 30
0.0
 40
5.0
  0
LINE
  5
701
330
65A
100
AcDbEntity
  8
SIZE
  6
Continuous
 62
    30
100
AcDbLine
 10
644.1671686407478
 20
802.1067642259191
 30
0.0
 11
644.1671686407478
 21
807.106764225919
 31
0.0
  0
TEXT
  5
702
330
65A
100
AcDbEntity
  8
SIZE
  6
Continuous
 62
    30
100
AcDbText
 10
629.1671686407478
 20
628.0502282259192
 30
0.0
 40
55.0
  1
142
 50
90.0
 41
0.9
 72
     1
 11
629.1671686407478
 21
702.3002282259191
 31
0.0
100
AcDbText
  0
POINT
  5
703
330
65A
100
AcDbEntity
  8
Defpoints
  6
Continuous
 62
     7
100
AcDbPoint
 10
1083.076160640748
 20
939.1067642259191
 30
0.0
  0
POINT
  5
704
330
65A
100
AcDbEntity
  8
Defpoints
  6
Continuous
 62
     7
100
AcDbPoint
 10
777.7330106407478
 20
797.1067642259192
 30
0.0
  0
POINT
  5
705
330
65A
100
AcDbEntity
  8
Defpoints
  6
Continuous
 62
     7
100
AcDbPoint
 10
644.1671686407478
 20
797.1067642259192
 30
0.0
  0
LINE
  5
706
330
65A
100
AcDbEntity
  8
SIZE
  6
Continuous
 62
    30
100
AcDbLine
 10
988.3261596407479
 20
942.1067642259192
 30
0.0
 11
516.0860406407477
 21
942.1067642259192
 31
0.0
  0
LINE
  5
707
330
65A
100
AcDbEntity
  8
SIZE
  6
Continuous
 62
    30
100
AcDbLine
 10
737.7330106407478
 20
797.1067642259192
 30
0.0
 11
516.0860406407477
 21
797.1067642259192
 31
0.0
  0
LINE
  5
708
330
65A
100
AcDbEntity
  8
SIZE
  6
Continuous
 62
    30
100
AcDbLine
 10
546.0860406407477
 20
932.1067642259192
 30
0.0
 11
546.0860406407477
 21
807.106764225919
 31
0.0
  0
LINE
  5
709
330
65A
100
AcDbEntity
  8
SIZE
  6
Continuous
 62
    30
100
AcDbLine
 10
546.0860406407477
 20
797.1067642259192
 30
0.0
 11
546.0860406407477
 21
639.2496212259191
 31
0.0
  0
CIRCLE
  5
70A
330
65A
100
AcDbEntity
  8
SIZE
  6
Continuous
 62
    30
100
AcDbCircle
 10
546.0860406407477
 20
942.1067642259192
 30
0.0
 40
5.0
  0
LINE
  5
70B
330
65A
100
AcDbEntity
  8
SIZE
  6
Continuous
 62
    30
100
AcDbLine
 10
546.0860406407477
 20
937.1067642259191
 30
0.0
 11
546.0860406407477
 21
932.1067642259192
 31
0.0
  0
CIRCLE
  5
70C
330
65A
100
AcDbEntity
  8
SIZE
  6
Continuous
 62
    30
100
AcDbCircle
 10
546.0860406407477
 20
797.1067642259192
 30
0.0
 40
5.0
  0
LINE
  5
70D
330
65A
100
AcDbEntity
  8
SIZE
  6
Continuous
 62
    30
100
AcDbLine
 10
546.0860406407477
 20
802.1067642259191
 30
0.0
 11
546.0860406407477
 21
807.106764225919
 31
0.0
  0
TEXT
  5
70E
330
65A
100
AcDbEntity
  8
SIZE
  6
Continuous
 62
    30
100
AcDbText
 10
531.0860406407478
 20
638.9281932259191
 30
0.0
 40
55.0
  1
145
 50
90.0
 41
0.9
 72
     1
 11
531.0860406407478
 21
713.1781932259191
 31
0.0
100
AcDbText
  0
POINT
  5
70F
330
65A
100
AcDbEntity
  8
Defpoints
  6
Continuous
 62
     7
100
AcDbPoint
 10
1008.326159640748
 20
942.1067642259192
 30
0.0
  0
POINT
  5
710
330
65A
100
AcDbEntity
  8
Defpoints
  6
Continuous
 62
     7
100
AcDbPoint
 10
757.7330106407478
 20
797.1067642259192
 30
0.0
  0
POINT
  5
711
330
65A
100
AcDbEntity
  8
Defpoints
  6
Continuous
 62
     7
100
AcDbPoint
 10
546.0860406407477
 20
797.1067642259192
 30
0.0
  0
TEXT
  5
712
330
65A
100
AcDbEntity
  8
NOTE
  6
Continuous
 62
     4
100
AcDbText
 10
-1.779519359251935
 20
1638.202021225919
 30
0.0
 40
55.0
  1
＜防雪ﾌ-ﾄﾞ（別売品）取付用穴＞
 50
0.000003
 41
0.638665
  7
STANDARD1
100
AcDbText
  0
TEXT
  5
713
330
65A
100
AcDbEntity
  8
NOTE
  6
Continuous
 62
     4
100
AcDbText
 10
8.426430640748094
 20
1716.165813225919
 30
0.0
 40
55.0
  1
(樹脂部の開口加工必要）
 50
0.000003
 41
0.693662
  7
STANDARD1
100
AcDbText
  0
TEXT
  5
714
330
65A
100
AcDbEntity
  8
NOTE
  6
Continuous
 62
     4
100
AcDbText
 10
8.426430640748094
 20
1786.165815225919
 30
0.0
 40
55.0
  1
2X5-φ4.6穴
 50
0.000003
 41
0.603058
  7
STANDARD1
100
AcDbText
  0
LINE
  5
715
330
65A
100
AcDbEntity
  8
SIZE
  6
Continuous
 62
    30
100
AcDbLine
 10
696.0761746407476
 20
1477.107079225919
 30
0.0
 11
394.4487166407478
 21
1477.107079225919
 31
0.0
  0
LINE
  5
716
330
65A
100
AcDbEntity
  8
SIZE
  6
Continuous
 62
    30
100
AcDbLine
 10
696.0761746407476
 20
1327.106832225919
 30
0.0
 11
394.4487166407478
 21
1327.106832225919
 31
0.0
  0
LINE
  5
717
330
65A
100
AcDbEntity
  8
SIZE
  6
Continuous
 62
    30
100
AcDbLine
 10
424.4487166407477
 20
1467.107079225919
 30
0.0
 11
424.4487166407477
 21
1337.106832225919
 31
0.0
  0
CIRCLE
  5
718
330
65A
100
AcDbEntity
  8
SIZE
  6
Continuous
 62
    30
100
AcDbCircle
 10
424.4487166407477
 20
1477.107079225919
 30
0.0
 40
5.0
  0
LINE
  5
719
330
65A
100
AcDbEntity
  8
SIZE
  6
Continuous
 62
    30
100
AcDbLine
 10
424.4487166407477
 20
1472.107079225919
 30
0.0
 11
424.4487166407477
 21
1467.107079225919
 31
0.0
  0
CIRCLE
  5
71A
330
65A
100
AcDbEntity
  8
SIZE
  6
Continuous
 62
    30
100
AcDbCircle
 10
424.4487166407477
 20
1327.106832225919
 30
0.0
 40
5.0
  0
LINE
  5
71B
330
65A
100
AcDbEntity
  8
SIZE
  6
Continuous
 62
    30
100
AcDbLine
 10
424.4487166407477
 20
1332.106832225919
 30
0.0
 11
424.4487166407477
 21
1337.106832225919
 31
0.0
  0
TEXT
  5
71C
330
65A
100
AcDbEntity
  8
SIZE
  6
Continuous
 62
    30
100
AcDbText
 10
409.4487166407478
 20
1327.856955225919
 30
0.0
 40
55.0
  1
150
 50
90.0
 41
0.9
 72
     1
 11
409.4487166407478
 21
1402.106955225919
 31
0.0
100
AcDbText
  0
POINT
  5
71D
330
65A
100
AcDbEntity
  8
Defpoints
  6
Continuous
 62
     7
100
AcDbPoint
 10
716.0761746407477
 20
1477.107079225919
 30
0.0
  0
POINT
  5
71E
330
65A
100
AcDbEntity
  8
Defpoints
  6
Continuous
 62
     7
100
AcDbPoint
 10
716.0761746407477
 20
1327.106832225919
 30
0.0
  0
POINT
  5
71F
330
65A
100
AcDbEntity
  8
Defpoints
  6
Continuous
 62
     7
100
AcDbPoint
 10
424.4487166407477
 20
1327.106832225919
 30
0.0
  0
LINE
  5
720
330
65A
100
AcDbEntity
  8
SIZE
  6
Continuous
 62
    30
100
AcDbLine
 10
696.0761746407476
 20
1327.106832225919
 30
0.0
 11
394.4487166407478
 21
1327.106832225919
 31
0.0
  0
LINE
  5
721
330
65A
100
AcDbEntity
  8
SIZE
  6
Continuous
 62
    30
100
AcDbLine
 10
696.0761746407476
 20
1177.106951225919
 30
0.0
 11
394.4487166407478
 21
1177.106951225919
 31
0.0
  0
LINE
  5
722
330
65A
100
AcDbEntity
  8
SIZE
  6
Continuous
 62
    30
100
AcDbLine
 10
424.4487166407477
 20
1317.106832225919
 30
0.0
 11
424.4487166407477
 21
1187.106951225919
 31
0.0
  0
CIRCLE
  5
723
330
65A
100
AcDbEntity
  8
SIZE
  6
Continuous
 62
    30
100
AcDbCircle
 10
424.4487166407477
 20
1327.106832225919
 30
0.0
 40
5.0
  0
LINE
  5
724
330
65A
100
AcDbEntity
  8
SIZE
  6
Continuous
 62
    30
100
AcDbLine
 10
424.4487166407477
 20
1322.106832225919
 30
0.0
 11
424.4487166407477
 21
1317.106832225919
 31
0.0
  0
CIRCLE
  5
725
330
65A
100
AcDbEntity
  8
SIZE
  6
Continuous
 62
    30
100
AcDbCircle
 10
424.4487166407477
 20
1177.106951225919
 30
0.0
 40
5.0
  0
LINE
  5
726
330
65A
100
AcDbEntity
  8
SIZE
  6
Continuous
 62
    30
100
AcDbLine
 10
424.4487166407477
 20
1182.106951225919
 30
0.0
 11
424.4487166407477
 21
1187.106951225919
 31
0.0
  0
TEXT
  5
727
330
65A
100
AcDbEntity
  8
SIZE
  6
Continuous
 62
    30
100
AcDbText
 10
409.4487166407478
 20
1177.856892225919
 30
0.0
 40
55.0
  1
150
 50
90.0
 41
0.9
 72
     1
 11
409.4487166407478
 21
1252.106892225919
 31
0.0
100
AcDbText
  0
POINT
  5
728
330
65A
100
AcDbEntity
  8
Defpoints
  6
Continuous
 62
     7
100
AcDbPoint
 10
716.0761746407477
 20
1327.106832225919
 30
0.0
  0
POINT
  5
729
330
65A
100
AcDbEntity
  8
Defpoints
  6
Continuous
 62
     7
100
AcDbPoint
 10
716.0761746407477
 20
1177.106951225919
 30
0.0
  0
POINT
  5
72A
330
65A
100
AcDbEntity
  8
Defpoints
  6
Continuous
 62
     7
100
AcDbPoint
 10
424.4487166407477
 20
1177.106951225919
 30
0.0
  0
LINE
  5
72B
330
65A
100
AcDbEntity
  8
SIZE
  6
Continuous
 62
    30
100
AcDbLine
 10
696.0761746407476
 20
1177.106951225919
 30
0.0
 11
394.4487166407478
 21
1177.106951225919
 31
0.0
  0
LINE
  5
72C
330
65A
100
AcDbEntity
  8
SIZE
  6
Continuous
 62
    30
100
AcDbLine
 10
696.0761746407476
 20
1027.106948225919
 30
0.0
 11
394.4487166407478
 21
1027.106948225919
 31
0.0
  0
LINE
  5
72D
330
65A
100
AcDbEntity
  8
SIZE
  6
Continuous
 62
    30
100
AcDbLine
 10
424.4487166407477
 20
1167.106951225919
 30
0.0
 11
424.4487166407477
 21
1037.106948225919
 31
0.0
  0
CIRCLE
  5
72E
330
65A
100
AcDbEntity
  8
SIZE
  6
Continuous
 62
    30
100
AcDbCircle
 10
424.4487166407477
 20
1177.106951225919
 30
0.0
 40
5.0
  0
LINE
  5
72F
330
65A
100
AcDbEntity
  8
SIZE
  6
Continuous
 62
    30
100
AcDbLine
 10
424.4487166407477
 20
1172.106951225919
 30
0.0
 11
424.4487166407477
 21
1167.106951225919
 31
0.0
  0
CIRCLE
  5
730
330
65A
100
AcDbEntity
  8
SIZE
  6
Continuous
 62
    30
100
AcDbCircle
 10
424.4487166407477
 20
1027.106948225919
 30
0.0
 40
5.0
  0
LINE
  5
731
330
65A
100
AcDbEntity
  8
SIZE
  6
Continuous
 62
    30
100
AcDbLine
 10
424.4487166407477
 20
1032.106948225919
 30
0.0
 11
424.4487166407477
 21
1037.106948225919
 31
0.0
  0
TEXT
  5
732
330
65A
100
AcDbEntity
  8
SIZE
  6
Continuous
 62
    30
100
AcDbText
 10
409.4487166407478
 20
1027.856950225919
 30
0.0
 40
55.0
  1
150
 50
90.0
 41
0.9
 72
     1
 11
409.4487166407478
 21
1102.106950225919
 31
0.0
100
AcDbText
  0
POINT
  5
733
330
65A
100
AcDbEntity
  8
Defpoints
  6
Continuous
 62
     7
100
AcDbPoint
 10
716.0761746407477
 20
1177.106951225919
 30
0.0
  0
POINT
  5
734
330
65A
100
AcDbEntity
  8
Defpoints
  6
Continuous
 62
     7
100
AcDbPoint
 10
716.0761746407477
 20
1027.106948225919
 30
0.0
  0
POINT
  5
735
330
65A
100
AcDbEntity
  8
Defpoints
  6
Continuous
 62
     7
100
AcDbPoint
 10
424.4487166407477
 20
1027.106948225919
 30
0.0
  0
LINE
  5
736
330
65A
100
AcDbEntity
  8
SIZE
  6
Continuous
 62
    30
100
AcDbLine
 10
696.0761746407476
 20
1027.106948225919
 30
0.0
 11
394.4487166407478
 21
1027.106948225919
 31
0.0
  0
LINE
  5
737
330
65A
100
AcDbEntity
  8
SIZE
  6
Continuous
 62
    30
100
AcDbLine
 10
696.0761746407476
 20
877.1069462259191
 30
0.0
 11
394.4487166407478
 21
877.1069462259191
 31
0.0
  0
LINE
  5
738
330
65A
100
AcDbEntity
  8
SIZE
  6
Continuous
 62
    30
100
AcDbLine
 10
424.4487166407477
 20
1017.106948225919
 30
0.0
 11
424.4487166407477
 21
887.1069462259191
 31
0.0
  0
CIRCLE
  5
739
330
65A
100
AcDbEntity
  8
SIZE
  6
Continuous
 62
    30
100
AcDbCircle
 10
424.4487166407477
 20
1027.106948225919
 30
0.0
 40
5.0
  0
LINE
  5
73A
330
65A
100
AcDbEntity
  8
SIZE
  6
Continuous
 62
    30
100
AcDbLine
 10
424.4487166407477
 20
1022.106948225919
 30
0.0
 11
424.4487166407477
 21
1017.106948225919
 31
0.0
  0
CIRCLE
  5
73B
330
65A
100
AcDbEntity
  8
SIZE
  6
Continuous
 62
    30
100
AcDbCircle
 10
424.4487166407477
 20
877.1069462259191
 30
0.0
 40
5.0
  0
LINE
  5
73C
330
65A
100
AcDbEntity
  8
SIZE
  6
Continuous
 62
    30
100
AcDbLine
 10
424.4487166407477
 20
882.1069462259192
 30
0.0
 11
424.4487166407477
 21
887.1069462259191
 31
0.0
  0
TEXT
  5
73D
330
65A
100
AcDbEntity
  8
SIZE
  6
Continuous
 62
    30
100
AcDbText
 10
409.4487166407478
 20
877.856947225919
 30
0.0
 40
55.0
  1
150
 50
90.0
 41
0.9
 72
     1
 11
409.4487166407478
 21
952.1069472259192
 31
0.0
100
AcDbText
  0
POINT
  5
73E
330
65A
100
AcDbEntity
  8
Defpoints
  6
Continuous
 62
     7
100
AcDbPoint
 10
716.0761746407477
 20
1027.106948225919
 30
0.0
  0
POINT
  5
73F
330
65A
100
AcDbEntity
  8
Defpoints
  6
Continuous
 62
     7
100
AcDbPoint
 10
716.0761746407477
 20
877.1069462259191
 30
0.0
  0
POINT
  5
740
330
65A
100
AcDbEntity
  8
Defpoints
  6
Continuous
 62
     7
100
AcDbPoint
 10
424.4487166407477
 20
877.1069462259191
 30
0.0
  0
LINE
  5
741
330
65A
100
AcDbEntity
  8
SIZE
  6
Continuous
 62
    30
100
AcDbLine
 10
696.0761746407476
 20
877.1069462259191
 30
0.0
 11
394.0912266407479
 21
877.1069462259191
 31
0.0
  0
LINE
  5
742
330
65A
100
AcDbEntity
  8
SIZE
  6
Continuous
 62
    30
100
AcDbLine
 10
757.7330356407478
 20
797.1069442259191
 30
0.0
 11
394.0912266407479
 21
797.1069442259191
 31
0.0
  0
LINE
  5
743
330
65A
100
AcDbEntity
  8
SIZE
  6
Continuous
 62
    30
100
AcDbLine
 10
424.0912266407478
 20
867.1069462259191
 30
0.0
 11
424.0912266407478
 21
807.1069442259192
 31
0.0
  0
LINE
  5
744
330
65A
100
AcDbEntity
  8
SIZE
  6
Continuous
 62
    30
100
AcDbLine
 10
424.0912266407478
 20
797.1069442259191
 30
0.0
 11
424.0912266407478
 21
665.7725472259191
 31
0.0
  0
CIRCLE
  5
745
330
65A
100
AcDbEntity
  8
SIZE
  6
Continuous
 62
    30
100
AcDbCircle
 10
424.0912266407478
 20
877.1069462259191
 30
0.0
 40
5.0
  0
LINE
  5
746
330
65A
100
AcDbEntity
  8
SIZE
  6
Continuous
 62
    30
100
AcDbLine
 10
424.0912266407478
 20
872.1069462259192
 30
0.0
 11
424.0912266407478
 21
867.1069462259191
 31
0.0
  0
CIRCLE
  5
747
330
65A
100
AcDbEntity
  8
SIZE
  6
Continuous
 62
    30
100
AcDbCircle
 10
424.0912266407478
 20
797.1069442259191
 30
0.0
 40
5.0
  0
LINE
  5
748
330
65A
100
AcDbEntity
  8
SIZE
  6
Continuous
 62
    30
100
AcDbLine
 10
424.0912266407478
 20
802.1069442259191
 30
0.0
 11
424.0912266407478
 21
807.1069442259192
 31
0.0
  0
TEXT
  5
749
330
65A
100
AcDbEntity
  8
SIZE
  6
Continuous
 62
    30
100
AcDbText
 10
409.0912266407478
 20
673.701118083062
 30
0.0
 40
55.0
  1
80
 50
90.0
 41
0.9
 72
     1
 11
409.0912266407478
 21
720.8439752259192
 31
0.0
100
AcDbText
  0
POINT
  5
74A
330
65A
100
AcDbEntity
  8
Defpoints
  6
Continuous
 62
     7
100
AcDbPoint
 10
716.0761746407477
 20
877.1069462259191
 30
0.0
  0
POINT
  5
74B
330
65A
100
AcDbEntity
  8
Defpoints
  6
Continuous
 62
     7
100
AcDbPoint
 10
777.7330356407478
 20
797.1069442259191
 30
0.0
  0
POINT
  5
74C
330
65A
100
AcDbEntity
  8
Defpoints
  6
Continuous
 62
     7
100
AcDbPoint
 10
424.0912266407478
 20
797.1069442259191
 30
0.0
  0
LINE
  5
74D
330
65A
100
AcDbEntity
  8
SIZE
  6
Continuous
 62
    30
100
AcDbLine
 10
757.7329966407478
 20
797.1069442259191
 30
0.0
 11
222.389695640748
 21
797.1069442259191
 31
0.0
  0
LINE
  5
74E
330
65A
100
AcDbEntity
  8
SIZE
  6
Continuous
 62
    30
100
AcDbLine
 10
757.7329966407478
 20
1557.107080225919
 30
0.0
 11
222.389695640748
 21
1557.107080225919
 31
0.0
  0
LINE
  5
74F
330
65A
100
AcDbEntity
  8
SIZE
  6
Continuous
 62
    30
100
AcDbLine
 10
252.389695640748
 20
807.1069442259192
 30
0.0
 11
252.389695640748
 21
1547.107080225919
 31
0.0
  0
CIRCLE
  5
750
330
65A
100
AcDbEntity
  8
SIZE
  6
Continuous
 62
    30
100
AcDbCircle
 10
252.389695640748
 20
797.1069442259191
 30
0.0
 40
5.0
  0
LINE
  5
751
330
65A
100
AcDbEntity
  8
SIZE
  6
Continuous
 62
    30
100
AcDbLine
 10
252.389695640748
 20
802.1069442259191
 30
0.0
 11
252.389695640748
 21
807.1069442259192
 31
0.0
  0
CIRCLE
  5
752
330
65A
100
AcDbEntity
  8
SIZE
  6
Continuous
 62
    30
100
AcDbCircle
 10
252.389695640748
 20
1557.107080225919
 30
0.0
 40
5.0
  0
LINE
  5
753
330
65A
100
AcDbEntity
  8
SIZE
  6
Continuous
 62
    30
100
AcDbLine
 10
252.389695640748
 20
1552.107080225919
 30
0.0
 11
252.389695640748
 21
1547.107080225919
 31
0.0
  0
TEXT
  5
754
330
65A
100
AcDbEntity
  8
SIZE
  6
Continuous
 62
    30
100
AcDbText
 10
237.389695640748
 20
1090.800055511633
 30
0.0
 40
55.0
  1
760
 50
90.0
 41
0.9
 72
     1
 11
237.389695640748
 21
1161.514341225919
 31
0.0
100
AcDbText
  0
POINT
  5
755
330
65A
100
AcDbEntity
  8
Defpoints
  6
Continuous
 62
     7
100
AcDbPoint
 10
777.7329966407478
 20
797.1069442259191
 30
0.0
  0
POINT
  5
756
330
65A
100
AcDbEntity
  8
Defpoints
  6
Continuous
 62
     7
100
AcDbPoint
 10
777.7329966407478
 20
1557.107080225919
 30
0.0
  0
POINT
  5
757
330
65A
100
AcDbEntity
  8
Defpoints
  6
Continuous
 62
     7
100
AcDbPoint
 10
252.389695640748
 20
1557.107080225919
 30
0.0
  0
LINE
  5
758
330
65A
100
AcDbEntity
  8
NOTE
  6
Continuous
 62
     4
100
AcDbLine
 10
745.0760826407477
 20
1477.106851225919
 30
0.0
 11
721.7682216407479
 21
1500.936554225919
 31
0.0
  0
LINE
  5
759
330
65A
100
AcDbEntity
  8
NOTE
  6
Continuous
 62
     4
100
AcDbLine
 10
745.0760826407477
 20
1477.106851225919
 30
0.0
 11
736.8057346407479
 21
1509.397910225919
 31
0.0
  0
LINE
  5
75A
330
65A
100
AcDbEntity
  8
NOTE
  6
Continuous
 62
     4
100
AcDbLine
 10
616.4722676407477
 20
1705.661419225919
 30
0.0
 11
745.0760826407477
 21
1477.106851225919
 31
0.0
  0
LINE
  5
75B
330
65A
100
AcDbEntity
  8
NOTE
  6
Continuous
 62
     4
100
AcDbLine
 10
-0.0000123592524233
 20
1705.661419225919
 30
0.0
 11
616.4722676407477
 21
1705.661419225919
 31
0.0
  0
LINE
  5
75C
330
65A
100
AcDbEntity
  8
BASIS
  6
DASHDOT
 62
     6
100
AcDbLine
 10
1962.076163640748
 20
730.6231842259192
 30
0.0
 11
1962.076163640748
 21
1623.590358225919
 31
0.0
  0
LINE
  5
75D
330
65A
100
AcDbEntity
  8
ARRANGE
  6
Continuous
 62
     1
100
AcDbLine
 10
1924.178842640747
 20
1139.209450225919
 30
0.0
 11
1999.973484640747
 21
1215.004092225919
 31
0.0
  0
LINE
  5
75E
330
65A
100
AcDbEntity
  8
ARRANGE
  6
Continuous
 62
     1
100
AcDbLine
 10
1924.178842640747
 20
1215.004092225919
 30
0.0
 11
1999.973484640747
 21
1139.209450225919
 31
0.0
  0
CIRCLE
  5
75F
330
65A
100
AcDbEntity
  8
ARRANGE
  6
Continuous
 62
     1
100
AcDbCircle
 10
1962.076163640748
 20
1177.106771225919
 30
0.0
 40
34.449674
  0
LINE
  5
760
330
65A
100
AcDbEntity
  8
SIZE
  6
Continuous
 62
    30
100
AcDbLine
 10
727.0761546407477
 20
1526.449923225919
 30
0.0
 11
727.0761546407477
 21
1856.220898225919
 31
0.0
  0
LINE
  5
761
330
65A
100
AcDbEntity
  8
SIZE
  6
Continuous
 62
    30
100
AcDbLine
 10
745.0761556407478
 20
1526.106777225919
 30
0.0
 11
745.0761556407478
 21
1856.220898225919
 31
0.0
  0
LINE
  5
762
330
65A
100
AcDbEntity
  8
SIZE
  6
Continuous
 62
    30
100
AcDbLine
 10
755.0761556407478
 20
1826.220898225919
 30
0.0
 11
765.0761556407478
 21
1826.220898225919
 31
0.0
  0
LINE
  5
763
330
65A
100
AcDbEntity
  8
SIZE
  6
Continuous
 62
    30
100
AcDbLine
 10
717.0761546407477
 20
1826.220898225919
 30
0.0
 11
606.361869640748
 21
1826.220898225919
 31
0.0
  0
LINE
  5
764
330
65A
100
AcDbEntity
  8
SIZE
  6
Continuous
 62
    30
100
AcDbLine
 10
745.0761556407478
 20
1826.220898225919
 30
0.0
 11
727.0761546407477
 21
1826.220898225919
 31
0.0
  0
CIRCLE
  5
765
330
65A
100
AcDbEntity
  8
SIZE
  6
Continuous
 62
    30
100
AcDbCircle
 10
745.0761556407478
 20
1826.220898225919
 30
0.0
 40
5.0
  0
LINE
  5
766
330
65A
100
AcDbEntity
  8
SIZE
  6
Continuous
 62
    30
100
AcDbLine
 10
750.0761556407478
 20
1826.220898225919
 30
0.0
 11
755.0761556407478
 21
1826.220898225919
 31
0.0
  0
CIRCLE
  5
767
330
65A
100
AcDbEntity
  8
SIZE
  6
Continuous
 62
    30
100
AcDbCircle
 10
727.0761546407477
 20
1826.220898225919
 30
0.0
 40
5.0
  0
LINE
  5
768
330
65A
100
AcDbEntity
  8
SIZE
  6
Continuous
 62
    30
100
AcDbLine
 10
722.0761546407477
 20
1826.220898225919
 30
0.0
 11
717.0761546407477
 21
1826.220898225919
 31
0.0
  0
TEXT
  5
769
330
65A
100
AcDbEntity
  8
SIZE
  6
Continuous
 62
    30
100
AcDbText
 10
606.0404412121764
 20
1841.220898225919
 30
0.0
 40
55.0
  1
18
 41
0.9
 72
     1
 11
656.7190126407479
 21
1841.220898225919
 31
0.0
100
AcDbText
  0
POINT
  5
76A
330
65A
100
AcDbEntity
  8
Defpoints
  6
Continuous
 62
     7
100
AcDbPoint
 10
727.0761546407477
 20
1506.449923225919
 30
0.0
  0
POINT
  5
76B
330
65A
100
AcDbEntity
  8
Defpoints
  6
Continuous
 62
     7
100
AcDbPoint
 10
745.0761556407478
 20
1506.106777225919
 30
0.0
  0
POINT
  5
76C
330
65A
100
AcDbEntity
  8
Defpoints
  6
Continuous
 62
     7
100
AcDbPoint
 10
745.0761556407478
 20
1826.220898225919
 30
0.0
  0
LINE
  5
76D
330
65A
100
AcDbEntity
  8
SIZE
  6
Continuous
 62
    30
100
AcDbLine
 10
745.0761556407478
 20
1526.106777225919
 30
0.0
 11
745.0761556407478
 21
1856.220898225919
 31
0.0
  0
LINE
  5
76E
330
65A
100
AcDbEntity
  8
SIZE
  6
Continuous
 62
    30
100
AcDbLine
 10
1929.076171640748
 20
1526.106777225919
 30
0.0
 11
1929.076171640748
 21
1856.220898225919
 31
0.0
  0
LINE
  5
76F
330
65A
100
AcDbEntity
  8
SIZE
  6
Continuous
 62
    30
100
AcDbLine
 10
755.0761556407478
 20
1826.220898225919
 30
0.0
 11
1919.076171640748
 21
1826.220898225919
 31
0.0
  0
CIRCLE
  5
770
330
65A
100
AcDbEntity
  8
SIZE
  6
Continuous
 62
    30
100
AcDbCircle
 10
745.0761556407478
 20
1826.220898225919
 30
0.0
 40
5.0
  0
LINE
  5
771
330
65A
100
AcDbEntity
  8
SIZE
  6
Continuous
 62
    30
100
AcDbLine
 10
750.0761556407478
 20
1826.220898225919
 30
0.0
 11
755.0761556407478
 21
1826.220898225919
 31
0.0
  0
CIRCLE
  5
772
330
65A
100
AcDbEntity
  8
SIZE
  6
Continuous
 62
    30
100
AcDbCircle
 10
1929.076171640748
 20
1826.220898225919
 30
0.0
 40
5.0
  0
LINE
  5
773
330
65A
100
AcDbEntity
  8
SIZE
  6
Continuous
 62
    30
100
AcDbLine
 10
1924.076171640748
 20
1826.220898225919
 30
0.0
 11
1919.076171640748
 21
1826.220898225919
 31
0.0
  0
TEXT
  5
774
330
65A
100
AcDbEntity
  8
SIZE
  6
Continuous
 62
    30
100
AcDbText
 10
1209.790449355033
 20
1840.625660225919
 30
0.0
 40
55.0
  1
(1184)
 41
0.9
 72
     1
 11
1337.076163640748
 21
1840.625660225919
 31
0.0
100
AcDbText
  0
POINT
  5
775
330
65A
100
AcDbEntity
  8
Defpoints
  6
Continuous
 62
     7
100
AcDbPoint
 10
745.0761556407478
 20
1506.106777225919
 30
0.0
  0
POINT
  5
776
330
65A
100
AcDbEntity
  8
Defpoints
  6
Continuous
 62
     7
100
AcDbPoint
 10
1929.076171640748
 20
1506.106777225919
 30
0.0
  0
POINT
  5
777
330
65A
100
AcDbEntity
  8
Defpoints
  6
Continuous
 62
     7
100
AcDbPoint
 10
1929.076171640748
 20
1826.220898225919
 30
0.0
  0
LINE
  5
778
330
65A
100
AcDbEntity
  8
SIZE
  6
Continuous
 62
    30
100
AcDbLine
 10
1929.076171640748
 20
1526.106777225919
 30
0.0
 11
1929.076171640748
 21
1856.220898225919
 31
0.0
  0
LINE
  5
779
330
65A
100
AcDbEntity
  8
SIZE
  6
Continuous
 62
    30
100
AcDbLine
 10
1947.076172640748
 20
1526.449923225919
 30
0.0
 11
1947.076172640748
 21
1856.220898225919
 31
0.0
  0
LINE
  5
77A
330
65A
100
AcDbEntity
  8
SIZE
  6
Continuous
 62
    30
100
AcDbLine
 10
1919.076171640748
 20
1826.220898225919
 30
0.0
 11
1909.076171640748
 21
1826.220898225919
 31
0.0
  0
LINE
  5
77B
330
65A
100
AcDbEntity
  8
SIZE
  6
Continuous
 62
    30
100
AcDbLine
 10
1957.076172640748
 20
1826.220898225919
 30
0.0
 11
1967.076172640748
 21
1826.220898225919
 31
0.0
  0
LINE
  5
77C
330
65A
100
AcDbEntity
  8
SIZE
  6
Continuous
 62
    30
100
AcDbLine
 10
1938.076171640748
 20
1826.220898225919
 30
0.0
 11
1880.867540640748
 21
1687.666333225919
 31
0.0
  0
LINE
  5
77D
330
65A
100
AcDbEntity
  8
SIZE
  6
Continuous
 62
    30
100
AcDbLine
 10
1880.867540640748
 20
1687.666333225919
 30
0.0
 11
1780.153254640748
 21
1687.666333225919
 31
0.0
  0
TEXT
  5
77E
330
65A
100
AcDbEntity
  8
SIZE
  6
Continuous
 62
    30
100
AcDbText
 10
1779.831826212176
 20
1702.666333225919
 30
0.0
 40
55.0
  1
18
 41
0.9
 72
     1
 11
1830.510397640748
 21
1702.666333225919
 31
0.0
100
AcDbText
  0
LINE
  5
77F
330
65A
100
AcDbEntity
  8
SIZE
  6
Continuous
 62
    30
100
AcDbLine
 10
1929.076171640748
 20
1826.220898225919
 30
0.0
 11
1947.076172640748
 21
1826.220898225919
 31
0.0
  0
LINE
  5
780
330
65A
100
AcDbEntity
  8
SIZE
  6
Continuous
 62
    30
100
AcDbLine
 10
1929.076171640748
 20
1826.220898225919
 30
0.0
 11
1947.076172640748
 21
1826.220898225919
 31
0.0
  0
CIRCLE
  5
781
330
65A
100
AcDbEntity
  8
SIZE
  6
Continuous
 62
    30
100
AcDbCircle
 10
1929.076171640748
 20
1826.220898225919
 30
0.0
 40
5.0
  0
LINE
  5
782
330
65A
100
AcDbEntity
  8
SIZE
  6
Continuous
 62
    30
100
AcDbLine
 10
1924.076171640748
 20
1826.220898225919
 30
0.0
 11
1919.076171640748
 21
1826.220898225919
 31
0.0
  0
CIRCLE
  5
783
330
65A
100
AcDbEntity
  8
SIZE
  6
Continuous
 62
    30
100
AcDbCircle
 10
1947.076172640748
 20
1826.220898225919
 30
0.0
 40
5.0
  0
LINE
  5
784
330
65A
100
AcDbEntity
  8
SIZE
  6
Continuous
 62
    30
100
AcDbLine
 10
1952.076172640748
 20
1826.220898225919
 30
0.0
 11
1957.076172640748
 21
1826.220898225919
 31
0.0
  0
POINT
  5
785
330
65A
100
AcDbEntity
  8
Defpoints
  6
Continuous
 62
     7
100
AcDbPoint
 10
1929.076171640748
 20
1506.106777225919
 30
0.0
  0
POINT
  5
786
330
65A
100
AcDbEntity
  8
Defpoints
  6
Continuous
 62
     7
100
AcDbPoint
 10
1947.076172640748
 20
1506.449923225919
 30
0.0
  0
POINT
  5
787
330
65A
100
AcDbEntity
  8
Defpoints
  6
Continuous
 62
     7
100
AcDbPoint
 10
1947.076172640748
 20
1826.220898225919
 30
0.0
  0
LINE
  5
788
330
65A
100
AcDbEntity
  8
SIZE
  6
Continuous
 62
    30
100
AcDbLine
 10
727.0761546407477
 20
1526.449923225919
 30
0.0
 11
727.0761546407477
 21
2019.820380225919
 31
0.0
  0
LINE
  5
789
330
65A
100
AcDbEntity
  8
SIZE
  6
Continuous
 62
    30
100
AcDbLine
 10
1947.076172640748
 20
1526.449923225919
 30
0.0
 11
1947.076172640748
 21
2019.820380225919
 31
0.0
  0
LINE
  5
78A
330
65A
100
AcDbEntity
  8
SIZE
  6
Continuous
 62
    30
100
AcDbLine
 10
737.0761546407477
 20
1989.820380225919
 30
0.0
 11
1937.076172640748
 21
1989.820380225919
 31
0.0
  0
CIRCLE
  5
78B
330
65A
100
AcDbEntity
  8
SIZE
  6
Continuous
 62
    30
100
AcDbCircle
 10
727.0761546407477
 20
1989.820380225919
 30
0.0
 40
5.0
  0
LINE
  5
78C
330
65A
100
AcDbEntity
  8
SIZE
  6
Continuous
 62
    30
100
AcDbLine
 10
732.0761546407477
 20
1989.820380225919
 30
0.0
 11
737.0761546407477
 21
1989.820380225919
 31
0.0
  0
CIRCLE
  5
78D
330
65A
100
AcDbEntity
  8
SIZE
  6
Continuous
 62
    30
100
AcDbCircle
 10
1947.076172640748
 20
1989.820380225919
 30
0.0
 40
5.0
  0
LINE
  5
78E
330
65A
100
AcDbEntity
  8
SIZE
  6
Continuous
 62
    30
100
AcDbLine
 10
1942.076172640748
 20
1989.820380225919
 30
0.0
 11
1937.076172640748
 21
1989.820380225919
 31
0.0
  0
TEXT
  5
78F
330
65A
100
AcDbEntity
  8
SIZE
  6
Continuous
 62
    30
100
AcDbText
 10
1239.254735069319
 20
2004.820380225919
 30
0.0
 40
55.0
  1
1220
 41
0.9
 72
     1
 11
1337.076163640748
 21
2004.820380225919
 31
0.0
100
AcDbText
  0
POINT
  5
790
330
65A
100
AcDbEntity
  8
Defpoints
  6
Continuous
 62
     7
100
AcDbPoint
 10
727.0761546407477
 20
1506.449923225919
 30
0.0
  0
POINT
  5
791
330
65A
100
AcDbEntity
  8
Defpoints
  6
Continuous
 62
     7
100
AcDbPoint
 10
1947.076172640748
 20
1506.449923225919
 30
0.0
  0
POINT
  5
792
330
65A
100
AcDbEntity
  8
Defpoints
  6
Continuous
 62
     7
100
AcDbPoint
 10
1947.076172640748
 20
1989.820380225919
 30
0.0
  0
LINE
  5
793
330
65A
100
AcDbEntity
  8
SIZE
  6
Continuous
 62
    30
100
AcDbLine
 10
1947.076172640748
 20
1526.449923225919
 30
0.0
 11
1947.076172640748
 21
2019.820380225919
 31
0.0
  0
LINE
  5
794
330
65A
100
AcDbEntity
  8
SIZE
  6
Continuous
 62
    30
100
AcDbLine
 10
1977.076154640748
 20
1526.449923225919
 30
0.0
 11
1977.076154640748
 21
2019.820380225919
 31
0.0
  0
LINE
  5
795
330
65A
100
AcDbEntity
  8
SIZE
  6
Continuous
 62
    30
100
AcDbLine
 10
1937.076172640748
 20
1989.820380225919
 30
0.0
 11
1927.076172640748
 21
1989.820380225919
 31
0.0
  0
LINE
  5
796
330
65A
100
AcDbEntity
  8
SIZE
  6
Continuous
 62
    30
100
AcDbLine
 10
1987.076154640748
 20
1989.820380225919
 30
0.0
 11
1997.076154640748
 21
1989.820380225919
 31
0.0
  0
LINE
  5
797
330
65A
100
AcDbEntity
  8
SIZE
  6
Continuous
 62
    30
100
AcDbLine
 10
1962.076163640748
 20
1989.820380225919
 30
0.0
 11
1974.161108640748
 21
2093.307189225919
 31
0.0
  0
LINE
  5
798
330
65A
100
AcDbEntity
  8
SIZE
  6
Continuous
 62
    30
100
AcDbLine
 10
1974.161108640748
 20
2093.307189225919
 30
0.0
 11
2084.303965640748
 21
2093.307189225919
 31
0.0
  0
TEXT
  5
799
330
65A
100
AcDbEntity
  8
SIZE
  6
Continuous
 62
    30
100
AcDbText
 10
1982.089679497891
 20
2108.307189225919
 30
0.0
 40
55.0
  1
30
 41
0.9
 72
     1
 11
2029.232536640748
 21
2108.307189225919
 31
0.0
100
AcDbText
  0
LINE
  5
79A
330
65A
100
AcDbEntity
  8
SIZE
  6
Continuous
 62
    30
100
AcDbLine
 10
1947.076172640748
 20
1989.820380225919
 30
0.0
 11
1977.076154640748
 21
1989.820380225919
 31
0.0
  0
LINE
  5
79B
330
65A
100
AcDbEntity
  8
SIZE
  6
Continuous
 62
    30
100
AcDbLine
 10
1947.076172640748
 20
1989.820380225919
 30
0.0
 11
1977.076154640748
 21
1989.820380225919
 31
0.0
  0
CIRCLE
  5
79C
330
65A
100
AcDbEntity
  8
SIZE
  6
Continuous
 62
    30
100
AcDbCircle
 10
1947.076172640748
 20
1989.820380225919
 30
0.0
 40
5.0
  0
LINE
  5
79D
330
65A
100
AcDbEntity
  8
SIZE
  6
Continuous
 62
    30
100
AcDbLine
 10
1942.076172640748
 20
1989.820380225919
 30
0.0
 11
1937.076172640748
 21
1989.820380225919
 31
0.0
  0
CIRCLE
  5
79E
330
65A
100
AcDbEntity
  8
SIZE
  6
Continuous
 62
    30
100
AcDbCircle
 10
1977.076154640748
 20
1989.820380225919
 30
0.0
 40
5.0
  0
LINE
  5
79F
330
65A
100
AcDbEntity
  8
SIZE
  6
Continuous
 62
    30
100
AcDbLine
 10
1982.076154640748
 20
1989.820380225919
 30
0.0
 11
1987.076154640748
 21
1989.820380225919
 31
0.0
  0
POINT
  5
7A0
330
65A
100
AcDbEntity
  8
Defpoints
  6
Continuous
 62
     7
100
AcDbPoint
 10
1947.076172640748
 20
1506.449923225919
 30
0.0
  0
POINT
  5
7A1
330
65A
100
AcDbEntity
  8
Defpoints
  6
Continuous
 62
     7
100
AcDbPoint
 10
1977.076154640748
 20
1506.449923225919
 30
0.0
  0
POINT
  5
7A2
330
65A
100
AcDbEntity
  8
Defpoints
  6
Continuous
 62
     7
100
AcDbPoint
 10
1977.076154640748
 20
1989.820380225919
 30
0.0
  0
LINE
  5
7A3
330
65A
100
AcDbEntity
  8
NOTE
  6
Continuous
 62
     4
100
AcDbLine
 10
3179.076171640748
 20
1506.106777225919
 30
0.0
 11
3179.076171640748
 21
1448.106776225919
 31
0.0
  0
LINE
  5
7A4
330
65A
100
AcDbEntity
  8
NOTE
  6
Continuous
 62
     4
100
AcDbLine
 10
3150.076171640748
 20
1477.106777225919
 30
0.0
 11
3208.076172640748
 21
1477.106777225919
 31
0.0
  0
LINE
  5
7A5
330
65A
100
AcDbEntity
  8
NOTE
  6
Continuous
 62
     4
100
AcDbLine
 10
3179.076171640748
 20
1356.106774225919
 30
0.0
 11
3179.076171640748
 21
1298.106773225919
 31
0.0
  0
LINE
  5
7A6
330
65A
100
AcDbEntity
  8
NOTE
  6
Continuous
 62
     4
100
AcDbLine
 10
3150.076171640748
 20
1327.106774225919
 30
0.0
 11
3208.076172640748
 21
1327.106774225919
 31
0.0
  0
LINE
  5
7A7
330
65A
100
AcDbEntity
  8
NOTE
  6
Continuous
 62
     4
100
AcDbLine
 10
3179.076171640748
 20
1206.106772225919
 30
0.0
 11
3179.076171640748
 21
1148.106770225919
 31
0.0
  0
LINE
  5
7A8
330
65A
100
AcDbEntity
  8
NOTE
  6
Continuous
 62
     4
100
AcDbLine
 10
3150.076171640748
 20
1177.106771225919
 30
0.0
 11
3208.076172640748
 21
1177.106771225919
 31
0.0
  0
LINE
  5
7A9
330
65A
100
AcDbEntity
  8
NOTE
  6
Continuous
 62
     4
100
AcDbLine
 10
3179.076171640748
 20
1056.106769225919
 30
0.0
 11
3179.076171640748
 21
998.1067682259192
 31
0.0
  0
LINE
  5
7AA
330
65A
100
AcDbEntity
  8
NOTE
  6
Continuous
 62
     4
100
AcDbLine
 10
3150.076171640748
 20
1027.106768225919
 30
0.0
 11
3208.076172640748
 21
1027.106768225919
 31
0.0
  0
LINE
  5
7AB
330
65A
100
AcDbEntity
  8
NOTE
  6
Continuous
 62
     4
100
AcDbLine
 10
3179.076171640748
 20
906.1067662259191
 30
0.0
 11
3179.076171640748
 21
848.1067652259191
 31
0.0
  0
LINE
  5
7AC
330
65A
100
AcDbEntity
  8
NOTE
  6
Continuous
 62
     4
100
AcDbLine
 10
3150.076171640748
 20
877.1067652259191
 30
0.0
 11
3208.076172640748
 21
877.1067652259191
 31
0.0
  0
LINE
  5
7AD
330
65A
100
AcDbEntity
  8
NOTE
  6
Continuous
 62
     4
100
AcDbLine
 10
1995.076155640748
 20
906.1067662259191
 30
0.0
 11
1995.076155640748
 21
848.1067652259191
 31
0.0
  0
LINE
  5
7AE
330
65A
100
AcDbEntity
  8
NOTE
  6
Continuous
 62
     4
100
AcDbLine
 10
1966.076154640748
 20
877.1067652259191
 30
0.0
 11
2024.076155640748
 21
877.1067652259191
 31
0.0
  0
LINE
  5
7AF
330
65A
100
AcDbEntity
  8
NOTE
  6
Continuous
 62
     4
100
AcDbLine
 10
1995.076155640748
 20
1056.106769225919
 30
0.0
 11
1995.076155640748
 21
998.1067682259192
 31
0.0
  0
LINE
  5
7B0
330
65A
100
AcDbEntity
  8
NOTE
  6
Continuous
 62
     4
100
AcDbLine
 10
1966.076154640748
 20
1027.106768225919
 30
0.0
 11
2024.076155640748
 21
1027.106768225919
 31
0.0
  0
LINE
  5
7B1
330
65A
100
AcDbEntity
  8
NOTE
  6
Continuous
 62
     4
100
AcDbLine
 10
1995.076155640748
 20
1206.106772225919
 30
0.0
 11
1995.076155640748
 21
1148.106770225919
 31
0.0
  0
LINE
  5
7B2
330
65A
100
AcDbEntity
  8
NOTE
  6
Continuous
 62
     4
100
AcDbLine
 10
1966.076154640748
 20
1177.106771225919
 30
0.0
 11
2024.076155640748
 21
1177.106771225919
 31
0.0
  0
LINE
  5
7B3
330
65A
100
AcDbEntity
  8
NOTE
  6
Continuous
 62
     4
100
AcDbLine
 10
1995.076155640748
 20
1356.106774225919
 30
0.0
 11
1995.076155640748
 21
1298.106773225919
 31
0.0
  0
LINE
  5
7B4
330
65A
100
AcDbEntity
  8
NOTE
  6
Continuous
 62
     4
100
AcDbLine
 10
1966.076154640748
 20
1327.106774225919
 30
0.0
 11
2024.076155640748
 21
1327.106774225919
 31
0.0
  0
LINE
  5
7B5
330
65A
100
AcDbEntity
  8
NOTE
  6
Continuous
 62
     4
100
AcDbLine
 10
1995.076155640748
 20
1506.106777225919
 30
0.0
 11
1995.076155640748
 21
1448.106776225919
 31
0.0
  0
LINE
  5
7B6
330
65A
100
AcDbEntity
  8
NOTE
  6
Continuous
 62
     4
100
AcDbLine
 10
1966.076154640748
 20
1477.106777225919
 30
0.0
 11
2024.076155640748
 21
1477.106777225919
 31
0.0
  0
ARC
  5
7B7
330
65A
100
AcDbEntity
  8
DETAIL
  6
Continuous
 62
     5
100
AcDbCircle
 10
2587.076163640748
 20
1177.106771225919
 30
0.0
 40
361.000007
100
AcDbArc
 50
270.0
 51
90.0
  0
ARC
  5
7B8
330
65A
100
AcDbEntity
  8
DETAIL
  6
Continuous
 62
     5
100
AcDbCircle
 10
2587.076163640748
 20
1177.106771225919
 30
0.0
 40
361.000007
100
AcDbArc
 50
90.0
 51
270.0
  0
ARC
  5
7B9
330
65A
100
AcDbEntity
  8
DETAIL
  6
Continuous
 62
     5
100
AcDbCircle
 10
3193.076171640748
 20
847.7636192259192
 30
0.0
 40
4.0
100
AcDbArc
 50
315.0
 51
0.0
  0
ARC
  5
7BA
330
65A
100
AcDbEntity
  8
DETAIL
  6
Continuous
 62
     5
100
AcDbCircle
 10
3146.419316640748
 20
801.1067642259192
 30
0.0
 40
4.0
100
AcDbArc
 50
270.0
 51
315.0
  0
ARC
  5
7BB
330
65A
100
AcDbEntity
  8
DETAIL
  6
Continuous
 62
     5
100
AcDbCircle
 10
1981.076155640748
 20
847.7636192259192
 30
0.0
 40
4.0
100
AcDbArc
 50
180.0
 51
225.0
  0
CIRCLE
  5
7BC
330
65A
100
AcDbEntity
  8
DETAIL
  6
Continuous
 62
     5
100
AcDbCircle
 10
1995.076155640748
 20
1477.106777225919
 30
0.0
 40
12.5
  0
CIRCLE
  5
7BD
330
65A
100
AcDbEntity
  8
DETAIL
  6
Continuous
 62
     5
100
AcDbCircle
 10
1995.076155640748
 20
1477.106777225919
 30
0.0
 40
4.0
  0
CIRCLE
  5
7BE
330
65A
100
AcDbEntity
  8
DETAIL
  6
Continuous
 62
     5
100
AcDbCircle
 10
3179.076171640748
 20
1477.106777225919
 30
0.0
 40
12.5
  0
CIRCLE
  5
7BF
330
65A
100
AcDbEntity
  8
DETAIL
  6
Continuous
 62
     5
100
AcDbCircle
 10
3179.076171640748
 20
1477.106777225919
 30
0.0
 40
4.0
  0
CIRCLE
  5
7C0
330
65A
100
AcDbEntity
  8
DETAIL
  6
Continuous
 62
     5
100
AcDbCircle
 10
1995.076155640748
 20
1327.106774225919
 30
0.0
 40
12.5
  0
CIRCLE
  5
7C1
330
65A
100
AcDbEntity
  8
DETAIL
  6
Continuous
 62
     5
100
AcDbCircle
 10
1995.076155640748
 20
1327.106774225919
 30
0.0
 40
4.0
  0
CIRCLE
  5
7C2
330
65A
100
AcDbEntity
  8
DETAIL
  6
Continuous
 62
     5
100
AcDbCircle
 10
3179.076171640748
 20
1327.106774225919
 30
0.0
 40
12.5
  0
CIRCLE
  5
7C3
330
65A
100
AcDbEntity
  8
DETAIL
  6
Continuous
 62
     5
100
AcDbCircle
 10
3179.076171640748
 20
1327.106774225919
 30
0.0
 40
4.0
  0
ARC
  5
7C4
330
65A
100
AcDbEntity
  8
DETAIL
  6
Continuous
 62
     5
100
AcDbCircle
 10
2027.733010640748
 20
801.1067642259192
 30
0.0
 40
4.0
100
AcDbArc
 50
225.0
 51
270.0
  0
CIRCLE
  5
7C5
330
65A
100
AcDbEntity
  8
DETAIL
  6
Continuous
 62
     5
100
AcDbCircle
 10
1995.076155640748
 20
1177.106771225919
 30
0.0
 40
12.5
  0
CIRCLE
  5
7C6
330
65A
100
AcDbEntity
  8
DETAIL
  6
Continuous
 62
     5
100
AcDbCircle
 10
1995.076155640748
 20
1177.106771225919
 30
0.0
 40
4.0
  0
CIRCLE
  5
7C7
330
65A
100
AcDbEntity
  8
DETAIL
  6
Continuous
 62
     5
100
AcDbCircle
 10
3179.076171640748
 20
1177.106771225919
 30
0.0
 40
12.5
  0
CIRCLE
  5
7C8
330
65A
100
AcDbEntity
  8
DETAIL
  6
Continuous
 62
     5
100
AcDbCircle
 10
3179.076171640748
 20
1177.106771225919
 30
0.0
 40
4.0
  0
CIRCLE
  5
7C9
330
65A
100
AcDbEntity
  8
DETAIL
  6
Continuous
 62
     5
100
AcDbCircle
 10
1995.076155640748
 20
1027.106768225919
 30
0.0
 40
12.5
  0
CIRCLE
  5
7CA
330
65A
100
AcDbEntity
  8
DETAIL
  6
Continuous
 62
     5
100
AcDbCircle
 10
1995.076155640748
 20
1027.106768225919
 30
0.0
 40
4.0
  0
CIRCLE
  5
7CB
330
65A
100
AcDbEntity
  8
DETAIL
  6
Continuous
 62
     5
100
AcDbCircle
 10
3179.076171640748
 20
1027.106768225919
 30
0.0
 40
12.5
  0
CIRCLE
  5
7CC
330
65A
100
AcDbEntity
  8
DETAIL
  6
Continuous
 62
     5
100
AcDbCircle
 10
3179.076171640748
 20
1027.106768225919
 30
0.0
 40
4.0
  0
CIRCLE
  5
7CD
330
65A
100
AcDbEntity
  8
DETAIL
  6
Continuous
 62
     5
100
AcDbCircle
 10
1995.076155640748
 20
877.1067652259191
 30
0.0
 40
12.5
  0
CIRCLE
  5
7CE
330
65A
100
AcDbEntity
  8
DETAIL
  6
Continuous
 62
     5
100
AcDbCircle
 10
1995.076155640748
 20
877.1067652259191
 30
0.0
 40
4.0
  0
CIRCLE
  5
7CF
330
65A
100
AcDbEntity
  8
DETAIL
  6
Continuous
 62
     5
100
AcDbCircle
 10
3179.076171640748
 20
877.1067652259191
 30
0.0
 40
12.5
  0
CIRCLE
  5
7D0
330
65A
100
AcDbEntity
  8
DETAIL
  6
Continuous
 62
     5
100
AcDbCircle
 10
3179.076171640748
 20
877.1067652259191
 30
0.0
 40
4.0
  0
ARC
  5
7D1
330
65A
100
AcDbEntity
  8
DETAIL
  6
Continuous
 62
     5
100
AcDbCircle
 10
2082.351716640748
 20
930.1909692259192
 30
0.0
 40
1.199999999999999
100
AcDbArc
 50
304.9999999999974
 51
58.73579000000302
  0
ARC
  5
7D2
330
65A
100
AcDbEntity
  8
DETAIL
  6
Continuous
 62
     5
100
AcDbCircle
 10
2078.321875640748
 20
924.4393852259191
 30
0.0
 40
1.199999999999999
100
AcDbArc
 50
124.9999999999974
 51
215.1566890000058
  0
ARC
  5
7D3
330
65A
100
AcDbEntity
  8
DETAIL
  6
Continuous
 62
     5
100
AcDbCircle
 10
2437.076163640748
 20
1177.106771225919
 30
0.0
 40
440.0000079999999
100
AcDbArc
 50
215.1566890000058
 51
224.8441640000026
  0
ARC
  5
7D4
330
65A
100
AcDbEntity
  8
DETAIL
  6
Continuous
 62
     5
100
AcDbCircle
 10
2124.253271640748
 20
865.9809352259191
 30
0.0
 40
1.199999999999999
100
AcDbArc
 50
315.0
 51
44.84416400000262
  0
ARC
  5
7D5
330
65A
100
AcDbEntity
  8
DETAIL
  6
Continuous
 62
     5
100
AcDbCircle
 10
2111.808147640748
 20
853.5358122259193
 30
0.0
 40
1.199999999999999
100
AcDbArc
 50
224.850141999998
 51
315.0
  0
ARC
  5
7D6
330
65A
100
AcDbEntity
  8
DETAIL
  6
Continuous
 62
     5
100
AcDbCircle
 10
2437.076163640748
 20
1177.106771225919
 30
0.0
 40
460.0000089999999
100
AcDbArc
 50
215.149079
 51
224.850141999998
  0
ARC
  5
7D7
330
65A
100
AcDbEntity
  8
DETAIL
  6
Continuous
 62
     5
100
AcDbCircle
 10
2059.972804640748
 20
911.5912272259192
 30
0.0
 40
1.199999999999999
100
AcDbArc
 50
35.14907900000004
 51
124.9999999999974
  0
ARC
  5
7D8
330
65A
100
AcDbEntity
  8
DETAIL
  6
Continuous
 62
     5
100
AcDbCircle
 10
2053.189799640748
 20
909.7715742259191
 30
0.0
 40
1.199999999999999
100
AcDbArc
 50
187.2091419999966
 51
304.9999999999974
  0
ARC
  5
7D9
330
65A
100
AcDbEntity
  8
DETAIL
  6
Continuous
 62
     5
100
AcDbCircle
 10
2047.966110640748
 20
951.0683362259191
 30
0.0
 40
1.199999999999999
100
AcDbArc
 50
58.73579000000302
 51
187.2091419999966
  0
ARC
  5
7DA
330
65A
100
AcDbEntity
  8
DETAIL
  6
Continuous
 62
     5
100
AcDbCircle
 10
2941.800610640748
 20
1424.022573225919
 30
0.0
 40
1.199999999999999
100
AcDbArc
 50
124.9999999999974
 51
238.735790000003
  0
ARC
  5
7DB
330
65A
100
AcDbEntity
  8
DETAIL
  6
Continuous
 62
     5
100
AcDbCircle
 10
2945.830451640748
 20
1429.774157225919
 30
0.0
 40
1.199999999999999
100
AcDbArc
 50
304.9999999999974
 51
35.15668900000576
  0
ARC
  5
7DC
330
65A
100
AcDbEntity
  8
DETAIL
  6
Continuous
 62
     5
100
AcDbCircle
 10
2587.076163640748
 20
1177.106771225919
 30
0.0
 40
440.0000079999999
100
AcDbArc
 50
35.15668900000576
 51
44.84416400000262
  0
ARC
  5
7DD
330
65A
100
AcDbEntity
  8
DETAIL
  6
Continuous
 62
     5
100
AcDbCircle
 10
2899.899055640748
 20
1488.232607225919
 30
0.0
 40
1.199999999999999
100
AcDbArc
 50
135.0
 51
224.8441640000026
  0
ARC
  5
7DE
330
65A
100
AcDbEntity
  8
DETAIL
  6
Continuous
 62
     5
100
AcDbCircle
 10
2912.344179640748
 20
1500.677730225919
 30
0.0
 40
1.199999999999999
100
AcDbArc
 50
44.85014199999799
 51
135.0
  0
ARC
  5
7DF
330
65A
100
AcDbEntity
  8
DETAIL
  6
Continuous
 62
     5
100
AcDbCircle
 10
2587.076163640748
 20
1177.106771225919
 30
0.0
 40
460.0000089999999
100
AcDbArc
 50
35.14907900000004
 51
44.85014199999799
  0
ARC
  5
7E0
330
65A
100
AcDbEntity
  8
DETAIL
  6
Continuous
 62
     5
100
AcDbCircle
 10
2964.179522640748
 20
1442.622315225919
 30
0.0
 40
1.199999999999999
100
AcDbArc
 50
215.149079
 51
304.9999999999974
  0
ARC
  5
7E1
330
65A
100
AcDbEntity
  8
DETAIL
  6
Continuous
 62
     5
100
AcDbCircle
 10
2970.962527640748
 20
1444.441968225919
 30
0.0
 40
1.199999999999999
100
AcDbArc
 50
7.209141999996574
 51
124.9999999999974
  0
ARC
  5
7E2
330
65A
100
AcDbEntity
  8
DETAIL
  6
Continuous
 62
     5
100
AcDbCircle
 10
2976.186216640748
 20
1403.145206225919
 30
0.0
 40
1.199999999999999
100
AcDbArc
 50
238.735790000003
 51
7.209141999996574
  0
LINE
  5
7E3
330
65A
100
AcDbEntity
  8
DETAIL
  6
Continuous
 62
     5
100
AcDbLine
 10
1978.247727640748
 20
844.9351922259191
 30
0.0
 11
2024.904583640748
 21
798.2783372259191
 31
0.0
  0
LINE
  5
7E4
330
65A
100
AcDbEntity
  8
DETAIL
  6
Continuous
 62
     5
100
AcDbLine
 10
2977.376730640748
 20
1403.295796225919
 30
0.0
 11
2972.153041640748
 21
1444.592557225919
 31
0.0
  0
LINE
  5
7E5
330
65A
100
AcDbEntity
  8
DETAIL
  6
Continuous
 62
     5
100
AcDbLine
 10
2941.177828640748
 20
1422.996834225919
 30
0.0
 11
2975.563434640748
 21
1402.119466225919
 31
0.0
  0
LINE
  5
7E6
330
65A
100
AcDbEntity
  8
DETAIL
  6
Continuous
 62
     5
100
AcDbLine
 10
2077.633583640748
 20
925.4223672259191
 30
0.0
 11
2083.040008640748
 21
929.2079862259191
 31
0.0
  0
LINE
  5
7E7
330
65A
100
AcDbEntity
  8
DETAIL
  6
Continuous
 62
     5
100
AcDbLine
 10
2053.878090640748
 20
908.7885922259191
 30
0.0
 11
2059.284512640748
 21
912.5742092259191
 31
0.0
  0
LINE
  5
7E8
330
65A
100
AcDbEntity
  8
DETAIL
  6
Continuous
 62
     5
100
AcDbLine
 10
2946.518743640748
 20
1428.791175225919
 30
0.0
 11
2941.112318640748
 21
1425.005556225919
 31
0.0
  0
LINE
  5
7E9
330
65A
100
AcDbEntity
  8
DETAIL
  6
Continuous
 62
     5
100
AcDbLine
 10
2970.274236640748
 20
1445.424950225919
 30
0.0
 11
2964.867814640748
 21
1441.639333225919
 31
0.0
  0
LINE
  5
7EA
330
65A
100
AcDbEntity
  8
DETAIL
  6
Continuous
 62
     5
100
AcDbLine
 10
2112.656675640748
 20
852.6872832259192
 30
0.0
 11
2125.101799640748
 21
865.1324072259191
 31
0.0
  0
LINE
  5
7EB
330
65A
100
AcDbEntity
  8
DETAIL
  6
Continuous
 62
     5
100
AcDbLine
 10
2911.495651640748
 20
1501.526259225919
 30
0.0
 11
2899.050527640748
 21
1489.081135225919
 31
0.0
  0
LINE
  5
7EC
330
65A
100
AcDbEntity
  8
DETAIL
  6
Continuous
 62
     5
100
AcDbLine
 10
3146.419316640748
 20
797.1067642259192
 30
0.0
 11
2027.733010640748
 21
797.1067642259192
 31
0.0
  0
LINE
  5
7ED
330
65A
100
AcDbEntity
  8
DETAIL
  6
Continuous
 62
     5
100
AcDbLine
 10
2046.775596640748
 20
950.9177462259192
 30
0.0
 11
2051.999285640748
 21
909.6209852259191
 31
0.0
  0
LINE
  5
7EE
330
65A
100
AcDbEntity
  8
DETAIL
  6
Continuous
 62
     5
100
AcDbLine
 10
2082.974498640748
 20
931.2167082259191
 30
0.0
 11
2048.588892640748
 21
952.0940762259192
 31
0.0
  0
LINE
  5
7EF
330
65A
100
AcDbEntity
  8
DETAIL
  6
Continuous
 62
     5
100
AcDbLine
 10
3149.247743640748
 20
798.2783372259191
 30
0.0
 11
3195.904599640748
 21
844.9351922259191
 31
0.0
  0
LINE
  5
7F0
330
65A
100
AcDbEntity
  8
DETAIL
  6
Continuous
 62
     5
100
AcDbLine
 10
3149.247743640748
 20
1555.935205225919
 30
0.0
 11
3195.904599640748
 21
1509.278350225919
 31
0.0
  0
LINE
  5
7F1
330
65A
100
AcDbEntity
  8
DETAIL
  6
Continuous
 62
     5
100
AcDbLine
 10
3146.419316640748
 20
1557.106778225919
 30
0.0
 11
2027.733010640748
 21
1557.106778225919
 31
0.0
  0
LINE
  5
7F2
330
65A
100
AcDbEntity
  8
DETAIL
  6
Continuous
 62
     5
100
AcDbLine
 10
1978.247727640748
 20
1509.278350225919
 30
0.0
 11
2024.904583640748
 21
1555.935205225919
 31
0.0
  0
ARC
  5
7F3
330
65A
100
AcDbEntity
  8
DETAIL
  6
Continuous
 62
     5
100
AcDbCircle
 10
2027.733010640748
 20
1553.106778225919
 30
0.0
 40
4.0
100
AcDbArc
 50
90.0
 51
135.0
  0
ARC
  5
7F4
330
65A
100
AcDbEntity
  8
DETAIL
  6
Continuous
 62
     5
100
AcDbCircle
 10
3146.419316640748
 20
1553.106778225919
 30
0.0
 40
4.0
100
AcDbArc
 50
45.0
 51
90.0
  0
ARC
  5
7F5
330
65A
100
AcDbEntity
  8
DETAIL
  6
Continuous
 62
     5
100
AcDbCircle
 10
1981.076155640748
 20
1506.449923225919
 30
0.0
 40
4.0
100
AcDbArc
 50
135.0
 51
180.0
  0
ARC
  5
7F6
330
65A
100
AcDbEntity
  8
DETAIL
  6
Continuous
 62
     5
100
AcDbCircle
 10
3193.076171640748
 20
1506.449923225919
 30
0.0
 40
4.0
100
AcDbArc
 50
0.0
 51
45.0
  0
LINE
  5
7F7
330
65A
100
AcDbEntity
  8
DETAIL
  6
Continuous
 62
     5
100
AcDbLine
 10
1977.076154640748
 20
1506.449923225919
 30
0.0
 11
1977.076154640748
 21
847.7636192259192
 31
0.0
  0
LINE
  5
7F8
330
65A
100
AcDbEntity
  8
DETAIL
  6
Continuous
 62
     5
100
AcDbLine
 10
3197.076172640748
 20
1506.449923225919
 30
0.0
 11
3197.076172640748
 21
847.7636192259192
 31
0.0
  0
LINE
  5
7F9
330
65A
100
AcDbEntity
  8
BASIS
  6
DASHDOT
 62
     6
100
AcDbLine
 10
3277.586488640749
 20
1177.106771225919
 30
0.0
 11
1895.144048640748
 21
1177.106771225919
 31
0.0
  0
LINE
  5
7FA
330
65A
100
AcDbEntity
  8
BASIS
  6
DASHDOT
 62
     6
100
AcDbLine
 10
2587.076163640748
 20
730.6231842259192
 30
0.0
 11
2587.076163640748
 21
1623.590358225919
 31
0.0
  0
TEXT
  5
7FB
330
65A
100
AcDbEntity
  8
NOTE
  6
Continuous
 62
     4
100
AcDbText
 10
3276.515575640747
 20
1117.986886225919
 30
0.0
 40
55.0
  1
吸込
 50
359.999997
 41
0.703125
  7
STANDARD1
100
AcDbText
  0
TEXT
  5
7FC
330
65A
100
AcDbEntity
  8
NOTE
  6
Continuous
 62
     4
100
AcDbText
 10
3276.515575640747
 20
1185.343214225919
 30
0.0
 40
55.0
  1
空気
 50
359.999997
 41
0.703125
  7
STANDARD1
100
AcDbText
  0
LINE
  5
7FD
330
65A
100
AcDbEntity
  8
NOTE
  6
Continuous
 62
     4
100
AcDbLine
 10
3356.443078640748
 20
1308.722671225919
 30
0.0
 11
3356.443078640748
 21
1358.722672225919
 31
0.0
  0
LINE
  5
7FE
330
65A
100
AcDbEntity
  8
NOTE
  6
Continuous
 62
     4
100
AcDbLine
 10
3315.756990640748
 20
1358.722672225919
 30
0.0
 11
3356.443078640748
 21
1358.722672225919
 31
0.0
  0
LINE
  5
7FF
330
65A
100
AcDbEntity
  8
NOTE
  6
Continuous
 62
     4
100
AcDbLine
 10
3315.756990640748
 20
1308.722671225919
 30
0.0
 11
3356.443078640748
 21
1308.722671225919
 31
0.0
  0
LINE
  5
800
330
65A
100
AcDbEntity
  8
NOTE
  6
Continuous
 62
     4
100
AcDbLine
 10
3315.756990640748
 20
1308.722671225919
 30
0.0
 11
3315.756990640748
 21
1283.722670225919
 31
0.0
  0
LINE
  5
801
330
65A
100
AcDbEntity
  8
NOTE
  6
Continuous
 62
     4
100
AcDbLine
 10
3315.756990640748
 20
1383.722672225919
 30
0.0
 11
3315.756990640748
 21
1358.722672225919
 31
0.0
  0
LINE
  5
802
330
65A
100
AcDbEntity
  8
NOTE
  6
Continuous
 62
     4
100
AcDbLine
 10
3315.756990640748
 20
1383.722672225919
 30
0.0
 11
3265.860944640748
 21
1333.722671225919
 31
0.0
  0
LINE
  5
803
330
65A
100
AcDbEntity
  8
NOTE
  6
Continuous
 62
     4
100
AcDbLine
 10
3265.860944640748
 20
1333.722671225919
 30
0.0
 11
3315.756990640748
 21
1283.722670225919
 31
0.0
  0
LINE
  5
804
330
65A
100
AcDbEntity
  8
NOTE
  6
Continuous
 62
     4
100
AcDbLine
 10
3315.104544640748
 20
1000.560565225919
 30
0.0
 11
3315.104544640748
 21
975.5605652259191
 31
0.0
  0
LINE
  5
805
330
65A
100
AcDbEntity
  8
NOTE
  6
Continuous
 62
     4
100
AcDbLine
 10
3265.208498640748
 20
1025.560566225919
 30
0.0
 11
3315.104544640748
 21
975.5605652259191
 31
0.0
  0
LINE
  5
806
330
65A
100
AcDbEntity
  8
NOTE
  6
Continuous
 62
     4
100
AcDbLine
 10
3315.104544640748
 20
1075.560566225919
 30
0.0
 11
3265.208498640748
 21
1025.560566225919
 31
0.0
  0
LINE
  5
807
330
65A
100
AcDbEntity
  8
NOTE
  6
Continuous
 62
     4
100
AcDbLine
 10
3315.104544640748
 20
1000.560565225919
 30
0.0
 11
3355.790633640748
 21
1000.560565225919
 31
0.0
  0
LINE
  5
808
330
65A
100
AcDbEntity
  8
NOTE
  6
Continuous
 62
     4
100
AcDbLine
 10
3315.104544640748
 20
1050.560566225919
 30
0.0
 11
3355.790633640748
 21
1050.560566225919
 31
0.0
  0
LINE
  5
809
330
65A
100
AcDbEntity
  8
NOTE
  6
Continuous
 62
     4
100
AcDbLine
 10
3355.790633640748
 20
1000.560565225919
 30
0.0
 11
3355.790633640748
 21
1050.560566225919
 31
0.0
  0
LINE
  5
80A
330
65A
100
AcDbEntity
  8
NOTE
  6
Continuous
 62
     4
100
AcDbLine
 10
3315.104544640748
 20
1075.560566225919
 30
0.0
 11
3315.104544640748
 21
1050.560566225919
 31
0.0
  0
ARC
  5
80B
330
65A
100
AcDbEntity
  8
OUTLINE
  6
Continuous
 62
     3
100
AcDbCircle
 10
3193.076171640748
 20
847.7636192259192
 30
0.0
 40
4.0
100
AcDbArc
 50
315.0
 51
0.0
  0
ARC
  5
80C
330
65A
100
AcDbEntity
  8
OUTLINE
  6
Continuous
 62
     3
100
AcDbCircle
 10
3146.419316640748
 20
801.1067642259192
 30
0.0
 40
4.0
100
AcDbArc
 50
270.0
 51
315.0
  0
ARC
  5
80D
330
65A
100
AcDbEntity
  8
OUTLINE
  6
Continuous
 62
     3
100
AcDbCircle
 10
1981.076155640748
 20
847.7636192259192
 30
0.0
 40
4.0
100
AcDbArc
 50
180.0
 51
225.0
  0
ARC
  5
80E
330
65A
100
AcDbEntity
  8
OUTLINE
  6
Continuous
 62
     3
100
AcDbCircle
 10
2027.733010640748
 20
801.1067642259192
 30
0.0
 40
4.0
100
AcDbArc
 50
225.0
 51
270.0
  0
LINE
  5
80F
330
65A
100
AcDbEntity
  8
OUTLINE
  6
Continuous
 62
     3
100
AcDbLine
 10
1978.247727640748
 20
844.9351922259191
 30
0.0
 11
2024.904583640748
 21
798.2783372259191
 31
0.0
  0
LINE
  5
810
330
65A
100
AcDbEntity
  8
OUTLINE
  6
Continuous
 62
     3
100
AcDbLine
 10
3146.419316640748
 20
797.1067642259192
 30
0.0
 11
2027.733010640748
 21
797.1067642259192
 31
0.0
  0
LINE
  5
811
330
65A
100
AcDbEntity
  8
OUTLINE
  6
Continuous
 62
     3
100
AcDbLine
 10
3149.247743640748
 20
798.2783372259191
 30
0.0
 11
3195.904599640748
 21
844.9351922259191
 31
0.0
  0
LINE
  5
812
330
65A
100
AcDbEntity
  8
OUTLINE
  6
Continuous
 62
     3
100
AcDbLine
 10
3149.247743640748
 20
1555.935205225919
 30
0.0
 11
3195.904599640748
 21
1509.278350225919
 31
0.0
  0
LINE
  5
813
330
65A
100
AcDbEntity
  8
OUTLINE
  6
Continuous
 62
     3
100
AcDbLine
 10
3146.419316640748
 20
1557.106778225919
 30
0.0
 11
2027.733010640748
 21
1557.106778225919
 31
0.0
  0
LINE
  5
814
330
65A
100
AcDbEntity
  8
OUTLINE
  6
Continuous
 62
     3
100
AcDbLine
 10
1978.247727640748
 20
1509.278350225919
 30
0.0
 11
2024.904583640748
 21
1555.935205225919
 31
0.0
  0
ARC
  5
815
330
65A
100
AcDbEntity
  8
OUTLINE
  6
Continuous
 62
     3
100
AcDbCircle
 10
2027.733010640748
 20
1553.106778225919
 30
0.0
 40
4.0
100
AcDbArc
 50
90.0
 51
135.0
  0
ARC
  5
816
330
65A
100
AcDbEntity
  8
OUTLINE
  6
Continuous
 62
     3
100
AcDbCircle
 10
3146.419316640748
 20
1553.106778225919
 30
0.0
 40
4.0
100
AcDbArc
 50
45.0
 51
90.0
  0
ARC
  5
817
330
65A
100
AcDbEntity
  8
OUTLINE
  6
Continuous
 62
     3
100
AcDbCircle
 10
1981.076155640748
 20
1506.449923225919
 30
0.0
 40
4.0
100
AcDbArc
 50
135.0
 51
180.0
  0
ARC
  5
818
330
65A
100
AcDbEntity
  8
OUTLINE
  6
Continuous
 62
     3
100
AcDbCircle
 10
3193.076171640748
 20
1506.449923225919
 30
0.0
 40
4.0
100
AcDbArc
 50
0.0
 51
45.0
  0
LINE
  5
819
330
65A
100
AcDbEntity
  8
OUTLINE
  6
Continuous
 62
     3
100
AcDbLine
 10
1977.076154640748
 20
1506.449923225919
 30
0.0
 11
1977.076154640748
 21
847.7636192259192
 31
0.0
  0
LINE
  5
81A
330
65A
100
AcDbEntity
  8
OUTLINE
  6
Continuous
 62
     3
100
AcDbLine
 10
3197.076172640748
 20
1506.449923225919
 30
0.0
 11
3197.076172640748
 21
847.7636192259192
 31
0.0
  0
LINE
  5
81B
330
65A
100
AcDbEntity
  8
NOTE
  6
Continuous
 62
     4
100
AcDbLine
 10
2278.076159640748
 20
922.3567642259192
 30
0.0
 11
2278.076159640748
 21
961.8567642259192
 31
0.0
  0
LINE
  5
81C
330
65A
100
AcDbEntity
  8
NOTE
  6
Continuous
 62
     4
100
AcDbLine
 10
2297.826159640748
 20
942.1067642259192
 30
0.0
 11
2258.326159640748
 21
942.1067642259192
 31
0.0
  0
LINE
  5
81D
330
65A
100
AcDbEntity
  8
NOTE
  6
Continuous
 62
     4
100
AcDbLine
 10
2361.076161640748
 20
911.1067632259191
 30
0.0
 11
2361.076161640748
 21
967.1067642259192
 31
0.0
  0
LINE
  5
81E
330
65A
100
AcDbEntity
  8
NOTE
  6
Continuous
 62
     4
100
AcDbLine
 10
2389.076161640748
 20
939.1067642259191
 30
0.0
 11
2333.076160640748
 21
939.1067642259191
 31
0.0
  0
LINE
  5
81F
330
65A
100
AcDbEntity
  8
NOTE
  6
Continuous
 62
     4
100
AcDbLine
 10
2278.076170640748
 20
942.1067542259192
 30
0.0
 11
2303.948269640748
 21
921.089008225919
 31
0.0
  0
LINE
  5
820
330
65A
100
AcDbEntity
  8
NOTE
  6
Continuous
 62
     4
100
AcDbLine
 10
2278.076170640748
 20
942.1067542259192
 30
0.0
 11
2289.973192640748
 21
910.9688032259191
 31
0.0
  0
LINE
  5
821
330
65A
100
AcDbEntity
  8
NOTE
  6
Continuous
 62
     4
100
AcDbLine
 10
2584.049100640748
 20
519.5861422259191
 30
0.0
 11
2278.076170640748
 21
942.1067542259192
 31
0.0
  0
LINE
  5
822
330
65A
100
AcDbEntity
  8
NOTE
  6
Continuous
 62
     4
100
AcDbLine
 10
2361.076173640748
 20
939.1067282259191
 30
0.0
 11
2389.988547640748
 21
922.518003225919
 31
0.0
  0
LINE
  5
823
330
65A
100
AcDbEntity
  8
NOTE
  6
Continuous
 62
     4
100
AcDbLine
 10
2361.076173640748
 20
939.1067282259191
 30
0.0
 11
2377.820660640748
 21
910.2842842259191
 31
0.0
  0
LINE
  5
824
330
65A
100
AcDbEntity
  8
NOTE
  6
Continuous
 62
     4
100
AcDbLine
 10
2660.047605640748
 20
641.744135225919
 30
0.0
 11
2361.076173640748
 21
939.1067282259191
 31
0.0
  0
TEXT
  5
825
330
65A
100
AcDbEntity
  8
NOTE
  6
Continuous
 62
     4
100
AcDbText
 10
2593.588687640748
 20
532.1496512259191
 30
0.0
 40
55.0
  1
RL1 %%C15.88
 50
0.000003
 41
0.6309520000000001
  7
STANDARD1
100
AcDbText
  0
LINE
  5
826
330
65A
100
AcDbEntity
  8
NOTE
  6
Continuous
 62
     4
100
AcDbLine
 10
2584.049100640748
 20
519.5861422259191
 30
0.0
 11
2897.657172640748
 21
519.5861422259191
 31
0.0
  0
TEXT
  5
827
330
65A
100
AcDbEntity
  8
NOTE
  6
Continuous
 62
     4
100
AcDbText
 10
2668.097990640748
 20
657.6866392259191
 30
0.0
 40
55.0
  1
RG1 %%C28.58
 50
0.000003
 41
0.6309520000000001
  7
STANDARD1
100
AcDbText
  0
LINE
  5
828
330
65A
100
AcDbEntity
  8
NOTE
  6
Continuous
 62
     4
100
AcDbLine
 10
2660.047605640748
 20
641.744135225919
 30
0.0
 11
2973.655677640748
 21
641.744135225919
 31
0.0
  0
LINE
  5
829
330
65A
100
AcDbEntity
  8
SIZE
  6
Continuous
 62
    30
100
AcDbLine
 10
1977.076154640748
 20
807.7636192259191
 30
0.0
 11
1977.076154640748
 21
521.758759225919
 31
0.0
  0
LINE
  5
82A
330
65A
100
AcDbEntity
  8
SIZE
  6
Continuous
 62
    30
100
AcDbLine
 10
2278.076159640748
 20
907.3567642259192
 30
0.0
 11
2278.076159640748
 21
521.758759225919
 31
0.0
  0
LINE
  5
82B
330
65A
100
AcDbEntity
  8
SIZE
  6
Continuous
 62
    30
100
AcDbLine
 10
1987.076154640748
 20
551.758759225919
 30
0.0
 11
2268.076159640748
 21
551.758759225919
 31
0.0
  0
CIRCLE
  5
82C
330
65A
100
AcDbEntity
  8
SIZE
  6
Continuous
 62
    30
100
AcDbCircle
 10
1977.076154640748
 20
551.758759225919
 30
0.0
 40
5.0
  0
LINE
  5
82D
330
65A
100
AcDbEntity
  8
SIZE
  6
Continuous
 62
    30
100
AcDbLine
 10
1982.076154640748
 20
551.758759225919
 30
0.0
 11
1987.076154640748
 21
551.758759225919
 31
0.0
  0
CIRCLE
  5
82E
330
65A
100
AcDbEntity
  8
SIZE
  6
Continuous
 62
    30
100
AcDbCircle
 10
2278.076159640748
 20
551.758759225919
 30
0.0
 40
5.0
  0
LINE
  5
82F
330
65A
100
AcDbEntity
  8
SIZE
  6
Continuous
 62
    30
100
AcDbLine
 10
2273.076159640748
 20
551.758759225919
 30
0.0
 11
2268.076159640748
 21
551.758759225919
 31
0.0
  0
TEXT
  5
830
330
65A
100
AcDbEntity
  8
SIZE
  6
Continuous
 62
    30
100
AcDbText
 10
2063.933300497891
 20
566.7587592259191
 30
0.0
 40
55.0
  1
301
 41
0.9
 72
     1
 11
2127.576157640747
 21
566.7587592259191
 31
0.0
100
AcDbText
  0
POINT
  5
831
330
65A
100
AcDbEntity
  8
Defpoints
  6
Continuous
 62
     7
100
AcDbPoint
 10
1977.076154640748
 20
827.7636192259192
 30
0.0
  0
POINT
  5
832
330
65A
100
AcDbEntity
  8
Defpoints
  6
Continuous
 62
     7
100
AcDbPoint
 10
2278.076159640748
 20
927.3567642259191
 30
0.0
  0
POINT
  5
833
330
65A
100
AcDbEntity
  8
Defpoints
  6
Continuous
 62
     7
100
AcDbPoint
 10
2278.076159640748
 20
551.758759225919
 30
0.0
  0
LINE
  5
834
330
65A
100
AcDbEntity
  8
SIZE
  6
Continuous
 62
    30
100
AcDbLine
 10
2278.076159640748
 20
907.3567642259192
 30
0.0
 11
2278.076159640748
 21
521.758759225919
 31
0.0
  0
LINE
  5
835
330
65A
100
AcDbEntity
  8
SIZE
  6
Continuous
 62
    30
100
AcDbLine
 10
2361.076161640748
 20
891.1067632259191
 30
0.0
 11
2361.076161640748
 21
521.758759225919
 31
0.0
  0
LINE
  5
836
330
65A
100
AcDbEntity
  8
SIZE
  6
Continuous
 62
    30
100
AcDbLine
 10
2268.076159640748
 20
551.758759225919
 30
0.0
 11
2258.076159640748
 21
551.758759225919
 31
0.0
  0
LINE
  5
837
330
65A
100
AcDbEntity
  8
SIZE
  6
Continuous
 62
    30
100
AcDbLine
 10
2371.076161640748
 20
551.758759225919
 30
0.0
 11
2381.076161640748
 21
551.758759225919
 31
0.0
  0
LINE
  5
838
330
65A
100
AcDbEntity
  8
SIZE
  6
Continuous
 62
    30
100
AcDbLine
 10
2278.076159640748
 20
551.758759225919
 30
0.0
 11
2361.076161640748
 21
551.758759225919
 31
0.0
  0
CIRCLE
  5
839
330
65A
100
AcDbEntity
  8
SIZE
  6
Continuous
 62
    30
100
AcDbCircle
 10
2278.076159640748
 20
551.758759225919
 30
0.0
 40
5.0
  0
LINE
  5
83A
330
65A
100
AcDbEntity
  8
SIZE
  6
Continuous
 62
    30
100
AcDbLine
 10
2273.076159640748
 20
551.758759225919
 30
0.0
 11
2268.076159640748
 21
551.758759225919
 31
0.0
  0
CIRCLE
  5
83B
330
65A
100
AcDbEntity
  8
SIZE
  6
Continuous
 62
    30
100
AcDbCircle
 10
2361.076161640748
 20
551.758759225919
 30
0.0
 40
5.0
  0
LINE
  5
83C
330
65A
100
AcDbEntity
  8
SIZE
  6
Continuous
 62
    30
100
AcDbLine
 10
2366.076161640748
 20
551.758759225919
 30
0.0
 11
2371.076161640748
 21
551.758759225919
 31
0.0
  0
TEXT
  5
83D
330
65A
100
AcDbEntity
  8
SIZE
  6
Continuous
 62
    30
100
AcDbText
 10
2272.433303497891
 20
566.7587592259191
 30
0.0
 40
55.0
  1
83
 41
0.9
 72
     1
 11
2319.576160640748
 21
566.7587592259191
 31
0.0
100
AcDbText
  0
POINT
  5
83E
330
65A
100
AcDbEntity
  8
Defpoints
  6
Continuous
 62
     7
100
AcDbPoint
 10
2278.076159640748
 20
927.3567642259191
 30
0.0
  0
POINT
  5
83F
330
65A
100
AcDbEntity
  8
Defpoints
  6
Continuous
 62
     7
100
AcDbPoint
 10
2361.076161640748
 20
911.1067632259191
 30
0.0
  0
POINT
  5
840
330
65A
100
AcDbEntity
  8
Defpoints
  6
Continuous
 62
     7
100
AcDbPoint
 10
2361.076161640748
 20
551.758759225919
 30
0.0
  0
TEXT
  5
841
330
65A
100
AcDbEntity
  8
NOTE
  6
Continuous
 62
     4
100
AcDbText
 10
3345.540443640748
 20
1653.052879225919
 30
0.0
 40
55.0
  1
＜防雪ﾌ-ﾄﾞ（別売品）取付用穴＞
 50
359.999997
 41
0.638665
  7
STANDARD1
100
AcDbText
  0
TEXT
  5
842
330
65A
100
AcDbEntity
  8
NOTE
  6
Continuous
 62
     4
100
AcDbText
 10
3339.116517640748
 20
1731.016667225919
 30
0.0
 40
55.0
  1
(樹脂部の開口加工必要）
 50
359.999997
 41
0.693662
  7
STANDARD1
100
AcDbText
  0
TEXT
  5
843
330
65A
100
AcDbEntity
  8
NOTE
  6
Continuous
 62
     4
100
AcDbText
 10
3361.712441640748
 20
1801.016659225919
 30
0.0
 40
55.0
  1
2X5-φ4.6穴
 50
359.999997
 41
0.603058
  7
STANDARD1
100
AcDbText
  0
LINE
  5
844
330
65A
100
AcDbEntity
  8
SIZE
  6
Continuous
 62
    30
100
AcDbLine
 10
3228.076152640748
 20
1477.107079225919
 30
0.0
 11
3529.703610640748
 21
1477.107079225919
 31
0.0
  0
LINE
  5
845
330
65A
100
AcDbEntity
  8
SIZE
  6
Continuous
 62
    30
100
AcDbLine
 10
3228.076152640748
 20
1327.106832225919
 30
0.0
 11
3529.703610640748
 21
1327.106832225919
 31
0.0
  0
LINE
  5
846
330
65A
100
AcDbEntity
  8
SIZE
  6
Continuous
 62
    30
100
AcDbLine
 10
3499.703610640748
 20
1467.107079225919
 30
0.0
 11
3499.703610640748
 21
1337.106832225919
 31
0.0
  0
CIRCLE
  5
847
330
65A
100
AcDbEntity
  8
SIZE
  6
Continuous
 62
    30
100
AcDbCircle
 10
3499.703610640748
 20
1477.107079225919
 30
0.0
 40
5.0
  0
LINE
  5
848
330
65A
100
AcDbEntity
  8
SIZE
  6
Continuous
 62
    30
100
AcDbLine
 10
3499.703610640748
 20
1472.107079225919
 30
0.0
 11
3499.703610640748
 21
1467.107079225919
 31
0.0
  0
CIRCLE
  5
849
330
65A
100
AcDbEntity
  8
SIZE
  6
Continuous
 62
    30
100
AcDbCircle
 10
3499.703610640748
 20
1327.106832225919
 30
0.0
 40
5.0
  0
LINE
  5
84A
330
65A
100
AcDbEntity
  8
SIZE
  6
Continuous
 62
    30
100
AcDbLine
 10
3499.703610640748
 20
1332.106832225919
 30
0.0
 11
3499.703610640748
 21
1337.106832225919
 31
0.0
  0
TEXT
  5
84B
330
65A
100
AcDbEntity
  8
SIZE
  6
Continuous
 62
    30
100
AcDbText
 10
3484.703610640748
 20
1327.856955225919
 30
0.0
 40
55.0
  1
150
 50
90.0
 41
0.9
 72
     1
 11
3484.703610640748
 21
1402.106955225919
 31
0.0
100
AcDbText
  0
POINT
  5
84C
330
65A
100
AcDbEntity
  8
Defpoints
  6
Continuous
 62
     7
100
AcDbPoint
 10
3208.076152640748
 20
1477.107079225919
 30
0.0
  0
POINT
  5
84D
330
65A
100
AcDbEntity
  8
Defpoints
  6
Continuous
 62
     7
100
AcDbPoint
 10
3208.076152640748
 20
1327.106832225919
 30
0.0
  0
POINT
  5
84E
330
65A
100
AcDbEntity
  8
Defpoints
  6
Continuous
 62
     7
100
AcDbPoint
 10
3499.703610640748
 20
1327.106832225919
 30
0.0
  0
LINE
  5
84F
330
65A
100
AcDbEntity
  8
SIZE
  6
Continuous
 62
    30
100
AcDbLine
 10
3228.076152640748
 20
1327.106832225919
 30
0.0
 11
3529.703610640748
 21
1327.106832225919
 31
0.0
  0
LINE
  5
850
330
65A
100
AcDbEntity
  8
SIZE
  6
Continuous
 62
    30
100
AcDbLine
 10
3228.076152640748
 20
1177.106951225919
 30
0.0
 11
3529.703610640748
 21
1177.106951225919
 31
0.0
  0
LINE
  5
851
330
65A
100
AcDbEntity
  8
SIZE
  6
Continuous
 62
    30
100
AcDbLine
 10
3499.703610640748
 20
1317.106832225919
 30
0.0
 11
3499.703610640748
 21
1187.106951225919
 31
0.0
  0
CIRCLE
  5
852
330
65A
100
AcDbEntity
  8
SIZE
  6
Continuous
 62
    30
100
AcDbCircle
 10
3499.703610640748
 20
1327.106832225919
 30
0.0
 40
5.0
  0
LINE
  5
853
330
65A
100
AcDbEntity
  8
SIZE
  6
Continuous
 62
    30
100
AcDbLine
 10
3499.703610640748
 20
1322.106832225919
 30
0.0
 11
3499.703610640748
 21
1317.106832225919
 31
0.0
  0
CIRCLE
  5
854
330
65A
100
AcDbEntity
  8
SIZE
  6
Continuous
 62
    30
100
AcDbCircle
 10
3499.703610640748
 20
1177.106951225919
 30
0.0
 40
5.0
  0
LINE
  5
855
330
65A
100
AcDbEntity
  8
SIZE
  6
Continuous
 62
    30
100
AcDbLine
 10
3499.703610640748
 20
1182.106951225919
 30
0.0
 11
3499.703610640748
 21
1187.106951225919
 31
0.0
  0
TEXT
  5
856
330
65A
100
AcDbEntity
  8
SIZE
  6
Continuous
 62
    30
100
AcDbText
 10
3484.703610640748
 20
1177.856892225919
 30
0.0
 40
55.0
  1
150
 50
90.0
 41
0.9
 72
     1
 11
3484.703610640748
 21
1252.106892225919
 31
0.0
100
AcDbText
  0
POINT
  5
857
330
65A
100
AcDbEntity
  8
Defpoints
  6
Continuous
 62
     7
100
AcDbPoint
 10
3208.076152640748
 20
1327.106832225919
 30
0.0
  0
POINT
  5
858
330
65A
100
AcDbEntity
  8
Defpoints
  6
Continuous
 62
     7
100
AcDbPoint
 10
3208.076152640748
 20
1177.106951225919
 30
0.0
  0
POINT
  5
859
330
65A
100
AcDbEntity
  8
Defpoints
  6
Continuous
 62
     7
100
AcDbPoint
 10
3499.703610640748
 20
1177.106951225919
 30
0.0
  0
LINE
  5
85A
330
65A
100
AcDbEntity
  8
SIZE
  6
Continuous
 62
    30
100
AcDbLine
 10
3228.076152640748
 20
1177.106951225919
 30
0.0
 11
3529.703610640748
 21
1177.106951225919
 31
0.0
  0
LINE
  5
85B
330
65A
100
AcDbEntity
  8
SIZE
  6
Continuous
 62
    30
100
AcDbLine
 10
3228.076152640748
 20
1027.106948225919
 30
0.0
 11
3529.703610640748
 21
1027.106948225919
 31
0.0
  0
LINE
  5
85C
330
65A
100
AcDbEntity
  8
SIZE
  6
Continuous
 62
    30
100
AcDbLine
 10
3499.703610640748
 20
1167.106951225919
 30
0.0
 11
3499.703610640748
 21
1037.106948225919
 31
0.0
  0
CIRCLE
  5
85D
330
65A
100
AcDbEntity
  8
SIZE
  6
Continuous
 62
    30
100
AcDbCircle
 10
3499.703610640748
 20
1177.106951225919
 30
0.0
 40
5.0
  0
LINE
  5
85E
330
65A
100
AcDbEntity
  8
SIZE
  6
Continuous
 62
    30
100
AcDbLine
 10
3499.703610640748
 20
1172.106951225919
 30
0.0
 11
3499.703610640748
 21
1167.106951225919
 31
0.0
  0
CIRCLE
  5
85F
330
65A
100
AcDbEntity
  8
SIZE
  6
Continuous
 62
    30
100
AcDbCircle
 10
3499.703610640748
 20
1027.106948225919
 30
0.0
 40
5.0
  0
LINE
  5
860
330
65A
100
AcDbEntity
  8
SIZE
  6
Continuous
 62
    30
100
AcDbLine
 10
3499.703610640748
 20
1032.106948225919
 30
0.0
 11
3499.703610640748
 21
1037.106948225919
 31
0.0
  0
TEXT
  5
861
330
65A
100
AcDbEntity
  8
SIZE
  6
Continuous
 62
    30
100
AcDbText
 10
3484.703610640748
 20
1027.856950225919
 30
0.0
 40
55.0
  1
150
 50
90.0
 41
0.9
 72
     1
 11
3484.703610640748
 21
1102.106950225919
 31
0.0
100
AcDbText
  0
POINT
  5
862
330
65A
100
AcDbEntity
  8
Defpoints
  6
Continuous
 62
     7
100
AcDbPoint
 10
3208.076152640748
 20
1177.106951225919
 30
0.0
  0
POINT
  5
863
330
65A
100
AcDbEntity
  8
Defpoints
  6
Continuous
 62
     7
100
AcDbPoint
 10
3208.076152640748
 20
1027.106948225919
 30
0.0
  0
POINT
  5
864
330
65A
100
AcDbEntity
  8
Defpoints
  6
Continuous
 62
     7
100
AcDbPoint
 10
3499.703610640748
 20
1027.106948225919
 30
0.0
  0
LINE
  5
865
330
65A
100
AcDbEntity
  8
SIZE
  6
Continuous
 62
    30
100
AcDbLine
 10
3228.076152640748
 20
1027.106948225919
 30
0.0
 11
3529.703610640748
 21
1027.106948225919
 31
0.0
  0
LINE
  5
866
330
65A
100
AcDbEntity
  8
SIZE
  6
Continuous
 62
    30
100
AcDbLine
 10
3228.076152640748
 20
877.1069462259191
 30
0.0
 11
3529.703610640748
 21
877.1069462259191
 31
0.0
  0
LINE
  5
867
330
65A
100
AcDbEntity
  8
SIZE
  6
Continuous
 62
    30
100
AcDbLine
 10
3499.703610640748
 20
1017.106948225919
 30
0.0
 11
3499.703610640748
 21
887.1069462259191
 31
0.0
  0
CIRCLE
  5
868
330
65A
100
AcDbEntity
  8
SIZE
  6
Continuous
 62
    30
100
AcDbCircle
 10
3499.703610640748
 20
1027.106948225919
 30
0.0
 40
5.0
  0
LINE
  5
869
330
65A
100
AcDbEntity
  8
SIZE
  6
Continuous
 62
    30
100
AcDbLine
 10
3499.703610640748
 20
1022.106948225919
 30
0.0
 11
3499.703610640748
 21
1017.106948225919
 31
0.0
  0
CIRCLE
  5
86A
330
65A
100
AcDbEntity
  8
SIZE
  6
Continuous
 62
    30
100
AcDbCircle
 10
3499.703610640748
 20
877.1069462259191
 30
0.0
 40
5.0
  0
LINE
  5
86B
330
65A
100
AcDbEntity
  8
SIZE
  6
Continuous
 62
    30
100
AcDbLine
 10
3499.703610640748
 20
882.1069462259192
 30
0.0
 11
3499.703610640748
 21
887.1069462259191
 31
0.0
  0
TEXT
  5
86C
330
65A
100
AcDbEntity
  8
SIZE
  6
Continuous
 62
    30
100
AcDbText
 10
3484.703610640748
 20
877.856947225919
 30
0.0
 40
55.0
  1
150
 50
90.0
 41
0.9
 72
     1
 11
3484.703610640748
 21
952.1069472259192
 31
0.0
100
AcDbText
  0
POINT
  5
86D
330
65A
100
AcDbEntity
  8
Defpoints
  6
Continuous
 62
     7
100
AcDbPoint
 10
3208.076152640748
 20
1027.106948225919
 30
0.0
  0
POINT
  5
86E
330
65A
100
AcDbEntity
  8
Defpoints
  6
Continuous
 62
     7
100
AcDbPoint
 10
3208.076152640748
 20
877.1069462259191
 30
0.0
  0
POINT
  5
86F
330
65A
100
AcDbEntity
  8
Defpoints
  6
Continuous
 62
     7
100
AcDbPoint
 10
3499.703610640748
 20
877.1069462259191
 30
0.0
  0
LINE
  5
870
330
65A
100
AcDbEntity
  8
SIZE
  6
Continuous
 62
    30
100
AcDbLine
 10
3228.076152640748
 20
877.1069462259191
 30
0.0
 11
3530.061100640748
 21
877.1069462259191
 31
0.0
  0
LINE
  5
871
330
65A
100
AcDbEntity
  8
SIZE
  6
Continuous
 62
    30
100
AcDbLine
 10
3166.419291640748
 20
797.1069442259191
 30
0.0
 11
3530.061100640748
 21
797.1069442259191
 31
0.0
  0
LINE
  5
872
330
65A
100
AcDbEntity
  8
SIZE
  6
Continuous
 62
    30
100
AcDbLine
 10
3500.061100640748
 20
867.1069462259191
 30
0.0
 11
3500.061100640748
 21
807.1069442259192
 31
0.0
  0
LINE
  5
873
330
65A
100
AcDbEntity
  8
SIZE
  6
Continuous
 62
    30
100
AcDbLine
 10
3500.061100640748
 20
797.1069442259191
 30
0.0
 11
3500.061100640748
 21
665.7725472259191
 31
0.0
  0
CIRCLE
  5
874
330
65A
100
AcDbEntity
  8
SIZE
  6
Continuous
 62
    30
100
AcDbCircle
 10
3500.061100640748
 20
877.1069462259191
 30
0.0
 40
5.0
  0
LINE
  5
875
330
65A
100
AcDbEntity
  8
SIZE
  6
Continuous
 62
    30
100
AcDbLine
 10
3500.061100640748
 20
872.1069462259192
 30
0.0
 11
3500.061100640748
 21
867.1069462259191
 31
0.0
  0
CIRCLE
  5
876
330
65A
100
AcDbEntity
  8
SIZE
  6
Continuous
 62
    30
100
AcDbCircle
 10
3500.061100640748
 20
797.1069442259191
 30
0.0
 40
5.0
  0
LINE
  5
877
330
65A
100
AcDbEntity
  8
SIZE
  6
Continuous
 62
    30
100
AcDbLine
 10
3500.061100640748
 20
802.1069442259191
 30
0.0
 11
3500.061100640748
 21
807.1069442259192
 31
0.0
  0
TEXT
  5
878
330
65A
100
AcDbEntity
  8
SIZE
  6
Continuous
 62
    30
100
AcDbText
 10
3485.061100640749
 20
673.701118083062
 30
0.0
 40
55.0
  1
80
 50
90.0
 41
0.9
 72
     1
 11
3485.061100640749
 21
720.8439752259192
 31
0.0
100
AcDbText
  0
POINT
  5
879
330
65A
100
AcDbEntity
  8
Defpoints
  6
Continuous
 62
     7
100
AcDbPoint
 10
3208.076152640748
 20
877.1069462259191
 30
0.0
  0
POINT
  5
87A
330
65A
100
AcDbEntity
  8
Defpoints
  6
Continuous
 62
     7
100
AcDbPoint
 10
3146.419291640748
 20
797.1069442259191
 30
0.0
  0
POINT
  5
87B
330
65A
100
AcDbEntity
  8
Defpoints
  6
Continuous
 62
     7
100
AcDbPoint
 10
3500.061100640748
 20
797.1069442259191
 30
0.0
  0
LINE
  5
87C
330
65A
100
AcDbEntity
  8
SIZE
  6
Continuous
 62
    30
100
AcDbLine
 10
3166.419330640748
 20
797.1069442259191
 30
0.0
 11
3701.762631640748
 21
797.1069442259191
 31
0.0
  0
LINE
  5
87D
330
65A
100
AcDbEntity
  8
SIZE
  6
Continuous
 62
    30
100
AcDbLine
 10
3166.419330640748
 20
1557.107080225919
 30
0.0
 11
3701.762631640748
 21
1557.107080225919
 31
0.0
  0
LINE
  5
87E
330
65A
100
AcDbEntity
  8
SIZE
  6
Continuous
 62
    30
100
AcDbLine
 10
3671.762631640748
 20
807.1069442259192
 30
0.0
 11
3671.762631640748
 21
1547.107080225919
 31
0.0
  0
CIRCLE
  5
87F
330
65A
100
AcDbEntity
  8
SIZE
  6
Continuous
 62
    30
100
AcDbCircle
 10
3671.762631640748
 20
797.1069442259191
 30
0.0
 40
5.0
  0
LINE
  5
880
330
65A
100
AcDbEntity
  8
SIZE
  6
Continuous
 62
    30
100
AcDbLine
 10
3671.762631640748
 20
802.1069442259191
 30
0.0
 11
3671.762631640748
 21
807.1069442259192
 31
0.0
  0
CIRCLE
  5
881
330
65A
100
AcDbEntity
  8
SIZE
  6
Continuous
 62
    30
100
AcDbCircle
 10
3671.762631640748
 20
1557.107080225919
 30
0.0
 40
5.0
  0
LINE
  5
882
330
65A
100
AcDbEntity
  8
SIZE
  6
Continuous
 62
    30
100
AcDbLine
 10
3671.762631640748
 20
1552.107080225919
 30
0.0
 11
3671.762631640748
 21
1547.107080225919
 31
0.0
  0
TEXT
  5
883
330
65A
100
AcDbEntity
  8
SIZE
  6
Continuous
 62
    30
100
AcDbText
 10
3656.762631640748
 20
1090.800055511633
 30
0.0
 40
55.0
  1
760
 50
90.0
 41
0.9
 72
     1
 11
3656.762631640748
 21
1161.514341225919
 31
0.0
100
AcDbText
  0
POINT
  5
884
330
65A
100
AcDbEntity
  8
Defpoints
  6
Continuous
 62
     7
100
AcDbPoint
 10
3146.419330640748
 20
797.1069442259191
 30
0.0
  0
POINT
  5
885
330
65A
100
AcDbEntity
  8
Defpoints
  6
Continuous
 62
     7
100
AcDbPoint
 10
3146.419330640748
 20
1557.107080225919
 30
0.0
  0
POINT
  5
886
330
65A
100
AcDbEntity
  8
Defpoints
  6
Continuous
 62
     7
100
AcDbPoint
 10
3671.762631640748
 20
1557.107080225919
 30
0.0
  0
LINE
  5
887
330
65A
100
AcDbEntity
  8
NOTE
  6
Continuous
 62
     4
100
AcDbLine
 10
3179.076244640748
 20
1477.106851225919
 30
0.0
 11
3204.082336640748
 21
1499.147870225919
 31
0.0
  0
LINE
  5
888
330
65A
100
AcDbEntity
  8
NOTE
  6
Continuous
 62
     4
100
AcDbLine
 10
3179.076244640748
 20
1477.106851225919
 30
0.0
 11
3189.711645640748
 21
1508.697979225919
 31
0.0
  0
LINE
  5
889
330
65A
100
AcDbEntity
  8
NOTE
  6
Continuous
 62
     4
100
AcDbLine
 10
3340.832436640748
 20
1720.512250225919
 30
0.0
 11
3179.076244640748
 21
1477.106851225919
 31
0.0
  0
LINE
  5
88A
330
65A
100
AcDbEntity
  8
NOTE
  6
Continuous
 62
     4
100
AcDbLine
 10
3957.304717640748
 20
1720.512250225919
 30
0.0
 11
3340.832436640748
 21
1720.512250225919
 31
0.0
  0
LINE
  5
88B
330
65A
100
AcDbEntity
  8
BASIS
  6
DASHDOT
 62
     6
100
AcDbLine
 10
1962.076163640748
 20
730.6231842259192
 30
0.0
 11
1962.076163640748
 21
1623.590358225919
 31
0.0
  0
LINE
  5
88C
330
65A
100
AcDbEntity
  8
ARRANGE
  6
Continuous
 62
     1
100
AcDbLine
 10
1999.973484640747
 20
1139.209450225919
 30
0.0
 11
1924.178842640747
 21
1215.004092225919
 31
0.0
  0
LINE
  5
88D
330
65A
100
AcDbEntity
  8
ARRANGE
  6
Continuous
 62
     1
100
AcDbLine
 10
1999.973484640747
 20
1215.004092225919
 30
0.0
 11
1924.178842640747
 21
1139.209450225919
 31
0.0
  0
CIRCLE
  5
88E
330
65A
100
AcDbEntity
  8
ARRANGE
  6
Continuous
 62
     1
100
AcDbCircle
 10
1962.076163640748
 20
1177.106771225919
 30
0.0
 40
34.449674
  0
LINE
  5
88F
330
65A
100
AcDbEntity
  8
SIZE
  6
Continuous
 62
    30
100
AcDbLine
 10
3197.076172640748
 20
1526.449923225919
 30
0.0
 11
3197.076172640748
 21
1856.220898225919
 31
0.0
  0
LINE
  5
890
330
65A
100
AcDbEntity
  8
SIZE
  6
Continuous
 62
    30
100
AcDbLine
 10
3179.076171640748
 20
1526.106777225919
 30
0.0
 11
3179.076171640748
 21
1856.220898225919
 31
0.0
  0
LINE
  5
891
330
65A
100
AcDbEntity
  8
SIZE
  6
Continuous
 62
    30
100
AcDbLine
 10
3169.076171640748
 20
1826.220898225919
 30
0.0
 11
3159.076171640748
 21
1826.220898225919
 31
0.0
  0
LINE
  5
892
330
65A
100
AcDbEntity
  8
SIZE
  6
Continuous
 62
    30
100
AcDbLine
 10
3207.076172640749
 20
1826.220898225919
 30
0.0
 11
3317.790457640748
 21
1826.220898225919
 31
0.0
  0
LINE
  5
893
330
65A
100
AcDbEntity
  8
SIZE
  6
Continuous
 62
    30
100
AcDbLine
 10
3179.076171640748
 20
1826.220898225919
 30
0.0
 11
3197.076172640748
 21
1826.220898225919
 31
0.0
  0
CIRCLE
  5
894
330
65A
100
AcDbEntity
  8
SIZE
  6
Continuous
 62
    30
100
AcDbCircle
 10
3179.076171640748
 20
1826.220898225919
 30
0.0
 40
5.0
  0
LINE
  5
895
330
65A
100
AcDbEntity
  8
SIZE
  6
Continuous
 62
    30
100
AcDbLine
 10
3174.076171640748
 20
1826.220898225919
 30
0.0
 11
3169.076171640748
 21
1826.220898225919
 31
0.0
  0
CIRCLE
  5
896
330
65A
100
AcDbEntity
  8
SIZE
  6
Continuous
 62
    30
100
AcDbCircle
 10
3197.076172640748
 20
1826.220898225919
 30
0.0
 40
5.0
  0
LINE
  5
897
330
65A
100
AcDbEntity
  8
SIZE
  6
Continuous
 62
    30
100
AcDbLine
 10
3202.076172640749
 20
1826.220898225919
 30
0.0
 11
3207.076172640749
 21
1826.220898225919
 31
0.0
  0
TEXT
  5
898
330
65A
100
AcDbEntity
  8
SIZE
  6
Continuous
 62
    30
100
AcDbText
 10
3216.754743212177
 20
1841.220898225919
 30
0.0
 40
55.0
  1
18
 41
0.9
 72
     1
 11
3267.433314640748
 21
1841.220898225919
 31
0.0
100
AcDbText
  0
POINT
  5
899
330
65A
100
AcDbEntity
  8
Defpoints
  6
Continuous
 62
     7
100
AcDbPoint
 10
3197.076172640748
 20
1506.449923225919
 30
0.0
  0
POINT
  5
89A
330
65A
100
AcDbEntity
  8
Defpoints
  6
Continuous
 62
     7
100
AcDbPoint
 10
3179.076171640748
 20
1506.106777225919
 30
0.0
  0
POINT
  5
89B
330
65A
100
AcDbEntity
  8
Defpoints
  6
Continuous
 62
     7
100
AcDbPoint
 10
3179.076171640748
 20
1826.220898225919
 30
0.0
  0
LINE
  5
89C
330
65A
100
AcDbEntity
  8
SIZE
  6
Continuous
 62
    30
100
AcDbLine
 10
3179.076171640748
 20
1526.106777225919
 30
0.0
 11
3179.076171640748
 21
1856.220898225919
 31
0.0
  0
LINE
  5
89D
330
65A
100
AcDbEntity
  8
SIZE
  6
Continuous
 62
    30
100
AcDbLine
 10
1995.076155640748
 20
1526.106777225919
 30
0.0
 11
1995.076155640748
 21
1856.220898225919
 31
0.0
  0
LINE
  5
89E
330
65A
100
AcDbEntity
  8
SIZE
  6
Continuous
 62
    30
100
AcDbLine
 10
3169.076171640748
 20
1826.220898225919
 30
0.0
 11
2005.076155640748
 21
1826.220898225919
 31
0.0
  0
CIRCLE
  5
89F
330
65A
100
AcDbEntity
  8
SIZE
  6
Continuous
 62
    30
100
AcDbCircle
 10
3179.076171640748
 20
1826.220898225919
 30
0.0
 40
5.0
  0
LINE
  5
8A0
330
65A
100
AcDbEntity
  8
SIZE
  6
Continuous
 62
    30
100
AcDbLine
 10
3174.076171640748
 20
1826.220898225919
 30
0.0
 11
3169.076171640748
 21
1826.220898225919
 31
0.0
  0
CIRCLE
  5
8A1
330
65A
100
AcDbEntity
  8
SIZE
  6
Continuous
 62
    30
100
AcDbCircle
 10
1995.076155640748
 20
1826.220898225919
 30
0.0
 40
5.0
  0
LINE
  5
8A2
330
65A
100
AcDbEntity
  8
SIZE
  6
Continuous
 62
    30
100
AcDbLine
 10
2000.076155640748
 20
1826.220898225919
 30
0.0
 11
2005.076155640748
 21
1826.220898225919
 31
0.0
  0
TEXT
  5
8A3
330
65A
100
AcDbEntity
  8
SIZE
  6
Continuous
 62
    30
100
AcDbText
 10
2459.790449355034
 20
1840.625660225919
 30
0.0
 40
55.0
  1
(1184)
 41
0.9
 72
     1
 11
2587.076163640748
 21
1840.625660225919
 31
0.0
100
AcDbText
  0
POINT
  5
8A4
330
65A
100
AcDbEntity
  8
Defpoints
  6
Continuous
 62
     7
100
AcDbPoint
 10
3179.076171640748
 20
1506.106777225919
 30
0.0
  0
POINT
  5
8A5
330
65A
100
AcDbEntity
  8
Defpoints
  6
Continuous
 62
     7
100
AcDbPoint
 10
1995.076155640748
 20
1506.106777225919
 30
0.0
  0
POINT
  5
8A6
330
65A
100
AcDbEntity
  8
Defpoints
  6
Continuous
 62
     7
100
AcDbPoint
 10
1995.076155640748
 20
1826.220898225919
 30
0.0
  0
LINE
  5
8A7
330
65A
100
AcDbEntity
  8
SIZE
  6
Continuous
 62
    30
100
AcDbLine
 10
1995.076155640748
 20
1526.106777225919
 30
0.0
 11
1995.076155640748
 21
1856.220898225919
 31
0.0
  0
LINE
  5
8A8
330
65A
100
AcDbEntity
  8
SIZE
  6
Continuous
 62
    30
100
AcDbLine
 10
1977.076154640748
 20
1526.449923225919
 30
0.0
 11
1977.076154640748
 21
1856.220898225919
 31
0.0
  0
LINE
  5
8A9
330
65A
100
AcDbEntity
  8
SIZE
  6
Continuous
 62
    30
100
AcDbLine
 10
2005.076155640748
 20
1826.220898225919
 30
0.0
 11
2015.076155640748
 21
1826.220898225919
 31
0.0
  0
LINE
  5
8AA
330
65A
100
AcDbEntity
  8
SIZE
  6
Continuous
 62
    30
100
AcDbLine
 10
1967.076154640747
 20
1826.220898225919
 30
0.0
 11
1957.076154640748
 21
1826.220898225919
 31
0.0
  0
LINE
  5
8AB
330
65A
100
AcDbEntity
  8
SIZE
  6
Continuous
 62
    30
100
AcDbLine
 10
1986.076155640748
 20
1826.220898225919
 30
0.0
 11
2043.284786640748
 21
1687.666333225919
 31
0.0
  0
LINE
  5
8AC
330
65A
100
AcDbEntity
  8
SIZE
  6
Continuous
 62
    30
100
AcDbLine
 10
2043.284786640748
 20
1687.666333225919
 30
0.0
 11
2143.999072640748
 21
1687.666333225919
 31
0.0
  0
TEXT
  5
8AD
330
65A
100
AcDbEntity
  8
SIZE
  6
Continuous
 62
    30
100
AcDbText
 10
2042.963358212177
 20
1702.666333225919
 30
0.0
 40
55.0
  1
18
 41
0.9
 72
     1
 11
2093.641929640748
 21
1702.666333225919
 31
0.0
100
AcDbText
  0
LINE
  5
8AE
330
65A
100
AcDbEntity
  8
SIZE
  6
Continuous
 62
    30
100
AcDbLine
 10
1995.076155640748
 20
1826.220898225919
 30
0.0
 11
1977.076154640748
 21
1826.220898225919
 31
0.0
  0
LINE
  5
8AF
330
65A
100
AcDbEntity
  8
SIZE
  6
Continuous
 62
    30
100
AcDbLine
 10
1995.076155640748
 20
1826.220898225919
 30
0.0
 11
1977.076154640748
 21
1826.220898225919
 31
0.0
  0
CIRCLE
  5
8B0
330
65A
100
AcDbEntity
  8
SIZE
  6
Continuous
 62
    30
100
AcDbCircle
 10
1995.076155640748
 20
1826.220898225919
 30
0.0
 40
5.0
  0
LINE
  5
8B1
330
65A
100
AcDbEntity
  8
SIZE
  6
Continuous
 62
    30
100
AcDbLine
 10
2000.076155640748
 20
1826.220898225919
 30
0.0
 11
2005.076155640748
 21
1826.220898225919
 31
0.0
  0
CIRCLE
  5
8B2
330
65A
100
AcDbEntity
  8
SIZE
  6
Continuous
 62
    30
100
AcDbCircle
 10
1977.076154640748
 20
1826.220898225919
 30
0.0
 40
5.0
  0
LINE
  5
8B3
330
65A
100
AcDbEntity
  8
SIZE
  6
Continuous
 62
    30
100
AcDbLine
 10
1972.076154640747
 20
1826.220898225919
 30
0.0
 11
1967.076154640747
 21
1826.220898225919
 31
0.0
  0
POINT
  5
8B4
330
65A
100
AcDbEntity
  8
Defpoints
  6
Continuous
 62
     7
100
AcDbPoint
 10
1995.076155640748
 20
1506.106777225919
 30
0.0
  0
POINT
  5
8B5
330
65A
100
AcDbEntity
  8
Defpoints
  6
Continuous
 62
     7
100
AcDbPoint
 10
1977.076154640748
 20
1506.449923225919
 30
0.0
  0
POINT
  5
8B6
330
65A
100
AcDbEntity
  8
Defpoints
  6
Continuous
 62
     7
100
AcDbPoint
 10
1977.076154640748
 20
1826.220898225919
 30
0.0
  0
LINE
  5
8B7
330
65A
100
AcDbEntity
  8
SIZE
  6
Continuous
 62
    30
100
AcDbLine
 10
3197.076172640748
 20
1526.449923225919
 30
0.0
 11
3197.076172640748
 21
2019.820380225919
 31
0.0
  0
LINE
  5
8B8
330
65A
100
AcDbEntity
  8
SIZE
  6
Continuous
 62
    30
100
AcDbLine
 10
1977.076154640748
 20
1526.449923225919
 30
0.0
 11
1977.076154640748
 21
2019.820380225919
 31
0.0
  0
LINE
  5
8B9
330
65A
100
AcDbEntity
  8
SIZE
  6
Continuous
 62
    30
100
AcDbLine
 10
3187.076172640749
 20
1989.820380225919
 30
0.0
 11
1987.076154640748
 21
1989.820380225919
 31
0.0
  0
CIRCLE
  5
8BA
330
65A
100
AcDbEntity
  8
SIZE
  6
Continuous
 62
    30
100
AcDbCircle
 10
3197.076172640748
 20
1989.820380225919
 30
0.0
 40
5.0
  0
LINE
  5
8BB
330
65A
100
AcDbEntity
  8
SIZE
  6
Continuous
 62
    30
100
AcDbLine
 10
3192.076172640748
 20
1989.820380225919
 30
0.0
 11
3187.076172640749
 21
1989.820380225919
 31
0.0
  0
CIRCLE
  5
8BC
330
65A
100
AcDbEntity
  8
SIZE
  6
Continuous
 62
    30
100
AcDbCircle
 10
1977.076154640748
 20
1989.820380225919
 30
0.0
 40
5.0
  0
LINE
  5
8BD
330
65A
100
AcDbEntity
  8
SIZE
  6
Continuous
 62
    30
100
AcDbLine
 10
1982.076154640748
 20
1989.820380225919
 30
0.0
 11
1987.076154640748
 21
1989.820380225919
 31
0.0
  0
TEXT
  5
8BE
330
65A
100
AcDbEntity
  8
SIZE
  6
Continuous
 62
    30
100
AcDbText
 10
2489.25473506932
 20
2004.820380225919
 30
0.0
 40
55.0
  1
1220
 41
0.9
 72
     1
 11
2587.076163640748
 21
2004.820380225919
 31
0.0
100
AcDbText
  0
POINT
  5
8BF
330
65A
100
AcDbEntity
  8
Defpoints
  6
Continuous
 62
     7
100
AcDbPoint
 10
3197.076172640748
 20
1506.449923225919
 30
0.0
  0
POINT
  5
8C0
330
65A
100
AcDbEntity
  8
Defpoints
  6
Continuous
 62
     7
100
AcDbPoint
 10
1977.076154640748
 20
1506.449923225919
 30
0.0
  0
POINT
  5
8C1
330
65A
100
AcDbEntity
  8
Defpoints
  6
Continuous
 62
     7
100
AcDbPoint
 10
1977.076154640748
 20
1989.820380225919
 30
0.0
  0
LINE
  5
8C2
330
65A
100
AcDbEntity
  8
SIZE
  6
Continuous
 62
    30
100
AcDbLine
 10
2409.076161640748
 20
939.1067642259191
 30
0.0
 11
3318.545926640748
 21
939.1067642259191
 31
0.0
  0
LINE
  5
8C3
330
65A
100
AcDbEntity
  8
SIZE
  6
Continuous
 62
    30
100
AcDbLine
 10
3166.419316640748
 20
797.1067642259192
 30
0.0
 11
3318.545926640748
 21
797.1067642259192
 31
0.0
  0
LINE
  5
8C4
330
65A
100
AcDbEntity
  8
SIZE
  6
Continuous
 62
    30
100
AcDbLine
 10
3288.545926640748
 20
929.1067642259191
 30
0.0
 11
3288.545926640748
 21
807.106764225919
 31
0.0
  0
LINE
  5
8C5
330
65A
100
AcDbEntity
  8
SIZE
  6
Continuous
 62
    30
100
AcDbLine
 10
3288.545926640748
 20
797.1067642259192
 30
0.0
 11
3288.545926640748
 21
639.2496212259191
 31
0.0
  0
CIRCLE
  5
8C6
330
65A
100
AcDbEntity
  8
SIZE
  6
Continuous
 62
    30
100
AcDbCircle
 10
3288.545926640748
 20
939.1067642259191
 30
0.0
 40
5.0
  0
LINE
  5
8C7
330
65A
100
AcDbEntity
  8
SIZE
  6
Continuous
 62
    30
100
AcDbLine
 10
3288.545926640748
 20
934.1067642259192
 30
0.0
 11
3288.545926640748
 21
929.1067642259191
 31
0.0
  0
CIRCLE
  5
8C8
330
65A
100
AcDbEntity
  8
SIZE
  6
Continuous
 62
    30
100
AcDbCircle
 10
3288.545926640748
 20
797.1067642259192
 30
0.0
 40
5.0
  0
LINE
  5
8C9
330
65A
100
AcDbEntity
  8
SIZE
  6
Continuous
 62
    30
100
AcDbLine
 10
3288.545926640748
 20
802.1067642259191
 30
0.0
 11
3288.545926640748
 21
807.106764225919
 31
0.0
  0
TEXT
  5
8CA
330
65A
100
AcDbEntity
  8
SIZE
  6
Continuous
 62
    30
100
AcDbText
 10
3273.545926640748
 20
638.9281932259191
 30
0.0
 40
55.0
  1
142
 50
90.0
 41
0.9
 72
     1
 11
3273.545926640748
 21
713.1781932259191
 31
0.0
100
AcDbText
  0
POINT
  5
8CB
330
65A
100
AcDbEntity
  8
Defpoints
  6
Continuous
 62
     7
100
AcDbPoint
 10
2389.076161640748
 20
939.1067642259191
 30
0.0
  0
POINT
  5
8CC
330
65A
100
AcDbEntity
  8
Defpoints
  6
Continuous
 62
     7
100
AcDbPoint
 10
3146.419316640748
 20
797.1067642259192
 30
0.0
  0
POINT
  5
8CD
330
65A
100
AcDbEntity
  8
Defpoints
  6
Continuous
 62
     7
100
AcDbPoint
 10
3288.545926640748
 20
797.1067642259192
 30
0.0
  0
LINE
  5
8CE
330
65A
100
AcDbEntity
  8
SIZE
  6
Continuous
 62
    30
100
AcDbLine
 10
3166.419316640748
 20
797.1067642259192
 30
0.0
 11
3417.052121640748
 21
797.1067642259192
 31
0.0
  0
LINE
  5
8CF
330
65A
100
AcDbEntity
  8
SIZE
  6
Continuous
 62
    30
100
AcDbLine
 10
2317.826159640748
 20
942.1067642259192
 30
0.0
 11
3417.052121640748
 21
942.1067642259192
 31
0.0
  0
LINE
  5
8D0
330
65A
100
AcDbEntity
  8
SIZE
  6
Continuous
 62
    30
100
AcDbLine
 10
3387.052121640748
 20
932.1067642259192
 30
0.0
 11
3387.052121640748
 21
807.106764225919
 31
0.0
  0
LINE
  5
8D1
330
65A
100
AcDbEntity
  8
SIZE
  6
Continuous
 62
    30
100
AcDbLine
 10
3387.052121640748
 20
797.1067642259192
 30
0.0
 11
3387.052121640748
 21
639.2496212259191
 31
0.0
  0
CIRCLE
  5
8D2
330
65A
100
AcDbEntity
  8
SIZE
  6
Continuous
 62
    30
100
AcDbCircle
 10
3387.052121640748
 20
942.1067642259192
 30
0.0
 40
5.0
  0
LINE
  5
8D3
330
65A
100
AcDbEntity
  8
SIZE
  6
Continuous
 62
    30
100
AcDbLine
 10
3387.052121640748
 20
937.1067642259191
 30
0.0
 11
3387.052121640748
 21
932.1067642259192
 31
0.0
  0
CIRCLE
  5
8D4
330
65A
100
AcDbEntity
  8
SIZE
  6
Continuous
 62
    30
100
AcDbCircle
 10
3387.052121640748
 20
797.1067642259192
 30
0.0
 40
5.0
  0
LINE
  5
8D5
330
65A
100
AcDbEntity
  8
SIZE
  6
Continuous
 62
    30
100
AcDbLine
 10
3387.052121640748
 20
802.1067642259191
 30
0.0
 11
3387.052121640748
 21
807.106764225919
 31
0.0
  0
TEXT
  5
8D6
330
65A
100
AcDbEntity
  8
SIZE
  6
Continuous
 62
    30
100
AcDbText
 10
3372.052121640748
 20
638.9281932259191
 30
0.0
 40
55.0
  1
145
 50
90.0
 41
0.9
 72
     1
 11
3372.052121640748
 21
713.1781932259191
 31
0.0
100
AcDbText
  0
POINT
  5
8D7
330
65A
100
AcDbEntity
  8
Defpoints
  6
Continuous
 62
     7
100
AcDbPoint
 10
3146.419316640748
 20
797.1067642259192
 30
0.0
  0
POINT
  5
8D8
330
65A
100
AcDbEntity
  8
Defpoints
  6
Continuous
 62
     7
100
AcDbPoint
 10
2297.826159640748
 20
942.1067642259192
 30
0.0
  0
POINT
  5
8D9
330
65A
100
AcDbEntity
  8
Defpoints
  6
Continuous
 62
     7
100
AcDbPoint
 10
3387.052121640748
 20
942.1067642259192
 30
0.0
  0
TEXT
  5
8DA
330
65A
100
AcDbEntity
  8
NOTE
  6
Continuous
 62
     4
100
AcDbText
 10
1251.069839640748
 20
1650.887326225919
 30
0.0
 40
55.0
  1
空気吸込
 50
359.999997
 41
0.703125
  7
STANDARD1
100
AcDbText
  0
LINE
  5
8DB
330
65A
100
AcDbEntity
  8
NOTE
  6
Continuous
 62
     4
100
AcDbLine
 10
1160.345865640748
 20
1627.963892225919
 30
0.0
 11
1210.345866640748
 21
1677.859938225919
 31
0.0
  0
LINE
  5
8DC
330
65A
100
AcDbEntity
  8
NOTE
  6
Continuous
 62
     4
100
AcDbLine
 10
1110.345864640748
 20
1677.859938225919
 30
0.0
 11
1160.345865640748
 21
1627.963892225919
 31
0.0
  0
LINE
  5
8DD
330
65A
100
AcDbEntity
  8
NOTE
  6
Continuous
 62
     4
100
AcDbLine
 10
1110.345864640748
 20
1677.859938225919
 30
0.0
 11
1135.345865640748
 21
1677.859938225919
 31
0.0
  0
LINE
  5
8DE
330
65A
100
AcDbEntity
  8
NOTE
  6
Continuous
 62
     4
100
AcDbLine
 10
1185.345866640748
 20
1677.859938225919
 30
0.0
 11
1210.345866640748
 21
1677.859938225919
 31
0.0
  0
LINE
  5
8DF
330
65A
100
AcDbEntity
  8
NOTE
  6
Continuous
 62
     4
100
AcDbLine
 10
1185.345866640748
 20
1677.859938225919
 30
0.0
 11
1185.345866640748
 21
1718.546026225919
 31
0.0
  0
LINE
  5
8E0
330
65A
100
AcDbEntity
  8
NOTE
  6
Continuous
 62
     4
100
AcDbLine
 10
1135.345865640748
 20
1677.859938225919
 30
0.0
 11
1135.345865640748
 21
1718.546026225919
 31
0.0
  0
LINE
  5
8E1
330
65A
100
AcDbEntity
  8
NOTE
  6
Continuous
 62
     4
100
AcDbLine
 10
1185.345866640748
 20
1718.546026225919
 30
0.0
 11
1135.345865640748
 21
1718.546026225919
 31
0.0
  0
LINE
  5
8E2
330
65A
100
AcDbEntity
  8
NOTE
  6
Continuous
 62
     4
100
AcDbLine
 10
1491.997660640748
 20
1718.546026225919
 30
0.0
 11
1541.997661640748
 21
1718.546026225919
 31
0.0
  0
LINE
  5
8E3
330
65A
100
AcDbEntity
  8
NOTE
  6
Continuous
 62
     4
100
AcDbLine
 10
1541.997661640748
 20
1677.859938225919
 30
0.0
 11
1541.997661640748
 21
1718.546026225919
 31
0.0
  0
LINE
  5
8E4
330
65A
100
AcDbEntity
  8
NOTE
  6
Continuous
 62
     4
100
AcDbLine
 10
1491.997660640748
 20
1677.859938225919
 30
0.0
 11
1491.997660640748
 21
1718.546026225919
 31
0.0
  0
LINE
  5
8E5
330
65A
100
AcDbEntity
  8
NOTE
  6
Continuous
 62
     4
100
AcDbLine
 10
1491.997660640748
 20
1677.859938225919
 30
0.0
 11
1466.997660640748
 21
1677.859938225919
 31
0.0
  0
LINE
  5
8E6
330
65A
100
AcDbEntity
  8
NOTE
  6
Continuous
 62
     4
100
AcDbLine
 10
1566.997662640748
 20
1677.859938225919
 30
0.0
 11
1541.997661640748
 21
1677.859938225919
 31
0.0
  0
LINE
  5
8E7
330
65A
100
AcDbEntity
  8
NOTE
  6
Continuous
 62
     4
100
AcDbLine
 10
1566.997662640748
 20
1677.859938225919
 30
0.0
 11
1516.997661640748
 21
1627.963892225919
 31
0.0
  0
LINE
  5
8E8
330
65A
100
AcDbEntity
  8
NOTE
  6
Continuous
 62
     4
100
AcDbLine
 10
1516.997661640748
 20
1627.963892225919
 30
0.0
 11
1466.997660640748
 21
1677.859938225919
 31
0.0
  0
TEXT
  5
8E9
330
65A
100
AcDbEntity
  8
NOTE
  6
Continuous
 62
     4
100
AcDbText
 10
2501.069839640748
 20
1650.887326225919
 30
0.0
 40
55.0
  1
空気吸込
 50
359.999997
 41
0.703125
  7
STANDARD1
100
AcDbText
  0
LINE
  5
8EA
330
65A
100
AcDbEntity
  8
NOTE
  6
Continuous
 62
     4
100
AcDbLine
 10
2410.345865640748
 20
1627.963892225919
 30
0.0
 11
2460.345866640748
 21
1677.859938225919
 31
0.0
  0
LINE
  5
8EB
330
65A
100
AcDbEntity
  8
NOTE
  6
Continuous
 62
     4
100
AcDbLine
 10
2360.345864640748
 20
1677.859938225919
 30
0.0
 11
2410.345865640748
 21
1627.963892225919
 31
0.0
  0
LINE
  5
8EC
330
65A
100
AcDbEntity
  8
NOTE
  6
Continuous
 62
     4
100
AcDbLine
 10
2360.345864640748
 20
1677.859938225919
 30
0.0
 11
2385.345865640748
 21
1677.859938225919
 31
0.0
  0
LINE
  5
8ED
330
65A
100
AcDbEntity
  8
NOTE
  6
Continuous
 62
     4
100
AcDbLine
 10
2435.345866640748
 20
1677.859938225919
 30
0.0
 11
2460.345866640748
 21
1677.859938225919
 31
0.0
  0
LINE
  5
8EE
330
65A
100
AcDbEntity
  8
NOTE
  6
Continuous
 62
     4
100
AcDbLine
 10
2435.345866640748
 20
1677.859938225919
 30
0.0
 11
2435.345866640748
 21
1718.546026225919
 31
0.0
  0
LINE
  5
8EF
330
65A
100
AcDbEntity
  8
NOTE
  6
Continuous
 62
     4
100
AcDbLine
 10
2385.345865640748
 20
1677.859938225919
 30
0.0
 11
2385.345865640748
 21
1718.546026225919
 31
0.0
  0
LINE
  5
8F0
330
65A
100
AcDbEntity
  8
NOTE
  6
Continuous
 62
     4
100
AcDbLine
 10
2435.345866640748
 20
1718.546026225919
 30
0.0
 11
2385.345865640748
 21
1718.546026225919
 31
0.0
  0
LINE
  5
8F1
330
65A
100
AcDbEntity
  8
NOTE
  6
Continuous
 62
     4
100
AcDbLine
 10
2741.997660640748
 20
1718.546026225919
 30
0.0
 11
2791.997661640748
 21
1718.546026225919
 31
0.0
  0
LINE
  5
8F2
330
65A
100
AcDbEntity
  8
NOTE
  6
Continuous
 62
     4
100
AcDbLine
 10
2791.997661640748
 20
1677.859938225919
 30
0.0
 11
2791.997661640748
 21
1718.546026225919
 31
0.0
  0
LINE
  5
8F3
330
65A
100
AcDbEntity
  8
NOTE
  6
Continuous
 62
     4
100
AcDbLine
 10
2741.997660640748
 20
1677.859938225919
 30
0.0
 11
2741.997660640748
 21
1718.546026225919
 31
0.0
  0
LINE
  5
8F4
330
65A
100
AcDbEntity
  8
NOTE
  6
Continuous
 62
     4
100
AcDbLine
 10
2741.997660640748
 20
1677.859938225919
 30
0.0
 11
2716.997660640748
 21
1677.859938225919
 31
0.0
  0
LINE
  5
8F5
330
65A
100
AcDbEntity
  8
NOTE
  6
Continuous
 62
     4
100
AcDbLine
 10
2816.997662640748
 20
1677.859938225919
 30
0.0
 11
2791.997661640748
 21
1677.859938225919
 31
0.0
  0
LINE
  5
8F6
330
65A
100
AcDbEntity
  8
NOTE
  6
Continuous
 62
     4
100
AcDbLine
 10
2816.997662640748
 20
1677.859938225919
 30
0.0
 11
2766.997661640748
 21
1627.963892225919
 31
0.0
  0
LINE
  5
8F7
330
65A
100
AcDbEntity
  8
NOTE
  6
Continuous
 62
     4
100
AcDbLine
 10
2766.997661640748
 20
1627.963892225919
 30
0.0
 11
2716.997660640748
 21
1677.859938225919
 31
0.0
  0
LINE
  5
8F8
330
65A
100
AcDbEntity
  8
BASIS
  6
DASHDOT
 62
     6
100
AcDbLine
 10
1858.529689797544
 20
-0.0000048578165206
 30
0.0
 11
1858.529689797544
 21
637.6258977136954
 31
0.0
  0
LINE
  5
8F9
330
65A
100
AcDbEntity
  8
ARRANGE
  6
Continuous
 62
     1
100
AcDbLine
 10
1841.84557223314
 20
15.40559349437308
 30
0.0
 11
1875.213807361948
 21
48.77382862318018
 31
0.0
  0
LINE
  5
8FA
330
65A
100
AcDbEntity
  8
ARRANGE
  6
Continuous
 62
     1
100
AcDbLine
 10
1841.84557223314
 20
48.77382862318018
 30
0.0
 11
1875.213807361948
 21
15.40559349437308
 31
0.0
  0
CIRCLE
  5
8FB
330
65A
100
AcDbEntity
  8
ARRANGE
100
AcDbCircle
 10
1858.529689797544
 20
32.08971105877663
 30
0.0
 40
15.0
  0
ENDBLK
  5
8FD
330
65A
100
AcDbEntity
  8
0
100
AcDbBlockEnd
  0
ENDSEC
  0
SECTION
  2
ENTITIES
  0
LINE
  5
7A
330
2
100
AcDbEntity
  8
NOTE
100
AcDbLine
 10
1370.653310053114
 20
-254.9471855482219
 30
0.0
 11
1370.763310053114
 21
-254.9471855482219
 31
0.0
  0
LINE
  5
7E
330
2
100
AcDbEntity
  8
NOTE
100
AcDbLine
 10
1370.708310053114
 20
-255.0021855482219
 30
0.0
 11
1370.708310053114
 21
-254.8921855482219
 31
0.0
  0
LINE
  5
7F
330
2
100
AcDbEntity
  8
NOTE
100
AcDbLine
 10
1367.598310053114
 20
-254.9471855482219
 30
0.0
 11
1370.497310053114
 21
-254.9471855482219
 31
0.0
  0
LINE
  5
80
330
2
100
AcDbEntity
  8
NOTE
100
AcDbLine
 10
1370.919310053114
 20
-254.9471855482219
 30
0.0
 11
1373.818310053114
 21
-254.9471855482219
 31
0.0
  0
LINE
  5
81
330
2
100
AcDbEntity
  8
NOTE
100
AcDbLine
 10
1370.708310053114
 20
-258.0571855482219
 30
0.0
 11
1370.708310053114
 21
-255.1581855482219
 31
0.0
  0
LINE
  5
82
330
2
100
AcDbEntity
  8
NOTE
100
AcDbLine
 10
1370.708310053114
 20
-254.7361855482219
 30
0.0
 11
1370.708310053114
 21
-251.8371855482219
 31
0.0
  0
LINE
  5
83
330
2
100
AcDbEntity
  8
NOTE
100
AcDbLine
 10
1370.653310053114
 20
492.552814451778
 30
0.0
 11
1370.763310053114
 21
492.552814451778
 31
0.0
  0
LINE
  5
84
330
2
100
AcDbEntity
  8
NOTE
100
AcDbLine
 10
1370.708310053114
 20
492.4978144517781
 30
0.0
 11
1370.708310053114
 21
492.6078144517781
 31
0.0
  0
LINE
  5
85
330
2
100
AcDbEntity
  8
NOTE
100
AcDbLine
 10
1364.098310053114
 20
492.552814451778
 30
0.0
 11
1370.497310053114
 21
492.552814451778
 31
0.0
  0
LINE
  5
86
330
2
100
AcDbEntity
  8
NOTE
100
AcDbLine
 10
1370.919310053114
 20
492.552814451778
 30
0.0
 11
1377.318310053114
 21
492.552814451778
 31
0.0
  0
LINE
  5
87
330
2
100
AcDbEntity
  8
NOTE
100
AcDbLine
 10
1370.708310053114
 20
485.9428144517781
 30
0.0
 11
1370.708310053114
 21
492.341814451778
 31
0.0
  0
LINE
  5
88
330
2
100
AcDbEntity
  8
NOTE
100
AcDbLine
 10
1370.708310053114
 20
492.763814451778
 30
0.0
 11
1370.708310053114
 21
499.1628144517781
 31
0.0
  0
LINE
  5
89
330
2
100
AcDbEntity
  8
NOTE
100
AcDbLine
 10
1370.653310053114
 20
506.0528144517781
 30
0.0
 11
1370.763310053114
 21
506.0528144517781
 31
0.0
  0
LINE
  5
8A
330
2
100
AcDbEntity
  8
NOTE
100
AcDbLine
 10
1370.708310053114
 20
505.997814451778
 30
0.0
 11
1370.708310053114
 21
506.1078144517781
 31
0.0
  0
LINE
  5
8B
330
2
100
AcDbEntity
  8
NOTE
100
AcDbLine
 10
1367.598310053114
 20
506.0528144517781
 30
0.0
 11
1370.497310053114
 21
506.0528144517781
 31
0.0
  0
LINE
  5
8C
330
2
100
AcDbEntity
  8
NOTE
100
AcDbLine
 10
1370.919310053114
 20
506.0528144517781
 30
0.0
 11
1373.818310053114
 21
506.0528144517781
 31
0.0
  0
LINE
  5
8D
330
2
100
AcDbEntity
  8
NOTE
100
AcDbLine
 10
1370.708310053114
 20
502.9428144517781
 30
0.0
 11
1370.708310053114
 21
505.841814451778
 31
0.0
  0
LINE
  5
8E
330
2
100
AcDbEntity
  8
NOTE
100
AcDbLine
 10
1370.708310053114
 20
506.2638144517781
 30
0.0
 11
1370.708310053114
 21
509.162814451778
 31
0.0
  0
LINE
  5
8F
330
2
100
AcDbEntity
  8
NOTE
100
AcDbLine
 10
1370.653310053114
 20
-51.94718554822194
 30
0.0
 11
1370.763310053114
 21
-51.94718554822194
 31
0.0
  0
LINE
  5
90
330
2
100
AcDbEntity
  8
NOTE
100
AcDbLine
 10
1370.708310053114
 20
-52.00218554822193
 30
0.0
 11
1370.708310053114
 21
-51.89218554822193
 31
0.0
  0
LINE
  5
91
330
2
100
AcDbEntity
  8
NOTE
100
AcDbLine
 10
1367.598310053114
 20
-51.94718554822194
 30
0.0
 11
1370.497310053114
 21
-51.94718554822194
 31
0.0
  0
LINE
  5
92
330
2
100
AcDbEntity
  8
NOTE
100
AcDbLine
 10
1370.919310053114
 20
-51.94718554822194
 30
0.0
 11
1373.818310053114
 21
-51.94718554822194
 31
0.0
  0
LINE
  5
93
330
2
100
AcDbEntity
  8
NOTE
100
AcDbLine
 10
1370.708310053114
 20
-55.05718554822194
 30
0.0
 11
1370.708310053114
 21
-52.15818554822194
 31
0.0
  0
LINE
  5
94
330
2
100
AcDbEntity
  8
NOTE
100
AcDbLine
 10
1370.708310053114
 20
-51.73618554822194
 30
0.0
 11
1370.708310053114
 21
-48.83718554822194
 31
0.0
  0
LINE
  5
95
330
2
100
AcDbEntity
  8
NOTE
100
AcDbLine
 10
1370.653310053114
 20
100.052814451778
 30
0.0
 11
1370.763310053114
 21
100.052814451778
 31
0.0
  0
LINE
  5
96
330
2
100
AcDbEntity
  8
NOTE
100
AcDbLine
 10
1370.708310053114
 20
99.99781445177809
 30
0.0
 11
1370.708310053114
 21
100.107814451778
 31
0.0
  0
LINE
  5
97
330
2
100
AcDbEntity
  8
NOTE
100
AcDbLine
 10
1367.598310053114
 20
100.052814451778
 30
0.0
 11
1370.497310053114
 21
100.052814451778
 31
0.0
  0
LINE
  5
98
330
2
100
AcDbEntity
  8
NOTE
100
AcDbLine
 10
1370.919310053114
 20
100.052814451778
 30
0.0
 11
1373.818310053114
 21
100.052814451778
 31
0.0
  0
LINE
  5
99
330
2
100
AcDbEntity
  8
NOTE
100
AcDbLine
 10
1370.708310053114
 20
96.94281445177809
 30
0.0
 11
1370.708310053114
 21
99.8418144517781
 31
0.0
  0
LINE
  5
9A
330
2
100
AcDbEntity
  8
NOTE
100
AcDbLine
 10
1370.708310053114
 20
100.263814451778
 30
0.0
 11
1370.708310053114
 21
103.162814451778
 31
0.0
  0
LINE
  5
9B
330
2
100
AcDbEntity
  8
NOTE
100
AcDbLine
 10
2081.653310053113
 20
529.0528144517748
 30
0.0
 11
2081.763310053113
 21
529.0528144517748
 31
0.0
  0
LINE
  5
9C
330
2
100
AcDbEntity
  8
NOTE
100
AcDbLine
 10
2081.708310053113
 20
528.9978144517752
 30
0.0
 11
2081.708310053113
 21
529.1078144517748
 31
0.0
  0
LINE
  5
9D
330
2
100
AcDbEntity
  8
NOTE
100
AcDbLine
 10
2078.598310053113
 20
529.0528144517748
 30
0.0
 11
2081.497310053114
 21
529.0528144517748
 31
0.0
  0
LINE
  5
9E
330
2
100
AcDbEntity
  8
NOTE
100
AcDbLine
 10
2081.919310053113
 20
529.0528144517748
 30
0.0
 11
2084.818310053114
 21
529.0528144517748
 31
0.0
  0
LINE
  5
9F
330
2
100
AcDbEntity
  8
NOTE
100
AcDbLine
 10
2081.708310053113
 20
525.942814451775
 30
0.0
 11
2081.708310053113
 21
528.8418144517748
 31
0.0
  0
LINE
  5
A0
330
2
100
AcDbEntity
  8
NOTE
100
AcDbLine
 10
2081.708310053113
 20
529.263814451775
 30
0.0
 11
2081.708310053113
 21
532.162814451775
 31
0.0
  0
LINE
  5
A1
330
2
100
AcDbEntity
  8
NOTE
100
AcDbLine
 10
2081.653310053113
 20
515.552814451775
 30
0.0
 11
2081.763310053113
 21
515.552814451775
 31
0.0
  0
LINE
  5
A2
330
2
100
AcDbEntity
  8
NOTE
100
AcDbLine
 10
2081.708310053113
 20
515.4978144517749
 30
0.0
 11
2081.708310053113
 21
515.6078144517748
 31
0.0
  0
LINE
  5
A3
330
2
100
AcDbEntity
  8
NOTE
100
AcDbLine
 10
2075.098310053113
 20
515.552814451775
 30
0.0
 11
2081.497310053114
 21
515.552814451775
 31
0.0
  0
LINE
  5
A4
330
2
100
AcDbEntity
  8
NOTE
100
AcDbLine
 10
2081.919310053113
 20
515.552814451775
 30
0.0
 11
2088.318310053113
 21
515.552814451775
 31
0.0
  0
LINE
  5
A5
330
2
100
AcDbEntity
  8
NOTE
100
AcDbLine
 10
2081.708310053113
 20
508.942814451775
 30
0.0
 11
2081.708310053113
 21
515.341814451775
 31
0.0
  0
LINE
  5
A6
330
2
100
AcDbEntity
  8
NOTE
100
AcDbLine
 10
2081.708310053113
 20
515.763814451775
 30
0.0
 11
2081.708310053113
 21
522.162814451775
 31
0.0
  0
LINE
  5
A7
330
2
100
AcDbEntity
  8
NOTE
100
AcDbLine
 10
2069.653310053114
 20
-254.947185548225
 30
0.0
 11
2069.763310053114
 21
-254.947185548225
 31
0.0
  0
LINE
  5
A8
330
2
100
AcDbEntity
  8
NOTE
100
AcDbLine
 10
2069.708310053114
 20
-255.002185548225
 30
0.0
 11
2069.708310053114
 21
-254.892185548225
 31
0.0
  0
LINE
  5
A9
330
2
100
AcDbEntity
  8
NOTE
100
AcDbLine
 10
2066.598310053114
 20
-254.947185548225
 30
0.0
 11
2069.497310053114
 21
-254.947185548225
 31
0.0
  0
LINE
  5
AA
330
2
100
AcDbEntity
  8
NOTE
100
AcDbLine
 10
2069.919310053114
 20
-254.947185548225
 30
0.0
 11
2072.818310053114
 21
-254.947185548225
 31
0.0
  0
LINE
  5
AB
330
2
100
AcDbEntity
  8
NOTE
100
AcDbLine
 10
2069.708310053114
 20
-258.057185548225
 30
0.0
 11
2069.708310053114
 21
-255.158185548225
 31
0.0
  0
LINE
  5
AC
330
2
100
AcDbEntity
  8
NOTE
100
AcDbLine
 10
2069.708310053114
 20
-254.736185548225
 30
0.0
 11
2069.708310053114
 21
-251.837185548225
 31
0.0
  0
LINE
  5
AD
330
2
100
AcDbEntity
  8
NOTE
100
AcDbLine
 10
2081.653310053114
 20
123.052814451775
 30
0.0
 11
2081.763310053114
 21
123.052814451775
 31
0.0
  0
LINE
  5
AE
330
2
100
AcDbEntity
  8
NOTE
100
AcDbLine
 10
2081.708310053114
 20
122.997814451775
 30
0.0
 11
2081.708310053114
 21
123.107814451775
 31
0.0
  0
LINE
  5
AF
330
2
100
AcDbEntity
  8
NOTE
100
AcDbLine
 10
2078.598310053113
 20
123.052814451775
 30
0.0
 11
2081.497310053114
 21
123.052814451775
 31
0.0
  0
LINE
  5
B0
330
2
100
AcDbEntity
  8
NOTE
100
AcDbLine
 10
2081.919310053113
 20
123.052814451775
 30
0.0
 11
2084.818310053114
 21
123.052814451775
 31
0.0
  0
LINE
  5
B1
330
2
100
AcDbEntity
  8
NOTE
100
AcDbLine
 10
2081.708310053114
 20
119.942814451775
 30
0.0
 11
2081.708310053114
 21
122.841814451775
 31
0.0
  0
LINE
  5
B2
330
2
100
AcDbEntity
  8
NOTE
100
AcDbLine
 10
2081.708310053114
 20
123.263814451775
 30
0.0
 11
2081.708310053114
 21
126.162814451775
 31
0.0
  0
LINE
  5
B3
330
2
100
AcDbEntity
  8
NOTE
100
AcDbLine
 10
2069.653310053114
 20
-51.94718554822497
 30
0.0
 11
2069.763310053114
 21
-51.94718554822497
 31
0.0
  0
LINE
  5
B4
330
2
100
AcDbEntity
  8
NOTE
100
AcDbLine
 10
2069.708310053114
 20
-52.00218554822496
 30
0.0
 11
2069.708310053114
 21
-51.89218554822496
 31
0.0
  0
LINE
  5
B5
330
2
100
AcDbEntity
  8
NOTE
100
AcDbLine
 10
2066.598310053114
 20
-51.94718554822497
 30
0.0
 11
2069.497310053114
 21
-51.94718554822497
 31
0.0
  0
LINE
  5
B6
330
2
100
AcDbEntity
  8
NOTE
100
AcDbLine
 10
2069.919310053114
 20
-51.94718554822497
 30
0.0
 11
2072.818310053114
 21
-51.94718554822497
 31
0.0
  0
LINE
  5
B7
330
2
100
AcDbEntity
  8
NOTE
100
AcDbLine
 10
2069.708310053114
 20
-55.05718554822497
 30
0.0
 11
2069.708310053114
 21
-52.15818554822496
 31
0.0
  0
LINE
  5
B8
330
2
100
AcDbEntity
  8
NOTE
100
AcDbLine
 10
2069.708310053114
 20
-51.73618554822496
 30
0.0
 11
2069.708310053114
 21
-48.83718554822497
 31
0.0
  0
LINE
  5
B9
330
2
100
AcDbEntity
  8
NOTE
100
AcDbLine
 10
1668.653310053114
 20
609.5528144517782
 30
0.0
 11
1668.763310053114
 21
609.5528144517782
 31
0.0
  0
LINE
  5
BA
330
2
100
AcDbEntity
  8
NOTE
100
AcDbLine
 10
1668.708310053114
 20
609.4978144517782
 30
0.0
 11
1668.708310053114
 21
609.6078144517782
 31
0.0
  0
LINE
  5
BB
330
2
100
AcDbEntity
  8
NOTE
100
AcDbLine
 10
1665.598310053114
 20
609.5528144517782
 30
0.0
 11
1668.497310053114
 21
609.5528144517782
 31
0.0
  0
LINE
  5
BC
330
2
100
AcDbEntity
  8
NOTE
100
AcDbLine
 10
1668.919310053114
 20
609.5528144517782
 30
0.0
 11
1671.818310053114
 21
609.5528144517782
 31
0.0
  0
LINE
  5
BD
330
2
100
AcDbEntity
  8
NOTE
100
AcDbLine
 10
1668.708310053114
 20
606.4428144517783
 30
0.0
 11
1668.708310053114
 21
609.3418144517783
 31
0.0
  0
LINE
  5
BE
330
2
100
AcDbEntity
  8
NOTE
100
AcDbLine
 10
1668.708310053114
 20
609.7638144517782
 30
0.0
 11
1668.708310053114
 21
612.6628144517781
 31
0.0
  0
LINE
  5
BF
330
2
100
AcDbEntity
  8
NOTE
100
AcDbLine
 10
1435.653310053114
 20
609.5528144517782
 30
0.0
 11
1435.763310053114
 21
609.5528144517782
 31
0.0
  0
LINE
  5
C0
330
2
100
AcDbEntity
  8
NOTE
100
AcDbLine
 10
1435.708310053114
 20
609.4978144517782
 30
0.0
 11
1435.708310053114
 21
609.6078144517782
 31
0.0
  0
LINE
  5
C1
330
2
100
AcDbEntity
  8
NOTE
100
AcDbLine
 10
1432.598310053114
 20
609.5528144517782
 30
0.0
 11
1435.497310053114
 21
609.5528144517782
 31
0.0
  0
LINE
  5
C2
330
2
100
AcDbEntity
  8
NOTE
100
AcDbLine
 10
1435.919310053114
 20
609.5528144517782
 30
0.0
 11
1438.818310053114
 21
609.5528144517782
 31
0.0
  0
LINE
  5
C3
330
2
100
AcDbEntity
  8
NOTE
100
AcDbLine
 10
1435.708310053114
 20
606.4428144517783
 30
0.0
 11
1435.708310053114
 21
609.3418144517783
 31
0.0
  0
LINE
  5
C4
330
2
100
AcDbEntity
  8
NOTE
100
AcDbLine
 10
1435.708310053114
 20
609.7638144517782
 30
0.0
 11
1435.708310053114
 21
612.6628144517781
 31
0.0
  0
LINE
  5
C5
330
2
100
AcDbEntity
  8
NOTE
100
AcDbLine
 10
2016.653310053114
 20
609.5528144517784
 30
0.0
 11
2016.763310053114
 21
609.5528144517784
 31
0.0
  0
LINE
  5
C6
330
2
100
AcDbEntity
  8
NOTE
100
AcDbLine
 10
2016.708310053114
 20
609.4978144517782
 30
0.0
 11
2016.708310053114
 21
609.6078144517782
 31
0.0
  0
LINE
  5
C7
330
2
100
AcDbEntity
  8
NOTE
100
AcDbLine
 10
2013.598310053114
 20
609.5528144517784
 30
0.0
 11
2016.497310053114
 21
609.5528144517784
 31
0.0
  0
LINE
  5
C8
330
2
100
AcDbEntity
  8
NOTE
100
AcDbLine
 10
2016.919310053114
 20
609.5528144517784
 30
0.0
 11
2019.818310053114
 21
609.5528144517784
 31
0.0
  0
LINE
  5
C9
330
2
100
AcDbEntity
  8
NOTE
100
AcDbLine
 10
2016.708310053114
 20
606.4428144517783
 30
0.0
 11
2016.708310053114
 21
609.3418144517784
 31
0.0
  0
LINE
  5
CA
330
2
100
AcDbEntity
  8
NOTE
100
AcDbLine
 10
2016.708310053114
 20
609.7638144517784
 30
0.0
 11
2016.708310053114
 21
612.6628144517784
 31
0.0
  0
LINE
  5
CB
330
2
100
AcDbEntity
  8
NOTE
100
AcDbLine
 10
1783.653310053114
 20
609.5528144517782
 30
0.0
 11
1783.763310053114
 21
609.5528144517782
 31
0.0
  0
LINE
  5
CC
330
2
100
AcDbEntity
  8
NOTE
100
AcDbLine
 10
1783.708310053114
 20
609.4978144517782
 30
0.0
 11
1783.708310053114
 21
609.6078144517782
 31
0.0
  0
LINE
  5
CD
330
2
100
AcDbEntity
  8
NOTE
100
AcDbLine
 10
1780.598310053114
 20
609.5528144517782
 30
0.0
 11
1783.497310053114
 21
609.5528144517782
 31
0.0
  0
LINE
  5
CE
330
2
100
AcDbEntity
  8
NOTE
100
AcDbLine
 10
1783.919310053114
 20
609.5528144517782
 30
0.0
 11
1786.818310053114
 21
609.5528144517782
 31
0.0
  0
LINE
  5
CF
330
2
100
AcDbEntity
  8
NOTE
100
AcDbLine
 10
1783.708310053114
 20
606.4428144517783
 30
0.0
 11
1783.708310053114
 21
609.3418144517783
 31
0.0
  0
LINE
  5
D0
330
2
100
AcDbEntity
  8
NOTE
100
AcDbLine
 10
1783.708310053114
 20
609.7638144517782
 30
0.0
 11
1783.708310053114
 21
612.6628144517781
 31
0.0
  0
LINE
  5
469
330
2
100
AcDbEntity
  8
OUTLINE
100
AcDbLine
 10
1377.208310053114
 20
-164.4471855482219
 30
0.0
 11
1361.208310053114
 21
-164.4471855482219
 31
0.0
  0
LINE
  5
46A
330
2
100
AcDbEntity
  8
OUTLINE
100
AcDbLine
 10
1377.208310053114
 20
-164.4471855482219
 30
0.0
 11
1380.208310053114
 21
-167.4471855482219
 31
0.0
  0
LINE
  5
46B
330
2
100
AcDbEntity
  8
OUTLINE
100
AcDbLine
 10
1380.208310053114
 20
-259.2180695823108
 30
0.0
 11
1380.208310053114
 21
-167.4471855482218
 31
0.0
  0
LINE
  5
46C
330
2
100
AcDbEntity
  8
OUTLINE
100
AcDbLine
 10
1361.208310053114
 20
-264.4471855482219
 30
0.0
 11
1377.208310053114
 21
-264.4471855482219
 31
0.0
  0
LINE
  5
46D
330
2
100
AcDbEntity
  8
OUTLINE
100
AcDbLine
 10
1380.208310053114
 20
-259.2180695823109
 30
0.0
 11
1377.208310053114
 21
-264.4471855482219
 31
0.0
  0
LINE
  5
46E
330
2
100
AcDbEntity
  8
OUTLINE
100
AcDbLine
 10
1377.208310053114
 20
587.052814451778
 30
0.0
 11
1377.208310053114
 21
595.667173805723
 31
0.0
  0
LINE
  5
46F
330
2
100
AcDbEntity
  8
OUTLINE
100
AcDbLine
 10
1362.008310053114
 20
-104.4471855482219
 30
0.0
 11
1362.008310053114
 21
-164.4471855482219
 31
0.0
  0
LINE
  5
470
330
2
100
AcDbEntity
  8
OUTLINE
100
AcDbLine
 10
1362.808310053114
 20
-164.4471855482219
 30
0.0
 11
1362.808310053114
 21
-104.4471855482219
 31
0.0
  0
LINE
  5
471
330
2
100
AcDbEntity
  8
OUTLINE
100
AcDbLine
 10
1361.208310053114
 20
-164.4471855482219
 30
0.0
 11
1361.208310053114
 21
-104.4471855482219
 31
0.0
  0
LINE
  5
472
330
2
100
AcDbEntity
  8
OUTLINE
100
AcDbLine
 10
1361.208310053114
 20
-264.4471855482218
 30
0.0
 11
1361.208310053114
 21
-164.4471855482218
 31
0.0
  0
LINE
  5
473
330
2
100
AcDbEntity
  8
OUTLINE
100
AcDbLine
 10
1373.708310053114
 20
506.0528144517781
 30
0.0
 11
1373.708310053114
 21
498.3190957491133
 31
0.0
  0
LINE
  5
474
330
2
100
AcDbEntity
  8
OUTLINE
100
AcDbLine
 10
1367.708310053114
 20
498.3190957491133
 30
0.0
 11
1367.708310053114
 21
506.0528144517781
 31
0.0
  0
LINE
  5
475
330
2
100
AcDbEntity
  8
OUTLINE
100
AcDbLine
 10
1380.208310053114
 20
-101.4471855482218
 30
0.0
 11
1380.208310053114
 21
587.0528144517781
 31
0.0
  0
LINE
  5
476
330
2
100
AcDbEntity
  8
OUTLINE
100
AcDbLine
 10
1380.208310053114
 20
-101.4471855482219
 30
0.0
 11
1377.208310053114
 21
-104.4471855482219
 31
0.0
  0
LINE
  5
477
330
2
100
AcDbEntity
  8
OUTLINE
100
AcDbLine
 10
1361.208310053114
 20
-104.4471855482219
 30
0.0
 11
1377.208310053114
 21
-104.4471855482219
 31
0.0
  0
LINE
  5
478
330
2
100
AcDbEntity
  8
OUTLINE
100
AcDbLine
 10
1361.208310053114
 20
-104.4471855482218
 30
0.0
 11
1361.208310053114
 21
587.0528144517781
 31
0.0
  0
LINE
  5
479
330
2
100
AcDbEntity
  8
OUTLINE
100
AcDbLine
 10
1361.208310053114
 20
587.0528144517781
 30
0.0
 11
1361.208310053114
 21
596.5909342364263
 31
0.0
  0
LINE
  5
47A
330
2
100
AcDbEntity
  8
OUTLINE
100
AcDbLine
 10
1361.208310053114
 20
596.5909342364263
 30
0.0
 11
1377.208310053114
 21
596.5909342364263
 31
0.0
  0
LINE
  5
47B
330
2
100
AcDbEntity
  8
OUTLINE
100
AcDbLine
 10
1377.208310053114
 20
595.6671738057231
 30
0.0
 11
1377.208310053114
 21
596.5909342364263
 31
0.0
  0
LINE
  5
47C
330
2
100
AcDbEntity
  8
OUTLINE
100
AcDbLine
 10
1362.008310053114
 20
595.6671738057231
 30
0.0
 11
1377.208310053114
 21
595.6671738057231
 31
0.0
  0
LINE
  5
47D
330
2
100
AcDbEntity
  8
OUTLINE
100
AcDbLine
 10
1362.008310053114
 20
587.0528144517781
 30
0.0
 11
1362.008310053114
 21
595.6671738057227
 31
0.0
  0
LINE
  5
47E
330
2
100
AcDbEntity
  8
OUTLINE
100
AcDbLine
 10
1380.208310053114
 20
587.0528144517781
 30
0.0
 11
1361.208310053114
 21
587.0528144517781
 31
0.0
  0
ELLIPSE
  5
47F
330
2
100
AcDbEntity
  8
OUTLINE
100
AcDbEllipse
 10
1370.708310053114
 20
509.1549133718627
 30
0.0
 11
-2.0
 21
0.0
 31
0.0
210
0.0
220
0.0
230
1.0
 40
0.5000000000000006
 41
0.620679035994085
 42
2.520913617595708
  0
CIRCLE
  5
480
330
2
100
AcDbEntity
  8
OUTLINE
100
AcDbCircle
 10
1370.708310053114
 20
-254.9471855482219
 30
0.0
 40
3.0
  0
ELLIPSE
  5
481
330
2
100
AcDbEntity
  8
OUTLINE
100
AcDbEllipse
 10
1370.708310053114
 20
591.4049133718629
 30
0.0
 11
-2.5
 21
0.0
 31
0.0
210
0.0
220
0.0
230
1.0
 40
0.5000000000000006
 41
0.0000000000000002
 42
6.283185307179584
  0
ELLIPSE
  5
482
330
2
100
AcDbEntity
  8
OUTLINE
100
AcDbEllipse
 10
1370.708310053114
 20
592.0977336948904
 30
0.0
 11
2.5
 21
0.0
 31
0.0
210
0.0
220
0.0
230
1.0
 40
0.5000000000000006
 41
3.422396530236496
 42
6.002381430532888
  0
ELLIPSE
  5
483
330
2
100
AcDbEntity
  8
OUTLINE
100
AcDbEllipse
 10
1370.708310053114
 20
509.8477336948904
 30
0.0
 11
2.0
 21
0.0
 31
0.0
210
0.0
220
0.0
230
1.0
 40
0.5000000000000006
 41
4.286794998384845
 42
5.137982962384533
  0
ARC
  5
484
330
2
100
AcDbEntity
  8
OUTLINE
100
AcDbCircle
 10
1370.708310053114
 20
492.552814451778
 30
0.0
 40
6.5
100
AcDbArc
 50
117.4864262503814
 51
62.51357374961853
  0
ARC
  5
485
330
2
100
AcDbEntity
  8
OUTLINE
100
AcDbCircle
 10
1370.708310053114
 20
506.0528144517781
 30
0.0
 40
3.0
100
AcDbArc
 50
0.0
 51
180.0
  0
CIRCLE
  5
486
330
2
100
AcDbEntity
  8
OUTLINE
100
AcDbCircle
 10
1370.708310053114
 20
-51.94718554822194
 30
0.0
 40
3.0
  0
CIRCLE
  5
487
330
2
100
AcDbEntity
  8
OUTLINE
100
AcDbCircle
 10
1370.708310053114
 20
100.052814451778
 30
0.0
 40
3.0
  0
LINE
  5
488
330
2
100
AcDbEntity
  8
OUTLINE
100
AcDbLine
 10
2091.208310053113
 20
597.052814451775
 30
0.0
 11
2091.208310053113
 21
583.0528144517751
 31
0.0
  0
LINE
  5
489
330
2
100
AcDbEntity
  8
OUTLINE
100
AcDbLine
 10
2075.208310053113
 20
597.052814451775
 30
0.0
 11
2091.208310053113
 21
597.052814451775
 31
0.0
  0
LINE
  5
48A
330
2
100
AcDbEntity
  8
OUTLINE
100
AcDbLine
 10
2091.208310053114
 20
-264.447185548225
 30
0.0
 11
2091.208310053113
 21
583.0528144517749
 31
0.0
  0
LINE
  5
48B
330
2
100
AcDbEntity
  8
OUTLINE
100
AcDbLine
 10
2091.208310053115
 20
-264.4471855482249
 30
0.0
 11
2063.208310053115
 21
-264.447185548225
 31
0.0
  0
LINE
  5
48C
330
2
100
AcDbEntity
  8
OUTLINE
100
AcDbLine
 10
2063.208310053115
 20
-264.447185548225
 30
0.0
 11
2060.208310053114
 21
-261.447185548225
 31
0.0
  0
LINE
  5
48D
330
2
100
AcDbEntity
  8
OUTLINE
100
AcDbLine
 10
2060.208310053114
 20
-261.447185548225
 30
0.0
 11
2060.208310053114
 21
-45.44718554822496
 31
0.0
  0
LINE
  5
48E
330
2
100
AcDbEntity
  8
OUTLINE
100
AcDbLine
 10
2060.208310053114
 20
-45.44718554822496
 30
0.0
 11
2063.208310053114
 21
-42.44718554822499
 31
0.0
  0
LINE
  5
48F
330
2
100
AcDbEntity
  8
OUTLINE
100
AcDbLine
 10
2063.208310053114
 20
-42.44718554822497
 30
0.0
 11
2072.208310053114
 21
-42.44718554822497
 31
0.0
  0
LINE
  5
490
330
2
100
AcDbEntity
  8
OUTLINE
100
AcDbLine
 10
2072.208310053114
 20
-42.44718554822496
 30
0.0
 11
2072.208310053113
 21
550.552814451775
 31
0.0
  0
LINE
  5
491
330
2
100
AcDbEntity
  8
OUTLINE
100
AcDbLine
 10
2072.208310053113
 20
550.5528144517751
 30
0.0
 11
2075.208310053113
 21
553.5528144517751
 31
0.0
  0
LINE
  5
492
330
2
100
AcDbEntity
  8
OUTLINE
100
AcDbLine
 10
2090.408310053113
 20
553.5528144517749
 30
0.0
 11
2075.208310053113
 21
553.5528144517749
 31
0.0
  0
LINE
  5
493
330
2
100
AcDbEntity
  8
OUTLINE
100
AcDbLine
 10
2091.208310053113
 20
583.0528144517749
 30
0.0
 11
2090.408310053113
 21
583.0528144517749
 31
0.0
  0
LINE
  5
494
330
2
100
AcDbEntity
  8
OUTLINE
100
AcDbLine
 10
2078.708310053113
 20
521.3190957491105
 30
0.0
 11
2078.708310053113
 21
529.0528144517748
 31
0.0
  0
LINE
  5
495
330
2
100
AcDbEntity
  8
OUTLINE
100
AcDbLine
 10
2084.708310053113
 20
529.0528144517748
 30
0.0
 11
2084.708310053113
 21
521.3190957491105
 31
0.0
  0
LINE
  5
496
330
2
100
AcDbEntity
  8
OUTLINE
100
AcDbLine
 10
2090.408310053113
 20
596.1290540210716
 30
0.0
 11
2075.208310053113
 21
596.1290540210716
 31
0.0
  0
LINE
  5
497
330
2
100
AcDbEntity
  8
OUTLINE
100
AcDbLine
 10
2075.208310053113
 20
596.1290540210716
 30
0.0
 11
2075.208310053113
 21
597.0528144517751
 31
0.0
  0
LINE
  5
498
330
2
100
AcDbEntity
  8
OUTLINE
100
AcDbLine
 10
2075.208310053113
 20
596.1290540210716
 30
0.0
 11
2075.208310053113
 21
553.5528144517749
 31
0.0
  0
LINE
  5
499
330
2
100
AcDbEntity
  8
OUTLINE
100
AcDbLine
 10
2090.408310053113
 20
583.0528144517751
 30
0.0
 11
2090.408310053113
 21
596.1290540210716
 31
0.0
  0
LINE
  5
49A
330
2
100
AcDbEntity
  8
OUTLINE
100
AcDbLine
 10
2090.408310053113
 20
583.0528144517749
 30
0.0
 11
2090.408310053113
 21
553.5528144517749
 31
0.0
  0
ELLIPSE
  5
49B
330
2
100
AcDbEntity
  8
OUTLINE
100
AcDbEllipse
 10
2081.708310053114
 20
509.8477336948874
 30
0.0
 11
2.0
 21
0.0
 31
0.0
210
0.0
220
0.0
230
1.0
 40
0.5
 41
3.495334259479419
 42
3.774914521477247
  0
ELLIPSE
  5
49C
330
2
100
AcDbEntity
  8
OUTLINE
100
AcDbEllipse
 10
2081.708310053114
 20
509.8477336948874
 30
0.0
 11
2.0
 21
0.0
 31
0.0
210
0.0
220
0.0
230
1.0
 40
0.5
 41
5.649863439292133
 42
5.929443701289961
  0
ELLIPSE
  5
49D
330
2
100
AcDbEntity
  8
OUTLINE
100
AcDbEllipse
 10
2081.708310053113
 20
592.0977336948874
 30
0.0
 11
2.5
 21
0.0
 31
0.0
210
0.0
220
0.0
230
1.0
 40
0.5
 41
3.422396530236515
 42
6.002381430532822
  0
ARC
  5
49E
330
2
100
AcDbEntity
  8
OUTLINE
100
AcDbCircle
 10
2081.708310053113
 20
529.0528144517748
 30
0.0
 40
3.0
100
AcDbArc
 50
0.0
 51
180.0
  0
ARC
  5
49F
330
2
100
AcDbEntity
  8
OUTLINE
100
AcDbCircle
 10
2081.708310053113
 20
515.552814451775
 30
0.0
 40
6.5
100
AcDbArc
 50
117.4864262503814
 51
62.51357374961853
  0
CIRCLE
  5
4A0
330
2
100
AcDbEntity
  8
OUTLINE
100
AcDbCircle
 10
2069.708310053114
 20
-254.9471855482249
 30
0.0
 40
3.0
  0
CIRCLE
  5
4A1
330
2
100
AcDbEntity
  8
OUTLINE
100
AcDbCircle
 10
2081.708310053114
 20
123.052814451775
 30
0.0
 40
3.0
  0
ELLIPSE
  5
4A2
330
2
100
AcDbEntity
  8
OUTLINE
100
AcDbEllipse
 10
2081.708310053113
 20
591.4049133718597
 30
0.0
 11
-2.5
 21
0.0
 31
0.0
210
0.0
220
0.0
230
1.0
 40
0.5
 41
0.0000000000000011
 42
6.283185307179584
  0
ELLIPSE
  5
4A3
330
2
100
AcDbEntity
  8
OUTLINE
100
AcDbEllipse
 10
2081.708310053114
 20
509.1549133718599
 30
0.0
 11
-2.0
 21
0.0
 31
0.0
210
0.0
220
0.0
230
1.0
 40
0.5
 41
3.343240639526888
 42
6.081537321242492
  0
CIRCLE
  5
4A4
330
2
100
AcDbEntity
  8
OUTLINE
100
AcDbCircle
 10
2069.708310053114
 20
-51.94718554822497
 30
0.0
 40
3.0
  0
LINE
  5
4A5
330
2
100
AcDbEntity
  8
OUTLINE
100
AcDbLine
 10
2087.208310053114
 20
614.0528144517782
 30
0.0
 11
1365.208310053114
 21
614.0528144517782
 31
0.0
  0
LINE
  5
4A6
330
2
100
AcDbEntity
  8
OUTLINE
100
AcDbLine
 10
1362.208310053114
 20
597.0528144517782
 30
0.0
 11
2090.208310053114
 21
597.0528144517782
 31
0.0
  0
LINE
  5
4A7
330
2
100
AcDbEntity
  8
OUTLINE
100
AcDbLine
 10
2072.208310053113
 20
423.5528144517784
 30
0.0
 11
1380.208310053114
 21
423.5528144517783
 31
0.0
  0
LINE
  5
4A8
330
2
100
AcDbEntity
  8
OUTLINE
100
AcDbLine
 10
2090.208310053114
 20
597.0528144517782
 30
0.0
 11
2090.208310053114
 21
611.0528144517782
 31
0.0
  0
LINE
  5
4A9
330
2
100
AcDbEntity
  8
OUTLINE
100
AcDbLine
 10
2087.208310053115
 20
614.0528144517782
 30
0.0
 11
2090.208310053114
 21
611.0528144517782
 31
0.0
  0
LINE
  5
4AA
330
2
100
AcDbEntity
  8
OUTLINE
100
AcDbLine
 10
1362.208310053114
 20
611.0528144517782
 30
0.0
 11
1362.208310053114
 21
597.0528144517782
 31
0.0
  0
LINE
  5
4AB
330
2
100
AcDbEntity
  8
OUTLINE
100
AcDbLine
 10
1362.208310053114
 20
597.0528144517782
 30
0.0
 11
1362.208310053114
 21
596.5909342364263
 31
0.0
  0
LINE
  5
4AC
330
2
100
AcDbEntity
  8
OUTLINE
100
AcDbLine
 10
1362.208310053114
 20
611.0528144517782
 30
0.0
 11
1365.208310053114
 21
614.0528144517782
 31
0.0
  0
LINE
  5
4AD
330
2
100
AcDbEntity
  8
OUTLINE
100
AcDbLine
 10
1369.208310053114
 20
591.4956347748058
 30
0.0
 11
1372.208310053114
 21
591.4956347748058
 31
0.0
  0
LINE
  5
4AE
330
2
100
AcDbEntity
  8
OUTLINE
100
AcDbLine
 10
1369.208310053114
 20
591.0977336948904
 30
0.0
 11
1369.208310053114
 21
592.3028144517782
 31
0.0
  0
LINE
  5
4AF
330
2
100
AcDbEntity
  8
OUTLINE
100
AcDbLine
 10
1369.208310053114
 20
592.3028144517782
 30
0.0
 11
1372.208310053114
 21
592.3028144517782
 31
0.0
  0
LINE
  5
4B0
330
2
100
AcDbEntity
  8
OUTLINE
100
AcDbLine
 10
1372.208310053114
 20
592.3028144517782
 30
0.0
 11
1372.208310053114
 21
591.0977336948904
 31
0.0
  0
LINE
  5
4B1
330
2
100
AcDbEntity
  8
OUTLINE
100
AcDbLine
 10
2080.208310053115
 20
591.4956347748058
 30
0.0
 11
2083.208310053115
 21
591.4956347748058
 31
0.0
  0
LINE
  5
4B2
330
2
100
AcDbEntity
  8
OUTLINE
100
AcDbLine
 10
2080.208310053115
 20
591.0977336948882
 30
0.0
 11
2080.208310053115
 21
592.3028144517782
 31
0.0
  0
LINE
  5
4B3
330
2
100
AcDbEntity
  8
OUTLINE
100
AcDbLine
 10
2080.208310053115
 20
592.3028144517782
 30
0.0
 11
2083.208310053115
 21
592.3028144517782
 31
0.0
  0
LINE
  5
4B4
330
2
100
AcDbEntity
  8
OUTLINE
100
AcDbLine
 10
2083.208310053115
 20
592.3028144517782
 30
0.0
 11
2083.208310053115
 21
591.0977336948892
 31
0.0
  0
ELLIPSE
  5
4B5
330
2
100
AcDbEntity
  8
OUTLINE
100
AcDbEllipse
 10
1370.708310053114
 20
510.495634774805
 30
0.0
 11
3.0
 21
0.0
 31
0.0
210
0.0
220
0.0
230
1.0
 40
0.5
 41
4.552804544862921
 42
4.871973415906457
  0
CIRCLE
  5
4B6
330
2
100
AcDbEntity
  8
OUTLINE
100
AcDbCircle
 10
1881.208310053114
 20
413.5528144517784
 30
0.0
 40
2.2
  0
CIRCLE
  5
4B7
330
2
100
AcDbEntity
  8
OUTLINE
100
AcDbCircle
 10
1571.208310053114
 20
413.5528144517784
 30
0.0
 40
2.2
  0
CIRCLE
  5
4B8
330
2
100
AcDbEntity
  8
OUTLINE
100
AcDbCircle
 10
1668.708310053114
 20
609.5528144517782
 30
0.0
 40
3.0
  0
CIRCLE
  5
4B9
330
2
100
AcDbEntity
  8
OUTLINE
100
AcDbCircle
 10
1435.708310053114
 20
609.5528144517782
 30
0.0
 40
3.0
  0
CIRCLE
  5
4BA
330
2
100
AcDbEntity
  8
OUTLINE
100
AcDbCircle
 10
2016.708310053114
 20
609.5528144517782
 30
0.0
 40
3.0
  0
CIRCLE
  5
4BB
330
2
100
AcDbEntity
  8
OUTLINE
100
AcDbCircle
 10
1783.708310053114
 20
609.5528144517782
 30
0.0
 40
3.0
  0
LINE
  5
4BC
330
2
100
AcDbEntity
  8
OUTLINE
100
AcDbLine
 10
1380.208310053114
 20
162.8477336948902
 30
0.0
 11
2072.208310053114
 21
162.8477336948902
 31
0.0
  0
LINE
  5
4BD
330
2
100
AcDbEntity
  8
OUTLINE
100
AcDbLine
 10
2072.208310053114
 20
164.4477336948901
 30
0.0
 11
1380.208310053114
 21
164.4477336948901
 31
0.0
  0
LINE
  5
4BE
330
2
100
AcDbEntity
  8
OUTLINE
100
AcDbLine
 10
2072.208310053113
 20
422.8477336948901
 30
0.0
 11
1380.208310053114
 21
422.8477336948901
 31
0.0
  0
CIRCLE
  5
4BF
330
2
100
AcDbEntity
  8
OUTLINE
100
AcDbCircle
 10
1571.208310053114
 20
412.84773369489
 30
0.0
 40
3.0
  0
CIRCLE
  5
4C0
330
2
100
AcDbEntity
  8
OUTLINE
100
AcDbCircle
 10
1881.208310053114
 20
412.84773369489
 30
0.0
 40
3.0
  0
MTEXT
  5
506
330
2
100
AcDbEntity
  8
ETC
100
AcDbMText
 10
1493.147702660763
 20
820.2290354394458
 30
0.0
 40
40.0
 41
512.0260188757422
 71
     1
 72
     5
  1
AGJS/AGJT-26B\P背面図
 73
     1
 44
1.0
1001
ACAD
1000
MTEXTBEGIN
1070
    73
1070
     1
1070
    44
1040
1.0
1070
    74
1070
     0
1000
MTEXTEND
  0
DIMENSION
  5
50F
330
2
100
AcDbEntity
  8
SIZE
100
AcDbDimension
  2
*D2
 10
1435.708310053114
 20
639.0855681562356
 30
0.0
 11
1403.208310053114
 21
648.4605681562356
 31
0.0
 70
    32
 71
     5
 42
65.0
  3
ISO-25
100
AcDbAlignedDimension
 13
1370.708310053114
 23
509.162814451778
 33
0.0
 14
1435.708310053114
 24
612.6628144517781
 34
0.0
100
AcDbRotatedDimension
1001
ACAD
1000
DSTYLE
1002
{
1070
    40
1040
5.0
1070
    45
1040
0.5
1070
   271
1070
     1
1070
   272
1070
     1
1070
   341
1005
4E
1070
   342
1005
48
1002
}
  0
DIMENSION
  5
51D
330
2
100
AcDbEntity
  8
SIZE
100
AcDbDimension
  2
*D3
 10
1668.708310053114
 20
639.0855681562356
 30
0.0
 11
1552.208310053114
 21
648.4605681562356
 31
0.0
 70
    32
 71
     5
 42
233.0
  3
ISO-25
100
AcDbAlignedDimension
 13
1435.708310053114
 23
612.6628144517781
 33
0.0
 14
1668.708310053114
 24
612.6628144517781
 34
0.0
100
AcDbRotatedDimension
1001
ACAD
1000
DSTYLE
1002
{
1070
   279
1070
     1
1070
    40
1040
5.0
1070
    45
1040
0.5
1070
   271
1070
     1
1070
   272
1070
     1
1070
   341
1005
4E
1070
   342
1005
48
1002
}
  0
DIMENSION
  5
52A
330
2
100
AcDbEntity
  8
SIZE
100
AcDbDimension
  2
*D4
 10
1783.708310053114
 20
639.0855681562356
 30
0.0
 11
1726.208310053114
 21
648.4605681562356
 31
0.0
 70
    32
 71
     5
 42
115.0
  3
ISO-25
100
AcDbAlignedDimension
 13
1668.708310053114
 23
612.6628144517781
 33
0.0
 14
1783.708310053114
 24
612.6628144517781
 34
0.0
100
AcDbRotatedDimension
1001
ACAD
1000
DSTYLE
1002
{
1070
   279
1070
     1
1070
    40
1040
5.0
1070
    45
1040
0.5
1070
   271
1070
     1
1070
   272
1070
     1
1070
   341
1005
4E
1070
   342
1005
48
1002
}
  0
DIMENSION
  5
537
330
2
100
AcDbEntity
  8
SIZE
100
AcDbDimension
  2
*D5
 10
2016.708310053114
 20
639.0855681562356
 30
0.0
 11
1900.208310053114
 21
648.4605681562356
 31
0.0
 70
    32
 71
     5
 42
233.0
  3
ISO-25
100
AcDbAlignedDimension
 13
1783.708310053114
 23
612.6628144517781
 33
0.0
 14
2016.708310053114
 24
612.552814451778
 34
0.0
100
AcDbRotatedDimension
1001
ACAD
1000
DSTYLE
1002
{
1070
   279
1070
     1
1070
    40
1040
5.0
1070
    45
1040
0.5
1070
   271
1070
     1
1070
   272
1070
     1
1070
   341
1005
4E
1070
   342
1005
48
1002
}
  0
DIMENSION
  5
544
330
2
100
AcDbEntity
  8
SIZE
100
AcDbDimension
  2
*D6
 10
2081.708310053113
 20
639.0855681562356
 30
0.0
 11
2049.208310053113
 21
648.4605681562356
 31
0.0
 70
    32
 71
     5
 42
64.99999999999909
  3
ISO-25
100
AcDbAlignedDimension
 13
2016.708310053114
 23
612.552814451778
 33
0.0
 14
2081.708310053113
 24
532.162814451775
 34
0.0
100
AcDbRotatedDimension
1001
ACAD
1000
DSTYLE
1002
{
1070
   279
1070
     1
1070
    40
1040
5.0
1070
    45
1040
0.5
1070
   271
1070
     1
1070
   272
1070
     1
1070
   341
1005
4E
1070
   342
1005
48
1002
}
  0
DIMENSION
  5
551
330
2
100
AcDbEntity
  8
SIZE
100
AcDbDimension
  2
*D7
 10
2091.208310053113
 20
667.4606830170539
 30
0.0
 11
1726.208310053113
 21
676.8356830170539
 31
0.0
 70
    32
 71
     5
 42
729.999999999999
  3
ISO-25
100
AcDbAlignedDimension
 13
1361.208310053114
 23
596.5909342364263
 33
0.0
 14
2091.208310053113
 24
597.052814451775
 34
0.0
100
AcDbRotatedDimension
1001
ACAD
1000
DSTYLE
1002
{
1070
    40
1040
5.0
1070
    45
1040
0.5
1070
   271
1070
     1
1070
   272
1070
     1
1070
   341
1005
4E
1070
   342
1005
48
1002
}
  0
DIMENSION
  5
55E
330
2
100
AcDbEntity
  8
SIZE
100
AcDbDimension
  2
*D8
 10
2069.708310053114
 20
-331.1339279104605
 30
0.0
 11
2122.280281998154
 21
-331.1339279104605
 31
0.0
 70
   160
 71
     5
 42
12.0
  3
ISO-25
100
AcDbAlignedDimension
 13
2081.708310053114
 23
120.052814451775
 33
0.0
 14
2069.708310053114
 24
-258.057185548225
 34
0.0
100
AcDbRotatedDimension
1001
ACAD
1000
DSTYLE
1002
{
1070
    40
1040
5.0
1070
    45
1040
0.5
1070
   271
1070
     1
1070
   272
1070
     1
1070
   341
1005
4E
1070
   342
1005
48
1002
}
  0
DIMENSION
  5
578
330
2
100
AcDbEntity
  8
SIZE
100
AcDbDimension
  2
*D9
 10
1370.708310053114
 20
-331.1339279104605
 30
0.0
 11
1720.208310053114
 21
-321.7589279104605
 31
0.0
 70
    32
 71
     5
 42
699.0
  3
ISO-25
100
AcDbAlignedDimension
 13
2069.708310053114
 23
-258.057185548225
 33
0.0
 14
1370.708310053114
 24
-257.9471855482219
 34
0.0
100
AcDbRotatedDimension
1001
ACAD
1000
DSTYLE
1002
{
1070
   279
1070
     1
1070
    40
1040
5.0
1070
    45
1040
0.5
1070
   271
1070
     1
1070
   272
1070
     1
1070
   341
1005
4E
1070
   342
1005
48
1002
}
  0
DIMENSION
  5
585
330
2
100
AcDbEntity
  8
SIZE
100
AcDbDimension
  2
*D10
 10
1286.423958019726
 20
492.552814451778
 30
0.0
 11
1277.048958019726
 21
551.0528144517783
 31
0.0
 70
    32
 71
     5
 42
117.0000000000002
  3
ISO-25
100
AcDbAlignedDimension
 13
1432.708310053114
 23
609.5528144517782
 33
0.0
 14
1364.098310053114
 24
492.552814451778
 34
0.0
 50
90.0
100
AcDbRotatedDimension
1001
ACAD
1000
DSTYLE
1002
{
1070
    40
1040
5.0
1070
    45
1040
0.5
1070
   271
1070
     1
1070
   272
1070
     1
1070
   341
1005
4E
1070
   342
1005
48
1002
}
  0
DIMENSION
  5
592
330
2
100
AcDbEntity
  8
SIZE
100
AcDbDimension
  2
*D11
 10
1286.423958019726
 20
100.052814451778
 30
0.0
 11
1277.048958019726
 21
296.3028144517783
 31
0.0
 70
    32
 71
     5
 42
392.5
  3
ISO-25
100
AcDbAlignedDimension
 13
1364.098310053114
 23
492.552814451778
 33
0.0
 14
1367.598310053114
 24
100.052814451778
 34
0.0
 50
90.0
100
AcDbRotatedDimension
1001
ACAD
1000
DSTYLE
1002
{
1070
   279
1070
     1
1070
    40
1040
5.0
1070
    45
1040
0.5
1070
   271
1070
     1
1070
   272
1070
     1
1070
   341
1005
4E
1070
   342
1005
48
1002
}
  0
DIMENSION
  5
59F
330
2
100
AcDbEntity
  8
SIZE
100
AcDbDimension
  2
*D12
 10
1286.423958019726
 20
-51.94718554822191
 30
0.0
 11
1277.048958019726
 21
24.05281445177826
 31
0.0
 70
    32
 71
     5
 42
151.9999999999999
  3
ISO-25
100
AcDbAlignedDimension
 13
1367.598310053114
 23
100.052814451778
 33
0.0
 14
1367.598310053114
 24
-51.94718554822194
 34
0.0
 50
90.0
100
AcDbRotatedDimension
1001
ACAD
1000
DSTYLE
1002
{
1070
   279
1070
     1
1070
    40
1040
5.0
1070
    45
1040
0.5
1070
   271
1070
     1
1070
   272
1070
     1
1070
   341
1005
4E
1070
   342
1005
48
1002
}
  0
DIMENSION
  5
5AC
330
2
100
AcDbEntity
  8
SIZE
100
AcDbDimension
  2
*D13
 10
1286.423958019726
 20
-254.9471855482218
 30
0.0
 11
1277.048958019726
 21
-153.4471855482216
 31
0.0
 70
    32
 71
     5
 42
202.9999999999999
  3
ISO-25
100
AcDbAlignedDimension
 13
1367.598310053114
 23
-51.94718554822194
 33
0.0
 14
1367.598310053114
 24
-254.9471855482219
 34
0.0
 50
90.0
100
AcDbRotatedDimension
1001
ACAD
1000
DSTYLE
1002
{
1070
   279
1070
     1
1070
    40
1040
5.0
1070
    45
1040
0.5
1070
   271
1070
     1
1070
   272
1070
     1
1070
   341
1005
4E
1070
   342
1005
48
1002
}
  0
DIMENSION
  5
5B9
330
2
100
AcDbEntity
  8
SIZE
100
AcDbDimension
  2
*D14
 10
1244.577155930481
 20
614.0528144517783
 30
0.0
 11
1235.202155930481
 21
174.8028144517784
 31
0.0
 70
    32
 71
     5
 42
878.5000000000001
  3
ISO-25
100
AcDbAlignedDimension
 13
1361.208310053114
 23
-264.4471855482219
 33
0.0
 14
1365.208310053114
 24
614.0528144517782
 34
0.0
 50
90.0
100
AcDbRotatedDimension
1001
ACAD
1000
DSTYLE
1002
{
1070
    40
1040
5.0
1070
    45
1040
0.5
1070
   271
1070
     1
1070
   272
1070
     1
1070
   341
1005
4E
1070
   342
1005
48
1002
}
  0
DIMENSION
  5
5C6
330
2
100
AcDbEntity
  8
SIZE
100
AcDbDimension
  2
*D15
 10
1316.408817995238
 20
492.552814451778
 30
0.0
 11
1307.033817995238
 21
446.2730525470163
 31
0.0
 70
    32
 71
     5
 42
13.50000000000006
  3
ISO-25
100
AcDbAlignedDimension
 13
1367.598310053114
 23
506.0528144517781
 33
0.0
 14
1364.098310053114
 24
492.552814451778
 34
0.0
 50
90.0
100
AcDbRotatedDimension
1001
ACAD
1000
DSTYLE
1002
{
1070
    40
1040
5.0
1070
    45
1040
0.5
1070
   271
1070
     1
1070
   272
1070
     1
1070
   341
1005
4E
1070
   342
1005
48
1002
}
  0
DIMENSION
  5
5E2
330
2
100
AcDbEntity
  8
SIZE
100
AcDbDimension
  2
*D17
 10
2154.71478349883
 20
123.052814451775
 30
0.0
 11
2145.33978349883
 21
319.3028144517754
 31
0.0
 70
    32
 71
     5
 42
392.5
  3
ISO-25
100
AcDbAlignedDimension
 13
2088.318310053113
 23
515.552814451775
 33
0.0
 14
2084.708310053114
 24
123.052814451775
 34
0.0
 50
90.0
100
AcDbRotatedDimension
1001
ACAD
1000
DSTYLE
1002
{
1070
   279
1070
     1
1070
    40
1040
5.0
1070
    45
1040
0.5
1070
   271
1070
     1
1070
   272
1070
     1
1070
   341
1005
4E
1070
   342
1005
48
1002
}
  0
DIMENSION
  5
5EF
330
2
100
AcDbEntity
  8
SIZE
100
AcDbDimension
  2
*D18
 10
2154.71478349883
 20
-51.94718554822499
 30
0.0
 11
2145.33978349883
 21
35.55281445177535
 31
0.0
 70
    32
 71
     5
 42
175.0
  3
ISO-25
100
AcDbAlignedDimension
 13
2084.708310053114
 23
123.052814451775
 33
0.0
 14
2072.818310053114
 24
-51.94718554822497
 34
0.0
 50
90.0
100
AcDbRotatedDimension
1001
ACAD
1000
DSTYLE
1002
{
1070
   279
1070
     1
1070
    40
1040
5.0
1070
    45
1040
0.5
1070
   271
1070
     1
1070
   272
1070
     1
1070
   341
1005
4E
1070
   342
1005
48
1002
}
  0
DIMENSION
  5
5FC
330
2
100
AcDbEntity
  8
SIZE
100
AcDbDimension
  2
*D19
 10
2154.71478349883
 20
-254.947185548225
 30
0.0
 11
2145.33978349883
 21
-153.4471855482246
 31
0.0
 70
    32
 71
     5
 42
203.0
  3
ISO-25
100
AcDbAlignedDimension
 13
2072.818310053114
 23
-51.94718554822497
 33
0.0
 14
2072.818310053114
 24
-254.947185548225
 34
0.0
 50
90.0
100
AcDbRotatedDimension
1001
ACAD
1000
DSTYLE
1002
{
1070
   279
1070
     1
1070
    40
1040
5.0
1070
    45
1040
0.5
1070
   271
1070
     1
1070
   272
1070
     1
1070
   341
1005
4E
1070
   342
1005
48
1002
}
  0
MULTILEADER
  5
609
330
2
100
AcDbEntity
  8
NOTE
 92
      592
310
50020000110000000C00000010000000090000000C00000016000000000000C00C00000013000000112700003C000000060000000200000014C8340D86D0944094D5A8FCCEB872C00000000000000000D7BD5D6915CF944094D5A8FCCEB872C000000000000000000C00000013000000010000000C00000014000000010000
310
005400000007000000030000004B15D3D6BD3D95407BB22720679170C0000000000000000060A0BBA544639540C3E72EB37B1570C000000000000000001D8EB54BD1499540B670713B63BB70C000000000000000000C00000013000000891300003C0000000600000002000000B4514491C74395409891CC2D65A670C00000
310
00000000000014C8340D86D0944094D5A8FCCEB872C000000000000000000C000000130000009A3A00003C0000000600000002000000245082B2A7EB934097D5A8FCCEB872C00000000000000000DBBD5D6915CF944097D5A8FCCEB872C000000000000000000C00000016000000000000C00C00000012000000FF7F00000C
310
00000017000000FFFFFFFF0C00000016000000000000C00C00000013000000993A0000B00000000B000000499914D7F0DD9340316F4296689272C0000000000000000000000000000000000000000000000000000000000000F03F000000000000F03F0000000000000000000000000000000031302D5C552B323230353600
310
0B000000010000000000000000002840000000000000F03F0000000000000000000000000000F03F0000000000000000000000000000000000000000726F6D616E732E7368780000626967666F6E742E73687800
100
AcDbMLeader
300
CONTEXT_DATA{
 40
1.0
 10
1272.913766895429
 20
-292.3505339236347
 30
0.0
 41
12.0
140
12.0
145
2.0
174
     1
175
     6
176
     2
177
     0
290
     1
304
10-%%C6
 11
0.0
 21
0.0
 31
1.0
340
22
 12
1329.770909752572
 22
-285.1505339236346
 32
0.0
 13
1.0
 23
0.0
 33
0.0
 42
0.0
 43
0.0
 44
0.0
 45
1.0
170
     1
 90
-1073741824
171
     3
172
     5
 91
-1073741824
141
0.0
 92
   647240
291
     0
292
     0
173
     0
293
     0
142
0.0
143
0.0
294
     0
295
     0
296
     0
110
1370.919310053114
120
-254.9471855482219
130
0.0
111
1.0
121
0.0
131
0.0
112
0.0
122
1.0
132
0.0
297
     0
302
LEADER{
290
     1
291
     1
 10
1332.130909752571
 20
-299.5505339236345
 30
0.0
 11
-1.0
 21
0.0
 31
0.0
 90
        0
 40
0.36
304
LEADER_LINE{
 10
1368.817038470901
 20
-257.3427001793135
 30
0.0
 91
        0
305
}
303
}
301
}
340
4D9
 90
   345088
170
     1
 91
-1056964608
341
25
171
    -2
290
     1
291
     1
 41
0.36
 42
12.0
172
     2
343
22
173
     1
 95
        6
174
     1
175
     2
 92
-1056964608
292
     0
 93
-1056964608
 10
1.0
 20
1.0
 30
1.0
 43
0.0
176
     0
293
     0
294
     0
178
     0
179
     3
 45
1.0
1001
ACAD_MLEADERVER
1070
     2
  0
MULTILEADER
  5
60A
330
2
100
AcDbEntity
  8
NOTE
 92
      588
310
4C020000110000000C00000010000000090000000C00000016000000000000C00C00000013000000112700003C00000006000000020000006A4E13FB33CD95409C6BEC6AD39180400000000000000000A758EA9EA4CE95409C6BEC6AD391804000000000000000000C00000013000000010000000C00000014000000010000
310
0054000000070000000300000023717AC4AF9B9540EA9F49752F1880400000000000000000B9786908167495407E181C793FBF7F400000000000000000691408B85F90954048D12E99D02E804000000000000000000C00000013000000891300003C0000000600000002000000C64241BE0796954099383C07802380400000
310
0000000000006A4E13FB33CD95409C6BEC6AD391804000000000000000000C000000130000009A3A00003C0000000600000002000000A858EA9EA4CE95409C6BEC6AD391804000000000000000003A7D3331C98F96409C6BEC6AD391804000000000000000000C00000016000000000000C00C00000012000000FF7F00000C
310
00000017000000FFFFFFFF0C00000016000000000000C00C00000013000000993A0000AC0000000B0000003A7D3331C9CF9540CF9E1F9E06A58040000000000000000000000000000000000000000000000000000000000000F03F000000000000F03F00000000000000000000000000000000322D5233002B323204000000
310
010000000000000000002840000000000000F03F0000000000000000000000000000F03F0000000000000000000000000000000000000000726F6D616E732E7368780073626967666F6E742E73687800
100
AcDbMLeader
300
CONTEXT_DATA{
 40
1.0
 10
1395.6607624642
 20
530.2282312841739
 30
0.0
 41
12.0
140
12.0
145
2.0
174
     6
175
     6
176
     0
177
     0
290
     1
304
2-R3
 11
0.0
 21
0.0
 31
1.0
340
22
 12
1397.6607624642
 22
544.6282312841739
 32
0.0
 13
1.0
 23
0.0
 33
0.0
 42
0.0
 43
0.0
 44
0.0
 45
1.0
170
     1
 90
-1073741824
171
     1
172
     5
 91
-1073741824
141
0.0
 92
   647240
291
     0
292
     0
173
     0
293
     0
142
0.0
143
0.0
294
     0
295
     0
296
     0
110
1370.919310053114
120
506.0528144517781
130
0.0
111
1.0
121
0.0
131
0.0
112
0.0
122
1.0
132
0.0
297
     0
302
LEADER{
290
     1
291
     1
 10
1395.3007624642
 20
530.2282312841739
 30
0.0
 11
1.0
 21
0.0
 31
0.0
 90
        0
 40
0.36
304
LEADER_LINE{
 10
1373.021516464227
 20
507.9529963586318
 30
0.0
 91
        0
305
}
303
}
301
}
340
4D9
 90
   349184
170
     1
 91
-1056964608
341
25
171
    -2
290
     1
291
     1
 41
0.36
 42
12.0
172
     2
343
22
173
     6
 95
        6
174
     1
175
     0
 92
-1056964608
292
     0
 93
-1056964608
 10
1.0
 20
1.0
 30
1.0
 43
0.0
176
     0
293
     0
294
     0
178
     0
179
     1
 45
1.0
1001
ACAD_MLEADERVER
1070
     2
  0
MULTILEADER
  5
60B
330
2
100
AcDbEntity
  8
NOTE
 92
      588
310
4C020000110000000C00000010000000090000000C00000016000000000000C00C00000013000000112700003C0000000600000002000000A657630C74CE9540626C3C7C28EE7C400000000000000000E3613AB0E4CF9540626C3C7C28EE7C4000000000000000000C00000013000000010000000C00000014000000010000
310
0054000000070000000300000000C8EFD79A949540DE45988A0ED57D40000000000000000091A46DA0497C9540D4359EBBA87D7E400000000000000000C27181FBF5A095409E3BFC96B7FD7D4000000000000000000C00000013000000891300003C0000000600000002000000E19CB869C89A9540BE40CA1063E97D400000
310
000000000000A657630C74CE9540626C3C7C28EE7C4000000000000000000C000000130000009A3A00003C0000000600000002000000E3613AB0E4CF9540626C3C7C28EE7C400000000000000000BE18A88B9BD59640626C3C7C28EE7C4000000000000000000C00000016000000000000C00C00000012000000FF7F00000C
310
00000017000000FFFFFFFF0C00000016000000000000C00C00000013000000993A0000AC0000000B0000007586834209D19540C6D2A2E28E147D40000000000000000000000000000000000000000000000000000000000000F03F000000000000F03F00000000000000000000000000000000322D52362E35003206000000
310
010000000000000000002840000000000000F03F0000000000000000000000000000F03F0000000000000000000000000000000000000000726F6D616E732E7368780073626967666F6E742E73687800
100
AcDbMLeader
300
CONTEXT_DATA{
 40
1.0
 10
1395.973328506684
 20
462.8848841057098
 30
0.0
 41
12.0
140
12.0
145
2.0
174
     6
175
     6
176
     0
177
     0
290
     1
304
2-R6.5
 11
0.0
 21
0.0
 31
1.0
340
22
 12
1397.973328506684
 22
477.2848841057096
 32
0.0
 13
1.0
 23
0.0
 33
0.0
 42
0.0
 43
0.0
 44
0.0
 45
1.0
170
     1
 90
-1073741824
171
     1
172
     5
 91
-1073741824
141
0.0
 92
   647240
291
     0
292
     0
173
     0
293
     0
142
0.0
143
0.0
294
     0
295
     0
296
     0
110
1370.497310053114
120
492.552814451778
130
0.0
111
1.0
121
0.0
131
0.0
112
0.0
122
1.0
132
0.0
297
     0
302
LEADER{
290
     1
291
     1
 10
1395.613328506684
 20
462.8848841057098
 30
0.0
 11
1.0
 21
0.0
 31
0.0
 90
        0
 40
0.36
304
LEADER_LINE{
 10
1375.071901047868
 20
487.8536945514763
 30
0.0
 91
        0
305
}
303
}
301
}
340
4D9
 90
   349184
170
     1
 91
-1056964608
341
25
171
    -2
290
     1
291
     1
 41
0.36
 42
12.0
172
     2
343
22
173
     6
 95
        6
174
     1
175
     0
 92
-1056964608
292
     0
 93
-1056964608
 10
1.0
 20
1.0
 30
1.0
 43
0.0
176
     0
293
     0
294
     0
178
     0
179
     1
 45
1.0
1001
ACAD_MLEADERVER
1070
     2
  0
DIMENSION
  5
61C
330
2
100
AcDbEntity
  8
SIZE
100
AcDbDimension
  2
*D20
 10
2154.71478349883
 20
515.552814451775
 30
0.0
 11
2145.33978349883
 21
562.5528144517771
 31
0.0
 70
    32
 71
     5
 42
94.00000000000341
  3
ISO-25
100
AcDbAlignedDimension
 13
2019.818310053114
 23
609.5528144517784
 33
0.0
 14
2088.208310053113
 24
515.552814451775
 34
0.0
 50
90.0
100
AcDbRotatedDimension
1001
ACAD
1000
DSTYLE
1002
{
1070
    40
1040
5.0
1070
    45
1040
0.5
1070
   271
1070
     1
1070
   272
1070
     1
1070
   341
1005
4E
1070
   342
1005
48
1002
}
  0
LINE
  5
B9D
330
2
100
AcDbEntity
  8
BASIS
  6
DASHDOT
 62
     6
100
AcDbLine
 10
1726.208310053114
 20
-296.5369014648175
 30
0.0
 11
1726.208310053114
 21
626.8743800991041
 31
0.0
  0
LINE
  5
B9E
330
2
100
AcDbEntity
  8
ARRANGE
  6
Continuous
 62
     1
100
AcDbLine
 10
1709.52419248871
 20
-281.131303112628
 30
0.0
 11
1742.892427617517
 21
-247.7630679838209
 31
0.0
  0
LINE
  5
B9F
330
2
100
AcDbEntity
  8
ARRANGE
  6
Continuous
 62
     1
100
AcDbLine
 10
1709.52419248871
 20
-247.7630679838209
 30
0.0
 11
1742.892427617517
 21
-281.131303112628
 31
0.0
  0
CIRCLE
  5
BA0
330
2
100
AcDbEntity
  8
ARRANGE
100
AcDbCircle
 10
1726.208310053114
 20
-264.4471855482244
 30
0.0
 40
15.0
  0
ENDSEC
  0
SECTION
  2
OBJECTS
  0
DICTIONARY
  5
9
330
0
100
AcDbDictionary
281
     1
  3
ACAD_BACKGROUND
350
4DF
  3
ACAD_COLOR
350
45
  3
ACAD_GROUP
350
32
  3
ACAD_LAYOUT
350
16
  3
ACAD_MATERIAL
350
B
  3
ACAD_MLEADERSTYLE
350
4D8
  3
ACAD_MLINESTYLE
350
33
  3
ACAD_PLOTSETTINGS
350
34
  3
ACAD_PLOTSTYLENAME
350
8
  3
ACAD_SCALELIST
350
46
  3
ACAD_TABLESTYLE
350
47
  3
ACAD_VISUALSTYLE
350
2C
  3
ACDB_RECOMPOSE_DATA
350
4C4
  3
AcDbVariableDictionary
350
4C5
  3
DWGPROPS
350
C68
  0
DICTIONARY
  5
4F3
330
29
100
AcDbDictionary
280
     1
281
     1
  0
DICTIONARY
  5
1F
330
1E
100
AcDbDictionary
280
     1
281
     1
  3
ACAD_LAYERFILTERS
360
C66
  3
ACAD_LAYERSTATES
360
20
  3
ACLYDICTIONARY
360
C65
  0
DICTIONARY
  5
4E4
330
6
100
AcDbDictionary
280
     1
281
     1
  3
ADSK_XREC_LAYER_RECONCILED
360
4E5
  0
DICTIONARY
  5
3
330
2
100
AcDbDictionary
280
     1
281
     1
  3
ACAD_LAYOUTSELFREF
360
4
  0
DICTIONARY
  5
4DF
102
{ACAD_REACTORS
330
9
102
}
330
9
100
AcDbDictionary
281
     1
  0
DICTIONARY
  5
45
102
{ACAD_REACTORS
330
9
102
}
330
9
100
AcDbDictionary
281
     1
  0
DICTIONARY
  5
32
102
{ACAD_REACTORS
330
9
102
}
330
9
100
AcDbDictionary
281
     1
  0
DICTIONARY
  5
16
102
{ACAD_REACTORS
330
9
102
}
330
9
100
AcDbDictionary
281
     1
  3
Model
350
15
  3
レイアウト1
350
1A
  0
DICTIONARY
  5
B
102
{ACAD_REACTORS
330
9
102
}
330
9
100
AcDbDictionary
281
     1
  3
ByBlock
350
3D
  3
ByLayer
350
35
  3
Global
350
A
  0
DICTIONARY
  5
4D8
102
{ACAD_REACTORS
330
9
102
}
330
9
100
AcDbDictionary
281
     1
  3
Standard
350
4D9
  0
DICTIONARY
  5
33
102
{ACAD_REACTORS
330
9
102
}
330
9
100
AcDbDictionary
281
     1
  3
Standard
350
55
  0
DICTIONARY
  5
34
102
{ACAD_REACTORS
330
9
102
}
330
9
100
AcDbDictionary
281
     1
  0
ACDBDICTIONARYWDFLT
  5
8
102
{ACAD_REACTORS
330
9
102
}
330
9
100
AcDbDictionary
281
     1
  3
Normal
350
7
100
AcDbDictionaryWithDefault
340
7
  0
DICTIONARY
  5
46
102
{ACAD_REACTORS
330
9
102
}
330
9
100
AcDbDictionary
281
     1
  3
A0
350
59
  3
A1
350
5A
  3
A2
350
5B
  3
A3
350
5C
  3
A4
350
5D
  3
A5
350
5E
  3
A6
350
5F
  3
A7
350
60
  3
A8
350
61
  3
A9
350
62
  3
B0
350
63
  3
B1
350
64
  3
B2
350
65
  3
B3
350
66
  3
B4
350
67
  3
B5
350
68
  3
B6
350
69
  3
B7
350
6A
  3
B8
350
6B
  3
B9
350
6C
  3
C0
350
6D
  3
C1
350
6E
  3
C2
350
6F
  3
C3
350
70
  3
C4
350
71
  3
C5
350
72
  3
C6
350
73
  3
C7
350
74
  3
C8
350
75
  3
C9
350
76
  3
D0
350
77
  3
D1
350
78
  3
D2
350
79
  0
DICTIONARY
  5
47
102
{ACAD_REACTORS
330
9
102
}
330
9
100
AcDbDictionary
281
     1
  3
Standard
350
56
  0
DICTIONARY
  5
2C
102
{ACAD_REACTORS
330
9
102
}
330
9
100
AcDbDictionary
281
     1
  3
2dWireframe
350
4CF
  3
3D Hidden
350
4D0
  3
3dWireframe
350
58
  3
Basic
350
4CE
  3
Brighten
350
4D3
  3
ColorChange
350
4D7
  3
Conceptual
350
4D1
  3
Dim
350
4D2
  3
Facepattern
350
4D6
  3
Flat
350
4CB
  3
FlatWithEdges
350
4CC
  3
Gouraud
350
2B
  3
GouraudWithEdges
350
4CD
  3
Linepattern
350
4D5
  3
Realistic
350
57
  3
Thicken
350
4D4
  0
XRECORD
  5
4C4
102
{ACAD_REACTORS
330
9
102
}
330
9
100
AcDbXrecord
280
     1
 90
        1
330
56
  0
DICTIONARY
  5
4C5
102
{ACAD_REACTORS
330
9
102
}
330
9
100
AcDbDictionary
281
     1
  3
CANNOSCALE
350
4C8
  3
CMLEADERSTYLE
350
4C7
  3
CTABLESTYLE
350
4C6
  3
DIMASSOC
350
4FF
  3
HIDETEXT
350
4FE
  3
INDEXCTL
350
4FD
  3
LIGHTINGUNITS
350
4C9
  3
MSLTSCALE
350
4FB
  3
SORTENTS
350
4FC
  0
XRECORD
  5
C68
102
{ACAD_REACTORS
330
9
102
}
330
9
100
AcDbXrecord
280
     1
  1
DWGPROPS COOKIE
  2

  3

  4

  6

  7

  8
W000135
  9

300
=
301
=
302
=
303
=
304
=
305
=
306
=
307
=
308
=
309
=
 40
1.842336180555555
 41
2451686.550481944
 42
2454986.393151968
  1

 90
        0
  0
DICTIONARY
  5
C66
102
{ACAD_REACTORS
330
1F
102
}
330
1F
100
AcDbDictionary
281
     1
  0
DICTIONARY
  5
20
102
{ACAD_REACTORS
330
1F
102
}
330
1F
100
AcDbDictionary
281
     1
  0
DICTIONARY
  5
C65
102
{ACAD_REACTORS
330
1F
102
}
330
1F
100
AcDbDictionary
281
     1
1001
ACAD
1000
<All
  0
XRECORD
  5
4E5
102
{ACAD_REACTORS
330
4E4
102
}
330
4E4
100
AcDbXrecord
280
     1
290
     1
  0
XRECORD
  5
4
102
{ACAD_REACTORS
330
3
102
}
330
3
100
AcDbXrecord
280
     1
340
2
  0
LAYOUT
  5
15
102
{ACAD_XDICTIONARY
360
C69
102
}
102
{ACAD_REACTORS
330
16
102
}
330
16
100
AcDbPlotSettings
  1

  2
\\ENGC3\QUE_LP1
  4

  6

 40
0.0
 41
0.0
 42
0.0
 43
0.0
 44
0.0
 45
0.0
 46
0.0
 47
0.0
 48
0.0
 49
0.0
140
0.0
141
0.0
142
1.0
143
1.0
 70
  1712
 72
     0
 73
     0
 74
     0
  7

 75
     0
147
1.0
148
0.0
149
0.0
100
AcDbLayout
  1
Model
 70
     1
 71
     0
 10
0.0
 20
0.0
 11
12.0
 21
9.0
 12
0.0
 22
0.0
 32
0.0
 14
0.0
 24
0.0
 34
0.0
 15
0.0
 25
0.0
 35
0.0
146
0.0
 13
0.0
 23
0.0
 33
0.0
 16
1.0
 26
0.0
 36
0.0
 17
0.0
 27
1.0
 37
0.0
 76
     0
330
2
331
636
  0
LAYOUT
  5
1A
102
{ACAD_XDICTIONARY
360
1B
102
}
102
{ACAD_REACTORS
330
16
102
}
330
16
100
AcDbPlotSettings
  1

  2
Microsoft XPS Document Writer
  4
A4
  6

 40
3.174999952316281
 41
3.174999952316281
 42
3.175003051757812
 43
3.17498779296875
 44
210.0156707763672
 45
297.0106506347656
 46
0.0
 47
0.0
 48
0.0
 49
0.0
140
0.0
141
0.0
142
1.0
143
1.0
 70
   688
 72
     1
 73
     1
 74
     5
  7

 75
    16
147
1.0
148
0.0
149
0.0
100
AcDbLayout
  1
レイアウト1
 70
     1
 71
     1
 10
0.0
 20
0.0
 11
12.0
 21
9.0
 12
0.0
 22
0.0
 32
0.0
 14
-1151.520202254302
 24
-965.556304254887
 34
0.0
 15
2127.908310053115
 25
1290.869170724722
 35
0.0
146
0.0
 13
0.0
 23
0.0
 33
0.0
 16
1.0
 26
0.0
 36
0.0
 17
0.0
 27
1.0
 37
0.0
 76
     0
330
17
1001
ACAD_PSEXT
1000
Microsoft XPS Document Writer
1000
Microsoft XPS Document Writer
1000
XPSPort:
1000

1070
     0
  0
MATERIAL
  5
3D
102
{ACAD_XDICTIONARY
360
3E
102
}
102
{ACAD_REACTORS
330
B
102
}
330
B
100
AcDbMaterial
  1
ByBlock
 72
     0
 43
0.0008202099737533
 43
0.0
 43
0.0
 43
0.0
 43
0.0
 43
0.0008202099737533
 43
0.0
 43
0.0
 43
0.0
 43
0.0
 43
1.0
 43
0.0
 43
0.0
 43
0.0
 43
0.0
 43
1.0
 77
     0
 47
0.0008202099737533
 47
0.0
 47
0.0
 47
0.0
 47
0.0
 47
0.0008202099737533
 47
0.0
 47
0.0
 47
0.0
 47
0.0
 47
1.0
 47
0.0
 47
0.0
 47
0.0
 47
0.0
 47
1.0
171
     0
 49
0.0008202099737533
 49
0.0
 49
0.0
 49
0.0
 49
0.0
 49
0.0008202099737533
 49
0.0
 49
0.0
 49
0.0
 49
0.0
 49
1.0
 49
0.0
 49
0.0
 49
0.0
 49
0.0
 49
1.0
175
     0
142
0.0008202099737533
142
0.0
142
0.0
142
0.0
142
0.0
142
0.0008202099737533
142
0.0
142
0.0
142
0.0
142
0.0
142
1.0
142
0.0
142
0.0
142
0.0
142
0.0
142
1.0
179
     0
144
0.0008202099737533
144
0.0
144
0.0
144
0.0
144
0.0
144
0.0008202099737533
144
0.0
144
0.0
144
0.0
144
0.0
144
1.0
144
0.0
144
0.0
144
0.0
144
0.0
144
1.0
147
0.0008202099737533
147
0.0
147
0.0
147
0.0
147
0.0
147
0.0008202099737533
147
0.0
147
0.0
147
0.0
147
0.0
147
1.0
147
0.0
147
0.0
147
0.0
147
0.0
147
1.0
  0
MATERIAL
  5
35
102
{ACAD_XDICTIONARY
360
36
102
}
102
{ACAD_REACTORS
330
B
102
}
330
B
100
AcDbMaterial
  1
ByLayer
 72
     0
 43
0.0008202099737533
 43
0.0
 43
0.0
 43
0.0
 43
0.0
 43
0.0008202099737533
 43
0.0
 43
0.0
 43
0.0
 43
0.0
 43
1.0
 43
0.0
 43
0.0
 43
0.0
 43
0.0
 43
1.0
 77
     0
 47
0.0008202099737533
 47
0.0
 47
0.0
 47
0.0
 47
0.0
 47
0.0008202099737533
 47
0.0
 47
0.0
 47
0.0
 47
0.0
 47
1.0
 47
0.0
 47
0.0
 47
0.0
 47
0.0
 47
1.0
171
     0
 49
0.0008202099737533
 49
0.0
 49
0.0
 49
0.0
 49
0.0
 49
0.0008202099737533
 49
0.0
 49
0.0
 49
0.0
 49
0.0
 49
1.0
 49
0.0
 49
0.0
 49
0.0
 49
0.0
 49
1.0
175
     0
142
0.0008202099737533
142
0.0
142
0.0
142
0.0
142
0.0
142
0.0008202099737533
142
0.0
142
0.0
142
0.0
142
0.0
142
1.0
142
0.0
142
0.0
142
0.0
142
0.0
142
1.0
179
     0
144
0.0008202099737533
144
0.0
144
0.0
144
0.0
144
0.0
144
0.0008202099737533
144
0.0
144
0.0
144
0.0
144
0.0
144
1.0
144
0.0
144
0.0
144
0.0
144
0.0
144
1.0
147
0.0008202099737533
147
0.0
147
0.0
147
0.0
147
0.0
147
0.0008202099737533
147
0.0
147
0.0
147
0.0
147
0.0
147
1.0
147
0.0
147
0.0
147
0.0
147
0.0
147
1.0
  0
MATERIAL
  5
A
102
{ACAD_XDICTIONARY
360
C
102
}
102
{ACAD_REACTORS
330
B
102
}
330
B
100
AcDbMaterial
  1
Global
 72
     0
 43
0.0008202099737533
 43
0.0
 43
0.0
 43
0.0
 43
0.0
 43
0.0008202099737533
 43
0.0
 43
0.0
 43
0.0
 43
0.0
 43
1.0
 43
0.0
 43
0.0
 43
0.0
 43
0.0
 43
1.0
 77
     0
 47
0.0008202099737533
 47
0.0
 47
0.0
 47
0.0
 47
0.0
 47
0.0008202099737533
 47
0.0
 47
0.0
 47
0.0
 47
0.0
 47
1.0
 47
0.0
 47
0.0
 47
0.0
 47
0.0
 47
1.0
171
     0
 49
0.0008202099737533
 49
0.0
 49
0.0
 49
0.0
 49
0.0
 49
0.0008202099737533
 49
0.0
 49
0.0
 49
0.0
 49
0.0
 49
1.0
 49
0.0
 49
0.0
 49
0.0
 49
0.0
 49
1.0
175
     0
142
0.0008202099737533
142
0.0
142
0.0
142
0.0
142
0.0
142
0.0008202099737533
142
0.0
142
0.0
142
0.0
142
0.0
142
1.0
142
0.0
142
0.0
142
0.0
142
0.0
142
1.0
179
     0
144
0.0008202099737533
144
0.0
144
0.0
144
0.0
144
0.0
144
0.0008202099737533
144
0.0
144
0.0
144
0.0
144
0.0
144
1.0
144
0.0
144
0.0
144
0.0
144
0.0
144
1.0
147
0.0008202099737533
147
0.0
147
0.0
147
0.0
147
0.0
147
0.0008202099737533
147
0.0
147
0.0
147
0.0
147
0.0
147
1.0
147
0.0
147
0.0
147
0.0
147
0.0
147
1.0
  0
MLEADERSTYLE
  5
4D9
102
{ACAD_REACTORS
330
4D8
330
609
330
60A
330
60B
102
}
330
4D8
100
AcDbMLeaderStyle
170
     2
171
     1
172
     0
 90
        2
 40
0.0
 41
0.0
173
     1
 91
-1056964608
340
25
 92
       -2
290
     1
 42
2.0
291
     1
 43
0.36
  3
Standard
 44
4.0
300

342
22
174
     1
178
     6
175
     1
176
     0
 93
-1056964608
 45
4.0
292
     0
297
     0
 46
4.0
 94
-1056964608
 47
1.0
 49
1.0
140
1.0
293
     1
141
0.0
294
     1
177
     0
142
1.0
295
     0
296
     0
143
0.125
1001
ACAD_MLEADERVER
1070
     2
  0
MLINESTYLE
  5
55
102
{ACAD_REACTORS
330
33
102
}
330
33
100
AcDbMlineStyle
  2
STANDARD
 70
     0
  3

 62
   256
 51
90.0
 52
90.0
 71
     2
 49
0.5
 62
   256
  6
BYLAYER
 49
-0.5
 62
   256
  6
BYLAYER
  0
ACDBPLACEHOLDER
  5
7
102
{ACAD_REACTORS
330
8
102
}
330
8
  0
SCALE
  5
59
102
{ACAD_REACTORS
330
46
102
}
330
46
100
AcDbScale
 70
     0
300
1:1
140
1.0
141
1.0
290
     1
  0
SCALE
  5
5A
102
{ACAD_REACTORS
330
46
102
}
330
46
100
AcDbScale
 70
     0
300
1:2
140
1.0
141
2.0
290
     0
  0
SCALE
  5
5B
102
{ACAD_REACTORS
330
46
102
}
330
46
100
AcDbScale
 70
     0
300
1:4
140
1.0
141
4.0
290
     0
  0
SCALE
  5
5C
102
{ACAD_REACTORS
330
46
102
}
330
46
100
AcDbScale
 70
     0
300
1:5
140
1.0
141
5.0
290
     0
  0
SCALE
  5
5D
102
{ACAD_REACTORS
330
46
102
}
330
46
100
AcDbScale
 70
     0
300
1:8
140
1.0
141
8.0
290
     0
  0
SCALE
  5
5E
102
{ACAD_REACTORS
330
46
102
}
330
46
100
AcDbScale
 70
     0
300
1:10
140
1.0
141
10.0
290
     0
  0
SCALE
  5
5F
102
{ACAD_REACTORS
330
46
102
}
330
46
100
AcDbScale
 70
     0
300
1:16
140
1.0
141
16.0
290
     0
  0
SCALE
  5
60
102
{ACAD_REACTORS
330
46
102
}
330
46
100
AcDbScale
 70
     0
300
1:20
140
1.0
141
20.0
290
     0
  0
SCALE
  5
61
102
{ACAD_REACTORS
330
46
102
}
330
46
100
AcDbScale
 70
     0
300
1:30
140
1.0
141
30.0
290
     0
  0
SCALE
  5
62
102
{ACAD_REACTORS
330
46
102
}
330
46
100
AcDbScale
 70
     0
300
1:40
140
1.0
141
40.0
290
     0
  0
SCALE
  5
63
102
{ACAD_REACTORS
330
46
102
}
330
46
100
AcDbScale
 70
     0
300
1:50
140
1.0
141
50.0
290
     0
  0
SCALE
  5
64
102
{ACAD_REACTORS
330
46
102
}
330
46
100
AcDbScale
 70
     0
300
1:100
140
1.0
141
100.0
290
     0
  0
SCALE
  5
65
102
{ACAD_REACTORS
330
46
102
}
330
46
100
AcDbScale
 70
     0
300
2:1
140
2.0
141
1.0
290
     0
  0
SCALE
  5
66
102
{ACAD_REACTORS
330
46
102
}
330
46
100
AcDbScale
 70
     0
300
4:1
140
4.0
141
1.0
290
     0
  0
SCALE
  5
67
102
{ACAD_REACTORS
330
46
102
}
330
46
100
AcDbScale
 70
     0
300
8:1
140
8.0
141
1.0
290
     0
  0
SCALE
  5
68
102
{ACAD_REACTORS
330
46
102
}
330
46
100
AcDbScale
 70
     0
300
10:1
140
10.0
141
1.0
290
     0
  0
SCALE
  5
69
102
{ACAD_REACTORS
330
46
102
}
330
46
100
AcDbScale
 70
     0
300
100:1
140
100.0
141
1.0
290
     0
  0
SCALE
  5
6A
102
{ACAD_REACTORS
330
46
102
}
330
46
100
AcDbScale
 70
     0
300
1/128" = 1'-0"
140
0.0078125
141
12.0
290
     0
  0
SCALE
  5
6B
102
{ACAD_REACTORS
330
46
102
}
330
46
100
AcDbScale
 70
     0
300
1/64" = 1'-0"
140
0.015625
141
12.0
290
     0
  0
SCALE
  5
6C
102
{ACAD_REACTORS
330
46
102
}
330
46
100
AcDbScale
 70
     0
300
1/32" = 1'-0"
140
0.03125
141
12.0
290
     0
  0
SCALE
  5
6D
102
{ACAD_REACTORS
330
46
102
}
330
46
100
AcDbScale
 70
     0
300
1/16" = 1'-0"
140
0.0625
141
12.0
290
     0
  0
SCALE
  5
6E
102
{ACAD_REACTORS
330
46
102
}
330
46
100
AcDbScale
 70
     0
300
3/32" = 1'-0"
140
0.09375
141
12.0
290
     0
  0
SCALE
  5
6F
102
{ACAD_REACTORS
330
46
102
}
330
46
100
AcDbScale
 70
     0
300
1/8" = 1'-0"
140
0.125
141
12.0
290
     0
  0
SCALE
  5
70
102
{ACAD_REACTORS
330
46
102
}
330
46
100
AcDbScale
 70
     0
300
3/16" = 1'-0"
140
0.1875
141
12.0
290
     0
  0
SCALE
  5
71
102
{ACAD_REACTORS
330
46
102
}
330
46
100
AcDbScale
 70
     0
300
1/4" = 1'-0"
140
0.25
141
12.0
290
     0
  0
SCALE
  5
72
102
{ACAD_REACTORS
330
46
102
}
330
46
100
AcDbScale
 70
     0
300
3/8" = 1'-0"
140
0.375
141
12.0
290
     0
  0
SCALE
  5
73
102
{ACAD_REACTORS
330
46
102
}
330
46
100
AcDbScale
 70
     0
300
1/2" = 1'-0"
140
0.5
141
12.0
290
     0
  0
SCALE
  5
74
102
{ACAD_REACTORS
330
46
102
}
330
46
100
AcDbScale
 70
     0
300
3/4" = 1'-0"
140
0.75
141
12.0
290
     0
  0
SCALE
  5
75
102
{ACAD_REACTORS
330
46
102
}
330
46
100
AcDbScale
 70
     0
300
1" = 1'-0"
140
1.0
141
12.0
290
     0
  0
SCALE
  5
76
102
{ACAD_REACTORS
330
46
102
}
330
46
100
AcDbScale
 70
     0
300
1-1/2" = 1'-0"
140
1.5
141
12.0
290
     0
  0
SCALE
  5
77
102
{ACAD_REACTORS
330
46
102
}
330
46
100
AcDbScale
 70
     0
300
3" = 1'-0"
140
3.0
141
12.0
290
     0
  0
SCALE
  5
78
102
{ACAD_REACTORS
330
46
102
}
330
46
100
AcDbScale
 70
     0
300
6" = 1'-0"
140
6.0
141
12.0
290
     0
  0
SCALE
  5
79
102
{ACAD_REACTORS
330
46
102
}
330
46
100
AcDbScale
 70
     0
300
1'-0" = 1'-0"
140
12.0
141
12.0
290
     0
  0
TABLESTYLE
  5
56
102
{ACAD_XDICTIONARY
360
4C2
102
}
102
{ACAD_REACTORS
330
47
102
}
330
47
100
AcDbTableStyle
  3
Standard
 70
     0
 71
     0
 40
1.5
 41
1.5
280
     0
281
     0
  7
Standard
140
4.5
170
     2
 62
     0
 63
     7
283
     0
274
    -2
284
     1
 64
     0
275
    -2
285
     1
 65
     0
276
    -2
286
     1
 66
     0
277
    -2
287
     1
 67
     0
278
    -2
288
     1
 68
     0
279
    -2
289
     1
 69
     0
  7
Standard
140
6.0
170
     5
 62
     0
 63
     7
283
     0
274
    -2
284
     1
 64
     0
275
    -2
285
     1
 65
     0
276
    -2
286
     1
 66
     0
277
    -2
287
     1
 67
     0
278
    -2
288
     1
 68
     0
279
    -2
289
     1
 69
     0
  7
Standard
140
4.5
170
     5
 62
     0
 63
     7
283
     0
274
    -2
284
     1
 64
     0
275
    -2
285
     1
 65
     0
276
    -2
286
     1
 66
     0
277
    -2
287
     1
 67
     0
278
    -2
288
     1
 68
     0
279
    -2
289
     1
 69
     0
  0
VISUALSTYLE
  5
4CF
102
{ACAD_REACTORS
330
2C
102
}
330
2C
100
AcDbVisualStyle
  2
2dWireframe
 70
     4
 71
     0
 72
     2
 73
     0
 90
        0
 40
-0.6
 41
-30.0
 62
     5
 63
     7
 74
     1
 91
        4
 64
     7
 65
   257
 75
     1
175
     1
 42
1.0
 92
        0
 66
   257
 43
1.0
 76
     1
 77
     6
 78
     2
 67
     7
 79
     5
170
     0
171
     0
290
     0
174
     0
 93
        1
 44
0.0
173
     0
291
     0
 45
0.0
1001
ACAD
1000
AcDbSavedByObjectVersion
1070
     0
1000
AcDbSavedByObjectVersion
1070
     0
1000
AcDbSavedByObjectVersion
1070
     0
1000
AcDbSavedByObjectVersion
1070
     0
  0
VISUALSTYLE
  5
4D0
102
{ACAD_REACTORS
330
2C
102
}
330
2C
100
AcDbVisualStyle
  2
3D Hidden
 70
     6
 71
     1
 72
     2
 73
     2
 90
        0
 40
-0.6
 41
-30.0
 62
     5
 63
     7
 74
     2
 91
        2
 64
     7
 65
   257
 75
     2
175
     1
 42
40.0
 92
        0
 66
   257
 43
1.0
 76
     1
 77
     6
 78
     2
 67
     7
 79
     3
170
     0
171
     0
290
     0
174
     0
 93
        1
 44
0.0
173
     0
291
     0
 45
0.0
1001
ACAD
1000
AcDbSavedByObjectVersion
1070
     0
1000
AcDbSavedByObjectVersion
1070
     0
1000
AcDbSavedByObjectVersion
1070
     0
1000
AcDbSavedByObjectVersion
1070
     0
  0
VISUALSTYLE
  5
58
102
{ACAD_REACTORS
330
2C
102
}
330
2C
100
AcDbVisualStyle
  2
3dWireframe
 70
     5
 71
     0
 72
     2
 73
     0
 90
        0
 40
-0.6
 41
-30.0
 62
     5
 63
     7
 74
     1
 91
        4
 64
     7
 65
   257
 75
     1
175
     1
 42
1.0
 92
        0
 66
   257
 43
1.0
 76
     1
 77
     6
 78
     2
 67
     7
 79
     5
170
     0
171
     0
290
     0
174
     0
 93
        1
 44
0.0
173
     0
291
     0
 45
0.0
1001
ACAD
1000
AcDbSavedByObjectVersion
1070
     0
1000
AcDbSavedByObjectVersion
1070
     0
1000
AcDbSavedByObjectVersion
1070
     0
1000
AcDbSavedByObjectVersion
1070
     0
  0
VISUALSTYLE
  5
4CE
102
{ACAD_REACTORS
330
2C
102
}
330
2C
100
AcDbVisualStyle
  2
Basic
 70
     7
 71
     1
 72
     0
 73
     1
 90
        0
 40
-0.6
 41
-30.0
 62
     5
 63
     7
 74
     0
 91
        4
 64
     7
 65
   257
 75
     1
175
     1
 42
1.0
 92
        8
 66
     7
 43
1.0
 76
     1
 77
     6
 78
     2
 67
     7
 79
     5
170
     0
171
     0
290
     0
174
     0
 93
        1
 44
0.0
173
     0
291
     1
 45
0.0
1001
ACAD
1000
AcDbSavedByObjectVersion
1070
     0
1000
AcDbSavedByObjectVersion
1070
     0
1000
AcDbSavedByObjectVersion
1070
     0
1000
AcDbSavedByObjectVersion
1070
     0
  0
VISUALSTYLE
  5
4D3
102
{ACAD_REACTORS
330
2C
102
}
330
2C
100
AcDbVisualStyle
  2
Brighten
 70
    12
 71
     2
 72
     2
 73
     0
 90
        0
 40
-0.6
 41
-30.0
 62
     5
 63
     7
 74
     1
 91
        4
 64
     7
 65
   257
 75
     1
175
     1
 42
1.0
 92
        8
 66
     7
 43
1.0
 76
     1
 77
     6
 78
     2
 67
     7
 79
     5
170
     0
171
     0
290
     0
174
     0
 93
        1
 44
50.0
173
     0
291
     1
 45
0.0
1001
ACAD
1000
AcDbSavedByObjectVersion
1070
     0
1000
AcDbSavedByObjectVersion
1070
     0
1000
AcDbSavedByObjectVersion
1070
     0
1000
AcDbSavedByObjectVersion
1070
     0
  0
VISUALSTYLE
  5
4D7
102
{ACAD_REACTORS
330
2C
102
}
330
2C
100
AcDbVisualStyle
  2
ColorChange
 70
    16
 71
     2
 72
     2
 73
     3
 90
        0
 40
-0.6
 41
-30.0
 62
     5
 63
     8
 74
     1
 91
        4
 64
     7
 65
   257
 75
     1
175
     1
 42
1.0
 92
        8
 66
     8
 43
1.0
 76
     1
 77
     6
 78
     2
 67
     7
 79
     5
170
     0
171
     0
290
     0
174
     0
 93
        1
 44
0.0
173
     0
291
     1
 45
0.0
1001
ACAD
1000
AcDbSavedByObjectVersion
1070
     0
1000
AcDbSavedByObjectVersion
1070
     0
1000
AcDbSavedByObjectVersion
1070
     0
1000
AcDbSavedByObjectVersion
1070
     0
  0
VISUALSTYLE
  5
4D1
102
{ACAD_REACTORS
330
2C
102
}
330
2C
100
AcDbVisualStyle
  2
Conceptual
 70
     9
 71
     3
 72
     2
 73
     0
 90
        0
 40
-0.6
 41
-30.0
 62
     5
 63
     7
 74
     2
 91
        2
 64
     7
 65
   257
 75
     1
175
     1
 42
40.0
 92
        8
 66
     7
 43
1.0
 76
     1
 77
     6
 78
     2
 67
     7
 79
     3
170
     0
171
     0
290
     0
174
     0
 93
        1
 44
0.0
173
     0
291
     0
 45
0.0
1001
ACAD
1000
AcDbSavedByObjectVersion
1070
     0
1000
AcDbSavedByObjectVersion
1070
     0
1000
AcDbSavedByObjectVersion
1070
     0
1000
AcDbSavedByObjectVersion
1070
     0
  0
VISUALSTYLE
  5
4D2
102
{ACAD_REACTORS
330
2C
102
}
330
2C
100
AcDbVisualStyle
  2
Dim
 70
    11
 71
     2
 72
     2
 73
     0
 90
        0
 40
-0.6
 41
-30.0
 62
     5
 63
     7
 74
     1
 91
        4
 64
     7
 65
   257
 75
     1
175
     1
 42
1.0
 92
        8
 66
     7
 43
1.0
 76
     1
 77
     6
 78
     2
 67
     7
 79
     5
170
     0
171
     0
290
     0
174
     0
 93
        1
 44
-50.0
173
     0
291
     1
 45
0.0
1001
ACAD
1000
AcDbSavedByObjectVersion
1070
     0
1000
AcDbSavedByObjectVersion
1070
     0
1000
AcDbSavedByObjectVersion
1070
     0
1000
AcDbSavedByObjectVersion
1070
     0
  0
VISUALSTYLE
  5
4D6
102
{ACAD_REACTORS
330
2C
102
}
330
2C
100
AcDbVisualStyle
  2
Facepattern
 70
    15
 71
     2
 72
     2
 73
     0
 90
        0
 40
-0.6
 41
-30.0
 62
     5
 63
     7
 74
     1
 91
        4
 64
     7
 65
   257
 75
     1
175
     1
 42
1.0
 92
        8
 66
     7
 43
1.0
 76
     1
 77
     6
 78
     2
 67
     7
 79
     5
170
     0
171
     0
290
     0
174
     0
 93
        1
 44
0.0
173
     0
291
     1
 45
0.0
1001
ACAD
1000
AcDbSavedByObjectVersion
1070
     0
1000
AcDbSavedByObjectVersion
1070
     0
1000
AcDbSavedByObjectVersion
1070
     0
1000
AcDbSavedByObjectVersion
1070
     0
  0
VISUALSTYLE
  5
4CB
102
{ACAD_REACTORS
330
2C
102
}
330
2C
100
AcDbVisualStyle
  2
Flat
 70
     0
 71
     2
 72
     1
 73
     1
 90
        2
 40
-0.6
 41
30.0
 62
     5
 63
     7
 74
     0
 91
        4
 64
     7
 65
   257
 75
     1
175
     1
 42
1.0
 92
        8
 66
     7
 43
1.0
 76
     1
 77
     6
 78
     2
 67
     7
 79
     5
170
     0
171
     0
290
     0
174
     0
 93
       13
 44
0.0
173
     0
291
     1
 45
0.0
1001
ACAD
1000
AcDbSavedByObjectVersion
1070
     0
1000
AcDbSavedByObjectVersion
1070
     0
1000
AcDbSavedByObjectVersion
1070
     0
1000
AcDbSavedByObjectVersion
1070
     0
  0
VISUALSTYLE
  5
4CC
102
{ACAD_REACTORS
330
2C
102
}
330
2C
100
AcDbVisualStyle
  2
FlatWithEdges
 70
     1
 71
     2
 72
     1
 73
     1
 90
        2
 40
-0.6
 41
30.0
 62
     5
 63
     7
 74
     1
 91
        4
 64
     7
 65
   257
 75
     1
175
     1
 42
1.0
 92
        0
 66
   257
 43
1.0
 76
     1
 77
     6
 78
     2
 67
     7
 79
     5
170
     0
171
     0
290
     0
174
     0
 93
       13
 44
0.0
173
     0
291
     1
 45
0.0
1001
ACAD
1000
AcDbSavedByObjectVersion
1070
     0
1000
AcDbSavedByObjectVersion
1070
     0
1000
AcDbSavedByObjectVersion
1070
     0
1000
AcDbSavedByObjectVersion
1070
     0
  0
VISUALSTYLE
  5
2B
102
{ACAD_REACTORS
330
2C
102
}
330
2C
100
AcDbVisualStyle
  2
Gouraud
 70
     2
 71
     2
 72
     2
 73
     1
 90
        2
 40
-0.6
 41
30.0
 62
     5
 63
     7
 74
     0
 91
        4
 64
     7
 65
   257
 75
     1
175
     1
 42
1.0
 92
        0
 66
     7
 43
1.0
 76
     1
 77
     6
 78
     2
 67
     7
 79
     5
170
     0
171
     0
290
     0
174
     0
 93
       13
 44
0.0
173
     0
291
     1
 45
0.0
1001
ACAD
1000
AcDbSavedByObjectVersion
1070
     0
1000
AcDbSavedByObjectVersion
1070
     0
1000
AcDbSavedByObjectVersion
1070
     0
1000
AcDbSavedByObjectVersion
1070
     0
  0
VISUALSTYLE
  5
4CD
102
{ACAD_REACTORS
330
2C
102
}
330
2C
100
AcDbVisualStyle
  2
GouraudWithEdges
 70
     3
 71
     2
 72
     2
 73
     1
 90
        2
 40
-0.6
 41
30.0
 62
     5
 63
     7
 74
     1
 91
        4
 64
     7
 65
   257
 75
     1
175
     1
 42
1.0
 92
        0
 66
   257
 43
1.0
 76
     1
 77
     6
 78
     2
 67
     7
 79
     5
170
     0
171
     0
290
     0
174
     0
 93
       13
 44
0.0
173
     0
291
     1
 45
0.0
1001
ACAD
1000
AcDbSavedByObjectVersion
1070
     0
1000
AcDbSavedByObjectVersion
1070
     0
1000
AcDbSavedByObjectVersion
1070
     0
1000
AcDbSavedByObjectVersion
1070
     0
  0
VISUALSTYLE
  5
4D5
102
{ACAD_REACTORS
330
2C
102
}
330
2C
100
AcDbVisualStyle
  2
Linepattern
 70
    14
 71
     2
 72
     2
 73
     0
 90
        0
 40
-0.6
 41
-30.0
 62
     5
 63
     7
 74
     1
 91
        4
 64
     7
 65
   257
 75
     7
175
     7
 42
1.0
 92
        8
 66
     7
 43
1.0
 76
     1
 77
     6
 78
     2
 67
     7
 79
     5
170
     0
171
     0
290
     0
174
     0
 93
        1
 44
0.0
173
     0
291
     1
 45
0.0
1001
ACAD
1000
AcDbSavedByObjectVersion
1070
     0
1000
AcDbSavedByObjectVersion
1070
     0
1000
AcDbSavedByObjectVersion
1070
     0
1000
AcDbSavedByObjectVersion
1070
     0
  0
VISUALSTYLE
  5
57
102
{ACAD_REACTORS
330
2C
102
}
330
2C
100
AcDbVisualStyle
  2
Realistic
 70
     8
 71
     2
 72
     2
 73
     0
 90
        0
 40
-0.6
 41
-30.0
 62
     5
 63
     7
 74
     1
 91
        0
 64
     7
 65
   257
 75
     1
175
     1
 42
1.0
 92
        8
 66
     8
 43
1.0
 76
     1
 77
     6
 78
     2
 67
     7
 79
     5
170
     0
171
     0
290
     0
174
     0
 93
       13
 44
0.0
173
     0
291
     0
 45
0.0
1001
ACAD
1000
AcDbSavedByObjectVersion
1070
     0
1000
AcDbSavedByObjectVersion
1070
     0
1000
AcDbSavedByObjectVersion
1070
     0
1000
AcDbSavedByObjectVersion
1070
     0
  0
VISUALSTYLE
  5
4D4
102
{ACAD_REACTORS
330
2C
102
}
330
2C
100
AcDbVisualStyle
  2
Thicken
 70
    13
 71
     2
 72
     2
 73
     0
 90
        0
 40
-0.6
 41
-30.0
 62
     5
 63
     7
 74
     1
 91
        4
 64
     7
 65
   257
 75
     1
175
     1
 42
1.0
 92
       12
 66
     7
 43
1.0
 76
     1
 77
     6
 78
     2
 67
     7
 79
     5
170
     0
171
     0
290
     0
174
     0
 93
        1
 44
0.0
173
     0
291
     1
 45
0.0
1001
ACAD
1000
AcDbSavedByObjectVersion
1070
     0
1000
AcDbSavedByObjectVersion
1070
     0
1000
AcDbSavedByObjectVersion
1070
     0
1000
AcDbSavedByObjectVersion
1070
     0
  0
DICTIONARYVAR
  5
4C8
102
{ACAD_REACTORS
330
4C5
102
}
330
4C5
100
DictionaryVariables
280
     0
  1
1:1
  0
DICTIONARYVAR
  5
4C7
102
{ACAD_REACTORS
330
4C5
102
}
330
4C5
100
DictionaryVariables
280
     0
  1
STANDARD
  0
DICTIONARYVAR
  5
4C6
102
{ACAD_REACTORS
330
4C5
102
}
330
4C5
100
DictionaryVariables
280
     0
  1
STANDARD
  0
DICTIONARYVAR
  5
4FF
102
{ACAD_REACTORS
330
4C5
102
}
330
4C5
100
DictionaryVariables
280
     0
  1
1
  0
DICTIONARYVAR
  5
4FE
102
{ACAD_REACTORS
330
4C5
102
}
330
4C5
100
DictionaryVariables
280
     0
  1
1
  0
DICTIONARYVAR
  5
4FD
102
{ACAD_REACTORS
330
4C5
102
}
330
4C5
100
DictionaryVariables
280
     0
  1
0
  0
DICTIONARYVAR
  5
4C9
102
{ACAD_REACTORS
330
4C5
102
}
330
4C5
100
DictionaryVariables
280
     0
  1
0
  0
DICTIONARYVAR
  5
4FB
102
{ACAD_REACTORS
330
4C5
102
}
330
4C5
100
DictionaryVariables
280
     0
  1
1
  0
DICTIONARYVAR
  5
4FC
102
{ACAD_REACTORS
330
4C5
102
}
330
4C5
100
DictionaryVariables
280
     0
  1
127
  0
DICTIONARY
  5
C69
330
15
100
AcDbDictionary
280
     1
281
     1
  3
ACAD_XREC_ROUNDTRIP
360
C6A
  0
DICTIONARY
  5
1B
330
1A
100
AcDbDictionary
280
     1
281
     1
  3
ACAD_XREC_ROUNDTRIP
360
C6B
  3
ADSK_XREC_LAYOUTTHUMBNAIL
360
1C
  0
DICTIONARY
  5
3E
330
3D
100
AcDbDictionary
280
     1
281
     1
  3
ACAD_XREC_ROUNDTRIP
360
613
  3
BUMPTILE
360
3F
  3
DIFFUSETILE
360
40
  3
OPACITYTILE
360
41
  3
REFLECTIONTILE
360
42
  3
REFRACTIONTILE
360
43
  3
SPECULARTILE
360
44
  0
DICTIONARY
  5
36
330
35
100
AcDbDictionary
280
     1
281
     1
  3
ACAD_XREC_ROUNDTRIP
360
612
  3
BUMPTILE
360
37
  3
DIFFUSETILE
360
38
  3
OPACITYTILE
360
39
  3
REFLECTIONTILE
360
3A
  3
REFRACTIONTILE
360
3B
  3
SPECULARTILE
360
3C
  0
DICTIONARY
  5
C
330
A
100
AcDbDictionary
280
     1
281
     1
  3
ACAD_XREC_ROUNDTRIP
360
60E
  3
BUMPTILE
360
D
  3
DIFFUSETILE
360
E
  3
OPACITYTILE
360
F
  3
REFLECTIONTILE
360
10
  3
REFRACTIONTILE
360
11
  3
SPECULARTILE
360
12
  0
DICTIONARY
  5
4C2
330
56
100
AcDbDictionary
280
     1
281
     1
  3
ACAD_ROUNDTRIP_2008_TABLESTYLE_CELLSTYLEMAP
360
C67
  3
ACAD_XREC_ROUNDTRIP
360
C6C
  0
XRECORD
  5
C6A
102
{ACAD_REACTORS
330
C69
102
}
330
C69
100
AcDbXrecord
280
     1
102
SHADEPLOT
 70
     0
102
SHADEPLOTRESLEVEL
 70
     2
102
SHADEPLOTCUSTOMDPI
 70
   300
  0
XRECORD
  5
C6B
102
{ACAD_REACTORS
330
1B
102
}
330
1B
100
AcDbXrecord
280
     1
102
SHADEPLOT
 70
     0
102
SHADEPLOTRESLEVEL
 70
     2
102
SHADEPLOTCUSTOMDPI
 70
   300
  0
XRECORD
  5
1C
102
{ACAD_REACTORS
330
1B
102
}
330
1B
100
AcDbXrecord
280
     1
310
28000000B4000000860000000100080000000000385E0000000000000000000000010000000000000000000000000000FFFFFF000000000000000000000000000000000000000000000000000000000000000000330000006600000099000000CC000000FF00000000330000333300006633000099330000CC330000FF3300
310
0000660000336600006666000099660000CC660000FF66000000990000339900006699000099990000CC990000FF99000000CC000033CC000066CC000099CC0000CCCC0000FFCC000000FF000033FF000066FF000099FF0000CCFF0000FFFF000000003300330033006600330099003300CC003300FF003300003333003333
310
33006633330099333300CC333300FF33330000663300336633006666330099663300CC663300FF66330000993300339933006699330099993300CC993300FF99330000CC330033CC330066CC330099CC3300CCCC3300FFCC330000FF330033FF330066FF330099FF3300CCFF3300FFFF330000006600330066006600660099
310
006600CC006600FF00660000336600333366006633660099336600CC336600FF33660000666600336666006666660099666600CC666600FF66660000996600339966006699660099996600CC996600FF99660000CC660033CC660066CC660099CC6600CCCC6600FFCC660000FF660033FF660066FF660099FF6600CCFF6600
310
FFFF660000009900330099006600990099009900CC009900FF00990000339900333399006633990099339900CC339900FF33990000669900336699006666990099669900CC669900FF66990000999900339999006699990099999900CC999900FF99990000CC990033CC990066CC990099CC9900CCCC9900FFCC990000FF99
310
0033FF990066FF990099FF9900CCFF9900FFFF99000000CC003300CC006600CC009900CC00CC00CC00FF00CC000033CC003333CC006633CC009933CC00CC33CC00FF33CC000066CC003366CC006666CC009966CC00CC66CC00FF66CC000099CC003399CC006699CC009999CC00CC99CC00FF99CC0000CCCC0033CCCC0066CC
310
CC0099CCCC00CCCCCC00FFCCCC0000FFCC0033FFCC0066FFCC0099FFCC00CCFFCC00FFFFCC000000FF003300FF006600FF009900FF00CC00FF00FF00FF000033FF003333FF006633FF009933FF00CC33FF00FF33FF000066FF003366FF006666FF009966FF00CC66FF00FF66FF000099FF003399FF006699FF009999FF00CC
310
99FF00FF99FF0000CCFF0033CCFF0066CCFF0099CCFF00CCCCFF00FFCCFF0000FFFF0033FFFF0066FFFF0099FFFF00CCFFFF00FFFFFF00000000000D0D0D001A1A1A00282828003535350043434300505050005D5D5D006B6B6B00787878008686860093939300A1A1A100AEAEAE00BBBBBB00C9C9C900D6D6D600E4E4E400
310
F1F1F100FFFFFF0000000000000000000000000000000000000000000000000000000000000000000000000000000000E2E2E2E2E2E2E2E2E2E2E2E2E2E2E2E2E2E2E2E2E2E2E2E2E2E2E2E2E2E2E2E2E2E2E2E2E2E2E2E2E2E2E2E2E2E2E2E2E2E2E2E2E2E2E2E2E2E2E2E2E2E2E2E2E2E2E2E2E2E2E2E2E2E2E2E2E2E2E2
310
E2E2E2E2E2E2E2E2E2E2E2E2E2E2E2E2E2E2E2E2E2E2E2E2E2E2E2E2E2E2E2E2E2E2E2E2E2E2E2E2E2E2E2E2E2E2E2E2E2E2E2E2E2E2E2E2E2E2E2E2E2E2E2E2E2E2E2E2E2E2E2E2E2E2E2E2E2E2E2E2E2E2E2E2E2E2E2E2E2E2E2E2E2E2E2E2E2E2E2E2E2E2E2E2E2E2E2E2E2E2E2E2E2E2E2E2E2E2E2E2E2E2E2E2E2E2E2
310
E2E2E2E2E2E2E2E2E2E2E2E2E2E2E2E2E2E2E2E2E2E2E2E2E2E2E2E2E2E2E2E2E2E2E2E2E2E2E2E2E2E2E2E2E2E2E2E2E2E2E2E2E2E2E2E2E2E2E2E2E2E2E2E2E2E2E2E2E2E2E2E2E2E2E2E2E2E2E2E2E2E2E2E2E2E2E2E2E2E2E2E2E2E2E2E2E2E2E2E2E2E2E2E2E2E2E2E2E2E2E2E2E2E2E2E2E2E2E2E2E2E2E2E2E2E2E2
310
E2E2E2E2E2E2E2E2E2E2E2E2E2E2E2E2E2E2E2E2E2E2E2E2E2E2E2E2E2E2E2E2E2E2E2E2E2E2E2E2E2E2E2E2E2E2E2E2E2E2E2E2E2E2E2E2E2E2E2E2E2E2E2E2E2E2E2E2E2E2E2E2E2E2E2E2E2E2E2E2E2E2E2E2E2E2E2E2E2E2E2E2E2E2E2E2E2E2E2E2E2E2E2E2E2E2E2E2E2E2E2E2E2E2E2E2E2E2E2E2E2E2E2E2E2E2E2
310
E2E2E2E2E2E2E2E2E2E2E2E2E2E2E2E2E2E2E2E2E2E2E2E2E2E2E2E2E2E2E2E2E2E2E2E2E2E2E2E2E2E2E2E2E2E2E2E2E2E2E2E2E2E2E2E2E2E2E2E2E2E2E2E2E2E2E2E2E2E2E2E2E2E2E2E2E2E2E2E2E2E2E2E2E2E2E2E2E2E2E2E2E2E2E2E2E2E2E2E2E2E2E2E2E2E2E2E2E2E2E2E2E2E2E2E2E2E2E2E2E2E2E2E2E2E2E2
310
E2E2E2E2E2E2E2E2E2E2E2E2E2E2E2E2E2E2E2E2E2E2E2E2E2E2E2E2E2E2E2E2E2E2E2E2E2E2E2E2E2E2E2E2E2E2E2E2E2E2E2E2E2E2E2E2E2E2E2E2E2E2E2E2E2E2E2E2E2E2E2E2E2E2E2E2E2E2E2E2E2E2E2E2E2E2E2E2E2E2E2E2E2E2E2E2E2E2E2E2E2E2E2E2E2E2E2E2E2E2E2E2E2E2E2E2E2E2E2E2E2E2E2E2E2E2E2
310
E2E2E2E2E2E2E2E2E2E2E2E2E2E2E2E2E2E2E2E2E2E2E2E2E2E2E2E2E2E2E2E2E2E2E2E2E2E2E2E2E2E2E2E2E2E2E2E2E2E2E2E2E2E2E2E2E2E2E2E2E2E2E2E2E2E2E2E2E2E2E2E2E2E2E2E2E2E2E2E2E2E2E2E2E2E2E2E2E2E2E2E2E2E2E2E2E2E2E2E2E2E2E2E2E2E2E2E2E2E2E2E2E2E2E2E2E2E2E2E2E2E2E2E2E2E2E2
310
E2E2E2E2E2E2E2E2E2E2E2E2E2E2E2E2E2E2E2E2E2E2E2E2E2E2E2E2E2E2E2E2E2E2E2E2E2E2E2E2E2E2E2E2E2E2E2E2E2E2E2E2E2E2E2E2E2E2E2E2E2E2E2E2E2E2E2E2E2E2E2E2E2E2E2E2E2E2E2E2E2E2E2E2E2E2E2E2E2E2E2E2E2E2E2E2E2E2E2E2E2E2E2E2E2E2E2E2E2E2E2E2E2E2E2E2E2E2E2E2E2E2E2E2E2E2E2
310
E2E2E2E2E2E2E2E2E2E2E2E2E2E2E2E2E2E2E2E2E2E2E2E2E2E2E2E2E2E2E2E2E2E2E2E2E2E2E2E2E2E2E2E2E2E2E2E2E2E2E2E2E2E2E2E2E2E2E2E2E2E2E2E2E2E2E2E2E2E2E2E2E2E2E2E2E2E2E2E2E2E2E2E2E2E2E2E2E2E2E2E2E2E2E2E2E2E2E2E2E2E2E2E2E2E2E2E2E2E2E2E2E2E2E2E2E2E2E2E2E2E2E2E2E2E2E2
310
E2E2E2E2E2E2E2E2E2E2E2E2E2E2E2E2E2E2E2E2E2E2E2E2E2E2E2E2E2E2E2E2E2E2E2E2E2E2E2E2E2E2E2E2E2E2E2E2E2E2E2E2E2E2E2E2E2E2E2E2E2E2E2E2E2E2E2E2E2E2E2E2E2E2E2E2E2E2E2E2E2E2E2E2E2E2E2E2E2E2E2E2E2E2E2E2E2E2E2E2E2E2E2E2E2E2E2E2E2E2E2E2E2E2E2E2E2E2E2E2E2E2E2E2E2E2E2
310
E2E2E2E2E2E2E2E2E2E2E2E2E2E2E2E2E2E2E2E2E2E2E2E2E2E2E2E2E2E2E2E2E2E2E2E2E2E2E2E2E2E2E2E2E2E2E2E2E2E2E2E2E2E2E2E2E2E2E2E2E2E2E2E2E2E2E2E2E2E2E2E2E2E2E2E2E2E2E2E2E2E2E2E2E2E2E2E2E2E2E2E2E2E2E2E2E2E2E2E2E2E2E2E2E2E2E2E2E2E2E2E2E2E2E2E2E2E2E2E2E2E2E2E2E2E2E2
310
E2E2E2E2E2E2E2E2E2E2E2E2E2E2E2E2E2E2E2E2E2E2E2E2E2E2E2E2E2E2E2E2E2E2E2E2E2E2E2E2E2E2E2E2E2E2E2E2E2E2E2E2E2E2E2E2E2E2E2E2E2E2E2E2E2E2E2E2E2E2E2E2E2E2E2E2E2E2E2E2E2E2E2E2E2E2E2E2E2E2E2E2E2E2E2E2E2E2E2E2E2E2E2E2E2E2E2E2E2E2E2E2E2E2E2E2E2E2E2E2E2E2E2E2E2E2E2
310
E2E2E2E2E2E2E2E2E2E2E2E2E2E2E2E2E2E2E2E2E2E2E2E2E2E2E2E2E2E2E2E2E2E2E2E2E2E2E2E2E2E2E2E2E2E2E2E2E2E2E2E2E2E2E2E2E2E2E2E2E2E2E2E2E2E2E2E2E2E2E2E2E2E2E2E2E2E2E2E2E2E2E2E2E2E2E2E2E2E2E2E2E2E2E2E2E2E2E2E2E2E2E2E2E2E2E2E2E2E2E2E2E2E2E2E2E2E2E2E2E2E2E2E2E2E2E2
310
E2E2E2E2E2E2E2E2E2E2E2E2E2E2E2E2E2E2E2E2E2E2E2E2E2E2E2E2E2E2E2E2E2E2E2E2E2E2E2E2E2E2E2E2E2E2E2E2E2E2E2E2E2E2E2E2E2E2E2E2E2E2E2E2E2E2E2E2E2E2E2E2E2E2E2E2E2E2E2E2E2E2E2E2E2E2E2E2E2E2E2E2E2E2E2E2E2E2E2E2E2E2E2E2E2E2E2E2E2E2E2E2E2E2E2E2E2E2E2E2E2E2E2E2E2E2E2
310
E2E2E2E2E2E2E2E2E2E2E2E2E2E2E2E2E2E2E2E2E2E2E2E2E2E2E2E2E2E2E2E2E2E2E2E2E2E2E2E2E2E2E2E2E2E2E2E2E2E2E2E2E2E2E2E2E2E2E2E2E2E2E2E2E2E2E2E2E2E2E2E2E2E2E2E2E2E2E2E2E2E2E2E2E2E2E2E2E2E2E2E2E2E2E2E2E2E2E2E2E2E2E2E2E2E2E2E2E2E2E2E2E2E2E2E2E2E2E2E2E2E2E2E2E2E2E2
310
E2E2E2E2E2E2E2E2E2E2E2E2E2E2E2E2E2E2E2E2E2E2E2E2E2E2E2E2E2E2E2E2E2E2E2E2E2E2E2E2E2E2E2E2E2E2E2E2E2E2E2E2E2E2E2E2E2E2E2E2E2E2E2E2E2E2E2E2E2E2E2E2E2E2E2E2E2E2E2E2E2E2E2E2E2E2E2E2E2E2E2E2E2E2E2E2E2E2E2E2E2E2E2E2E2E2E2E2E2E2E2E2E2E2E2E2E2E2E2E2E2E2E2E2E2E2E2
310
E2E2E2E2E2E2E2E2E2E2E2E2E2E2E2E2E2E2E2E2E2E2E2E2E2E2E2E2E2E2E2E2E2E2E2E2E2E2E2E2E2E2E2E2E2E2E2E2E2E2E2E2E2E2E2E2E2E2E2E2E2E2E2E2E2E2E2E2E2E2E2E2E2E2E2E2E2E2E2E2E2E2E2E2E2E2E2E2E2E2E2E2E2E2E2E2E2E2E2E2E2E2E2E2E2E2E2E2E2E2E2E2E2E2E2E2E2E2E2E2E2E2E2E2E2E2E2
310
E2E2E2E2E2E2E2E2E2E2E2E2E2E2E2E2E2E2E2E2E2E2E2E2E2E2E2E2E2E2E2E2E2E2E2E2E2E2E2E2E2E2E2E2E2E2E2E2E2E2E2E2E2E2E2E2E2E2E2E2E2E2E2E2E2E2E2E2E2E2E2E2E2E2E2E2E2E2E2E2E2E2E2E2E2E2E2E2E2E2E2E2E2E2E2E2E2E2E2E2E2E2E2E2E2E2E2E2E2E2E2E2E2E2E2E2E2E2E2E2E2E2E2E2E2E2E2
310
E2E2E2E2E2E2E2E2E2E2E2E2E2E2E2E2E2E2E2E2E2E2E2E2E2E2E2E2E2E2E2E2E2E2E2E2E2E2E2E2E2E2E2E2E2E2E2E2E2E2E2E2E2E2E2E2E2E2E2E2E2E2E2E2E2E2E2E2E2E2E2E2E2E2E2E2E2E2E2E2E2E2E2E2E2E2E2E2E2E2E2E2E2E2E2E2E2E2E2E2E2E2E2E2E2E2E2E2E2E2E2E2E2E2E2E2E2E2E2E2E2E2E2E2E2E2E2
310
E2E2E2E2E2E2E2E2E2E2E2E2E2E2E2E2E2E2E2E2E2E2E2E2E2E2E2E2E2E2E2E2E2E2E2E2E2E2E2E2E2E2E2E2E2E2E2E2E2E2E2E2E2E2E2E2E2E2E2E2E2E2E2E2E2E2E2E2E2E2E2E2E2E2E2E2E2E2E2E2E2E2E2E2E2E2E2E2E2E2E2E2E2E2E2E2E2E2E2E2E2E2E2E2E2E2E2E2E2E2E2E2E2E2E2E2E2E2E2E2E2E2E2E2E2E2E2
310
E2E2E2E2E2E2E2E2E2E2E2E2E2E2E2E2E2E2E2E2E2E2E2E2E2E2E2E2E2E2E2E2E2E2E2E2E2E2E2E2E2E2E2E2E2E2E2E2E2E2E2E2E2E2E2E2E2E2E2E2E2E2E2E2E2E2E2E2E2E2E2E2E2E2E2E2E2E2E2E2E2E2E2E2E2E2E2E2E2E2E2E2E2E2E2E2E2E2E2E2E2E2E2E2E2E2E2E2E2E2E2E2E2E2E2E2E2E2E2E2E2E2E2E2E2E2E2
310
E2E2E2E2E2E2E2E2E2E2E2E2E2E2E2E2E2E2E2E2E2E2E2E2E2E2E2E2E2E2E2E2E2E2E2E2E2E2E2E2E2E2E2E2E2E2E2E2E2E2E2E2E2E2E2E2E2E2E2E2E2E2E2E2E2E2E2E2E2E2E2E2E2E2E2E2E2E2E2E2E2E2E2E2E2E2E2E2E2E2E2E2E2E2E2E2E2E2E2E2E2E2E2E2E2E2E2E2E2E2E2E2E2E2E2E2E2E2E2E2E2E2E2E2E2E2E2
310
E2E2E2E2E2E2E2E2E2E2E2E2E2E2E2E2E2E2E2E2E2E2E2E2E2E2E2E2E2E2E2E2E2E2E2E2E2E2E2E2E2E2E2E2E2E2E2E2E2E2E2E2E2E2E2E2E2E2E2E2E2E2E2E2E2E2E2E2E2E2E2E2E2E2E2E2E2E2E2E2E2E2E2E2E2E2E2E2E2E2E2E2E2E2E2E2E2E2E2E2E2E2E2E2E2E2E2E2E2E2E2E2E2E2E2E2E2E2E2E2E2E2E2E2E2E2E2
310
E2E2E2E2E2E2E2E2E2E2E2E2E2E2E2E2E2E2E2E2E2E2E2E2E2E2E2E2E2E2E2E2E2E2E2E2E2E2E2E2E2E2E2E2E2E2E2E2E2E2E2E2E2E2E2E2E2E2E2E2E2E2E2E2E2E2E2E2E2E2E2E2E2E2E2E2E2E2E2E2E2E2E2E2E2E2E2E2E2E2E2E2E2E2E2E2E2E2E2E2E2E2E2E2E2E2E2E2E2E2E2E2E2E2E2E2E2E2E2E2E2E2E2E2E2E2E2
310
E2E2E2E2E2E2E2E2E2E2E2E2E2E2E2E2E2E2E2E2E2E2E2E2E2E2E2E2E2E2E2E2E2E2E2E2E2E2E2E2E2E2E2E2E2E2E2E2E2E2E2E2E2E2E2E2E2E2E2E2E2E2E2E2E2E2E2E2E2E2E2E2E2E2E2E2E2E2E2E2E2E2E2E2E2E2E2E2E2E2E2E2E2E2E2E2E2E2E2E2E2E2E2E2E2E2E2E2E2E2E2E2E2E2E2E2E2E2E2E2E2E2E2E2E2E2E2
310
E2E2E2E2E2E2E2E2E2E2E2E2E2E2E2E2E2E2E2E2E2E2E2E2E2E2E2E2E2E2E2E2E2E2E2E2E2E2E2E2E2E2E2E2E2E2E2E2E2E2E2E2E2E2E2E2E2E2E2E2E2E2E2E2E2E2E2E2E2E2E2E2E2E2E2E2E2E2E2E2E2E2E2E2E2E2E2E2E2E2E2E2E2E2E2E2E2E2E2E2E2E2E2E2E2E2E2E2E2E2E2E2E2E2E2E2E2E2E2E2E2E2E2E2E2E2E2
310
E2E2E2E2E2E2E2E2E2E2E2E2E2E2E2E2E2E2E2E2E2E2E2E2E2E2E2E2E2E2E2E2E2E2E2E2E2E2E2E2E2E2E2E2E2E2E2E2E2E2E2E2E2E2E2E2E2E2E2E2E2E2E2E2E2E2E2E2E2E2E2E2E2E2E2E2E2E2E2E2E2E2E2E2E2E2E2E2E2E2E2E2E2E2E2E2E2E2E2E2E2E2E2E2E2E2E2E2E2E2E2E2E2E2E2E2E2E2E2E2E2E2E2E2E2E2E2
310
E2E2E2E2E2E2E2E2E2E2E2E2E2E2E2E2E2E2E2E2E2E2E2E2E2E2E2E2E2E2E2E2E2E2E2E2E2E2E2E2E2E2E2E2E2E2E2E2E2E2E2E2E2E2E2E2E2E2E2E2E2E2E2E2E2E2E2E2E2E2E2E2E2E2E2E2E2E2E2E2E2E2E2E2E2E2E2E2E2E2E2E2E2E2E2E2E2E2E2E2E2E2E2E2E2E2E2E2E2E2E2E2E2E2E2E2E2E2E2E2E2E2E2E2E2E2E2
310
E2E2E2E2E2E2E2E2E2E2E2E2E2E2E2E2E2E2E2E2E2E2E2E2E2E2E2E2E2E2E2E2E2E2E2E2E2E2E2E2E2E2E2E2E2E2E2E2E2E2E2E2E2E2E2E2E2E2E2E2E2E2E2E2E2E2E2E2E2E2E2E2E2E2E2E2E2E2E2E2E2E2E2E2E2E2E2E2E2E2E2E2E2E2E2E2E2E2E2E2E2E2E2E2E2E2E2E2E2E2E2E2E2E2E2E2E2E2E2E2E2E2E2E2E2E2E2
310
E2E2E2E2E2E2E2E2E2E2E2E2E2E2E2E2E2E2E2E2E2E2E2E2E2E2E2E2E2E2E2E2E2E2E2E2E2E2E2E2E2E2E2E2E2E2E2E2E2E2E2E2E2E2E2E2E2E2E2E2E2E2E2E2E2E2E2E2E2E2E2E2E2E2E2E2E2E2E2E2E2E2E2E2E2E2E2E2E2E2E2E2E2E2E2E2E2E2E2E2E2E2E2E2E2E2E2E2E2E2E2E2E2E2E2E2E2E2E2E2E2E2E2E2E2E2E2
310
E2E2E2E2E2E2E2E2E2E2E2E2E2E2E2E2E2E2E2E2E2E2E2E2E2E2E2E2E2E2E2E2E2E2E2E2E2E2E2E2E2E2E2E2E2E2E2E2E2E2E2E2E2E2E2E2E2E2E2E2E2E2E2E2E2E2E2E2E2E2E2E2E2E2E2E2E2E2E2E2E2E2E2E2E2E2E2E2E2E2E2E2E2E2E2E2E2E2E2E2E2E2E2E2E2E2E2E2E2E2E2E2E2E2E2E2E2E2E2E2E2E2E2E2E2E2E2
310
E2E2E2E2E2E2E2E2E2E2E2E2E2E2E2E2E2E2E2E2E2E2E2E2E2E2E2E2E2E2E2E2E2E2E2E2E2E2E2E2E2E2E2E2E2E2E2E2E2E2E2E2E2E2E2E2E2E2E2E2E2E2E2E2E2E2E2E2E2E2E2E2E2E2E2E2E2E2E2E2E2E2E2E2E2E2E2E2E2E2E2E2E2E2E2E2E2E2E2E2E2E2E2E2E2E2E2E2E2E2E2E2E2E2E2E2E2E2E2E2E2E2E2E2E2E2E2
310
E2E2E2E2E2E2E2E2E2E2E2E2E2E2E2E2E2E2E2E2E2E2E2E2E2E2E2E2E2E2E2E2E2E2E2E2E2E2E2E2E2E2E2E2E2E2E2E2E2E2E2E2E2E2E2E2E2E2E2E2E2E2E2E2E2E2E2E2E2E2E2E2E2E2E2E2E2E2E2E2E2E2E2E2E2E2E2E2E2E2E2E2E2E2E2E2E2E2E2E2E2E2E2E2E2E2E2E2E2E2E2E2E2E2E2E2E2E2E2E2E2E2E2E2E2E2E2
310
E2E2E2E2E2E2E2E2E2E2E2E2E2E2E2E2E2E2E2E2E2E2E2E2E2E2E2E2E2E2E2E2E2E2E2E2E2E2E2E2E2E2E2E2E2E2E2E2E2E2E2E2E2E2E2E2E2E2E2E2E2E2E2E2E2E2E2E2E2E2E2E2E2E2E2E2E2E2E2E2E2E2E2E2E2E2E2E2E2E2E2E2E2E2E2E2E2E2E2E2E2E2E2E2E2E2E2E2E2E2E2E2E2E2E2E2E2E2E2E2E2E2E2E2E2E2E2
310
E2E2E2E2E2E2E2E2E2E2E2E2E2E2E2E2E2E2E2E2E2E2E2E2E2E2E2E2E2E2E2E2E2E2E2E2E2E2E2E2E2E2E2E2E2E2E2E2E2E2E2E2E2E2E2E2E2E2E2E2E2E2E2E2E2E2E2E2E2E2E2E2E2E2E2E2E2E2E2E2E2E2E2E2E2E2E2E2E2E2E2E2E2E2E2E2E2E2E2E2E2E2E2E2E2E2E2E2E2E2E2E2E2E2E2E2E2E2E2E2E2E2E2E2E2E2E2
310
E2E2E2E2E2E2E2E2E2E2E2E2E2E2E2E2E2E2E2E2E2E2E2E2E2E2E2E2E2E2E2E2E2E2E2E2E2E2E2E2E2E2E2E2E2E2E2E2E2E2E2E2E2E2E2E2E2E2E2E2E2E2E2E2E2E2E2E2E2E2E2E2E2E2E2E2E2E2E2E2E2E2E2E2E2E2E2E2E2E2E2E2E2E2E2E2E2E2E2E2E2E2E2E2E2E2E2E2E2E2E2E2E2E2E2E2E2E2E2E2E2E2E2E2E2E2E2
310
E2E2E2E2E2E2E2E2E2E2E2E2E2E2E2E2E2E2E2E2E2E2E2E2E2E2E2E2E2E2E2E2E2E2E2E2E2E2E2E2E2E2E2E2E2E2E2E2E2E2E2E2E2E2E2E2E2E2E2E2E2E2E2E2E2E2E2E2E2E2E2E2E2E2E2E2E2E2E2E2E2E2E2E2E2E2E2E2E2E2E2E2E2E2E2E2E2E2E2E2E2E2E2E2E2E2E2E2E2E2E2E2E2E2E2E2E2E2E2E2E2E2E2E2E2E2E2
310
E2E2E2E2E2E2E2E2E2E2E2E2E2E2E2E2E2E2E2E2E2E2E2E2E2E2E2E2E2E2E2E2E2E2E2E2E2E2E2E2E2E2E2E2E2E2E2E2E2E2E2E2E2E2E2E2E2E2E2E2E2E2E2E2E2E2E2E2E2E2E2E2E2E2E2E2E2E2E2E2E2E2E2E2E2E2E2E2E2E2E2E2E2E2E2E2E2E2E2E2E2E2E2E2E2E2E2E2E2E2E2E2E2E2E2E2E2E2E2E2E2E2E2E2E2E2E2
310
E2E2E2E2E2E2E2E2E2E2E2E2E2E2E2E2E2E2E2E2E2E2E2E2E2E2E2E2E2E2E2E2E2E2E2E2E2E2E2E2E2E2E2E2E2E2E2E2E2E2E2E2E2E2E2E2E2E2E2E2E2E2E2E2E2E2E2E2E2E2E2E2E2E2E2E2E2E2E2E2E2E2E2E2E2E2E2E2E2E2E2E2E2E2E2E2E2E2E2E2E2E2E2E2E2E2E2E2E2E2E2E2E2E2E2E2E2E2E2E2E2E2E2E2E2E2E2
310
E2E2E2E2E2E2E2E2E2E2E2E2E2E2E2E2E2E2E2E2E2E2E2E2E2E2E2E2E2E2E2E2E2E2E2E2E2E2E2E2E2E2E2E2E2E2E2E2E2E2E2E2E2E2E2E2E2E2E2E2E2E2E2E2E2E2E2E2E2E2E2E2E2E2E2E2E2E2E2E2E2E2E2E2E2E2E2E2E2E2E2E2E2E2E2E2E2E2E2E2E2E2E2E2E2E2E2E2E2E2E2E2E2E2E2E2E2E2E2E2E2E2E2E2E2E2E2
310
E2E2E2E2E2E2E2E2E2E2E2E2E2E2E2E2E2E2E2E2E2E2E2E2E2E2E2E2E2E2E2E2E2E2E2E2E2E2E2E2E2E2E2E2E2E2E2E2E2E2E2E2E2E2E2E2E2E2E2E2E2E2E2E2E2E2E2E2E2E2E2E2E2E2E2E2E2E2E2E2E2E2E2E2E2E2E2E2E2E2E2E2E2E2E2E2E2E2E2E2E2E2E2E2E2E2E2E2E2E2E2E2E2E2E2E2E2E2E2E2E2E2E2E2E2E2E2
310
E2E2E2E2E2E2E2E2E2E2E2E2E2E2E2E2E2E2E2E2E2E2E2E2E2E2E2E2E2E2E2E2E2E2E2E2E2E2E2E2E2E2E2E2E2E2E2E2E2E2E2E2E2E2E2E2E2E2E2E2E2E2E2E2E2E2E2E2E2E2E2E2E2E2E2E2E2E2E2E2E2E2E2E2E2E2E2E2E2E2E2E2E2E2E2E2E2E2E2E2E2E2E2E2E2E2E2E2E2E2E2E2E2E2E2E2E2E2E2E2E2E2E2E2E2E2E2
310
E2E2E2E2E2E2E2E2E2E2E2E2E2E2E2E2E2E2E2E2E2E2E2E2E2E2E2E2E2E2E2E2E2E2E2E2E2E2E2E2E2E2E2E2E2E2E2E2E2E2E2E2E2E2E2E2E2E2E2E2E2E2E2E2E2E2E2E2E2E2E2E2E2E2E2E2E2E2E2E2E2E2E2E2E2E2E2E2E2E2E2E2E2E2E2E2E2E2E2E2E2E2E2E2E2E2E2E2E2E2E2E2E2E2E2E2E2E2E2E2E2E2E2E2E2E2E2
310
E2E2E2E2E2E2E2E2E2E2E2E2E2E2E2E2E2E2E2E2E2E2E2E2E2E2E2E2E2E2E2E2E2E2E2E2E2E2E2E2E2E2E2E2E2E2E2E2E2E2E2E2E2E2E2E2E2E2E2E2E2E2E2E2E2E2E2E2E2E2E2E2E2E2E2E2E2E2E2E2E2E2E2E2E2E2E2E2E2E2E2E2E2E2E2E2E2E2E2E2E2E2E2E2E2E2E2E2E2E2E2E2E2E2E2E2E2E2E2E2E2E2E2E2E2E2E2
310
E2E2E2E2E2E2E2E2E2E2E2E2E2E2E2E2E2E2E2E2E2E2E2E2E2E2E2E2E2E2E2E2E2E2E2E2E2E2E2E2E2E2E2E2E2E2E2E2E2E2E2E2E2E2E2E2E2E2E2E2E2E2E2E2E2E2E2E2E2E2E2E2E2E2E2E2E2E2E2E2E2E2E2E2E2E2E2E2E2E2E2E2E2E2E2E2E2E2E2E2E2E2E2E2E2E2E2E2E2E2E2E2E2E2E2E2E2E2E2E2E2E2E2E2E2E2E2
310
E2E2E2E2E2E2E2E2E2E2E2E2E2E2E2E2E2E2E2E2E2E2E2E2E2E2E2E2E2E2E2E2E2E2E2E2E2E2E2E2E2E2E2E2E2E2E2E2E2E2E2E2E2E2E2E2E2E2E2E2E2E2E2E2E2E2E2E2E2E2E2E2E2E2E2E2E2E2E2E2E2E2E2E2E2E2E2E2E2E2E2E2E2E2E2E2E2E2E2E2E2E2E2E2E2E2E2E2E2E2E2E2E2E2E2E2E2E2E2E2E2E2E2E2E2E2E2
310
E2E2E2E2E2E2E2E2E2E2E2E2E2E2E2E2E2E2E2E2E2E2E2E2E2E2E2E2E2E2E2E2E2E2E2E2E2E2E2E2E2E2E2E2E2E2E2E2E2E2E2E2E2E2E2E2E2E2E2E2E2E2E2E2E2E2E2E2E2E2E2E2E2E2E2E2E2E2E2E2E2E2E2E2E2E2E2E2E2E2E2E2E2E2E2E2E2E2E2E2E2E2E2E2E2E2E2E2E2E2E2E2E2E2E2E2E2E2E2E2E2E2E2E2E2E2E2
310
E2E2E2E2E2E2E2E2E2E2E2E2E2E2E2E2E2E2E2E2E2E2E2E2E2E2E2E2E2E2E2E2E2E2E2E2E2E2E2E2E2E2E2E2E2E2E2E2E2E2E2E2E2E2E2E2E2E2E2E2E2E2E2E2E2E2E2E2E2E2E2E2E2E2E2E2E2E2E2E2E2E2E2E2E2E2E2E2E2E2E2E2E2E2E2E2E2E2E2E2E2E2E2E2E2E2E2E2E2E2E2E2E2E2E2E2E2E2E2E2E2E2E2E2E2E2E2
310
E2E2E2E2E2E2E2E2E2E2E2E2E2E2E2E2E2E2E2E2E2E2E2E2E2E2E2E2E2E2E2E2E2E2E2E2E2E2E2E2E2E2E2E2E2E2E2E2E2E2E2E2E2E2E2E2E2E2E2E2E2E2E2E2E2E2E2E2E2E2E2E2E2E2E2E2E2E2E2E2E2E2E2E2E2E2E2E2E2E2E2E2E2E2E2E2E2E2E2E2E2E2E2E2E2E2E2E2E2E2E2E2E2E2E2E2E2E2E2E2E2E2E2E2E2E2E2
310
E2E2E2E2E2E2E2E2E2E2E2E2E2E2E2E2E2E2E2E2E2E2E2E2E2E2E2E2E2E2E2E2E2E2E2E2E2E2E2E2E2E2E2E2E2E2E2E2E2E2E2E2E2E2E2E2E2E2E2E2E2E2E2E2E2E2E2E2E2E2E2E2E2E2E2E2E2E2E2E2E2E2E2E2E2E2E2E2E2E2E2E2E2E2E2E2E2E2E2E2E2E2E2E2E2E2E2E2E2E2E2E2E2E2E2E2E2E2E2E2E2E2E2E2E2E2E2
310
E2E2E2E2E2E2E2E2E2E2E2E2E2E2E2E2E2E2E2E2E2E2E2E2E2E2E2E2E2E2E2E2E2E2E2E2E2E2E2E2E2E2E2E2E2E2E2E2E2E2E2E2E2E2E2E2E2E2E2E2E2E2E2E2E2E2E2E2E2E2E2E2E2E2E2E2E2E2E2E2E2E2E2E2E2E2E2E2E2E2E2E2E2E2E2E2E2E2E2E2E2E2E2E2E2E2E2E2E2E2E2E2E2E2E2E2E2E2E2E2E2E2E2E2E2E2E2
310
E2E2E2E2E2E2E2E2E2E2E2E2E2E2E2E2E2E2E2E2E2E2E2E2E2E2E2E2E2E2E2E2E2E2E2E2E2E2E2E2E2E2E2E2E2E2E2E2E2E2E2E2E2E2E2E2E2E2E2E2E2E2E2E2E2E2E2E2E2E2E2E2E2E2E2E2E2E2E2E2E2E2E2E2E2E2E2E2E2E2E2E2E2E2E2E2E2E2E2E2E2E2E2E2E2E2E2E2E2E2E2E2E2E2E2E2E2E2E2E2E2E2E2E2E2E2E2
310
E2E2E2E2E2E2E2E2E2E2E2E2E2E2E2E2E2E2E2E2E2E2E2E2E2E2E2E2E2E2E2E2E2E2E2E2E2E2E2E2E2E2E2E2E2E2E2E2E2E2E2E2E2E2E2E2E2E2E2E2E2E2E2E2E2E2E2E2E2E2E2E2E2E2E2E2E2E2E2E2E2E2E2E2E2E2E2E2E2E2E2E2E2E2E2E2E2E2E2E2E2E2E2E2E2E2E2E2E2E2E2E2E2E2E2E2E2E2E2E2E2E2E2E2E2E2E2
310
E2E2E2E2E2E2E2E2E2E2E2E2E2E2E2E2E2E2E2E2E2E2E2E2E2E2E2E2E2E2E2E2E2E2E2E2E2E2E2E2E2E2E2E2E2E2E2E2E2E2E2E2E2E2E2E2E2E2E2E2E2E2E2E2E2E2E2E2E2E2E2E2E2E2E2E2E2E2E2E2E2E2E2E2E2E2E2E2E2E2E2E2E2E2E2E2E2E2E2E2E2E2E2E2E2E2E2E2E2E2E2E2E2E2E2E2E2E2E2E2E2E2E2E2E2E2E2
310
E2E2E2E2E2E2E2E2E2E2E2E2E2E2E2E2E2E2E2E2E2E2E2E2E2E2E2E2E2E2E2E2E2E2E2E2E2E2E2E2E2E2E2E2E2E2E2E2E2E2E2E2E2E2E2E2E2E2E2E2E2E2E2E2E2E2E2E2E2E2E2E2E2E2E2E2E2E2E2E2E2E2E2E2E2E2E2E2E2E2E2E2E2E2E2E2E2E2E2E2E2E2E2E2E2E2E2E2E2E2E2E2E2E2E2E2E2E2E2E2E2E2E2E2E2E2E2
310
E2E2E2E2E2E2E2E2E2E2E2E2E2E2E2E2E2E2E2E2E2E2E2E2E2E2E2E2E2E2E2E2E2E2E2E2E2E2E2E2E2E2E2E2E2E2E2E2E2E2E2E2E2E2E2E2E2E2E2E2E2E2E2E2E2E2E2E2E2E2E2E2E2E2E2E2E2E2E2E2E2E2E2E2E2E2E2E2E2E2E2E2E2E2E2E2E2E2E2E2E2E2E2E2E2E2E2E2E2E2E2E2E2E2E2E2E2E2E2E2E2E2E2E2E2E2E2
310
E2E2E2E2E2E2E2E2E2E2E2E2E2E2E2E2E2E2E2E2E2E2E2E2E2E2E2E2E2E2E2E2E2E2E2E2E2E2E2E2E2E2E2E2E2E2E2E2E2E2E2E2E2E2E2E2E2E2E2E2E2E2E2E2E2E2E2E2E2E2E2E2E2E2E2E2E2E2E2E2E2E2E2E2E2E2E2E2E2E2E2E2E2E2E2E2E2E2E2E2E2E2E2E2E2E2E2E2E2E2E2E2E2E2E2E2E2E2E2E2E2E2E2E2E2E2E2
310
E2E2E2E2E2E2E2E2E2E2E2E2E2E2E2E2E2E2E2E2E2E2E2E2E2E2E2E2E2E2E2E2E2E2E2E2E2E2E2E2E2E2E2E2E2E2E2E2E2E2E2E2E2E2E2E2E2E2E2E2E2E2E2E2E2E2E2E2E2E2E2E2E2E2E2E2E2E2E2E2E2E2E2E2E2E2E2E2E2E2E2E2E2E2E2E2E2E2E2E2E2E2E2E2E2E2E2E2E2E2E2E2E2E2E2E2E2E2E2E2E2E2E2E2E2E2E2
310
E2E2E2E2E2E2E2E2E2E2E2E2E2E2E2E2E2E2E2E2E2E2E2E2E2E2E2E2E2E2E2E2E2E2E2E2E2E2E2E2E2E2E2E2E2E2E2E2E2E2E2E2E2E2E2E2E2E2E2E2E2E2E2E2E2E2E2E2E2E2E2E2E2E2E2E2E2E2E2E2E2E2E2E2E2E2E2E2E2E2E2E2E2E2E2E2E2E2E2E2E2E2E2E2E2E2E2E2E2E2E2E2E2E2E2E2E2E2E2E2E2E2E2E2E2E2E2
310
E2E2E2E2E2E2E2E2E2E2E2E2E2E2E2E2E2E2E2E2E2E2E2E2E2E2E2E2E2E2E2E2E2E2E2E2E2E2E2E2E2E2E2E2E2E2E2E2E2E2E2E2E2E2E2E2E2E2E2E2E2E2E2E2E2E2E2E2E2E2E2E2E2E2E2E2E2E2E2E2E2E2E2E2E2E2E2E2E2E2E2E2E2E2E2E2E2E2E2E2E2E2E2E2E2E2E2E2E2E2E2E2E2E2E2E2E2E2E2E2E2E2E2E2E2E2E2
310
E2E2E2E2E2E2E2E2E2E2E2E2E2E2E2E2E2E2E2E2E2E2E2E2E2E2E2E2E2E2E2E2E2E2E2E2E2E2E2E2E2E2E2E2E2E2E2E2E2E2E2E2E2E2E2E2E2E2E2E2E2E2E2E2E2E2E2E2E2E2E2E2E2E2E2E2E2E2E2E2E2E2E2E2E2E2E2E2E2E2E2E2E2E2E2E2E2E2E2E2E2E2E2E2E2E2E2E2E2E2E2E2E2E2E2E2E2E2E2E2E2E2E2E2E2E2E2
310
E2E2E2E2E2E2E2E2E2E2E2E2E2E2E2E2E2E2E2E2E2E2E2E2E2E2E2E2E2E2E2E2E2E2E2E2E2E2E2E2E2E2E2E2E2E2E2E2E2E2E2E2E2E2E2E2E2E2E2E2E2E2E2E2E2E2E2E2E2E2E2E2E2E2E2E2E2E2E2E2E2E2E2E2E2E2E2E2E2E2E2E2E2E2E2E2E2E2E2E2E2E2E2E2E2E2E2E2E2E2E2E2E2E2E2E2E2E2E2E2E2E2E2E2E2E2E2
310
E2E2E2E2E2E2E2E2E2E2E2E2E2E2E2E2E2E2E2E2E2E2E2E2E2E2E2E2E2E2E2E2E2E2E2E2E2E2E2E2E2E2E2E2E2E2E2E2E2E2E2E2E2E2E2E2E2E2E2E2E2E2E2E2E2E2E2E2E2E2E2E2E2E2E2E2E2E2E2E2E2E2E2E2E2E2E2E2E2E2E2E2E2E2E2E2E2E2E2E2E2E2E2E2E2E2E2E2E2E2E2E2E2E2E2E2E2E2E2E2E2E2E2E2E2E2E2
310
E2E2E2E2E2E2E2E2E2E2E2E2E2E2E2E2E2E2E2E2E2E2E2E2E2E2E2E2E2E2E2E2E2E2E2E2E2E2E2E2E2E2E2E2E2E2E2E2E2E2E2E2E2E2E2E2E2E2E2E2E2E2E2E2E2E2E2E2E2E2E2E2E2E2E2E2E2E2E2E2E2E2E2E2E2E2E2E2E2E2E2E2E2E2E2E2E2E2E2E2E2E2E2E2E2E2E2E2E2E2E2E2E2E2E2E2E2E2E2E2E2E2E2E2E2E2E2
310
E2E2E2E2E2E2E2E2E2E2E2E2E2E2E2E2E2E2E2E2E2E2E2E2E2E2E2E2E2E2E2E2E2E2E2E2E2E2E2E2E2E2E2E2E2E2E2E2E2E2E2E2E2E2E2E2E2E2E2E2E2E2E2E2E2E2E2E2E2E2E2E2E2E2E2E2E2E2E2E2E2E2E2E2E2E2E2E2E2E2E2E2E2E2E2E2E2E2E2E2E2E2E2E2E2E2E2E2E2E2E2E2E2E2E2E2E2E2E2E2E2E2E2E2E2E2E2
310
E2E2E2E2E2E2E2E2E2E2E2E2E2E2E2E2E2E2E2E2E2E2E2E2E2E2E2E2E2E2E2E2E2E2E2E2E2E2E2E2E2E2E2E2E2E2E2E2E2E2E2E2E2E2E2E2E2E2E2E2E2E2E2E2E2E2E2E2E2E2E2E2E2E2E2E2E2E2E2E2E2E2E2E2E2E2E2E2E2E2E2E2E2E2E2E2E2E2E2E2E2E2E2E2E2E2E2E2E2E2E2E2E2E2E2E2E2E2E2E2E2E2E2E2E2E2E2
310
E2E2E2E2E2E2E2E2E2E2E2E2E2E2E2E2E2E2E2E2E2E2E2E2E2E2E2E2E2E2E2E2E2E2E2E2E2E2E2E2E2E2E2E2E2E2E2E2E2E2E2E2E2E2E2E2E2E2E2E2E2E2E2E2E2E2E2E2E2E2E2E2E2E2E2E2E2E2E2E2E2E2E2E2E2E2E2E2E2E2E2E2E2E2E2E2E2E2E2E2E2E2E2E2E2E2E2E2E2E2E2E2E2E2E2E2E2E2E2E2E2E2E2E2E2E2E2
310
E2E2E2E2E2E2E2E2E2E2E2E2E2E2E2E2E2E2E2E2E2E2E2E2E2E2E2E2E2E2E2E2E2E2E2E2E2E2E2E2E2E2E2E2E2E2E2E2E2E2E2E2E2E2E2E2E2E2E2E2E2E2E2E2E2E2E2E2E2E2E2E2E2E2E2E2E2E2E2E2E2E2E2E2E2E2E2E2E2E2E2E2E2E2E2E2E2E2E2E2E2E2E2E2E2E2E2E2E2E2E2E2E2E2E2E2E2E2E2E2E2E2E2E2E2E2E2
310
E2E2E2E2E2E2E2E2E2E2E2E2E2E2E2E2E2E2E2E2E2E2E2E2E2E2E2E2E2E2E2E2E2E2E2E2E2E2E2E2E2E2E2E2E2E2E2E2E2E2E2E2E2E2E2E2E2E2E2E2E2E2E2E2E2E2E2E2E2E2E2E2E2E2E2E2E2E2E2E2E2E2E2E2E2E2E2E2E2E2E2E2E2E2E2E2E2E2E2E2E2E2E2E2E2E2E2E2E2E2E2E2E2E2E2E2E2E2E2E2E2E2E2E2E2E2E2
310
E2E2E2E2E2E2E2E2E2E2E2E2E2E2E2E2E2E2E2E2E2E2E2E2E2E2E2E2E2E2E2E2E2E2E2E2E2E2E2E2E2E2E2E2E2E2E2E2E2E2E2E2E2E2E2E2E2E2E2E2E2E2E2E2E2E2E2E2E2E2E2E2E2E2E2E2E2E2E2E2E2E2E2E2E2E2E2E2E2E2E2E2E2E2E2E2E2E2E2E2E2E2E2E2E2E2E2E2E2E2E2E2E2E2E2E2E2E2E2E2E2E2E2E2E2E2E2
310
E2E2E2E2E2E2E2E2E2E2E2E2E2E2E2E2E2E2E2E2E2E2E2E2E2E2E2E2E2E2E2E2E2E2E2E2E2E2E2E2E2E2E2E2E2E2E2E2E2E2E2E2E2E2E2E2E2E2E2E2E2E2E2E2E2E2E2E2E2E2E2E2E2E2E2E2E2E2E2E2E2E2E2E2E2E2E2E2E2E2E2E2E2E2E2E2E2E2E2E2E2E2E2E2E2E2E2E2E2E2E2E2E2E2E2E2E2E2E2E2E2E2E2E2E2E2E2
310
E2E2E2E2E2E2E2E2E2E2E2E2E2E2E2E2E2E2E2E2E2E2E2E2E2E2E2E2E2E2E2E2E2E2E2E2E2E2E2E2E2E2E2E2E2E2E2E2E2E2E2E2E2E2E2E2E2E2E2E2E2E2E2E2E2E2E2E2E2E2E2E2E2E2E2E2E2E2E2E2E2E2E2E2E2E2E2E2E2E2E2E2E2E2E2E2E2E2E2E2E2E2E2E2E2E2E2E2E2E2E2E2E2E2E2E2E2E2E2E2E2E2E2E2E2E2E2
310
E2E2E2E2E2E2E2E2E2E2E2E2E2E2E2E2E2E2E2E2E2E2E2E2E2E2E2E2E2E2E2E2E2E2E2E2E2E2E2E2E2E2E2E2E2E2E2E2E2E2E2E2E2E2E2E2E2E2E2E2E2E2E2E2E2E2E2E2E2E2E2E2E2E2E2E2E2E2E2E2E2E2E2E2E2E2E2E2E2E2E2E2E2E2E2E2E2E2E2E2E2E2E2E2E2E2E2E2E2E2E2E2E2E2E2E2E2E2E2E2E2E2E2E2E2E2E2
310
E2E2E2E2E2E2E2E2E2E2E2E2E2E2E2E2E2E2E2E2E2E2E2E2E2E2E2E2E2E2E2E2E2E2E2E2E2E2E2E2E2E2E2E2E2E2E2E2E2E2E2E2E2E2E2E2E2E2E2E2E2E2E2E2E2E2E2E2E2E2E2E2E2E2E2E2E2E2E2E2E2E2E2E2E2E2E2E2E2E2E2E2E2E2E2E2E2E2E2E2E2E2E2E2E2E2E2E2E2E2E2E2E2E2E2E2E2E2E2E2E2E2E2E2E2E2E2
310
E2E2E2E2E2E2E2E2E2E2E2E2E2E2E2E2E2E2E2E2E2E2E2E2E2E2E2E2E2E2E2E2E2E2E2E2E2E2E2E2E2E2E2E2E2E2E2E2E2E2E2E2E2E2E2E2E2E2E2E2E2E2E2E2E2E2E2E2E2E2E2E2E2E2E2E2E2E2E2E2E2E2E2E2E2E2E2E2E2E2E2E2E2E2E2E2E2E2E2E2E2E2E2E2E2E2E2E2E2E2E2E2E2E2E2E2E2E2E2E2E2E2E2E2E2E2E2
310
E2E2E2E2E2E2E2E2E2E2E2E2E2E2E2E2E2E2E2E2E2E2E2E2E2E2E2E2E2E2E2E2E2E2E2E2E2E2E2E2E2E2E2E2E2E2E2E2E2E2E2E2E2E2E2E2E2E2E2E2E2E2E2E2E2E2E2E2E2E2E2E2E2E2E2E2E2E2E2E2E2E2E2E2E2E2E2E2E2E2E2E2E2E2E2E2E2E2E2E2E2E2E2E2E2E2E2E2E2E2E2E2E2E2E2E2E2E2E2E2E2E2E2E2E2E2E2
310
E2E2E2E2E2E2E2E2E2E2E2E2E2E2E2E2E2E2E2E2E2E2E2E2E2E2E2E2E2E2E2E2E2E2E2E2E2E2E2E2E2E2E2E2E2E2E2E2E2E2E2E2E2E2E2E2E2E2E2E2E2E2E2E2E2E2E2E2E2E2E2E2E2E2E2E2E2E2E2E2E2E2E2E2E2E2E2E2E2E2E2E2E2E2E2E2E2E2E2E2E2E2E2E2E2E2E2E2E2E2E2E2E2E2E2E2E2E2E2E2E2E2E2E2E2E2E2
310
E2E2E2E2E2E2E2E2E2E2E2E2E2E2E2E2E2E2E2E2E2E2E2E2E2E2E2E2E2E2E2E2E2E2E2E2E2E2E2E2E2E2E2E2E2E2E2E2E2E2E2E2E2E2E2E2E2E2E2E2E2E2E2E2E2E2E2E2E2E2E2E2E2E2E2E2E2E2E2E2E2E2E2E2E2E2E2E2E2E2E2E2E2E2E2E2E2E2E2E2E2E2E2E2E2E2E2E2E2E2E2E2E2E2E2E2E2E2E2E2E2E2E2E2E2E2E2
310
E2E2E2E2E2E2E2E2E2E2E2E2E2E2E2E2E2E2E2E2E2E2E2E2E2E2E2E2E2E2E2E2E2E2E2E2E2E2E2E2E2E2E2E2E2E2E2E2E2E2E2E2E2E2E2E2E2E2E2E2E2E2E2E2E2E2E2E2E2E2E2E2E2E2E2E2E2E2E2E2E2E2E2E2E2E2E2E2E2E2E2E2E2E2E2E2E2E2E2E2E2E2E2E2E2E2E2E2E2E2E2E2E2E2E2E2E2E2E2E2E2E2E2E2E2E2E2
310
E2E2E2E2E2E2E2E2E2E2E2E2E2E2E2E2E2E2E2E2E2E2E2E2E2E2E2E2E2E2E2E2E2E2E2E2E2E2E2E2E2E2E2E2E2E2E2E2E2E2E2E2E2E2E2E2E2E2E2E2E2E2E2E2E2E2E2E2E2E2E2E2E2E2E2E2E2E2E2E2E2E2E2E2E2E2E2E2E2E2E2E2E2E2E2E2E2E2E2E2E2E2E2E2E2E2E2E2E2E2E2E2E2E2E2E2E2E2E2E2E2E2E2E2E2E2E2
310
E2E2E2E2E2E2E2E2E2E2E2E2E2E2E2E2E2E2E2E2E2E2E2E2E2E2E2E2E2E2E2E2E2E2E2E2E2E2E2E2E2E2E2E2E2E2E2E2E2E2E2E2E2E2E2E2E2E2E2E2E2E2E2E2E2E2E2E2E2E2E2E2E2E2E2E2E2E2E2E2E2E2E2E2E2E2E2E2E2E2E2E2E2E2E2E2E2E2E2E2E2E2E2E2E2E2E2E2E2E2E2E2E2E2E2E2E2E2E2E2E2E2E2E2E2E2E2
310
E2E2E2E2E2E2E2E2E2E2E2E2E2E2E2E2E2E2E2E2E2E2E2E2E2E2E2E2E2E2E2E2E2E2E2E2E2E2E2E2E2E2E2E2E2E2E2E2E2E2E2E2E2E2E2E2E2E2E2E2E2E2E2E2E2E2E2E2E2E2E2E2E2E2E2E2E2E2E2E2E2E2E2E2E2E2E2E2E2E2E2E2E2E2E2E2E2E2E2E2E2E2E2E2E2E2E2E2E2E2E2E2E2E2E2E2E2E2E2E2E2E2E2E2E2E2E2
310
E2E2E2E2E2E2E2E2E2E2E2E2E2E2E2E2E2E2E2E2E2E2E2E2E2E2E2E2E2E2E2E2E2E2E2E2E2E2E2E2E2E2E2E2E2E2E2E2E2E2E2E2E2E2E2E2E2E2E2E2E2E2E2E2E2E2E2E2E2E2E2E2E2E2E2E2E2E2E2E2E2E2E2E2E2E2E2E2E2E2E2E2E2E2E2E2E2E2E2E2E2E2E2E2E2E2E2E2E2E2E2E2E2E2E2E2E2E2E2E2E2E2E2E2E2E2E2
310
E2E2E2E2E2E2E2E2E2E2E2E2E2E2E2E2E2E2E2E2E2E2E2E2E2E2E2E2E2E2E2E2E2E2E2E2E2E2E2E2E2E2E2E2E2E2E2E2E2E2E2E2E2E2E2E2E2E2E2E2E2E2E2E2E2E2E2E2E2E2E2E2E2E2E2E2E2E2E2E2E2E2E2E2E2E2E2E2E2E2E2E2E2E2E2E2E2E2E2E2E2E2E2E2E2E2E2E2E2E2E2E2E2E2E2E2E2E2E2E2E2E2E2E2E2E2E2
310
E2E2E2E2E2E2E2E2E2E2E2E2E2E2E2E2E2E2E2E2E2E2E2E2E2E2E2E2E2E2E2E2E2E2E2E2E2E2E2E2E2E2E2E2E2E2E2E2E2E2E2E2E2E2E2E2E2E2E2E2E2E2E2E2E2E2E2E2E2E2E2E2E2E2E2E2E2E2E2E2E2E2E2E2E2E2E2E2E2E2E2E2E2E2E2E2E2E2E2E2E2E2E2E2E2E2E2E2E2E2E2E2E2E2E2E2E2E2E2E2E2E2E2E2E2E2E2
310
E2E2E2E2E2E2E2E2E2E2E2E2E2E2E2E2E2E2E2E2E2E2E2E2E2E2E2E2E2E2E2E2E2E2E2E2E2E2E2E2E2E2E2E2E2E2E2E2E2E2E2E2E2E2E2E2E2E2E2E2E2E2E2E2E2E2E2E2E2E2E2E2E2E2E2E2E2E2E2E2E2E2E2E2E2E2E2E2E2E2E2E2E2E2E2E2E2E2E2E2E2E2E2E2E2E2E2E2E2E2E2E2E2E2E2E2E2E2E2E2E2E2E2E2E2E2E2
310
E2E2E2E2E2E2E2E2E2E2E2E2E2E2E2E2E2E2E2E2E2E2E2E2E2E2E2E2E2E2E2E2E2E2E2E2E2E2E2E2E2E2E2E2E2E2E2E2E2E2E2E2E2E2E2E2E2E2E2E2E2E2E2E2E2E2E2E2E2E2E2E2E2E2E2E2E2E2E2E2E2E2E2E2E2E2E2E2E2E2E2E2E2E2E2E2E2E2E2E2E2E2E2E2E2E2E2E2E2E2E2E2E2E2E2E2E2E2E2E2E2E2E2E2E2E2E2
310
E2E2E2E2E2E2E2E2E2E2E2E2E2E2E2E2E2E2E2E2E2E2E2E2E2E2E2E2E2E2E2E2E2E2E2E2E2E2E2E2E2E2E2E2E2E2E2E2E2E2E2E2E2E2E2E2E2E2E2E2E2E2E2E2E2E2E2E2E2E2E2E2E2E2E2E2E2E2E2E2E2E2E2E2E2E2E2E2E2E2E2E2E2E2E2E2E2E2E2E2E2E2E2E2E2E2E2E2E2E2E2E2E2E2E2E2E2E2E2E2E2E2E2E2E2E2E2
310
E2E2E2E2E2E2E2E2E2E2E2E2E2E2E2E2E2E2E2E2E2E2E2E2E2E2E2E2E2E2E2E2E2E2E2E2E2E2E2E2E2E2E2E2E2E2E2E2E2E2E2E2E2E2E2E2E2E2E2E2E2E2E2E2E2E2E2E2E2E2E2E2E2E2E2E2E2E2E2E2E2E2E2E2E2E2E2E2E2E2E2E2E2E2E2E2E2E2E2E2E2E2E2E2E2E2E2E2E2E2E2E2E2E2E2E2E2E2E2E2E2E2E2E2E2E2E2
310
E2E2E2E2E2E2E2E2E2E2E2E2E2E2E2E2E2E2E2E2E2E2E2E2E2E2E2E2E2E2E2E2E2E2E2E2E2E2E2E2E2E2E2E2E2E2E2E2E2E2E2E2E2E2E2E2E2E2E2E2E2E2E2E2E2E2E2E2E2E2E2E2E2E2E2E2E2E2E2E2E2E2E2E2E2E2E2E2E2E2E2E2E2E2E2E2E2E2E2E2E2E2E2E2E2E2E2E2E2E2E2E2E2E2E2E2E2E2E2E2E2E2E2E2E2E2E2
310
E2E2E2E2E2E2E2E2E2E2E2E2E2E2E2E2E2E2E2E2E2E2E2E2E2E2E2E2E2E2E2E2E2E2E2E2E2E2E2E2E2E2E2E2E2E2E2E2E2E2E2E2E2E2E2E2E2E2E2E2E2E2E2E2E2E2E2E2E2E2E2E2E2E2E2E2E2E2E2E2E2E2E2E2E2E2E2E2E2E2E2E2E2E2E2E2E2E2E2E2E2E2E2E2E2E2E2E2E2E2E2E2E2E2E2E2E2E2E2E2E2E2E2E2E2E2E2
310
E2E2E2E2E2E2E2E2E2E2E2E2E2E2E2E2E2E2E2E2E2E2E2E2E2E2E2E2E2E2E2E2E2E2E2E2E2E2E2E2E2E2E2E2E2E2E2E2E2E2E2E2E2E2E2E2E2E2E2E2E2E2E2E2E2E2E2E2E2E2E2E2E2E2E2E2E2E2E2E2E2E2E2E2E2E2E2E2E2E2E2E2E2E2E2E2E2E2E2E2E2E2E2E2E2E2E2E2E2E2E2E2E2E2E2E2E2E2E2E2E2E2E2E2E2E2E2
310
E2E2E2E2E2E2E2E2E2E2E2E2E2E2E2E2E2E2E2E2E2E2E2E2E2E2E2E2E2E2E2E2E2E2E2E2E2E2E2E2E2E2E2E2E2E2E2E2E2E2E2E2E2E2E2E2E2E2E2E2E2E2E2E2E2E2E2E2E2E2E2E2E2E2E2E2E2E2E2E2E2E2E2E2E2E2E2E2E2E2E2E2E2E2E2E2E2E2E2E2E2E2E2E2E2E2E2E2E2E2E2E2E2E2E2E2E2E2E2E2E2E2E2E2E2E2E2
310
E2E2E2E2E2E2E2E2E2E2E2E2E2E2E2E2E2E2E2E2E2E2E2E2E2E2E2E2E2E2E2E2E2E2E2E2E2E2E2E2E2E2E2E2E2E2E2E2E2E2E2E2E2E2E2E2E2E2E2E2E2E2E2E2E2E2E2E2E2E2E2E2E2E2E2E2E2E2E2E2E2E2E2E2E2E2E2E2E2E2E2E2E2E2E2E2E2E2E2E2E2E2E2E2E2E2E2E2E2E2E2E2E2E2E2E2E2E2E2E2E2E2E2E2E2E2E2
310
E2E2E2E2E2E2E2E2E2E2E2E2E2E2E2E2E2E2E2E2E2E2E2E2E2E2E2E2E2E2E2E2E2E2E2E2E2E2E2E2E2E2E2E2E2E2E2E2E2E2E2E2E2E2E2E2E2E2E2E2E2E2E2E2E2E2E2E2E2E2E2E2E2E2E2E2E2E2E2E2E2E2E2E2E2E2E2E2E2E2E2E2E2E2E2E2E2E2E2E2E2E2E2E2E2E2E2E2E2E2E2E2E2E2E2E2E2E2E2E2E2E2E2E2E2E2E2
310
E2E2E2E2E2E2E2E2E2E2E2E2E2E2E2E2E2E2E2E2E2E2E2E2E2E2E2E2E2E2E2E2E2E2E2E2E2E2E2E2E2E2E2E2E2E2E2E2E2E2E2E2E2E2E2E2E2E2E2E2E2E2E2E2E2E2E2E2E2E2E2E2E2E2E2E2E2E2E2E2E2E2E2E2E2E2E2E2E2E2E2E2E2E2E2E2E2E2E2E2E2E2E2E2E2E2E2E2E2E2E2E2E2E2E2E2E2E2E2E2E2E2E2E2E2E2E2
310
E2E2E2E2E2E2E2E2E2E2E2E2E2E2E2E2E2E2E2E2E2E2E2E2E2E2E2E2E2E2E2E2E2E2E2E2E2E2E2E2E2E2E2E2E2E2E2E2E2E2E2E2E2E2E2E2E2E2E2E2E2E2E2E2E2E2E2E2E2E2E2E2E2E2E2E2E2E2E2E2E2E2E2E2E2E2E2E2E2E2E2E2E2E2E2E2E2E2E2E2E2E2E2E2E2E2E2E2E2E2E2E2E2E2E2E2E2E2E2E2E2E2E2E2E2E2E2
310
E2E2E2E2E2E2E2E2E2E2E2E2E2E2E2E2E2E2E2E2E2E2E2E2E2E2E2E2E2E2E2E2E2E2E2E2E2E2E2E2E2E2E2E2E2E2E2E2E2E2E2E2E2E2E2E2E2E2E2E2E2E2E2E2E2E2E2E2E2E2E2E2E2E2E2E2E2E2E2E2E2E2E2E2E2E2E2E2E2E2E2E2E2E2E2E2E2E2E2E2E2E2E2E2E2E2E2E2E2E2E2E2E2E2E2E2E2E2E2E2E2E2E2E2E2E2E2
310
E2E2E2E2E2E2E2E2E2E2E2E2E2E2E2E2E2E2E2E2E2E2E2E2E2E2E2E2E2E2E2E2E2E2E2E2E2E2E2E2E2E2E2E2E2E2E2E2E2E2E2E2E2E2E2E2E2E2E2E2E2E2E2E2E2E2E2E2E2E2E2E2E2E2E2E2E2E2E2E2E2E2E2E2E2E2E2E2E2E2E2E2E2E2E2E2E2E2E2E2E2E2E2E2E2E2E2E2E2E2E2E2E2E2E2E2E2E2E2E2E2E2E2E2E2E2E2
310
E2E2E2E2E2E2E2E2E2E2E2E2E2E2E2E2E2E2E2E2E2E2E2E2E2E2E2E2E2E2E2E2E2E2E2E2E2E2E2E2E2E2E2E2E2E2E2E2E2E2E2E2E2E2E2E2E2E2E2E2E2E2E2E2E2E2E2E2E2E2E2E2E2E2E2E2E2E2E2E2E2E2E2E2E2E2E2E2E2E2E2E2E2E2E2E2E2E2E2E2E2E2E2E2E2E2E2E2E2E2E2E2E2E2E2E2E2E2E2E2E2E2E2E2E2E2E2
310
E2E2E2E2E2E2E2E2E2E2E2E2E2E2E2E2E2E2E2E2E2E2E2E2E2E2E2E2E2E2E2E2E2E2E2E2E2E2E2E2E2E2E2E2E2E2E2E2E2E2E2E2E2E2E2E2E2E2E2E2E2E2E2E2E2E2E2E2E2E2E2E2E2E2E2E2E2E2E2E2E2E2E2E2E2E2E2E2E2E2E2E2E2E2E2E2E2E2E2E2E2E2E2E2E2E2E2E2E2E2E2E2E2E2E2E2E2E2E2E2E2E2E2E2E2E2E2
310
E2E2E2E2E2E2E2E2E2E2E2E2E2E2E2E2E2E2E2E2E2E2E2E2E2E2E2E2E2E2E2E2E2E2E2E2E2E2E2E2E2E2E2E2E2E2E2E2E2E2E2E2E2E2E2E2E2E2E2E2E2E2E2E2E2E2E2E2E2E2E2E2E2E2E2E2E2E2E2E2E2E2E2E2E2E2E2E2E2E2E2E2E2E2E2E2E2E2E2E2E2E2E2E2E2E2E2E2E2E2E2E2E2E2E2E2E2E2E2E2E2E2E2E2E2E2E2
310
E2E2E2E2E2E2E2E2E2E2E2E2E2E2E2E2E2E2E2E2E2E2E2E2E2E2E2E2E2E2E2E2E2E2E2E2E2E2E2E2E2E2E2E2E2E2E2E2E2E2E2E2E2E2E2E2E2E2E2E2E2E2E2E2E2E2E2E2E2E2E2E2E2E2E2E2E2E2E2E2E2E2E2E2E2E2E2E2E2E2E2E2E2E2E2E2E2E2E2E2E2E2E2E2E2E2E2E2E2E2E2E2E2E2E2E2E2E2E2E2E2E2E2E2E2E2E2
310
E2E2E2E2E2E2E2E2E2E2E2E2E2E2E2E2E2E2E2E2E2E2E2E2E2E2E2E2E2E2E2E2E2E2E2E2E2E2E2E2E2E2E2E2E2E2E2E2E2E2E2E2E2E2E2E2E2E2E2E2E2E2E2E2E2E2E2E2E2E2E2E2E2E2E2E2E2E2E2E2E2E2E2E2E2E2E2E2E2E2E2E2E2E2E2E2E2E2E2E2E2E2E2E2E2E2E2E2E2E2E2E2E2E2E2E2E2E2E2E2E2E2E2E2E2E2E2
310
E2E2E2E2E2E2E2E2E2E2E2E2E2E2E2E2E2E2E2E2E2E2E2E2E2E2E2E2E2E2E2E2E2E2E2E2E2E2E2E2E2E2E2E2E2E2E2E2E2E2E2E2E2E2E2E2E2E2E2E2E2E2E2E2E2E2E2E2E2E2E2E2E2E2E2E2E2E2E2E2E2E2E2E2E2E2E2E2E2E2E2E2E2E2E2E2E2E2E2E2E2E2E2E2E2E2E2E2E2E2E2E2E2E2E2E2E2E2E2E2E2E2E2E2E2E2E2
310
E2E2E2E2E2E2E2E2E2E2E2E2E2E2E2E2E2E2E2E2E2E2E2E2E2E2E2E2E2E2E2E2E2E2E2E2E2E2E2E2E2E2E2E2E2E2E2E2E2E2E2E2E2E2E2E2E2E2E2E2E2E2E2E2E2E2E2E2E2E2E2E2E2E2E2E2E2E2E2E2E2E2E2E2E2E2E2E2E2E2E2E2E2E2E2E2E2E2E2E2E2E2E2E2E2E2E2E2E2E2E2E2E2E2E2E2E2E2E2E2E2E2E2E2E2E2E2
310
E2E2E2E2E2E2E2E2E2E2E2E2E2E2E2E2E2E2E2E2E2E2E2E2E2E2E2E2E2E2E2E2E2E2E2E2E2E2E2E2E2E2E2E2E2E2E2E2E2E2E2E2E2E2E2E2E2E2E2E2E2E2E2E2E2E2E2E2E2E2E2E2E2E2E2E2E2E2E2E2E2E2E2E2E2E2E2E2E2E2E2E2E2E2E2E2E2E2E2E2E2E2E2E2E2E2E2E2E2E2E2E2E2E2E2E2E2E2E2E2E2E2E2E2E2E2E2
310
E2E2E2E2E2E2E2E2E2E2E2E2E2E2E2E2E2E2E2E2E2E2E2E2E2E2E2E2E2E2E2E2E2E2E2E2E2E2E2E2E2E2E2E2E2E2E2E2E2E2E2E2E2E2E2E2E2E2E2E2E2E2E2E2E2E2E2E2E2E2E2E2E2E2E2E2E2E2E2E2E2E2E2E2E2E2E2E2E2E2E2E2E2E2E2E2E2E2E2E2E2E2E2E2E2E2E2E2E2E2E2E2E2E2E2E2E2E2E2E2E2E2E2E2E2E2E2
310
E2E2E2E2E2E2E2E2E2E2E2E2E2E2E2E2E2E2E2E2E2E2E2E2E2E2E2E2E2E2E2E2E2E2E2E2E2E2E2E2E2E2E2E2E2E2E2E2E2E2E2E2E2E2E2E2E2E2E2E2E2E2E2E2E2E2E2E2E2E2E2E2E2E2E2E2E2E2E2E2E2E2E2E2E2E2E2E2E2E2E2E2E2E2E2E2E2E2E2E2E2E2E2E2E2E2E2E2E2E2E2E2E2E2E2E2E2E2E2E2E2E2E2E2E2E2E2
310
E2E2E2E2E2E2E2E2E2E2E2E2E2E2E2E2E2E2E2E2E2E2E2E2E2E2E2E2E2E2E2E2E2E2E2E2E2E2E2E2E2E2E2E2E2E2E2E2E2E2E2E2E2E2E2E2E2E2E2E2E2E2E2E2E2E2E2E2E2E2E2E2E2E2E2E2E2E2E2E2E2E2E2E2E2E2E2E2E2E2E2E2E2E2E2E2E2E2E2E2E2E2E2E2E2E2E2E2E2E2E2E2E2E2E2E2E2E2E2E2E2E2E2E2E2E2E2
310
E2E2E2E2E2E2E2E2E2E2E2E2E2E2E2E2E2E2E2E2E2E2E2E2E2E2E2E2E2E2E2E2E2E2E2E2E2E2E2E2E2E2E2E2E2E2E2E2E2E2E2E2E2E2E2E2E2E2E2E2E2E2E2E2E2E2E2E2E2E2E2E2E2E2E2E2E2E2E2E2E2E2E2E2E2E2E2E2E2E2E2E2E2E2E2E2E2E2E2E2E2E2E2E2E2E2E2E2E2E2E2E2E2E2E2E2E2E2E2E2E2E2E2E2E2E2E2
310
E2E2E2E2E2E2E2E2E2E2E2E2E2E2E2E2E2E2E2E2E2E2E2E2E2E2E2E2E2E2E2E2E2E2E2E2E2E2E2E2E2E2E2E2E2E2E2E2E2E2E2E2E2E2E2E2E2E2E2E2E2E2E2E2E2E2E2E2E2E2E2E2E2E2E2E2E2E2E2E2E2E2E2E2E2E2E2E2E2E2E2E2E2E2E2E2E2E2E2E2E2E2E2E2E2E2E2E2E2E2E2E2E2E2E2E2E2E2E2E2E2E2E2E2E2E2E2
310
E2E2E2E2E2E2E2E2E2E2E2E2E2E2E2E2E2E2E2E2E2E2E2E2E2E2E2E2E2E2E2E2E2E2E2E2E2E2E2E2E2E2E2E2E2E2E2E2E2E2E2E2E2E2E2E2E2E2E2E2E2E2E2E2E2E2E2E2E2E2E2E2E2E2E2E2E2E2E2E2E2E2E2E2E2E2E2E2E2E2E2E2E2E2E2E2E2E2E2E2E2E2E2E2E2E2E2E2E2E2E2E2E2E2E2E2E2E2E2E2E2E2E2E2E2E2E2
310
E2E2E2E2E2E2E2E2E2E2E2E2E2E2E2E2E2E2E2E2E2E2E2E2E2E2E2E2E2E2E2E2E2E2E2E2E2E2E2E2E2E2E2E2E2E2E2E2E2E2E2E2E2E2E2E2E2E2E2E2E2E2E2E2E2E2E2E2E2E2E2E2E2E2E2E2E2E2E2E2E2E2E2E2E2E2E2E2E2E2E2E2E2E2E2E2E2E2E2E2E2E2E2E2E2E2E2E2E2E2E2E2E2E2E2E2E2E2E2E2E2E2E2E2E2E2E2
310
E2E2E2E2E2E2E2E2E2E2E2E2E2E2E2E2E2E2E2E2E2E2E2E2E2E2E2E2E2E2E2E2E2E2E2E2E2E2E2E2E2E2E2E2E2E2E2E2E2E2E2E2E2E2E2E2E2E2E2E2E2E2E2E2E2E2E2E2E2E2E2E2E2E2E2E2E2E2E2E2E2E2E2E2E2E2E2E2E2E2E2E2E2E2E2E2E2E2E2E2E2E2E2E2E2E2E2E2E2E2E2E2E2E2E2E2E2E2E2E2E2E2E2E2E2E2E2
310
E2E2E2E2E2E2E2E2E2E2E2E2E2E2E2E2E2E2E2E2E2E2E2E2E2E2E2E2E2E2E2E2E2E2E2E2E2E2E2E2E2E2E2E2E2E2E2E2E2E2E2E2E2E2E2E2E2E2E2E2E2E2E2E2E2E2E2E2E2E2E2E2E2E2E2E2E2E2E2E2E2E2E2E2E2E2E2E2E2E2E2E2E2E2E2E2E2E2E2E2E2E2E2E2E2E2E2E2E2E2E2E2E2E2E2E2E2E2E2E2E2E2E2E2E2E2E2
310
E2E2E2E2E2E2E2E2E2E2E2E2E2E2E2E2E2E2E2E2E2E2E2E2E2E2E2E2E2E2E2E2E2E2E2E2E2E2E2E2E2E2E2E2E2E2E2E2E2E2E2E2E2E2E2E2E2E2E2E2E2E2E2E2E2E2E2E2E2E2E2E2E2E2E2E2E2E2E2E2E2E2E2E2E2E2E2E2E2E2E2E2E2E2E2E2E2E2E2E2E2E2E2E2E2E2E2E2E2E2E2E2E2E2E2E2E2E2E2E2E2E2E2E2E2E2E2
310
E2E2E2E2E2E2E2E2E2E2E2E2E2E2E2E2E2E2E2E2E2E2E2E2E2E2E2E2E2E2E2E2E2E2E2E2E2E2E2E2E2E2E2E2E2E2E2E2E2E2E2E2E2E2E2E2E2E2E2E2E2E2E2E2E2E2E2E2E2E2E2E2E2E2E2E2E2E2E2E2E2E2E2E2E2E2E2E2E2E2E2E2E2E2E2E2E2E2E2E2E2E2E2E2E2E2E2E2E2E2E2E2E2E2E2E2E2E2E2E2E2E2E2E2E2E2E2
310
E2E2E2E2E2E2E2E2E2E2E2E2E2E2E2E2E2E2E2E2E2E2E2E2E2E2E2E2E2E2E2E2E2E2E2E2E2E2E2E2E2E2E2E2E2E2E2E2E2E2E2E2E2E2E2E2E2E2E2E2E2E2E2E2E2E2E2E2E2E2E2E2E2E2E2E2E2E2E2E2E2E2E2E2E2E2E2E2E2E2E2E2E2E2E2E2E2E2E2E2E2E2E2E2E2E2E2E2E2E2E2E2E2E2E2E2E2E2E2E2E2E2E2E2E2E2E2
310
E2E2E2E2E2E2E2E2E2E2E2E2E2E2E2E2E2E2E2E2E2E2E2E2E2E2E2E2E2E2E2E2E2E2E2E2E2E2E2E2E2E2E2E2E2E2E2E2E2E2E2E2E2E2E2E2E2E2E2E2E2E2E2E2E2E2E2E2E2E2E2E2E2E2E2E2E2E2E2E2E2E2E2E2E2E2E2E2E2E2E2E2E2E2E2E2E2E2E2E2E2E2E2E2E2E2E2E2E2E2E2E2E2E2E2E2E2E2E2E2E2E2E2E2E2E2E2
310
E2E2E2E2E2E2E2E2E2E2E2E2E2E2E2E2E2E2E2E2E2E2E2E2E2E2E2E2E2E2E2E2E2E2E2E2E2E2E2E2E2E2E2E2E2E2E2E2E2E2E2E2E2E2E2E2E2E2E2E2E2E2E2E2E2E2E2E2E2E2E2E2E2E2E2E2E2E2E2E2E2E2E2E2E2E2E2E2E2E2E2E2E2E2E2E2E2E2E2E2E2E2E2E2E2E2E2E2E2E2E2E2E2E2E2E2E2E2E2E2E2E2E2E2E2E2E2
310
E2E2E2E2E2E2E2E2E2E2E2E2E2E2E2E2E2E2E2E2E2E2E2E2E2E2E2E2E2E2E2E2E2E2E2E2E2E2E2E2E2E2E2E2E2E2E2E2E2E2E2E2E2E2E2E2E2E2E2E2E2E2E2E2E2E2E2E2E2E2E2E2E2E2E2E2E2E2E2E2E2E2E2E2E2E2E2E2E2E2E2E2E2E2E2E2E2E2E2E2E2E2E2E2E2E2E2E2E2E2E2E2E2E2E2E2E2E2E2E2E2E2E2E2E2E2E2
310
E2E2E2E2E2E2E2E2E2E2E2E2E2E2E2E2E2E2E2E2E2E2E2E2E2E2E2E2E2E2E2E2E2E2E2E2E2E2E2E2E2E2E2E2E2E2E2E2E2E2E2E2E2E2E2E2E2E2E2E2E2E2E2E2E2E2E2E2E2E2E2E2E2E2E2E2E2E2E2E2E2E2E2E2E2E2E2E2E2E2E2E2E2E2E2E2E2E2E2E2E2E2E2E2E2E2E2E2E2E2E2E2E2E2E2E2E2E2E2E2E2E2E2E2E2E2E2
310
E2E2E2E2E2E2E2E2E2E2E2E2E2E2E2E2E2E2E2E2E2E2E2E2E2E2E2E2E2E2E2E2E2E2E2E2E2E2E2E2E2E2E2E2E2E2E2E2E2E2E2E2E2E2E2E2E2E2E2E2E2E2E2E2E2E2E2E2E2E2E2E2E2E2E2E2E2E2E2E2E2E2E2E2E2E2E2E2E2E2E2E2E2E2E2E2E2E2E2E2E2E2E2E2E2E2E2E2E2E2E2E2E2E2E2E2E2E2E2E2E2E2E2E2E2E2E2
310
E2E2E2E2E2E2E2E2E2E2E2E2E2E2E2E2E2E2E2E2E2E2E2E2E2E2E2E2E2E2E2E2E2E2E2E2E2E2E2E2E2E2E2E2E2E2E2E2E2E2E2E2E2E2E2E2E2E2E2E2E2E2E2E2E2E2E2E2E2E2E2E2E2E2E2E2E2E2E2E2E2E2E2E2E2E2E2E2E2E2E2E2E2E2E2E2E2E2E2E2E2E2E2E2E2E2E2E2E2E2E2E2E2E2E2E2E2E2E2E2E2E2E2E2E2E2E2
310
E2E2E2E2E2E2E2E2E2E2E2E2E2E2E2E2E2E2E2E2E2E2E2E2E2E2E2E2E2E2E2E2E2E2E2E2E2E2E2E2E2E2E2E2E2E2E2E2E2E2E2E2E2E2E2E2E2E2E2E2E2E2E2E2E2E2E2E2E2E2E2E2E2E2E2E2E2E2E2E2E2E2E2E2E2E2E2E2E2E2E2E2E2E2E2E2E2E2E2E2E2E2E2E2E2E2E2E2E2E2E2E2E2E2E2E2E2E2E2E2E2E2E2E2E2E2E2
310
E2E2E2E2E2E2E2E2E2E2E2E2E2E2E2E2E2E2E2E2E2E2E2E2E2E2E2E2E2E2E2E2E2E2E2E2E2E2E2E2E2E2E2E2E2E2E2E2E2E2E2E2E2E2E2E2E2E2E2E2E2E2E2E2E2E2E2E2E2E2E2E2E2E2E2E2E2E2E2E2E2E2E2E2E2E2E2E2E2E2E2E2E2E2E2E2E2E2E2E2E2E2E2E2E2E2E2E2E2E2E2E2E2E2E2E2E2E2E2E2E2E2E2E2E2E2E2
310
E2E2E2E2E2E2E2E2E2E2E2E2E2E2E2E2E2E2E2E2E2E2E2E2E2E2E2E2E2E2E2E2E2E2E2E2E2E2E2E2E2E2E2E2E2E2E2E2E2E2E2E2E2E2E2E2E2E2E2E2E2E2E2E2E2E2E2E2E2E2E2E2E2E2E2E2E2E2E2E2E2E2E2E2E2E2E2E2E2E2E2E2E2E2E2E2E2E2E2E2E2E2E2E2E2E2E2E2E2E2E2E2E2E2E2E2E2E2E2E2E2E2E2E2E2E2E2
310
E2E2E2E2E2E2E2E2E2E2E2E2E2E2E2E2E2E2E2E2E2E2E2E2E2E2E2E2E2E2E2E2E2E2E2E2E2E2E2E2E2E2E2E2E2E2E2E2E2E2E2E2E2E2E2E2E2E2E2E2E2E2E2E2E2E2E2E2E2E2E2E2E2E2E2E2E2E2E2E2E2E2E2E2E2E2E2E2E2E2E2E2E2E2E2E2E2E2E2E2E2E2E2E2E2E2E2E2E2E2E2E2E2E2E2E2E2E2E2E2E2E2E2E2E2E2E2
310
E2E2E2E2E2E2E2E2E2E2E2E2E2E2E2E2E2E2E2E2E2E2E2E2E2E2E2E2E2E2E2E2E2E2E2E2E2E2E2E2E2E2E2E2E2E2E2E2E2E2E2E2E2E2E2E2E2E2E2E2E2E2E2E2E2E2E2E2E2E2E2E2E2E2E2E2E2E2E2E2E2E2E2E2E2E2E2E2E2E2E2E2E2E2E2E2E2E2E2E2E2E2E2E2E2E2E2E2E2E2E2E2E2E2E2E2E2E2E2E2E2E2E2E2E2E2E2
310
E2E2E2E2E2E2E2E2E2E2E2E2E2E2E2E2E2E2E2E2E2E2E2E2E2E2E2E2E2E2E2E2E2E2E2E2E2E2E2E2E2E2E2E2E2E2E2E2E2E2E2E2E2E2E2E2E2E2E2E2E2E2E2E2E2E2E2E2E2E2E2E2E2E2E2E2E2E2E2E2E2E2E2E2E2E2E2E2E2E2E2E2E2E2E2E2E2E2E2E2E2E2E2E2E2E2E2E2E2E2E2E2E2E2E2E2E2E2E2E2E2E2E2E2E2E2E2
310
E2E2E2E2E2E2E2E2E2E2E2E2E2E2E2E2E2E2E2E2E2E2E2E2E2E2E2E2E2E2E2E2E2E2E2E2E2E2E2E2E2E2E2E2E2E2E2E2E2E2E2E2E2E2E2E2E2E2E2E2E2E2E2E2E2E2E2E2E2E2E2E2E2E2E2E2E2E2E2E2E2E2E2E2E2E2E2E2E2E2E2E2E2E2E2E2E2E2E2E2E2E2E2E2E2E2E2E2E2E2E2E2E2E2E2E2E2E2E2E2E2E2E2E2E2E2E2
310
E2E2E2E2E2E2E2E2E2E2E2E2E2E2E2E2E2E2E2E2E2E2E2E2E2E2E2E2E2E2E2E2E2E2E2E2E2E2E2E2E2E2E2E2E2E2E2E2E2E2E2E2E2E2E2E2E2E2E2E2E2E2E2E2E2E2E2E2E2E2E2E2E2E2E2E2E2E2E2E2E2E2E2E2E2E2E2E2E2E2E2E2E2E2E2E2E2E2E2E2E2E2E2E2E2E2E2E2E2E2E2E2E2E2E2E2E2E2E2E2E2E2E2E2E2E2E2
310
E2E2E2E2E2E2E2E2E2E2E2E2E2E2E2E2E2E2E2E2E2E2E2E2E2E2E2E2E2E2E2E2E2E2E2E2E2E2E2E2E2E2E2E2E2E2E2E2E2E2E2E2E2E2E2E2E2E2E2E2E2E2E2E2E2E2E2E2E2E2E2E2E2E2E2E2E2E2E2E2E2E2E2E2E2E2E2E2E2E2E2E2E2E2E2E2E2E2E2E2E2E2E2E2E2E2E2E2E2E2E2E2E2E2E2E2E2E2E2E2E2E2E2E2E2E2E2
310
E2E2E2E2E2E2E2E2E2E2E2E2E2E2E2E2E2E2E2E2E2E2E2E2E2E2E2E2E2E2E2E2E2E2E2E2E2E2E2E2E2E2E2E2E2E2E2E2E2E2E2E2E2E2E2E2E2E2E2E2E2E2E2E2E2E2E2E2E2E2E2E2E2E2E2E2E2E2E2E2E2E2E2E2E2E2E2E2E2E2E2E2E2E2E2E2E2E2E2E2E2E2E2E2E2E2E2E2E2E2E2E2E2E2E2E2E2E2E2E2E2E2E2E2E2E2E2
310
E2E2E2E2E2E2E2E2E2E2E2E2E2E2E2E2E2E2E2E2E2E2E2E2E2E2E2E2E2E2E2E2E2E2E2E2E2E2E2E2E2E2E2E2E2E2E2E2E2E2E2E2E2E2E2E2E2E2E2E2E2E2E2E2E2E2E2E2E2E2E2E2E2E2E2E2E2E2E2E2E2E2E2E2E2E2E2E2E2E2E2E2E2E2E2E2E2E2E2E2E2E2E2E2E2E2E2E2E2E2E2E2E2E2E2E2E2E2E2E2E2E2E2E2E2E2E2
310
E2E2E2E2E2E2E2E2E2E2E2E2E2E2E2E2E2E2E2E2E2E2E2E2E2E2E2E2E2E2E2E2E2E2E2E2E2E2E2E2E2E2E2E2E2E2E2E2E2E2E2E2E2E2E2E2E2E2E2E2E2E2E2E2E2E2E2E2E2E2E2E2E2E2E2E2E2E2E2E2E2E2E2E2E2E2E2E2E2E2E2E2E2E2E2E2E2E2E2E2E2E2E2E2E2E2E2E2E2E2E2E2E2E2E2E2E2E2E2E2E2E2E2E2E2E2E2
310
E2E2E2E2E2E2E2E2E2E2E2E2E2E2E2E2E2E2E2E2E2E2E2E2E2E2E2E2E2E2E2E2E2E2E2E2E2E2E2E2E2E2E2E2E2E2E2E2E2E2E2E2E2E2E2E2E2E2E2E2E2E2E2E2E2E2E2E2E2E2E2E2E2E2E2E2E2E2E2E2E2E2E2E2E2E2E2E2E2E2E2E2E2E2E2E2E2E2E2E2E2E2E2E2E2E2E2E2E2E2E2E2E2E2E2E2E2E2E2E2E2E2E2E2E2E2E2
310
E2E2E2E2E2E2E2E2E2E2E2E2E2E2E2E2E2E2E2E2E2E2E2E2E2E2E2E2E2E2E2E2E2E2E2E2E2E2E2E2E2E2E2E2E2E2E2E2E2E2E2E2E2E2E2E2E2E2E2E2E2E2E2E2E2E2E2E2E2E2E2E2E2E2E2E2E2E2E2E2E2E2E2E2E2E2E2E2E2E2E2E2E2E2E2E2E2E2E2E2E2E2E2E2E2E2E2E2E2E2E2E2E2E2E2E2E2E2E2E2E2E2E2E2E2E2E2
310
E2E2E2E2E2E2E2E2E2E2E2E2E2E2E2E2E2E2E2E2E2E2E2E2E2E2E2E2E2E2E2E2E2E2E2E2E2E2E2E2E2E2E2E2E2E2E2E2E2E2E2E2E2E2E2E2E2E2E2E2E2E2E2E2E2E2E2E2E2E2E2E2E2E2E2E2E2E2E2E2E2E2E2E2E2E2E2E2E2E2E2E2E2E2E2E2E2E2E2E2E2E2E2E2E2E2E2E2E2E2E2E2E2E2E2E2E2E2E2E2E2E2E2E2E2E2E2
310
E2E2E2E2E2E2E2E2E2E2E2E2E2E2E2E2E2E2E2E2E2E2E2E2E2E2E2E2E2E2E2E2E2E2E2E2E2E2E2E2E2E2E2E2E2E2E2E2E2E2E2E2E2E2E2E2E2E2E2E2E2E2E2E2E2E2E2E2E2E2E2E2E2E2E2E2E2E2E2E2E2E2E2E2E2E2E2E2E2E2E2E2E2E2E2E2E2E2E2E2E2E2E2E2E2E2E2E2E2E2E2E2E2E2E2E2E2E2E2E2E2E2E2E2E2E2E2
310
E2E2E2E2E2E2E2E2E2E2E2E2E2E2E2E2E2E2E2E2E2E2E2E2E2E2E2E2E2E2E2E2E2E2E2E2E2E2E2E2E2E2E2E2E2E2E2E2E2E2E2E2E2E2E2E2E2E2E2E2E2E2E2E2E2E2E2E2E2E2E2E2E2E2E2E2E2E2E2E2E2E2E2E2E2E2E2E2E2E2E2E2E2E2E2E2E2E2E2E2E2E2E2E2E2E2E2E2E2E2E2E2E2E2E2E2E2E2E2E2E2E2E2E2E2E2E2
310
E2E2E2E2E2E2E2E2E2E2E2E2E2E2E2E2E2E2E2E2E2E2E2E2E2E2E2E2E2E2E2E2E2E2E2E2E2E2E2E2E2E2E2E2E2E2E2E2E2E2E2E2E2E2E2E2E2E2E2E2E2E2E2E2E2E2E2E2E2E2E2E2E2E2E2E2E2E2E2E2E2E2E2E2E2E2E2E2E2E2E2E2E2E2E2E2E2E2E2E2E2E2E2E2E2E2E2E2E2E2E2E2E2E2E2E2E2E2E2E2E2E2E2E2E2E2E2
310
E2E2E2E2E2E2E2E2E2E2E2E2E2E2E2E2E2E2E2E2E2E2E2E2E2E2E2E2E2E2E2E2E2E2E2E2E2E2E2E2E2E2E2E2E2E2E2E2E2E2E2E2E2E2E2E2E2E2E2E2E2E2E2E2E2E2E2E2E2E2E2E2E2E2E2E2E2E2E2E2E2E2E2E2E2E2E2E2E2E2E2E2E2E2E2E2E2E2E2E2E2E2E2E2E2E2E2E2E2E2E2E2E2E2E2E2E2E2E2E2E2E2E2E2E2E2E2
310
E2E2E2E2E2E2E2E2E2E2E2E2E2E2E2E2E2E2E2E2E2E2E2E2E2E2E2E2E2E2E2E2E2E2E2E2E2E2E2E2E2E2E2E2E2E2E2E2E2E2E2E2E2E2E2E2E2E2E2E2E2E2E2E2E2E2E2E2E2E2E2E2E2E2E2E2E2E2E2E2E2E2E2E2E2E2E2E2E2E2E2E2E2E2E2E2E2E2E2E2E2E2E2E2E2E2E2E2E2E2E2E2E2E2E2E2E2E2E2E2E2E2E2E2E2E2E2
310
E2E2E2E2E2E2E2E2E2E2E2E2E2E2E2E2E2E2E2E2E2E2E2E2E2E2E2E2E2E2E2E2E2E2E2E2E2E2E2E2E2E2E2E2E2E2E2E2E2E2E2E2E2E2E2E2E2E2E2E2E2E2E2E2E2E2E2E2E2E2E2E2E2E2E2E2E2E2E2E2E2E2E2E2E2E2E2E2E2E2E2E2E2E2E2E2E2E2E2E2E2E2E2E2E2E2E2E2E2E2E2E2E2E2E2E2E2E2E2E2E2E2E2E2E2E2E2
310
E2E2E2E2E2E2E2E2E2E2E2E2E2E2E2E2E2E2E2E2E2E2E2E2E2E2E2E2E2E2E2E2E2E2E2E2E2E2E2E2E2E2E2E2E2E2E2E2E2E2E2E2E2E2E2E2E2E2E2E2E2E2E2E2E2E2E2E2E2E2E2E2E2E2E2E2E2E2E2E2E2E2E2E2E2E2E2E2E2E2E2E2E2E2E2E2E2E2E2E2E2E2E2E2E2E2E2E2E2E2E2E2E2E2E2E2E2E2E2E2E2E2E2E2E2E2E2
310
E2E2E2E2E2E2E2E2E2E2E2E2E2E2E2E2E2E2E2E2E2E2E2E2E2E2E2E2E2E2E2E2E2E2E2E2E2E2E2E2E2E2E2E2E2E2E2E2E2E2E2E2E2E2E2E2E2E2E2E2E2E2E2E2E2E2E2E2E2E2E2E2E2E2E2E2E2E2E2E2E2E2E2E2E2E2E2E2E2E2E2E2E2E2E2E2E2E2E2E2E2E2E2E2E2E2E2E2E2E2E2E2E2E2E2E2E2E2E2E2E2E2E2E2E2E2E2
310
E2E2E2E2E2E2E2E2E2E2E2E2E2E2E2E2E2E2E2E2E2E2E2E2E2E2E2E2E2E2E2E2E2E2E2E2E2E2E2E2E2E2E2E2E2E2E2E2E2E2E2E2E2E2E2E2E2E2E2E2E2E2E2E2E2E2E2E2E2E2E2E2E2E2E2E2E2E2E2E2E2E2E2E2E2E2E2E2E2E2E2E2E2E2E2E2E2E2E2E2E2E2E2E2E2E2E2E2E2E2E2E2E2E2E2E2E2E2E2E2E2E2E2E2E2E2E2
310
E2E2E2E2E2E2E2E2E2E2E2E2E2E2E2E2E2E2E2E2E2E2E2E2E2E2E2E2E2E2E2E2E2E2E2E2E2E2E2E2E2E2E2E2E2E2E2E2E2E2E2E2E2E2E2E2E2E2E2E2E2E2E2E2E2E2E2E2E2E2E2E2E2E2E2E2E2E2E2E2E2E2E2E2E2E2E2E2E2E2E2E2E2E2E2E2E2E2E2E2E2E2E2E2E2E2E2E2E2E2E2E2E2E2E2E2E2E2E2E2E2E2E2E2E2E2E2
310
E2E2E2E2E2E2E2E2E2E2E2E2E2E2E2E2E2E2E2E2E2E2E2E2E2E2E2E2E2E2E2E2E2E2E2E2E2E2E2E2E2E2E2E2E2E2E2E2E2E2E2E2E2E2E2E2E2E2E2E2E2E2E2E2E2E2E2E2E2E2E2E2E2E2E2E2E2E2E2E2E2E2E2E2E2E2E2E2E2E2E2E2E2E2E2E2E2E2E2E2E2E2E2E2E2E2E2E2E2E2E2E2E2E2E2E2E2E2E2E2E2E2E2E2E2E2E2
310
E2E2E2E2E2E2E2E2E2E2E2E2E2E2E2E2E2E2E2E2E2E2E2E2E2E2E2E2E2E2E2E2E2E2E2E2E2E2E2E2E2E2E2E2E2E2E2E2E2E2E2E2E2E2E2E2E2E2E2E2E2E2E2E2E2E2E2E2E2E2E2E2E2E2E2E2E2E2E2E2E2E2E2E2E2E2E2E2E2E2E2E2E2E2E2E2E2E2E2E2E2E2E2E2E2E2E2E2E2E2E2E2E2E2E2E2E2E2E2E2E2E2E2E2E2E2E2
310
E2E2E2E2E2E2E2E2E2E2E2E2E2E2E2E2E2E2E2E2E2E2E2E2E2E2E2E2E2E2E2E2E2E2E2E2E2E2E2E2E2E2E2E2E2E2E2E2E2E2E2E2E2E2E2E2E2E2E2E2E2E2E2E2E2E2E2E2E2E2E2E2E2E2E2E2E2E2E2E2E2E2E2E2E2E2E2E2E2E2E2E2E2E2E2E2E2E2E2E2E2E2E2E2E2E2E2E2E2E2E2E2E2E2E2E2E2E2E2E2E2E2E2E2E2E2E2
310
E2E2E2E2E2E2E2E2E2E2E2E2E2E2E2E2E2E2E2E2E2E2E2E2E2E2E2E2E2E2E2E2E2E2E2E2E2E2E2E2E2E2E2E2E2E2E2E2E2E2E2E2E2E2E2E2E2E2E2E2E2E2E2E2E2E2E2E2E2E2E2E2E2E2E2E2E2E2E2E2E2E2E2E2E2E2E2E2E2E2E2E2E2E2E2E2E2E2E2E2E2E2E2E2E2E2E2E2E2E2E2E2E2E2E2E2E2E2E2E2E2E2E2E2E2E2E2
310
E2E2E2E2E2E2E2E2E2E2E2E2E2E2E2E2E2E2E2E2E2E2E2E2E2E2E2E2E2E2E2E2E2E2E2E2E2E2E2E2E2E2E2E2E2E2E2E2E2E2E2E2E2E2E2E2E2E2E2E2E2E2E2E2E2E2E2E2E2E2E2E2E2E2E2E2E2E2E2E2E2E2E2E2E2E2E2E2E2E2E2E2E2E2E2E2E2E2E2E2E2E2E2E2E2E2E2E2E2E2E2E2E2E2E2E2E2E2E2E2E2E2E2E2E2E2E2
310
E2E2E2E2E2E2E2E2E2E2E2E2E2E2E2E2E2E2E2E2E2E2E2E2E2E2E2E2E2E2E2E2E2E2E2E2E2E2E2E2E2E2E2E2E2E2E2E2E2E2E2E2E2E2E2E2E2E2E2E2E2E2E2E2E2E2E2E2E2E2E2E2E2E2E2E2E2E2E2E2E2E2E2E2E2E2E2E2E2E2E2E2E2E2E2E2E2E2E2E2E2E2E2E2E2E2E2E2E2E2E2E2E2E2E2E2E2E2E2E2E2E2E2E2E2E2E2
310
E2E2E2E2E2E2E2E2E2E2E2E2E2E2E2E2E2E2E2E2E2E2E2E2E2E2E2E2E2E2E2E2E2E2E2E2E2E2E2E2E2E2E2E2E2E2E2E2E2E2E2E2E2E2E2E2E2E2E2E2E2E2E2E2E2E2E2E2E2E2E2E2E2E2E2E2E2E2E2E2E2E2E2E2E2E2E2E2E2E2E2E2E2E2E2E2E2E2E2E2E2E2E2E2E2E2E2E2E2E2E2E2E2E2E2E2E2E2E2E2E2E2E2E2E2E2E2
310
E2E2E2E2E2E2E2E2E2E2E2E2E2E2E2E2E2E2E2E2E2E2E2E2E2E2E2E2E2E2E2E2E2E2E2E2E2E2E2E2E2E2E2E2E2E2E2E2E2E2E2E2E2E2E2E2E2E2E2E2E2E2E2E2E2E2E2E2E2E2E2E2E2E2E2E2E2E2E2E2E2E2E2E2E2E2E2E2E2E2E2E2E2E2E2E2E2E2E2E2E2E2E2E2E2E2E2E2E2E2E2E2E2E2E2E2E2E2E2E2E2E2E2E2E2E2E2
310
E2E2E2E2E2E2E2E2E2E2E2E2E2E2E2E2E2E2E2E2E2E2E2E2E2E2E2E2E2E2E2E2E2E2E2E2E2E2E2E2E2E2E2E2E2E2E2E2E2E2E2E2E2E2E2E2E2E2E2E2E2E2E2E2E2E2E2E2E2E2E2E2E2E2E2E2E2E2E2E2E2E2E2E2E2E2E2E2E2E2E2E2E2E2E2E2E2E2E2E2E2E2E2E2E2E2E2E2E2E2E2E2E2E2E2E2E2E2E2E2E2E2E2E2E2E2E2
310
E2E2E2E2E2E2E2E2E2E2E2E2E2E2E2E2E2E2E2E2E2E2E2E2E2E2E2E2E2E2E2E2E2E2E2E2E2E2E2E2E2E2E2E2E2E2E2E2E2E2E2E2E2E2E2E2E2E2E2E2E2E2E2E2E2E2E2E2E2E2E2E2E2E2E2E2E2E2E2E2E2E2E2E2E2E2E2E2E2E2E2E2E2E2E2E2E2E2E2E2E2E2E2E2E2E2E2E2E2E2E2E2E2E2E2E2E2E2E2E2E2E2E2E2E2E2E2
310
E2E2E2E2E2E2E2E2E2E2E2E2E2E2E2E2E2E2E2E2E2E2E2E2E2E2E2E2E2E2E2E2E2E2E2E2E2E2E2E2E2E2E2E2E2E2E2E2E2E2E2E2E2E2E2E2E2E2E2E2E2E2E2E2E2E2E2E2E2E2E2E2E2E2E2E2E2E2E2E2E2E2E2E2E2E2E2E2E2E2E2E2E2E2E2E2E2E2E2E2E2E2E2E2E2E2E2E2E2E2E2E2E2E2E2E2E2E2E2E2E2E2E2E2E2E2E2
310
E2E2E2E2E2E2E2E2E2E2E2E2E2E2E2E2E2E2E2E2E2E2E2E2E2E2E2E2E2E2E2E2E2E2E2E2E2E2E2E2E2E2E2E2E2E2E2E2E2E2E2E2E2E2E2E2E2E2E2E2E2E2E2E2E2E2E2E2E2E2E2E2E2E2E2E2E2E2E2E2E2E2E2E2E2E2E2E2E2E2E2E2E2E2E2E2E2E2E2E2E2E2E2E2E2E2E2E2E2E2E2E2E2E2E2E2E2E2E2E2E2E2E2E2E2E2E2
310
E2E2E2E2E2E2E2E2E2E2E2E2E2E2E2E2E2E2E2E2E2E2E2E2E2E2E2E2E2E2E2E2E2E2E2E2E2E2E2E2E2E2E2E2E2E2E2E2E2E2E2E2E2E2E2E2E2E2E2E2E2E2E2E2E2E2E2E2E2E2E2E2E2E2E2E2E2E2E2E2E2E2E2E2E2E2E2E2E2E2E2E2E2E2E2E2E2E2E2E2E2E2E2E2E2E2E2E2E2E2E2E2E2E2E2E2E2E2E2E2E2E2E2E2E2E2E2
310
E2E2E2E2E2E2E2E2E2E2E2E2E2E2E2E2E2E2E2E2E2E2E2E2E2E2E2E2E2E2E2E2E2E2E2E2E2E2E2E2E2E2E2E2E2E2E2E2E2E2E2E2E2E2E2E2E2E2E2E2E2E2E2E2E2E2E2E2E2E2E2E2E2E2E2E2E2E2E2E2E2E2E2E2E2E2E2E2E2E2E2E2E2E2E2E2E2E2E2E2E2E2E2E2E2E2E2E2E2E2E2E2E2E2E2E2E2E2E2E2E2E2E2E2E2E2E2
310
E2E2E2E2E2E2E2E2E2E2E2E2E2E2E2E2E2E2E2E2E2E2E2E2E2E2E2E2E2E2E2E2E2E2E2E2E2E2E2E2E2E2E2E2E2E2E2E2E2E2E2E2E2E2E2E2E2E2E2E2E2E2E2E2E2E2E2E2E2E2E2E2E2E2E2E2E2E2E2E2E2E2E2E2E2E2E2E2E2E2E2E2E2E2E2E2E2E2E2E2E2E2E2E2E2E2E2E2E2E2E2E2E2E2E2E2E2E2E2E2E2E2E2E2E2E2E2
310
E2E2E2E2E2E2E2E2E2E2E2E2E2E2E2E2E2E2E2E2E2E2E2E2E2E2E2E2E2E2E2E2E2E2E2E2E2E2E2E2E2E2E2E2E2E2E2E2E2E2E2E2E2E2E2E2E2E2E2E2E2E2E2E2E2E2E2E2E2E2E2E2E2E2E2E2E2E2E2E2E2E2E2E2E2E2E2E2E2E2E2E2E2E2E2E2E2E2E2E2E2E2E2E2E2E2E2E2E2E2E2E2E2E2E2E2E2E2E2E2E2E2E2E2E2E2E2
310
E2E2E2E2E2E2E2E2E2E2E2E2E2E2E2E2E2E2E2E2E2E2E2E2E2E2E2E2E2E2E2E2E2E2E2E2E2E2E2E2E2E2E2E2E2E2E2E2E2E2E2E2E2E2E2E2E2E2E2E2E2E2E2E2E2E2E2E2E2E2E2E2E2E2E2E2E2E2E2E2E2E2E2E2E2E2E2E2E2E2E2E2E2E2E2E2E2E2E2E2E2E2E2E2E2E2E2E2E2E2E2E2E2E2E2E2E2E2E2E2E2E2E2E2E2E2E2
310
E2E2E2E2E2E2E2E2E2E2E2E2E2E2E2E2E2E2E2E2E2E2E2E2E2E2E2E2E2E2E2E2E2E2E2E2E2E2E2E2E2E2E2E2E2E2E2E2E2E2E2E2E2E2E2E2E2E2E2E2E2E2E2E2E2E2E2E2E2E2E2E2E2E2E2E2E2E2E2E2E2E2E2E2E2E2E2E2E2E2E2E2E2E2E2E2E2E2E2E2E2E2E2E2E2E2E2E2E2E2E2E2E2E2E2E2E2E2E2E2E2E2E2E2E2E2E2
310
E2E2E2E2E2E2E2E2E2E2E2E2E2E2E2E2E2E2E2E2E2E2E2E2E2E2E2E2E2E2E2E2E2E2E2E2E2E2E2E2E2E2E2E2E2E2E2E2E2E2E2E2E2E2E2E2E2E2E2E2E2E2E2E2E2E2E2E2E2E2E2E2E2E2E2E2E2E2E2E2E2E2E2E2E2E2E2E2E2E2E2E2E2E2E2E2E2E2E2E2E2E2E2E2E2E2E2E2E2E2E2E2E2E2E2E2E2E2E2E2E2E2E2E2E2E2E2
310
E2E2E2E2E2E2E2E2E2E2E2E2E2E2E2E2E2E2E2E2E2E2E2E2E2E2E2E2E2E2E2E2E2E2E2E2E2E2E2E2E2E2E2E2E2E2E2E2E2E2E2E2E2E2E2E2E2E2E2E2E2E2E2E2E2E2E2E2E2E2E2E2E2E2E2E2E2E2E2E2E2E2E2E2E2E2E2E2E2E2E2E2E2E2E2E2E2E2E2E2E2E2E2E2E2E2E2E2E2E2E2E2E2E2E2E2E2E2E2E2E2E2E2E2E2E2E2
310
E2E2E2E2E2E2E2E2E2E2E2E2E2E2E2E2E2E2E2E2E2E2E2E2E2E2E2E2E2E2E2E2E2E2E2E2E2E2E2E2E2E2E2E2E2E2E2E2E2E2E2E2E2E2E2E2E2E2E2E2E2E2E2E2E2E2E2E2E2E2E2E2E2E2E2E2E2E2E2E2E2E2E2E2E2E2E2E2E2E2E2E2E2E2E2E2E2E2E2E2E2E2E2E2E2E2E2E2E2E2E2E2E2E2E2E2E2E2E2E2E2E2E2E2E2E2E2
310
E2E2E2E2E2E2E2E2E2E2E2E2E2E2E2E2E2E2E2E2E2E2E2E2E2E2E2E2E2E2E2E2E2E2E2E2E2E2E2E2E2E2E2E2E2E2E2E2E2E2E2E2E2E2E2E2E2E2E2E2E2E2E2E2E2E2E2E2E2E2E2E2E2E2E2E2E2E2E2E2E2E2E2E2E2E2E2E2E2E2E2E2E2E2E2E2E2E2E2E2E2E2E2E2E2E2E2E2E2E2E2E2E2E2E2E2E2E2E2E2E2E2E2E2E2E2E2
310
E2E2E2E2E2E2E2E2E2E2E2E2E2E2E2E2E2E2E2E2E2E2E2E2E2E2E2E2E2E2E2E2E2E2E2E2E2E2E2E2E2E2E2E2E2E2E2E2E2E2E2E2E2E2E2E2E2E2E2E2E2E2E2E2E2E2E2E2E2E2E2E2E2E2E2E2E2E2E2E2E2E2E2E2E2E2E2E2E2E2E2E2E2E2E2E2E2E2E2E2E2E2E2E2E2E2E2E2E2E2E2E2E2E2E2E2E2E2E2E2E2E2E2E2E2E2E2
310
E2E2E2E2E2E2E2E2E2E2E2E2E2E2E2E2E2E2E2E2E2E2E2E2E2E2E2E2E2E2E2E2E2E2E2E2E2E2E2E2E2E2E2E2E2E2E2E2E2E2E2E2E2E2E2E2E2E2E2E2E2E2E2E2E2E2E2E2E2E2E2E2E2E2E2E2E2E2E2E2E2E2E2E2E2E2E2E2E2E2E2E2E2E2E2E2E2E2E2E2E2E2E2E2E2E2E2E2E2E2E2E2E2E2E2E2E2E2E2E2E2E2E2E2E2E2E2
310
E2E2E2E2E2E2E2E2E2E2E2E2E2E2E2E2E2E2E2E2E2E2E2E2E2E2E2E2E2E2E2E2E2E2E2E2E2E2E2E2E2E2E2E2E2E2E2E2E2E2E2E2E2E2E2E2E2E2E2E2E2E2E2E2E2E2E2E2E2E2E2E2E2E2E2E2E2E2E2E2E2E2E2E2E2E2E2E2E2E2E2E2E2E2E2E2E2E2E2E2E2E2E2E2E2E2E2E2E2E2E2E2E2E2E2E2E2E2E2E2E2E2E2E2E2E2E2
310
E2E2E2E2E2E2E2E2E2E2E2E2E2E2E2E2E2E2E2E2E2E2E2E2E2E2E2E2E2E2E2E2E2E2E2E2E2E2E2E2E2E2E2E2E2E2E2E2E2E2E2E2E2E2E2E2E2E2E2E2E2E2E2E2E2E2E2E2E2E2E2E2E2E2E2E2E2E2E2E2E2E2E2E2E2E2E2E2E2E2E2E2E2E2E2E2E2E2E2E2E2E2E2E2E2E2E2E2E2E2E2E2E2E2E2E2E2E2E2E2E2E2E2E2E2E2E2
310
E2E2E2E2E2E2E2E2E2E2E2E2E2E2E2E2E2E2E2E2E2E2E2E2E2E2E2E2E2E2E2E2E2E2E2E2E2E2E2E2E2E2E2E2E2E2E2E2E2E2E2E2E2E2E2E2E2E2E2E2E2E2E2E2E2E2E2E2E2E2E2E2E2E2E2E2E2E2E2E2E2E2E2E2E2E2E2E2E2E2E2E2E2E2E2E2E2E2E2E2E2E2E2E2E2E2E2E2E2E2E2E2E2E2E2E2E2E2E2E2E2E2E2E2E2E2E2
310
E2E2E2E2E2E2E2E2E2E2E2E2E2E2E2E2E2E2E2E2E2E2E2E2E2E2E2E2E2E2E2E2E2E2E2E2E2E2E2E2E2E2E2E2E2E2E2E2E2E2E2E2E2E2E2E2E2E2E2E2E2E2E2E2E2E2E2E2E2E2E2E2E2E2E2E2E2E2E2E2E2E2E2E2E2E2E2E2E2E2E2E2E2E2E2E2E2E2E2E2E2E2E2E2E2E2E2E2E2E2E2E2E2E2E2E2E2E2E2E2E2E2E2E2E2E2E2
310
E2E2E2E2E2E2E2E2E2E2E2E2E2E2E2E2E2E2E2E2E2E2E2E2E2E2E2E2E2E2E2E2E2E2E2E2E2E2E2E2E2E2E2E2E2E2E2E2E2E2E2E2E2E2E2E2E2E2E2E2E2E2E2E2E2E2E2E2E2E2E2E2E2E2E2E2E2E2E2E2E2E2E2E2E2E2E2E2E2E2E2E2E2E2E2E2E2E2E2E2E2E2E2E2E2E2E2E2E2E2E2E2E2E2E2E2E2E2E2E2E2E2E2E2E2E2E2
310
E2E2E2E2E2E2E2E2E2E2E2E2E2E2E2E2E2E2E2E2E2E2E2E2E2E2E2E2E2E2E2E2E2E2E2E2E2E2E2E2E2E2E2E2E2E2E2E2E2E2E2E2E2E2E2E2E2E2E2E2E2E2E2E2E2E2E2E2E2E2E2E2E2E2E2E2E2E2E2E2E2E2E2E2E2E2E2E2E2E2E2E2E2E2E2E2E2E2E2E2E2E2E2E2E2E2E2E2E2E2E2E2E2E2E2E2E2E2E2E2E2E2E2E2E2E2E2
310
E2E2E2E2E2E2E2E2E2E2E2E2E2E2E2E2E2E2E2E2E2E2E2E2E2E2E2E2E2E2E2E2E2E2E2E2E2E2E2E2E2E2E2E2E2E2E2E2E2E2E2E2E2E2E2E2E2E2E2E2E2E2E2E2E2E2E2E2E2E2E2E2E2E2E2E2E2E2E2E2E2E2E2E2E2E2E2E2E2E2E2E2E2E2E2E2E2E2E2E2E2E2E2E2E2E2E2E2E2E2E2E2E2E2E2E2E2E2E2E2E2E2E2E2E2E2E2
310
E2E2E2E2E2E2E2E2E2E2E2E2E2E2E2E2E2E2E2E2E2E2E2E2E2E2E2E2E2E2E2E2E2E2E2E2E2E2E2E2E2E2E2E2E2E2E2E2E2E2E2E2E2E2E2E2E2E2E2E2E2E2E2E2E2E2E2E2E2E2E2E2E2E2E2E2E2E2E2E2E2E2E2E2E2E2E2E2E2E2E2E2E2E2E2E2E2E2E2E2E2E2E2E2E2E2E2E2E2E2E2E2E2E2E2E2E2E2E2E2E2E2E2E2E2E2E2
310
E2E2E2E2E2E2E2E2E2E2E2E2E2E2E2E2E2E2E2E2E2E2E2E2E2E2E2E2E2E2E2E2E2E2E2E2E2E2E2E2E2E2E2E2E2E2E2E2E2E2E2E2E2E2E2E2E2E2E2E2E2E2E2E2E2E2E2E2E2E2E2E2E2E2E2E2E2E2E2E2E2E2E2E2E2E2E2E2E2E2E2E2E2E2E2E2E2E2E2E2E2E2E2E2E2E2E2E2E2E2E2E2E2E2E2E2E2E2E2E2E2E2E2E2E2E2E2
310
E2E2E2E2E2E2E2E2E2E2E2E2E2E2E2E2E2E2E2E2E2E2E2E2E2E2E2E2E2E2E2E2E2E2E2E2E2E2E2E2E2E2E2E2E2E2E2E2E2E2E2E2E2E2E2E2E2E2E2E2E2E2E2E2E2E2E2E2E2E2E2E2E2E2E2E2E2E2E2E2E2E2E2E2E2E2E2E2E2E2E2E2E2E2E2E2E2E2E2E2E2E2E2E2E2E2E2E2E2E2E2E2E2E2E2E2E2E2E2E2E2E2E2E2E2E2E2
310
E2E2E2E2E2E2E2E2E2E2E2E2E2E2E2E2E2E2E2E2E2E2E2E2E2E2E2E2E2E2E2E2E2E2E2E2E2E2E2E2E2E2E2E2E2E2E2E2E2E2E2E2E2E2E2E2E2E2E2E2E2E2E2E2E2E2E2E2E2E2E2E2E2E2E2E2E2E2E2E2E2E2E2E2E2E2E2E2E2E2E2E2E2E2E2E2E2E2E2E2E2E2E2E2E2E2E2E2E2E2E2E2E2E2E2E2E2E2E2E2E2E2E2E2E2E2E2
310
E2E2E2E2E2E2E2E2E2E2E2E2E2E2E2E2E2E2E2E2E2E2E2E2E2E2E2E2E2E2E2E2E2E2E2E2E2E2E2E2E2E2E2E2E2E2E2E2E2E2E2E2E2E2E2E2E2E2E2E2E2E2E2E2E2E2E2E2E2E2E2E2E2E2E2E2E2E2E2E2E2E2E2E2E2E2E2E2E2E2E2E2E2E2E2E2E2E2E2E2E2E2E2E2E2E2E2E2E2E2E2E2E2E2E2E2E2E2E2E2E2E2E2E2E2E2E2
310
E2E2E2E2E2E2E2E2E2E2E2E2E2E2E2E2E2E2E2E2E2E2E2E2E2E2E2E2E2E2E2E2E2E2E2E2E2E2E2E2E2E2E2E2E2E2E2E2E2E2E2E2E2E2E2E2E2E2E2E2E2E2E2E2E2E2E2E2E2E2E2E2E2E2E2E2E2E2E2E2E2E2E2E2E2E2E2E2E2E2E2E2E2E2E2E2E2E2E2E2E2E2E2E2E2E2E2E2E2E2E2E2E2E2E2E2E2E2E2E2E2E2E2E2E2E2E2
310
E2E2E2E2E2E2E2E2E2E2E2E2E2E2E2E2E2E2E2E2E2E2E2E2E2E2E2E2E2E2E2E2E2E2E2E2E2E2E2E2E2E2E2E2E2E2E2E2E2E2E2E2E2E2E2E2E2E2E2E2E2E2E2E2E2E2E2E2E2E2E2E2E2E2E2E2E2E2E2E2E2E2E2E2E2E2E2E2E2E2E2E2E2E2E2E2E2E2E2E2E2E2E2E2E2E2E2E2E2E2E2E2E2E2E2E2E2E2E2E2E2E2E2E2E2E2E2
310
E2E2E2E2E2E2E2E2E2E2E2E2E2E2E2E2E2E2E2E2E2E2E2E2E2E2E2E2E2E2E2E2E2E2E2E2E2E2E2E2E2E2E2E2E2E2E2E2E2E2E2E2E2E2E2E2E2E2E2E2E2E2E2E2E2E2E2E2E2E2E2E2E2E2E2E2E2E2E2E2E2E2E2E2E2E2E2E2E2E2E2E2E2E2E2E2E2E2E2E2E2E2E2E2E2E2E2E2E2E2E2E2E2E2E2E2E2E2E2E2E2E2E2E2E2E2E2
310
E2E2E2E2E2E2E2E2E2E2E2E2E2E2E2E2E2E2E2E2E2E2E2E2E2E2E2E2E2E2E2E2E2E2E2E2E2E2E2E2E2E2E2E2E2E2E2E2E2E2E2E2E2E2E2E2E2E2E2E2E2E2E2E2E2E2E2E2E2E2E2E2E2E2E2E2E2E2E2E2E2E2E2E2E2E2E2E2E2E2E2E2E2E2E2E2E2E2E2E2E2E2E2E2E2E2E2E2E2E2E2E2E2E2E2E2E2E2E2E2E2E2E2E2E2E2E2
310
E2E2E2E2E2E2E2E2E2E2E2E2E2E2E2E2E2E2E2E2E2E2E2E2E2E2E2E2E2E2E2E2E2E2E2E2E2E2
  0
XRECORD
  5
613
102
{ACAD_REACTORS
330
3E
102
}
330
3E
100
AcDbXrecord
280
     1
102
MATERIAL
148
0.0
149
0.0
149
0.0
 93
        0
 94
      127
282
     0
 72
     0
 77
     0
171
     0
175
     0
179
     0
273
     0
  0
XRECORD
  5
3F
102
{ACAD_REACTORS
330
3E
102
}
330
3E
100
AcDbXrecord
280
     1
270
     1
271
     1
  0
XRECORD
  5
40
102
{ACAD_REACTORS
330
3E
102
}
330
3E
100
AcDbXrecord
280
     1
270
     1
271
     1
  0
XRECORD
  5
41
102
{ACAD_REACTORS
330
3E
102
}
330
3E
100
AcDbXrecord
280
     1
270
     1
271
     1
  0
XRECORD
  5
42
102
{ACAD_REACTORS
330
3E
102
}
330
3E
100
AcDbXrecord
280
     1
270
     1
271
     1
  0
XRECORD
  5
43
102
{ACAD_REACTORS
330
3E
102
}
330
3E
100
AcDbXrecord
280
     1
270
     1
271
     1
  0
XRECORD
  5
44
102
{ACAD_REACTORS
330
3E
102
}
330
3E
100
AcDbXrecord
280
     1
270
     1
271
     1
  0
XRECORD
  5
612
102
{ACAD_REACTORS
330
36
102
}
330
36
100
AcDbXrecord
280
     1
102
MATERIAL
148
0.0
149
0.0
149
0.0
 93
        0
 94
      127
282
     0
 72
     0
 77
     0
171
     0
175
     0
179
     0
273
     0
  0
XRECORD
  5
37
102
{ACAD_REACTORS
330
36
102
}
330
36
100
AcDbXrecord
280
     1
270
     1
271
     1
  0
XRECORD
  5
38
102
{ACAD_REACTORS
330
36
102
}
330
36
100
AcDbXrecord
280
     1
270
     1
271
     1
  0
XRECORD
  5
39
102
{ACAD_REACTORS
330
36
102
}
330
36
100
AcDbXrecord
280
     1
270
     1
271
     1
  0
XRECORD
  5
3A
102
{ACAD_REACTORS
330
36
102
}
330
36
100
AcDbXrecord
280
     1
270
     1
271
     1
  0
XRECORD
  5
3B
102
{ACAD_REACTORS
330
36
102
}
330
36
100
AcDbXrecord
280
     1
270
     1
271
     1
  0
XRECORD
  5
3C
102
{ACAD_REACTORS
330
36
102
}
330
36
100
AcDbXrecord
280
     1
270
     1
271
     1
  0
XRECORD
  5
60E
102
{ACAD_REACTORS
330
C
102
}
330
C
100
AcDbXrecord
280
     1
102
MATERIAL
148
0.0
149
0.0
149
0.0
 93
        0
 94
      127
282
     0
 72
     0
 77
     0
171
     0
175
     0
179
     0
273
     0
  0
XRECORD
  5
D
102
{ACAD_REACTORS
330
C
102
}
330
C
100
AcDbXrecord
280
     1
270
     1
271
     1
  0
XRECORD
  5
E
102
{ACAD_REACTORS
330
C
102
}
330
C
100
AcDbXrecord
280
     1
270
     1
271
     1
  0
XRECORD
  5
F
102
{ACAD_REACTORS
330
C
102
}
330
C
100
AcDbXrecord
280
     1
270
     1
271
     1
  0
XRECORD
  5
10
102
{ACAD_REACTORS
330
C
102
}
330
C
100
AcDbXrecord
280
     1
270
     1
271
     1
  0
XRECORD
  5
11
102
{ACAD_REACTORS
330
C
102
}
330
C
100
AcDbXrecord
280
     1
270
     1
271
     1
  0
XRECORD
  5
12
102
{ACAD_REACTORS
330
C
102
}
330
C
100
AcDbXrecord
280
     1
270
     1
271
     1
  0
CELLSTYLEMAP
  5
C67
102
{ACAD_REACTORS
330
4C2
102
}
330
4C2
100
AcDbCellStyleMap
 90
        3
300
CELLSTYLE
  1
TABLEFORMAT_BEGIN
 90
        5
170
     1
 91
        0
 92
    32768
 62
   257
 93
        1
300
CONTENTFORMAT
  1
CONTENTFORMAT_BEGIN
 90
        0
 91
        0
 92
        4
 93
        0
300

 40
0.0
140
1.0
 94
        5
 62
     0
340
22
144
6.0
309
CONTENTFORMAT_END
171
     1
301
MARGIN
  1
CELLMARGIN_BEGIN
 40
1.5
 40
1.5
 40
1.5
 40
1.5
 40
0.18
 40
0.18
309
CELLMARGIN_END
 94
        6
 95
        1
302
GRIDFORMAT
  1
GRIDFORMAT_BEGIN
 90
        0
 91
        1
 62
     0
 92
       -2
340
0
 93
        0
 40
0.045
309
GRIDFORMAT_END
 95
        2
302
GRIDFORMAT
  1
GRIDFORMAT_BEGIN
 90
        0
 91
        1
 62
     0
 92
       -2
340
0
 93
        0
 40
0.045
309
GRIDFORMAT_END
 95
        4
302
GRIDFORMAT
  1
GRIDFORMAT_BEGIN
 90
        0
 91
        1
 62
     0
 92
       -2
340
0
 93
        0
 40
0.045
309
GRIDFORMAT_END
 95
        8
302
GRIDFORMAT
  1
GRIDFORMAT_BEGIN
 90
        0
 91
        1
 62
     0
 92
       -2
340
0
 93
        0
 40
0.045
309
GRIDFORMAT_END
 95
       16
302
GRIDFORMAT
  1
GRIDFORMAT_BEGIN
 90
        0
 91
        1
 62
     0
 92
       -2
340
0
 93
        0
 40
0.045
309
GRIDFORMAT_END
 95
       32
302
GRIDFORMAT
  1
GRIDFORMAT_BEGIN
 90
        0
 91
        1
 62
     0
 92
       -2
340
0
 93
        0
 40
0.045
309
GRIDFORMAT_END
309
TABLEFORMAT_END
  1
CELLSTYLE_BEGIN
 90
        1
 91
        1
300
_TITLE
309
CELLSTYLE_END
300
CELLSTYLE
  1
TABLEFORMAT_BEGIN
 90
        5
170
     1
 91
        0
 92
        0
 62
   257
 93
        1
300
CONTENTFORMAT
  1
CONTENTFORMAT_BEGIN
 90
        0
 91
        0
 92
        4
 93
        0
300

 40
0.0
140
1.0
 94
        5
 62
     0
340
22
144
4.5
309
CONTENTFORMAT_END
171
     1
301
MARGIN
  1
CELLMARGIN_BEGIN
 40
1.5
 40
1.5
 40
1.5
 40
1.5
 40
0.18
 40
0.18
309
CELLMARGIN_END
 94
        6
 95
        1
302
GRIDFORMAT
  1
GRIDFORMAT_BEGIN
 90
        0
 91
        1
 62
     0
 92
       -2
340
0
 93
        0
 40
0.045
309
GRIDFORMAT_END
 95
        2
302
GRIDFORMAT
  1
GRIDFORMAT_BEGIN
 90
        0
 91
        1
 62
     0
 92
       -2
340
0
 93
        0
 40
0.045
309
GRIDFORMAT_END
 95
        4
302
GRIDFORMAT
  1
GRIDFORMAT_BEGIN
 90
        0
 91
        1
 62
     0
 92
       -2
340
0
 93
        0
 40
0.045
309
GRIDFORMAT_END
 95
        8
302
GRIDFORMAT
  1
GRIDFORMAT_BEGIN
 90
        0
 91
        1
 62
     0
 92
       -2
340
0
 93
        0
 40
0.045
309
GRIDFORMAT_END
 95
       16
302
GRIDFORMAT
  1
GRIDFORMAT_BEGIN
 90
        0
 91
        1
 62
     0
 92
       -2
340
0
 93
        0
 40
0.045
309
GRIDFORMAT_END
 95
       32
302
GRIDFORMAT
  1
GRIDFORMAT_BEGIN
 90
        0
 91
        1
 62
     0
 92
       -2
340
0
 93
        0
 40
0.045
309
GRIDFORMAT_END
309
TABLEFORMAT_END
  1
CELLSTYLE_BEGIN
 90
        2
 91
        1
300
_HEADER
309
CELLSTYLE_END
300
CELLSTYLE
  1
TABLEFORMAT_BEGIN
 90
        5
170
     1
 91
        0
 92
        0
 62
   257
 93
        1
300
CONTENTFORMAT
  1
CONTENTFORMAT_BEGIN
 90
        0
 91
        0
 92
        4
 93
        0
300

 40
0.0
140
1.0
 94
        2
 62
     0
340
22
144
4.5
309
CONTENTFORMAT_END
171
     1
301
MARGIN
  1
CELLMARGIN_BEGIN
 40
1.5
 40
1.5
 40
1.5
 40
1.5
 40
0.18
 40
0.18
309
CELLMARGIN_END
 94
        6
 95
        1
302
GRIDFORMAT
  1
GRIDFORMAT_BEGIN
 90
        0
 91
        1
 62
     0
 92
       -2
340
0
 93
        0
 40
0.045
309
GRIDFORMAT_END
 95
        2
302
GRIDFORMAT
  1
GRIDFORMAT_BEGIN
 90
        0
 91
        1
 62
     0
 92
       -2
340
0
 93
        0
 40
0.045
309
GRIDFORMAT_END
 95
        4
302
GRIDFORMAT
  1
GRIDFORMAT_BEGIN
 90
        0
 91
        1
 62
     0
 92
       -2
340
0
 93
        0
 40
0.045
309
GRIDFORMAT_END
 95
        8
302
GRIDFORMAT
  1
GRIDFORMAT_BEGIN
 90
        0
 91
        1
 62
     0
 92
       -2
340
0
 93
        0
 40
0.045
309
GRIDFORMAT_END
 95
       16
302
GRIDFORMAT
  1
GRIDFORMAT_BEGIN
 90
        0
 91
        1
 62
     0
 92
       -2
340
0
 93
        0
 40
0.045
309
GRIDFORMAT_END
 95
       32
302
GRIDFORMAT
  1
GRIDFORMAT_BEGIN
 90
        0
 91
        1
 62
     0
 92
       -2
340
0
 93
        0
 40
0.045
309
GRIDFORMAT_END
309
TABLEFORMAT_END
  1
CELLSTYLE_BEGIN
 90
        3
 91
        2
300
_DATA
309
CELLSTYLE_END
  0
XRECORD
  5
C6C
102
{ACAD_REACTORS
330
4C2
102
}
330
4C2
100
AcDbXrecord
280
     1
102
ACAD_ROUNDTRIP_PRE2007_TABLESTYLE
 90
        4
 91
        0
  1

 92
        4
 93
        0
  2

 94
        4
 95
        0
  3

  0
ENDSEC
  0
EOF
