  0
SECTION
  2
HEADER
  9
$ACADVER
  1
AC1015
  9
$ACADMAINTVER
 70
    20
  9
$DWGCODEPAGE
  3
ANSI_932
  9
$INSBASE
 10
0.0
 20
0.0
 30
0.0
  9
$EXTMIN
 10
-580.0002778347215
 20
-1842.478405220458
 30
-0.00000001
  9
$EXTMAX
 10
760.9013937360759
 20
-822.9761740937679
 30
0.00000001
  9
$LIMMIN
 10
0.0
 20
0.0
  9
$LIMMAX
 10
420.0
 20
297.0
  9
$ORTHOMODE
 70
     1
  9
$REGENMODE
 70
     1
  9
$FILLMODE
 70
     1
  9
$QTEXTMODE
 70
     0
  9
$MIRRTEXT
 70
     1
  9
$LTSCALE
 40
1.0
  9
$ATTMODE
 70
     1
  9
$TEXTSIZE
 40
62.5215949741746
  9
$TRACEWID
 40
1.0
  9
$TEXTSTYLE
  7
STANDARD
  9
$CLAYER
  8
0
  9
$CELTYPE
  6
BYLAYER
  9
$CECOLOR
 62
   256
  9
$CELTSCALE
 40
1.0
  9
$DISPSILH
 70
     0
  9
$DIMSCALE
 40
5.0
  9
$DIMASZ
 40
2.0
  9
$DIMEXO
 40
1.0
  9
$DIMDLI
 40
3.75
  9
$DIMRND
 40
0.5
  9
$DIMDLE
 40
0.0
  9
$DIMEXE
 40
1.0
  9
$DIMTP
 40
0.0
  9
$DIMTM
 40
0.0
  9
$DIMTXT
 40
2.0
  9
$DIMCEN
 40
2.5
  9
$DIMTSZ
 40
0.0
  9
$DIMTOL
 70
     0
  9
$DIMLIM
 70
     0
  9
$DIMTIH
 70
     0
  9
$DIMTOH
 70
     0
  9
$DIMSE1
 70
     0
  9
$DIMSE2
 70
     0
  9
$DIMTAD
 70
     1
  9
$DIMZIN
 70
     8
  9
$DIMBLK
  1

  9
$DIMASO
 70
     1
  9
$DIMSHO
 70
     1
  9
$DIMPOST
  1

  9
$DIMAPOST
  1

  9
$DIMALT
 70
     0
  9
$DIMALTD
 70
     4
  9
$DIMALTF
 40
0.0394
  9
$DIMLFAC
 40
1.0
  9
$DIMTOFL
 70
     1
  9
$DIMTVP
 40
0.0
  9
$DIMTIX
 70
     0
  9
$DIMSOXD
 70
     0
  9
$DIMSAH
 70
     1
  9
$DIMBLK1
  1
OPEN30
  9
$DIMBLK2
  1
OPEN30
  9
$DIMSTYLE
  2
STANDARD
  9
$DIMCLRD
 70
     0
  9
$DIMCLRE
 70
     0
  9
$DIMCLRT
 70
     0
  9
$DIMTFAC
 40
1.0
  9
$DIMGAP
 40
1.0
  9
$DIMJUST
 70
     0
  9
$DIMSD1
 70
     0
  9
$DIMSD2
 70
     0
  9
$DIMTOLJ
 70
     1
  9
$DIMTZIN
 70
     8
  9
$DIMALTZ
 70
     0
  9
$DIMALTTZ
 70
     0
  9
$DIMUPT
 70
     0
  9
$DIMDEC
 70
     1
  9
$DIMTDEC
 70
     1
  9
$DIMALTU
 70
     8
  9
$DIMALTTD
 70
     4
  9
$DIMTXSTY
  7
STANDARD
  9
$DIMAUNIT
 70
     0
  9
$DIMADEC
 70
     0
  9
$DIMALTRND
 40
0.0
  9
$DIMAZIN
 70
     0
  9
$DIMDSEP
 70
    46
  9
$DIMATFIT
 70
     3
  9
$DIMFRAC
 70
     0
  9
$DIMLDRBLK
  1
OPEN30
  9
$DIMLUNIT
 70
     2
  9
$DIMLWD
 70
    -2
  9
$DIMLWE
 70
    -2
  9
$DIMTMOVE
 70
     0
  9
$LUNITS
 70
     2
  9
$LUPREC
 70
     4
  9
$SKETCHINC
 40
1.0
  9
$FILLETRAD
 40
10.0
  9
$AUNITS
 70
     0
  9
$AUPREC
 70
     0
  9
$MENU
  1
.
  9
$ELEVATION
 40
0.0
  9
$PELEVATION
 40
0.0
  9
$THICKNESS
 40
0.0
  9
$LIMCHECK
 70
     0
  9
$CHAMFERA
 40
10.0
  9
$CHAMFERB
 40
10.0
  9
$CHAMFERC
 40
20.0
  9
$CHAMFERD
 40
0.0
  9
$SKPOLY
 70
     0
  9
$TDCREATE
 40
2451324.468257373
  9
$TDUCREATE
 40
2451324.093257373
  9
$TDUPDATE
 40
2454987.712279745
  9
$TDUUPDATE
 40
2454987.337279745
  9
$TDINDWG
 40
1.8519898032
  9
$TDUSRTIMER
 40
1.8519896181
  9
$USRTIMER
 70
     1
  9
$ANGBASE
 50
0.0
  9
$ANGDIR
 70
     0
  9
$PDMODE
 70
     0
  9
$PDSIZE
 40
0.0
  9
$PLINEWID
 40
0.0
  9
$SPLFRAME
 70
     0
  9
$SPLINETYPE
 70
     6
  9
$SPLINESEGS
 70
     8
  9
$HANDSEED
  5
1176
  9
$SURFTAB1
 70
     6
  9
$SURFTAB2
 70
     6
  9
$SURFTYPE
 70
     6
  9
$SURFU
 70
     6
  9
$SURFV
 70
     6
  9
$UCSBASE
  2

  9
$UCSNAME
  2

  9
$UCSORG
 10
0.0
 20
0.0
 30
0.0
  9
$UCSXDIR
 10
1.0
 20
0.0
 30
0.0
  9
$UCSYDIR
 10
0.0
 20
1.0
 30
0.0
  9
$UCSORTHOREF
  2

  9
$UCSORTHOVIEW
 70
     0
  9
$UCSORGTOP
 10
0.0
 20
0.0
 30
0.0
  9
$UCSORGBOTTOM
 10
0.0
 20
0.0
 30
0.0
  9
$UCSORGLEFT
 10
0.0
 20
0.0
 30
0.0
  9
$UCSORGRIGHT
 10
0.0
 20
0.0
 30
0.0
  9
$UCSORGFRONT
 10
0.0
 20
0.0
 30
0.0
  9
$UCSORGBACK
 10
0.0
 20
0.0
 30
0.0
  9
$PUCSBASE
  2

  9
$PUCSNAME
  2

  9
$PUCSORG
 10
0.0
 20
0.0
 30
0.0
  9
$PUCSXDIR
 10
1.0
 20
0.0
 30
0.0
  9
$PUCSYDIR
 10
0.0
 20
1.0
 30
0.0
  9
$PUCSORTHOREF
  2

  9
$PUCSORTHOVIEW
 70
     0
  9
$PUCSORGTOP
 10
0.0
 20
0.0
 30
0.0
  9
$PUCSORGBOTTOM
 10
0.0
 20
0.0
 30
0.0
  9
$PUCSORGLEFT
 10
0.0
 20
0.0
 30
0.0
  9
$PUCSORGRIGHT
 10
0.0
 20
0.0
 30
0.0
  9
$PUCSORGFRONT
 10
0.0
 20
0.0
 30
0.0
  9
$PUCSORGBACK
 10
0.0
 20
0.0
 30
0.0
  9
$USERI1
 70
     0
  9
$USERI2
 70
     0
  9
$USERI3
 70
     0
  9
$USERI4
 70
     0
  9
$USERI5
 70
     0
  9
$USERR1
 40
0.0
  9
$USERR2
 40
0.0
  9
$USERR3
 40
0.0
  9
$USERR4
 40
0.0
  9
$USERR5
 40
0.0
  9
$WORLDVIEW
 70
     1
  9
$SHADEDGE
 70
     3
  9
$SHADEDIF
 70
    70
  9
$TILEMODE
 70
     1
  9
$MAXACTVP
 70
    48
  9
$PINSBASE
 10
0.0
 20
0.0
 30
0.0
  9
$PLIMCHECK
 70
     0
  9
$PEXTMIN
 10
-1791.263809985266
 20
-1851.755345120029
 30
0.0
  9
$PEXTMAX
 10
3833.539185581147
 20
1884.646857374196
 30
0.0
  9
$PLIMMIN
 10
0.0
 20
0.0
  9
$PLIMMAX
 10
12.0
 20
9.0
  9
$UNITMODE
 70
     0
  9
$VISRETAIN
 70
     1
  9
$PLINEGEN
 70
     0
  9
$PSLTSCALE
 70
     1
  9
$TREEDEPTH
 70
  3020
  9
$CMLSTYLE
  2
STANDARD
  9
$CMLJUST
 70
     0
  9
$CMLSCALE
 40
20.0
  9
$PROXYGRAPHICS
 70
     1
  9
$MEASUREMENT
 70
     1
  9
$CELWEIGHT
370
    -1
  9
$ENDCAPS
280
     0
  9
$JOINSTYLE
280
     0
  9
$LWDISPLAY
290
     0
  9
$INSUNITS
 70
     0
  9
$HYPERLINKBASE
  1

  9
$STYLESHEET
  1

  9
$XEDIT
290
     1
  9
$CEPSNTYPE
380
     0
  9
$PSTYLEMODE
290
     1
  9
$FINGERPRINTGUID
  2
{48450C2D-CB29-486A-991B-9703177E901D}
  9
$VERSIONGUID
  2
{18B975D9-1362-40BE-AC5D-581EF0ADD6BE}
  9
$EXTNAMES
290
     1
  9
$PSVPSCALE
 40
0.0
  9
$OLESTARTUP
290
     0
  0
ENDSEC
  0
SECTION
  2
CLASSES
  0
CLASS
  1
LWPOLYLINE
  2
AcDbPolyline
  3
ObjectDBX Classes
 90
        0
280
     0
281
     1
  0
CLASS
  1
ACDBDICTIONARYWDFLT
  2
AcDbDictionaryWithDefault
  3
ObjectDBX Classes
 90
        0
280
     0
281
     0
  0
CLASS
  1
ACDBPLACEHOLDER
  2
AcDbPlaceHolder
  3
ObjectDBX Classes
 90
        0
280
     0
281
     0
  0
CLASS
  1
LAYOUT
  2
AcDbLayout
  3
ObjectDBX Classes
 90
        0
280
     0
281
     0
  0
CLASS
  1
ACME_DOCUMENT
  2
AcMeDbDoc
  3
AcMeServices
 90
    33792
280
     0
281
     0
  0
CLASS
  1
AMGSETTINGSOBJ
  2
AmgSettingsObj
  3
"AcadM|Product Description: AutoCAD Mechanical|Company: Autodesk, Inc."
 90
    33792
280
     0
281
     0
  0
CLASS
  1
ACMESCOPE
  2
AcMeScope
  3
AcMeServices
 90
    33792
280
     0
281
     0
  0
CLASS
  1
ACMECOMMANDHISTORY
  2
AcMeCommandHistory
  3
AcMeServices
 90
    33792
280
     0
281
     0
  0
CLASS
  1
DICTIONARYVAR
  2
AcDbDictionaryVar
  3
ObjectDBX Classes
 90
        0
280
     0
281
     0
  0
CLASS
  1
ACIMSYSVARMAN
  2
AcImSysVarManager
  3
AcMeServices
 90
    33792
280
     0
281
     0
  0
CLASS
  1
ACIMREALSYSVAR
  2
AcImRealSysVar
  3
AcMeServices
 90
    33792
280
     0
281
     0
  0
CLASS
  1
ACIMINTSYSVAR
  2
AcImIntSysVar
  3
AcMeServices
 90
    33792
280
     0
281
     0
  0
CLASS
  1
ACMEDRAWINGMAN
  2
AcMeDrawingMan
  3
AcMeServices
 90
    33792
280
     0
281
     0
  0
CLASS
  1
ACMEVIEW
  2
AcMeView
  3
AcMeServices
 90
    33792
280
     0
281
     0
  0
CLASS
  1
ACDBENTITYCACHE
  2
AcMeEntityCache
  3
AcMeServices
 90
    33792
280
     0
281
     0
  0
CLASS
  1
GSMANAGER
  2
AcMeGSManager
  3
AcMeServices
 90
    33792
280
     0
281
     0
  0
CLASS
  1
AMDTINTERNALREACTOR
  2
AmdtInternalReactor
  3
AcMeServices
 90
    33792
280
     0
281
     0
  0
CLASS
  1
ACMESTATEMGR
  2
AcMeStateMgr
  3
AcMeServices
 90
    33792
280
     0
281
     0
  0
CLASS
  1
ACGREFMASTER
  2
AcGrefMaster
  3
AcAttribServices
 90
    33792
280
     0
281
     0
  0
CLASS
  1
AM_DRAWING_MGR
  2
AcDmDwgMgr
  3
AcMechDwgViewMgmt
 90
    33792
280
     0
281
     0
  0
CLASS
  1
AM_DWG_DOCUMENT
  2
AcDmDwgDocument
  3
AcMechDwgViewMgmt
 90
    33792
280
     0
281
     0
  0
CLASS
  1
AM_DWG_SHEET
  2
AcDmSheet
  3
AcMechDwgViewMgmt
 90
    33792
280
     0
281
     0
  0
CLASS
  1
AM_VIEWDIMPARMAP
  2
AcDmViewDimParMap
  3
AcMechDwgViewMgmt
 90
    33792
280
     0
281
     0
  0
CLASS
  1
AM_DWGMGR_NAME
  2
AcDmDwgMgrName
  3
AcMechDwgViewMgmt
 90
    33792
280
     0
281
     0
  0
CLASS
  1
ACME_DATABASE
  2
AcMeDbDatabase
  3
AcMeServices
 90
    33792
280
     0
281
     0
  0
CLASS
  1
ACRFINSADJUSTERMGR
  2
AcRfInsAdjusterMgr
  3
AcMeServices
 90
    33792
280
     0
281
     0
  0
CLASS
  1
ACGREFACADMASTER
  2
AcGrefacadMaster
  3
AcGrefServices
 90
    33792
280
     0
281
     0
  0
CLASS
  1
AMDTMENUSTATEMGR
  2
AmdtMenuStateMgr
  3
McadcomServices
 90
    33792
280
     0
281
     0
  0
CLASS
  1
AMDTMCOMMENUSTATE
  2
AmdtMcomMenuState
  3
McadcomServices
 90
    33792
280
     0
281
     0
  0
CLASS
  1
AMIMASTER
  2
AmiMaster
  3
AmiServices
 90
    33792
280
     0
281
     0
  0
CLASS
  1
ASAPP
  2
AcAsAppObject
  3
AutoSurfServices
 90
    33792
280
     0
281
     0
  0
CLASS
  1
IM_STATIC_MAN
  2
AcImStaticVarManager
  3
AcMeServices
 90
    33792
280
     0
281
     0
  0
CLASS
  1
ACIMSTRSYSVAR
  2
AcImStrSysVar
  3
AcMeServices
 90
    33792
280
     0
281
     0
  0
CLASS
  1
ACIMDBLSTATICVAR
  2
AcImDblStaticVar
  3
AcMeServices
 90
    33792
280
     0
281
     0
  0
CLASS
  1
ACIMSTRSTATICVAR
  2
AcImStrStaticVar
  3
AcMeServices
 90
    33792
280
     0
281
     0
  0
CLASS
  1
ACIMINTSTATICVAR
  2
AcImIntStaticVar
  3
AcMeServices
 90
    33792
280
     0
281
     0
  0
CLASS
  1
ACASGREFMASTER
  2
AcAsGrefMaster
  3
AutoSurfResolverServices
 90
    33792
280
     0
281
     0
  0
CLASS
  1
ACADGREFMODULE
  2
AcAdGrefModule
  3
AdGrefServices
 90
    33792
280
     0
281
     0
  0
CLASS
  1
AMDTMAPISURFMOUDULE
  2
AmdtMApiSurfModule
  3
MApiSurfServices
 90
    33792
280
     0
281
     0
  0
CLASS
  1
MAPIAMMOUDLE
  2
MApiAmModule
  3
MApiAmServices
 90
    33792
280
     0
281
     0
  0
CLASS
  1
AMDTADMENUSTATE
  2
AmdtAdMenuState
  3
DesignerServices
 90
    33792
280
     0
281
     0
  0
CLASS
  1
ADAPPL
  2
AcAdAppl
  3
DesignerServices
 90
    33792
280
     0
281
     0
  0
CLASS
  1
DEPMGR
  2
AcAdDepMgr
  3
DesignerServices
 90
    33792
280
     0
281
     0
  0
CLASS
  1
PARAMMGR
  2
AcAdParamMgr
  3
DesignerServices
 90
    33792
280
     0
281
     0
  0
CLASS
  1
PARAMSCOPE
  2
AcAdParamScope
  3
DesignerServices
 90
    33792
280
     0
281
     0
  0
CLASS
  1
NAMEDAPPL
  2
AcAdNamedAppl
  3
DesignerServices
 90
    33792
280
     0
281
     0
  0
CLASS
  1
ADHNTMPLT
  2
AdHoleNoteTemplateMgr
  3
DesignerServices
 90
    33792
280
     0
281
     0
  0
CLASS
  1
AM_HNTEMPLATE_MGR_NAME
  2
AdHoleNoteTemplateMgrName
  3
DesignerServices
 90
    33792
280
     0
281
     0
  0
CLASS
  1
AMDTDMMENUSTATE
  2
AmdtDmMenuState
  3
AcMechDwgViewMgmt
 90
    33792
280
     0
281
     0
  0
CLASS
  1
MAPIADMODULE
  2
MApiAdModule
  3
MApiAdServices
 90
    33792
280
     0
281
     0
  0
CLASS
  1
AMDTAMMENUSTATE
  2
AmdtAmMenuState
  3
DesignerAssemblies
 90
    33792
280
     0
281
     0
  0
CLASS
  1
ACAMPROJECT
  2
AcAmProject
  3
DesignerAssemblies
 90
    33792
280
     0
281
     0
  0
CLASS
  1
ACAMGRCOMPDEF
  2
AcAmGrCompDef
  3
DesignerAssemblies
 90
    33792
280
     0
281
     0
  0
CLASS
  1
ACCMCONTEXT
  2
AcCmContext
  3
DesignerAssemblies
 90
    33792
280
     0
281
     0
  0
CLASS
  1
ACAMCOMPDEF
  2
AcAmCompDef
  3
DesignerAssemblies
 90
    33792
280
     0
281
     0
  0
CLASS
  1
ACAMCOMPDEFMGR
  2
AcAmCompDefMgr
  3
DesignerAssemblies
 90
    33792
280
     0
281
     0
  0
CLASS
  1
AMCONTEXTMGR
  2
AcAmContextMgr
  3
DesignerAssemblies
 90
    33792
280
     0
281
     0
  0
CLASS
  1
ACAMCONTEXTMODELER
  2
AcAmContextModeler
  3
DesignerAssemblies
 90
    33792
280
     0
281
     0
  0
CLASS
  1
ACMDATADICTIONARY
  2
AcmDataDictionary
  3
"AcmSymBB|Product Description: AutoCAD Mechanical|Company: Autodesk, Inc."
 90
     1024
280
     0
281
     0
  0
CLASS
  1
ACMDATAENTRYBLOCK
  2
AcmDataEntryBlock
  3
AcmSymBB|Product Description: AutoCAD Mechanical|Company: Autodesk, Inc.
 90
     1024
280
     0
281
     0
  0
CLASS
  1
CATALOGSTATE
  2
AcAmCatalogState
  3
DesignerAssemblies
 90
    33792
280
     0
281
     0
  0
CLASS
  1
ACAMGRCOMPDEFSET
  2
AcAmGrCompDefSet
  3
DesignerAssemblies
 90
    33792
280
     0
281
     0
  0
CLASS
  1
AMDTBROWSERDBTAB
  2
AmdtBrowserDbTab
  3
McadcomServices
 90
    33792
280
     0
281
     0
  0
CLASS
  1
CBROWSERAPPOBJECT
  2
CBrowserAppObject
  3
McadcomServices
 90
    33792
280
     0
281
     0
  0
CLASS
  1
DM_PLACEHOLDER
  2
AcDmSelsetPlaceholder
  3
AcMechDwgViewMgmt
 90
    33792
280
     0
281
     0
  0
CLASS
  1
ACMSTANDARDISO
  2
AcmStandardISO
  3
"Amdt_StdImp|Product Description: AutoCAD Mechanical|Company: Autodesk, Inc."
 90
    33792
280
     0
281
     0
  0
CLASS
  1
AMGOBJPROPCFG
  2
AmgObjPropCfg
  3
"AmgLay|Product Description: AutoCAD Mechanical|Company: Autodesk, Inc."
 90
    33793
280
     0
281
     0
  0
CLASS
  1
AMDTEDGESTANDARDISO
  2
AmdtEdgeStdISO
  3
"Amdt_StdImp|Product Description: AutoCAD Mechanical|Company: Autodesk, Inc."
 90
    33792
280
     0
281
     0
  0
CLASS
  1
ACMSURFSTANDARDISO
  2
AcmSurfTextStdISO
  3
"Amdt_StdImp|Product Description: AutoCAD Mechanical|Company: Autodesk, Inc."
 90
    33792
280
     0
281
     0
  0
CLASS
  1
ACMFCFSTANDARDISO
  2
AcmFCFStdISO
  3
"Amdt_StdImp|Product Description: AutoCAD Mechanical|Company: Autodesk, Inc."
 90
    33792
280
     0
281
     0
  0
CLASS
  1
ACMWELDSTANDARDISO
  2
AcmWeldingStdISO
  3
"Amdt_StdImp|Product Description: AutoCAD Mechanical|Company: Autodesk, Inc."
 90
    33792
280
     0
281
     0
  0
CLASS
  1
ACMIDSTANDARDISO
  2
AcmIdStdISO
  3
"Amdt_StdImp|Product Description: AutoCAD Mechanical|Company: Autodesk, Inc."
 90
    33792
280
     0
281
     0
  0
CLASS
  1
ACMDATUMSTANDARDISO
  2
AcmDatumStdISO
  3
"Amdt_StdImp|Product Description: AutoCAD Mechanical|Company: Autodesk, Inc."
 90
    33792
280
     0
281
     0
  0
CLASS
  1
ACMBOMSTANDARDISO
  2
AcmBOMStdISO
  3
"Amdt_StdImp|Product Description: AutoCAD Mechanical|Company: Autodesk, Inc."
 90
    33792
280
     0
281
     0
  0
CLASS
  1
ACMDETAILSTANDARDISO
  2
AmdtDetailSymStdISO
  3
"Amdt_StdImp|Product Description: AutoCAD Mechanical|Company: Autodesk, Inc."
 90
    33792
280
     0
281
     0
  0
CLASS
  1
ACMSECTIONSTANDARDISO
  2
AmdtSectionSymStdISO
  3
"Amdt_StdImp|Product Description: AutoCAD Mechanical|Company: Autodesk, Inc."
 90
    33792
280
     0
281
     0
  0
CLASS
  1
ACMCENTERLINESTANDARDISO
  2
AmdtCenterLineStdISO
  3
"Amdt_StdImp|Product Description: AutoCAD Mechanical|Company: Autodesk, Inc."
 90
    33792
280
     0
281
     0
  0
CLASS
  1
ACMTHREADLINESTANDARDISO
  2
AmdtThreadLineStdISO
  3
"Amdt_StdImp|Product Description: AutoCAD Mechanical|Company: Autodesk, Inc."
 90
    33792
280
     0
281
     0
  0
CLASS
  1
ACAMGLAYSTD
  2
AcAmgLayStd
  3
"AmgLay|Product Description: AutoCAD Mechanical|Company: Autodesk, Inc."
 90
    33792
280
     0
281
     0
  0
CLASS
  1
ACAMGDIMSTD
  2
AcAmgDimStd
  3
"AmgDim|Product Description: AutoCAD Mechanical|Company: Autodesk, Inc."
 90
    33792
280
     0
281
     0
  0
CLASS
  1
ACAMGTITLESTD
  2
AcAmgTitleStd
  3
"AmgTitle|Product Description: AutoCAD Mechanical|Company: Autodesk, Inc."
 90
    36863
280
     0
281
     0
  0
CLASS
  1
ACAMGFILTERDAT
  2
AcAmgFilterDat
  3
"AcadM|Product Description: AutoCAD Mechanical|Company: Autodesk, Inc."
 90
    33792
280
     0
281
     0
  0
CLASS
  1
AMDTFORMULAUPDATEDISPATCHER
  2
AmdtFormulaUpdateDispatcher
  3
AcMeServices
 90
    33792
280
     0
281
     0
  0
CLASS
  1
LAYER_INDEX
  2
AcDbLayerIndex
  3
ObjectDBX Classes
 90
    32768
280
     0
281
     0
  0
CLASS
  1
IDBUFFER
  2
AcDbIdBuffer
  3
ObjectDBX Classes
 90
    32768
280
     0
281
     0
  0
CLASS
  1
TABLESTYLE
  2
AcDbTableStyle
  3
ObjectDBX Classes
 90
     4095
280
     0
281
     0
  0
CLASS
  1
ACMNOTESTANDARDISO
  2
AmdtNoteStdISO
  3
"Amdt_StdImp|Product Description: AutoCAD Mechanical|Company: Autodesk, Inc."
 90
    33792
280
     0
281
     0
  0
CLASS
  1
AMDTNOTETEMPLATEDB
  2
AmdtNoteTemplateDB
  3
AcmSymBB|Product Description: AutoCAD Mechanical|Company: Autodesk, Inc.
 90
    33792
280
     0
281
     0
  0
CLASS
  1
ACAMEXTERNALCOMPDEF
  2
AcAmExternalCompDef
  3
DesignerAssemblies
 90
    33792
280
     0
281
     0
  0
CLASS
  1
ACCMBODY
  2
AcCmBody
  3
DesignerAssemblies
 90
    33792
280
     0
281
     0
  0
CLASS
  1
ACAMCOMPENT
  2
AcAmCompEnt
  3
DesignerAssemblies
 90
    33792
280
     0
281
     1
  0
CLASS
  1
ACAMCOMPFEEDBACK
  2
AcAmCompFeedback
  3
DesignerAssemblies
 90
    33792
280
     0
281
     0
  0
CLASS
  1
ACAMCOMP
  2
AcAmComp
  3
DesignerAssemblies
 90
    33792
280
     0
281
     0
  0
CLASS
  1
ACAMCOMPENTCLONE
  2
AcAmCompEntClone
  3
DesignerAssemblies
 90
    33792
280
     0
281
     1
  0
CLASS
  1
ACAMCLONEREACTOR
  2
AcAmGrCompCloneReactor
  3
DesignerAssemblies
 90
    33792
280
     0
281
     0
  0
CLASS
  1
EDGEID
  2
AcAdEdgeId
  3
DesignerServices
 90
    33792
280
     0
281
     0
  0
CLASS
  1
ACADPARTLINEDGRES
  2
AcAdPartLinEdgRes
  3
AdGrefServices
 90
    33792
280
     0
281
     0
  0
CLASS
  1
ACRFINSADJ
  2
AcRfInsAdjuster
  3
AcMeServices
 90
    33792
280
     0
281
     0
  0
CLASS
  1
STREFID
  2
AcAdStraightRefId
  3
DesignerServices
 90
    33792
280
     0
281
     0
  0
CLASS
  1
ACMEAXIS
  2
AcImAxisDisplay
  3
AcMeServices
 90
    33792
280
     0
281
     1
  0
CLASS
  1
FACEID
  2
AcAdFaceId
  3
DesignerServices
 90
    33792
280
     0
281
     0
  0
CLASS
  1
DEPEDGESECONDARYDEPID
  2
AcAdDepEdgeSecondaryDepId
  3
DesignerServices
 90
    33792
280
     0
281
     0
  0
CLASS
  1
ACADPARTPLANARFACERES
  2
AcAdPartPlanarFaceRes
  3
AdGrefServices
 90
    33792
280
     0
281
     0
  0
CLASS
  1
ACMEPOINT
  2
AcImPointDisplay
  3
AcMeServices
 90
    33792
280
     0
281
     1
  0
CLASS
  1
ACMELINEARARROW
  2
AcImLinearArrowDisplay
  3
AcMeServices
 90
    33792
280
     0
281
     1
  0
CLASS
  1
ACAMEXPR
  2
AcAmExpr
  3
DesignerAssemblies
 90
    33792
280
     0
281
     0
  0
CLASS
  1
ACCMDISTPLPL
  2
AcCmDistPlPl
  3
DesignerAssemblies
 90
    33792
280
     0
281
     0
  0
CLASS
  1
ACCMCONSTREACTOR
  2
AcCmConstraintReactor
  3
DesignerAssemblies
 90
    33792
280
     0
281
     0
  0
CLASS
  1
ACCMDISTPTLN
  2
AcCmDistPtLn
  3
DesignerAssemblies
 90
    33792
280
     0
281
     0
  0
CLASS
  1
AM_VIEW_SELECT_FILTER
  2
AcDmSelectViewEntFilter
  3
AcMechDwgViewMgmt
 90
    33792
280
     0
281
     0
  0
CLASS
  1
AM_GREF_PLANE
  2
AcDmGrefPlnDef
  3
AcMechDwgViewMgmt
 90
    33792
280
     0
281
     0
  0
CLASS
  1
AM_GREF_AXIS
  2
AcDmGrefAxisDef
  3
AcMechDwgViewMgmt
 90
    33792
280
     0
281
     0
  0
CLASS
  1
AM_BASE_VIEW_ORIENT
  2
AcDmBaseViewOr
  3
AcMechDwgViewMgmt
 90
    33792
280
     0
281
     0
  0
CLASS
  1
AM_DWG_VIEWPORT
  2
AcDmViewport
  3
AcMechDwgViewMgmt
 90
    33792
280
     0
281
     0
  0
CLASS
  1
AM_VIEW_DISPLAY
  2
AcDmDwgViewDisplay
  3
AcMechDwgViewMgmt
 90
    33792
280
     0
281
     0
  0
CLASS
  1
AM_CLDFLTS
  2
AcDmClDflts
  3
AcMechDwgViewMgmt
 90
    33792
280
     0
281
     0
  0
CLASS
  1
AM_BASE_VIEW
  2
AcDmBaseView
  3
AcMechDwgViewMgmt
 90
    33792
280
     0
281
     0
  0
CLASS
  1
ACMEPLINE
  2
AcImPlineDisplay
  3
AcMeServices
 90
    33792
280
     0
281
     1
  0
CLASS
  1
ACDMPARTVIEWDATA
  2
AcDmPartViewData
  3
AcMechDwgViewMgmt
 90
    33792
280
     0
281
     0
  0
CLASS
  1
ACDMDISPLAYATTRIBS
  2
AcDmDisplayAttribs
  3
AcMechDwgViewMgmt
 90
    33792
280
     0
281
     0
  0
CLASS
  1
ACDMBODYINSTANCEDATA
  2
AcDmBodyInstanceData
  3
AcMechDwgViewMgmt
 90
    33792
280
     0
281
     0
  0
CLASS
  1
ACDMVWEDLINE
  2
AcDmViewEdgeLine
  3
AcMechDwgViewMgmt
 90
    33792
280
     0
281
     1
  0
CLASS
  1
ACDMVWEDARC
  2
AcDmViewEdgeArc
  3
AcMechDwgViewMgmt
 90
    33792
280
     0
281
     1
  0
CLASS
  1
AM_ISO_VIEW_ORIENT
  2
AcDmIsoViewOr
  3
AcMechDwgViewMgmt
 90
    33792
280
     0
281
     0
  0
CLASS
  1
AM_ISO_VIEW
  2
AcDmIsoView
  3
AcMechDwgViewMgmt
 90
    33792
280
     0
281
     0
  0
CLASS
  1
AM_ORTHO_VIEW_ORIENT
  2
AcDmOrthoViewOr
  3
AcMechDwgViewMgmt
 90
    33792
280
     0
281
     0
  0
CLASS
  1
AM_ORTHO_VIEW
  2
AcDmOrthoView
  3
AcMechDwgViewMgmt
 90
    33792
280
     0
281
     0
  0
CLASS
  1
ACAMVIEWREACTOR
  2
AcAmViewReactor
  3
DesignerAssemblies
 90
    33792
280
     0
281
     0
  0
CLASS
  1
AMVIEW
  2
AcAmView
  3
DesignerAssemblies
 90
    33792
280
     0
281
     0
  0
CLASS
  1
ACAMVIEWCONTEXT
  2
AcAmViewContext
  3
DesignerAssemblies
 90
    33792
280
     0
281
     0
  0
CLASS
  1
ACAMCOMPENTVIEW
  2
AcAmCompEntView
  3
DesignerAssemblies
 90
    33792
280
     0
281
     1
  0
CLASS
  1
ACAMCOMPVIEWREACTOR
  2
AcAmGrCompViewReactor
  3
DesignerAssemblies
 90
    33792
280
     0
281
     0
  0
CLASS
  1
ACAMVIEWENTITYFILTER
  2
AcAmViewEntityFilter
  3
DesignerAssemblies
 90
    33792
280
     0
281
     0
  0
CLASS
  1
ACDMVWEDCIRC
  2
AcDmViewEdgeCircle
  3
AcMechDwgViewMgmt
 90
    33792
280
     0
281
     1
  0
CLASS
  1
AM_ADCIRCTRLINE
  2
AcAdBullsEyeCl
  3
DesignerServices
 90
    33792
280
     0
281
     0
  0
CLASS
  1
AM_ADLINCTRLINE
  2
AcAdLineCl
  3
DesignerServices
 90
    33792
280
     0
281
     0
  0
CLASS
  1
ACDMVIEWGEOM
  2
AcDmViewGeometry
  3
AcMechDwgViewMgmt
 90
    33792
280
     0
281
     1
  0
CLASS
  1
ACCMDISTLNLN
  2
AcCmDistLnLn
  3
DesignerAssemblies
 90
    33792
280
     0
281
     0
  0
CLASS
  1
ACAMXREFCONTEXTMODELER
  2
AcAmXrefContextModeler
  3
DesignerAssemblies
 90
    33792
280
     0
281
     0
  0
CLASS
  1
CNRREFID
  2
AcAdCornerId
  3
DesignerServices
 90
    33792
280
     0
281
     0
  0
CLASS
  1
ACADPARTPOINTRES
  2
AcAdPartPointRes
  3
AdGrefServices
 90
    33792
280
     0
281
     0
  0
CLASS
  1
AM_VIEWDIMLINEAR
  2
AcDmViewDimLinear
  3
AcMechDwgViewMgmt
 90
    33792
280
     0
281
     0
  0
CLASS
  1
PARAM
  2
AcAdParam
  3
DesignerServices
 90
    33792
280
     0
281
     0
  0
CLASS
  1
SORTENTSTABLE
  2
AcDbSortentsTable
  3
ObjectDBX Classes
 90
    32768
280
     0
281
     0
  0
CLASS
  1
ACDMVISEDIT
  2
AcDmViewEntityVisEdit
  3
AcMechDwgViewMgmt
 90
    33792
280
     0
281
     0
  0
CLASS
  1
ACADPARTCIRCEDGRES
  2
AcAdPartCircEdgRes
  3
AdGrefServices
 90
    33792
280
     0
281
     0
  0
CLASS
  1
SILEDGEID
  2
AcAdSilhouetteEdgeId
  3
DesignerServices
 90
    33792
280
     0
281
     0
  0
CLASS
  1
MATERIAL
  2
AcDbMaterial
  3
ObjectDBX Classes
 90
     1153
280
     0
281
     0
  0
CLASS
  1
VISUALSTYLE
  2
AcDbVisualStyle
  3
ObjectDBX Classes
 90
     4095
280
     0
281
     0
  0
CLASS
  1
SCALE
  2
AcDbScale
  3
ObjectDBX Classes
 90
     1153
280
     0
281
     0
  0
CLASS
  1
MLEADERSTYLE
  2
AcDbMLeaderStyle
  3
ACDB_MLEADERSTYLE_CLASS
 90
     4095
280
     0
281
     0
  0
CLASS
  1
EXACTERMXREFMAP
  2
ExAcTermXrefMap
  3
EXAC_SERVICE
 90
    33793
280
     0
281
     0
  0
CLASS
  1
NPOCOLLECTION
  2
AcDbImpNonPersistentObjectsCollection
  3
ObjectDBX Classes
 90
     1153
280
     0
281
     0
  0
CLASS
  1
ACRFATTGENMGR
  2
AcRfAttGeneralMgr
  3
AcAttribServices
 90
    33792
280
     0
281
     0
  0
CLASS
  1
ACRFOBJATTMGR
  2
AcRfObjAttGroupMgr
  3
AcAttribServices
 90
    33792
280
     0
281
     0
  0
CLASS
  1
ACRFMCADAPIATTHOLDER
  2
AcRfMCADAPIAttHolder
  3
AcAttribServices
 90
    33792
280
     0
281
     0
  0
CLASS
  1
AMDTSYSATTR
  2
AmdtSystemAttribute
  3
AcAttribServices
 90
    33792
280
     0
281
     0
  0
CLASS
  1
ACMTAPERSTANDARDISO
  2
AcmTaperStdISO
  3
"Amdt_StdImp|Product Description: AutoCAD Mechanical|Company: Autodesk, Inc."
 90
    33792
280
     0
281
     0
  0
CLASS
  1
ACMANOOTATIONVIEWSTANDARDISO
  2
AmdtAnViewStdISO
  3
"Amdt_StdImp|Product Description: AutoCAD Mechanical|Company: Autodesk, Inc."
 90
    33792
280
     0
281
     0
  0
CLASS
  1
SOLID_BACKGROUND
  2
AcDbSolidBackground
  3
SCENEOE
 90
     4095
280
     0
281
     0
  0
CLASS
  1
AM_ABS_AXIS
  2
AcDmAbsAxisDef
  3
AcMechDwgViewMgmt
 90
    33792
280
     0
281
     0
  0
CLASS
  1
AM_ABS_PLANE
  2
AcDmAbsPlnDef
  3
AcMechDwgViewMgmt
 90
    33792
280
     0
281
     0
  0
CLASS
  1
CELLSTYLEMAP
  2
AcDbCellStyleMap
  3
ObjectDBX Classes
 90
     1152
280
     0
281
     0
  0
CLASS
  1
MULTILEADER
  2
AcDbMLeader
  3
ACDB_MLEADER_CLASS
 90
     1025
280
     0
281
     1
  0
ENDSEC
  0
SECTION
  2
TABLES
  0
TABLE
  2
VPORT
  5
2A
330
0
100
AcDbSymbolTable
 70
     1
  0
VPORT
  5
B29
330
2A
100
AcDbSymbolTableRecord
100
AcDbViewportTableRecord
  2
*Active
 70
     0
 10
0.0
 20
0.0
 11
1.0
 21
1.0
 12
0.0
 22
0.0
 13
0.0
 23
0.0
 14
10.0
 24
10.0
 15
10.0
 25
10.0
 16
0.0
 26
0.0
 36
2518.47236388921
 17
132.3745206487964
 27
-1374.235978968781
 37
0.0
 40
1643.639683422546
 41
1.800254452926208
 42
50.0
 43
0.0
 44
0.0
 50
0.0
 51
0.0
 71
     0
 72
  2000
 73
     1
 74
     0
 75
     0
 76
     0
 77
     0
 78
     0
281
     6
 65
     0
110
0.0
120
0.0
130
0.0
111
1.0
121
0.0
131
0.0
112
0.0
122
1.0
132
0.0
 79
     0
146
0.0
  0
ENDTAB
  0
TABLE
  2
LTYPE
  5
25
330
0
100
AcDbSymbolTable
 70
     5
  0
LTYPE
  5
26
330
25
100
AcDbSymbolTableRecord
100
AcDbLinetypeTableRecord
  2
BYBLOCK
 70
     0
  3

 72
    65
 73
     0
 40
0.0
  0
LTYPE
  5
27
330
25
100
AcDbSymbolTableRecord
100
AcDbLinetypeTableRecord
  2
BYLAYER
 70
     0
  3

 72
    65
 73
     0
 40
0.0
  0
LTYPE
  5
14
330
25
100
AcDbSymbolTableRecord
100
AcDbLinetypeTableRecord
  2
CONTINUOUS
 70
     0
  3
Solid line
 72
    65
 73
     0
 40
0.0
  0
LTYPE
  5
8D
330
25
100
AcDbSymbolTableRecord
100
AcDbLinetypeTableRecord
  2
HIDDEN
 70
     0
  3
Hidden __ __ __ __ __ __ __ __ __ __ __ __ __ _
 72
    65
 73
     2
 40
0.375
 49
0.25
 74
     0
 49
-0.125
 74
     0
  0
LTYPE
  5
368
330
25
100
AcDbSymbolTableRecord
100
AcDbLinetypeTableRecord
  2
AM_ISO08W050
 70
     0
  3
____ . ____ . ____ . ____ . ____ . ____ . ____
 72
    65
 73
     4
 40
18.0
 49
12.0
 74
     0
 49
-1.5
 74
     0
 49
3.0
 74
     0
 49
-1.5
 74
     0
  0
LTYPE
  5
BC9
330
25
100
AcDbSymbolTableRecord
100
AcDbLinetypeTableRecord
  2
DASHDOT
 70
     0
  3
____ _ ____ _ ____ _ ____ _ ____ _ ____ _ ____
 72
    65
 73
     4
 40
5.5
 49
4.0
 74
     0
 49
-0.6
 74
     0
 49
0.3
 74
     0
 49
-0.6
 74
     0
  0
ENDTAB
  0
TABLE
  2
LAYER
  5
1F
102
{ACAD_XDICTIONARY
360
20
102
}
330
0
100
AcDbSymbolTable
 70
    13
  0
LAYER
  5
5
102
{ACAD_XDICTIONARY
360
6
102
}
330
1F
100
AcDbSymbolTableRecord
100
AcDbLayerTableRecord
  2
0
 70
     0
 62
     7
  6
CONTINUOUS
370
    -3
390
8
  0
LAYER
  5
AC1
330
1F
100
AcDbSymbolTableRecord
100
AcDbLayerTableRecord
  2
Defpoints
 70
     0
 62
     7
  6
CONTINUOUS
290
     0
370
    -3
390
8
  0
LAYER
  5
BCA
102
{ACAD_XDICTIONARY
360
BCB
102
}
330
1F
100
AcDbSymbolTableRecord
100
AcDbLayerTableRecord
  2
SIZE
 70
     0
 62
    30
  6
CONTINUOUS
370
    -3
390
8
  0
LAYER
  5
BCC
102
{ACAD_XDICTIONARY
360
BCD
102
}
330
1F
100
AcDbSymbolTableRecord
100
AcDbLayerTableRecord
  2
OUTLINE
 70
     0
 62
     3
  6
CONTINUOUS
370
    -3
390
8
  0
LAYER
  5
BCE
102
{ACAD_XDICTIONARY
360
BCF
102
}
330
1F
100
AcDbSymbolTableRecord
100
AcDbLayerTableRecord
  2
DETAIL
 70
     0
 62
     5
  6
CONTINUOUS
370
    -3
390
8
  0
LAYER
  5
BD0
102
{ACAD_XDICTIONARY
360
BD1
102
}
330
1F
100
AcDbSymbolTableRecord
100
AcDbLayerTableRecord
  2
BASIS
 70
     0
 62
     6
  6
DASHDOT
370
    -3
390
8
  0
LAYER
  5
BD2
102
{ACAD_XDICTIONARY
360
BD3
102
}
330
1F
100
AcDbSymbolTableRecord
100
AcDbLayerTableRecord
  2
NOTE
 70
     0
 62
     4
  6
CONTINUOUS
370
    -3
390
8
  0
LAYER
  5
BD4
102
{ACAD_XDICTIONARY
360
BD5
102
}
330
1F
100
AcDbSymbolTableRecord
100
AcDbLayerTableRecord
  2
ARRANGE
 70
     0
 62
     1
  6
CONTINUOUS
370
    -3
390
8
  0
LAYER
  5
BD6
102
{ACAD_XDICTIONARY
360
BD7
102
}
330
1F
100
AcDbSymbolTableRecord
100
AcDbLayerTableRecord
  2
ETC
 70
     0
 62
    61
  6
CONTINUOUS
370
    -3
390
8
  0
ENDTAB
  0
TABLE
  2
STYLE
  5
22
330
0
100
AcDbSymbolTable
 70
     2
  0
STYLE
  5
23
330
22
100
AcDbSymbolTableRecord
100
AcDbTextStyleTableRecord
  2
STANDARD
 70
     0
 40
0.0
 41
1.0
 50
0.0
 71
     0
 42
62.5215949741746
  3
romans.shx
  4
extfont.shx
  0
STYLE
  5
BD8
330
22
100
AcDbSymbolTableRecord
100
AcDbTextStyleTableRecord
  2
STANDARD1
 70
     0
 40
0.0
 41
1.0
 50
0.0
 71
     0
 42
3.5
  3
MONOTXT
  4
BIGFONT
  0
ENDTAB
  0
TABLE
  2
VIEW
  5
28
330
0
100
AcDbSymbolTable
 70
     0
  0
ENDTAB
  0
TABLE
  2
UCS
  5
29
330
0
100
AcDbSymbolTable
 70
     0
  0
ENDTAB
  0
TABLE
  2
APPID
  5
2E
330
0
100
AcDbSymbolTable
 70
    10
  0
APPID
  5
2F
330
2E
100
AcDbSymbolTableRecord
100
AcDbRegAppTableRecord
  2
ACAD
 70
     0
  0
APPID
  5
38
330
2E
100
AcDbSymbolTableRecord
100
AcDbRegAppTableRecord
  2
ACAD_DSTYLE_DIMJOGGED_JOGANGLE_SYMBOL
 70
     0
  0
APPID
  5
7B
330
2E
100
AcDbSymbolTableRecord
100
AcDbRegAppTableRecord
  2
AcAecLayerStandard
 70
     0
  0
APPID
  5
1E
330
2E
100
AcDbSymbolTableRecord
100
AcDbRegAppTableRecord
  2
ACAD_PSEXT
 70
     0
  0
APPID
  5
A5A
330
2E
100
AcDbSymbolTableRecord
100
AcDbRegAppTableRecord
  2
ACATTRIBSERVICES
 70
     0
  0
APPID
  5
A74
330
2E
100
AcDbSymbolTableRecord
100
AcDbRegAppTableRecord
  2
ACAD_MLEADERVER
 70
     0
  0
APPID
  5
A7D
330
2E
100
AcDbSymbolTableRecord
100
AcDbRegAppTableRecord
  2
ACAD_EXEMPT_FROM_CAD_STANDARDS
 70
     0
  0
APPID
  5
A96
330
2E
100
AcDbSymbolTableRecord
100
AcDbRegAppTableRecord
  2
ACAD_DSTYLE_DIMJAG
 70
     0
  0
APPID
  5
A97
330
2E
100
AcDbSymbolTableRecord
100
AcDbRegAppTableRecord
  2
ACAD_DSTYLE_DIMTALN
 70
     0
  0
APPID
  5
AAE
330
2E
100
AcDbSymbolTableRecord
100
AcDbRegAppTableRecord
  2
ACAD_DSTYLE_DIMEXT_LENGTH
 70
     0
  0
ENDTAB
  0
TABLE
  2
DIMSTYLE
  5
30
330
0
100
AcDbSymbolTable
 70
     2
100
AcDbDimStyleTable
 71
     1
340
31
  0
DIMSTYLE
105
31
102
{ACAD_REACTORS
330
AC0
330
ACE
330
ADB
330
AE8
330
AF5
330
B02
330
B18
102
}
330
30
100
AcDbSymbolTableRecord
100
AcDbDimStyleTableRecord
  2
STANDARD
 70
     0
 40
0.0
 41
2.0
 42
1.0
 43
3.75
 44
1.0
 73
     0
 74
     0
 77
     1
 78
     8
140
2.0
141
2.5
143
0.0394
147
1.0
171
     4
172
     1
173
     1
271
     0
272
     0
273
     8
274
     4
284
     8
340
23
341
32
343
32
344
32
1001
ACAD_DSTYLE_DIMEXT_LENGTH
1070
   378
1040
15.0
1001
ACAD_DSTYLE_DIMJOGGED_JOGANGLE_SYMBOL
1070
   384
1040
1.570796326794896
  0
ENDTAB
  0
TABLE
  2
BLOCK_RECORD
  5
1
330
0
100
AcDbSymbolTable
 70
    11
  0
BLOCK_RECORD
  5
2
102
{ACAD_XDICTIONARY
360
3
102
}
330
1
100
AcDbSymbolTableRecord
100
AcDbBlockTableRecord
  2
*MODEL_SPACE
340
16
  0
BLOCK_RECORD
  5
18
330
1
100
AcDbSymbolTableRecord
100
AcDbBlockTableRecord
  2
*Paper_Space
340
1B
  0
BLOCK_RECORD
  5
32
330
1
100
AcDbSymbolTableRecord
100
AcDbBlockTableRecord
  2
_OPEN30
340
0
102
{BLKREFS
331
112C
331
112D
331
1135
331
1136
331
113E
331
113F
331
1147
331
1148
331
1150
331
1151
331
1159
331
115A
331
1162
331
1163
102
}
  0
BLOCK_RECORD
  5
AC2
330
1
100
AcDbSymbolTableRecord
100
AcDbBlockTableRecord
  2
*D1
340
0
  0
BLOCK_RECORD
  5
ACF
330
1
100
AcDbSymbolTableRecord
100
AcDbBlockTableRecord
  2
*D2
340
0
  0
BLOCK_RECORD
  5
ADC
330
1
100
AcDbSymbolTableRecord
100
AcDbBlockTableRecord
  2
*D3
340
0
  0
BLOCK_RECORD
  5
AE9
330
1
100
AcDbSymbolTableRecord
100
AcDbBlockTableRecord
  2
*D4
340
0
  0
BLOCK_RECORD
  5
AF6
330
1
100
AcDbSymbolTableRecord
100
AcDbBlockTableRecord
  2
*D5
340
0
  0
BLOCK_RECORD
  5
B03
330
1
100
AcDbSymbolTableRecord
100
AcDbBlockTableRecord
  2
*D6
340
0
  0
BLOCK_RECORD
  5
B19
330
1
100
AcDbSymbolTableRecord
100
AcDbBlockTableRecord
  2
*D7
340
0
  0
BLOCK_RECORD
  5
BC4
330
1
100
AcDbSymbolTableRecord
100
AcDbBlockTableRecord
  2
_DOTBLANK
340
0
  0
ENDTAB
  0
ENDSEC
  0
SECTION
  2
BLOCKS
  0
BLOCK
  5
4
330
2
100
AcDbEntity
  8
0
100
AcDbBlockBegin
  2
*MODEL_SPACE
 70
     0
 10
0.0
 20
0.0
 30
0.0
  3
*MODEL_SPACE
  1

  0
ENDBLK
  5
15
330
2
100
AcDbEntity
  8
0
100
AcDbBlockEnd
  0
BLOCK
  5
19
330
18
100
AcDbEntity
 67
     1
  8
0
100
AcDbBlockBegin
  2
*Paper_Space
 70
     0
 10
0.0
 20
0.0
 30
0.0
  3
*Paper_Space
  1

  0
ENDBLK
  5
1A
330
18
100
AcDbEntity
 67
     1
  8
0
100
AcDbBlockEnd
  0
BLOCK
  5
33
330
32
100
AcDbEntity
  8
0
100
AcDbBlockBegin
  2
_OPEN30
 70
     0
 10
0.0
 20
0.0
 30
0.0
  3
_OPEN30
  1

  0
LINE
  5
34
330
32
100
AcDbEntity
  8
0
  6
ByBlock
 62
     0
100
AcDbLine
 10
-1.0
 20
0.26794919
 30
0.0
 11
0.0
 21
0.0
 31
0.0
  0
LINE
  5
35
330
32
100
AcDbEntity
  8
0
  6
ByBlock
 62
     0
100
AcDbLine
 10
0.0
 20
0.0
 30
0.0
 11
-1.0
 21
-0.26794919
 31
0.0
  0
LINE
  5
36
330
32
100
AcDbEntity
  8
0
  6
ByBlock
 62
     0
100
AcDbLine
 10
0.0
 20
0.0
 30
0.0
 11
-1.0
 21
0.0
 31
0.0
  0
ENDBLK
  5
37
330
32
100
AcDbEntity
  8
0
100
AcDbBlockEnd
  0
BLOCK
  5
ACC
330
AC2
100
AcDbEntity
  8
0
100
AcDbBlockBegin
  2
*D1
 70
     1
 10
0.0
 20
0.0
 30
0.0
  3
*D1
  1

  0
LINE
  5
115F
330
AC2
100
AcDbEntity
  8
SIZE
 62
     0
370
    -2
100
AcDbLine
 10
-459.273855896855
 20
-1135.106032988408
 30
0.0
 11
-525.0531580550152
 21
-1135.106032988407
 31
0.0
  0
LINE
  5
1160
330
AC2
100
AcDbEntity
  8
SIZE
 62
     0
370
    -2
100
AcDbLine
 10
-459.273855896855
 20
-1285.106032988408
 30
0.0
 11
-525.0531580550154
 21
-1285.106032988408
 31
0.0
  0
LINE
  5
1161
330
AC2
100
AcDbEntity
  8
SIZE
 62
     0
370
    -2
100
AcDbLine
 10
-520.0531580550152
 20
-1145.106032988408
 30
0.0
 11
-520.0531580550152
 21
-1275.106032988408
 31
0.0
  0
INSERT
  5
1162
330
AC2
100
AcDbEntity
  8
SIZE
 62
     0
370
    -2
100
AcDbBlockReference
  2
_OPEN30
 10
-520.0531580550152
 20
-1135.106032988407
 30
0.0
 41
10.0
 42
10.0
 43
10.0
 50
90.0
  0
INSERT
  5
1163
330
AC2
100
AcDbEntity
  8
SIZE
 62
     0
370
    -2
100
AcDbBlockReference
  2
_OPEN30
 10
-520.0531580550154
 20
-1285.106032988408
 30
0.0
 41
10.0
 42
10.0
 43
10.0
 50
270.0
  0
MTEXT
  5
1164
330
AC2
100
AcDbEntity
  8
SIZE
 62
     0
100
AcDbMText
 10
-530.0531580550151
 20
-1210.106032988408
 30
0.0
 40
10.0
 41
0.0
 71
     5
 72
     1
  1
\A1;150
 11
0.0000000000000001
 21
1.0
 31
0.0
 73
     1
 44
1.0
1001
ACAD
1000
MTEXTBEGIN
1070
    73
1070
     1
1070
    44
1040
1.0
1070
    74
1070
     0
1000
MTEXTEND
  0
POINT
  5
1165
330
AC2
100
AcDbEntity
  8
Defpoints
 62
     0
100
AcDbPoint
 10
-454.273855896855
 20
-1135.106032988408
 30
0.0
  0
POINT
  5
1166
330
AC2
100
AcDbEntity
  8
Defpoints
 62
     0
100
AcDbPoint
 10
-454.273855896855
 20
-1285.106032988408
 30
0.0
  0
POINT
  5
1167
330
AC2
100
AcDbEntity
  8
Defpoints
 62
     0
100
AcDbPoint
 10
-520.0531580550154
 20
-1285.106032988408
 30
0.0
  0
ENDBLK
  5
ACD
330
AC2
100
AcDbEntity
  8
0
100
AcDbBlockEnd
  0
BLOCK
  5
AD9
330
ACF
100
AcDbEntity
  8
0
100
AcDbBlockBegin
  2
*D2
 70
     1
 10
0.0
 20
0.0
 30
0.0
  3
*D2
  1

  0
LINE
  5
1156
330
ACF
100
AcDbEntity
  8
SIZE
 62
     0
370
    -2
100
AcDbLine
 10
-459.273855896855
 20
-1285.106032988408
 30
0.0
 11
-524.6715124495415
 21
-1285.106032988408
 31
0.0
  0
LINE
  5
1157
330
ACF
100
AcDbEntity
  8
SIZE
 62
     0
370
    -2
100
AcDbLine
 10
-459.273855896855
 20
-1435.106032988407
 30
0.0
 11
-524.6715124495415
 21
-1435.106032988407
 31
0.0
  0
LINE
  5
1158
330
ACF
100
AcDbEntity
  8
SIZE
 62
     0
370
    -2
100
AcDbLine
 10
-519.6715124495415
 20
-1295.106032988408
 30
0.0
 11
-519.6715124495415
 21
-1425.106032988407
 31
0.0
  0
INSERT
  5
1159
330
ACF
100
AcDbEntity
  8
SIZE
 62
     0
370
    -2
100
AcDbBlockReference
  2
_OPEN30
 10
-519.6715124495415
 20
-1285.106032988408
 30
0.0
 41
10.0
 42
10.0
 43
10.0
 50
90.0
  0
INSERT
  5
115A
330
ACF
100
AcDbEntity
  8
SIZE
 62
     0
370
    -2
100
AcDbBlockReference
  2
_OPEN30
 10
-519.6715124495415
 20
-1435.106032988407
 30
0.0
 41
10.0
 42
10.0
 43
10.0
 50
270.0
  0
MTEXT
  5
115B
330
ACF
100
AcDbEntity
  8
SIZE
 62
     0
100
AcDbMText
 10
-529.6715124495412
 20
-1360.106032988407
 30
0.0
 40
10.0
 41
0.0
 71
     5
 72
     1
  1
\A1;150
 11
0.0000000000000001
 21
1.0
 31
0.0
 73
     1
 44
1.0
1001
ACAD
1000
MTEXTBEGIN
1070
    73
1070
     1
1070
    44
1040
1.0
1070
    74
1070
     0
1000
MTEXTEND
  0
POINT
  5
115C
330
ACF
100
AcDbEntity
  8
Defpoints
 62
     0
100
AcDbPoint
 10
-454.273855896855
 20
-1285.106032988408
 30
0.0
  0
POINT
  5
115D
330
ACF
100
AcDbEntity
  8
Defpoints
 62
     0
100
AcDbPoint
 10
-454.273855896855
 20
-1435.106032988407
 30
0.0
  0
POINT
  5
115E
330
ACF
100
AcDbEntity
  8
Defpoints
 62
     0
100
AcDbPoint
 10
-519.6715124495415
 20
-1435.106032988407
 30
0.0
  0
ENDBLK
  5
ADA
330
ACF
100
AcDbEntity
  8
0
100
AcDbBlockEnd
  0
BLOCK
  5
AE6
330
ADC
100
AcDbEntity
  8
0
100
AcDbBlockBegin
  2
*D3
 70
     1
 10
0.0
 20
0.0
 30
0.0
  3
*D3
  1

  0
LINE
  5
114D
330
ADC
100
AcDbEntity
  8
SIZE
 62
     0
370
    -2
100
AcDbLine
 10
-459.273855896855
 20
-1435.106032988407
 30
0.0
 11
-524.5112045599555
 21
-1435.106032988407
 31
0.0
  0
LINE
  5
114E
330
ADC
100
AcDbEntity
  8
SIZE
 62
     0
370
    -2
100
AcDbLine
 10
-459.273855896855
 20
-1585.106032988408
 30
0.0
 11
-524.5112045599555
 21
-1585.106032988407
 31
0.0
  0
LINE
  5
114F
330
ADC
100
AcDbEntity
  8
SIZE
 62
     0
370
    -2
100
AcDbLine
 10
-519.5112045599556
 20
-1445.106032988406
 30
0.0
 11
-519.5112045599556
 21
-1575.106032988407
 31
0.0
  0
INSERT
  5
1150
330
ADC
100
AcDbEntity
  8
SIZE
 62
     0
370
    -2
100
AcDbBlockReference
  2
_OPEN30
 10
-519.5112045599556
 20
-1435.106032988407
 30
0.0
 41
10.0
 42
10.0
 43
10.0
 50
90.0
  0
INSERT
  5
1151
330
ADC
100
AcDbEntity
  8
SIZE
 62
     0
370
    -2
100
AcDbBlockReference
  2
_OPEN30
 10
-519.5112045599556
 20
-1585.106032988407
 30
0.0
 41
10.0
 42
10.0
 43
10.0
 50
270.0
  0
MTEXT
  5
1152
330
ADC
100
AcDbEntity
  8
SIZE
 62
     0
100
AcDbMText
 10
-529.5112045599553
 20
-1510.106032988407
 30
0.0
 40
10.0
 41
0.0
 71
     5
 72
     1
  1
\A1;150
 11
0.0000000000000001
 21
1.0
 31
0.0
 73
     1
 44
1.0
1001
ACAD
1000
MTEXTBEGIN
1070
    73
1070
     1
1070
    44
1040
1.0
1070
    74
1070
     0
1000
MTEXTEND
  0
POINT
  5
1153
330
ADC
100
AcDbEntity
  8
Defpoints
 62
     0
100
AcDbPoint
 10
-454.273855896855
 20
-1435.106032988407
 30
0.0
  0
POINT
  5
1154
330
ADC
100
AcDbEntity
  8
Defpoints
 62
     0
100
AcDbPoint
 10
-454.273855896855
 20
-1585.106032988408
 30
0.0
  0
POINT
  5
1155
330
ADC
100
AcDbEntity
  8
Defpoints
 62
     0
100
AcDbPoint
 10
-519.5112045599556
 20
-1585.106032988407
 30
0.0
  0
ENDBLK
  5
AE7
330
ADC
100
AcDbEntity
  8
0
100
AcDbBlockEnd
  0
BLOCK
  5
AF3
330
AE9
100
AcDbEntity
  8
0
100
AcDbBlockBegin
  2
*D4
 70
     1
 10
0.0
 20
0.0
 30
0.0
  3
*D4
  1

  0
LINE
  5
1144
330
AE9
100
AcDbEntity
  8
SIZE
 62
     0
370
    -2
100
AcDbLine
 10
-459.273855896855
 20
-1585.106032988408
 30
0.0
 11
-524.7518688373703
 21
-1585.106032988407
 31
0.0
  0
LINE
  5
1145
330
AE9
100
AcDbEntity
  8
SIZE
 62
     0
370
    -2
100
AcDbLine
 10
-459.273855896855
 20
-1735.106032988408
 30
0.0
 11
-524.7518688373703
 21
-1735.106032988408
 31
0.0
  0
LINE
  5
1146
330
AE9
100
AcDbEntity
  8
SIZE
 62
     0
370
    -2
100
AcDbLine
 10
-519.7518688373703
 20
-1595.106032988407
 30
0.0
 11
-519.7518688373703
 21
-1725.106032988407
 31
0.0
  0
INSERT
  5
1147
330
AE9
100
AcDbEntity
  8
SIZE
 62
     0
370
    -2
100
AcDbBlockReference
  2
_OPEN30
 10
-519.7518688373703
 20
-1585.106032988407
 30
0.0
 41
10.0
 42
10.0
 43
10.0
 50
90.0
  0
INSERT
  5
1148
330
AE9
100
AcDbEntity
  8
SIZE
 62
     0
370
    -2
100
AcDbBlockReference
  2
_OPEN30
 10
-519.7518688373703
 20
-1735.106032988408
 30
0.0
 41
10.0
 42
10.0
 43
10.0
 50
270.0
  0
MTEXT
  5
1149
330
AE9
100
AcDbEntity
  8
SIZE
 62
     0
100
AcDbMText
 10
-529.7518688373701
 20
-1660.106032988408
 30
0.0
 40
10.0
 41
0.0
 71
     5
 72
     1
  1
\A1;150
 11
0.0000000000000001
 21
1.0
 31
0.0
 73
     1
 44
1.0
1001
ACAD
1000
MTEXTBEGIN
1070
    73
1070
     1
1070
    44
1040
1.0
1070
    74
1070
     0
1000
MTEXTEND
  0
POINT
  5
114A
330
AE9
100
AcDbEntity
  8
Defpoints
 62
     0
100
AcDbPoint
 10
-454.273855896855
 20
-1585.106032988408
 30
0.0
  0
POINT
  5
114B
330
AE9
100
AcDbEntity
  8
Defpoints
 62
     0
100
AcDbPoint
 10
-454.273855896855
 20
-1735.106032988408
 30
0.0
  0
POINT
  5
114C
330
AE9
100
AcDbEntity
  8
Defpoints
 62
     0
100
AcDbPoint
 10
-519.7518688373703
 20
-1735.106032988408
 30
0.0
  0
ENDBLK
  5
AF4
330
AE9
100
AcDbEntity
  8
0
100
AcDbBlockEnd
  0
BLOCK
  5
B00
330
AF6
100
AcDbEntity
  8
0
100
AcDbBlockBegin
  2
*D5
 70
     1
 10
0.0
 20
0.0
 30
0.0
  3
*D5
  1

  0
LINE
  5
113B
330
AF6
100
AcDbEntity
  8
SIZE
 62
     0
370
    -2
100
AcDbLine
 10
-434.7738558968567
 20
-1056.840405703687
 30
0.0
 11
-559.9292339771701
 21
-1056.840405703686
 31
0.0
  0
LINE
  5
113C
330
AF6
100
AcDbEntity
  8
SIZE
 62
     0
370
    -2
100
AcDbLine
 10
-434.7738558968552
 20
-1813.106032988407
 30
0.0
 11
-559.9292339771704
 21
-1813.106032988407
 31
0.0
  0
LINE
  5
113D
330
AF6
100
AcDbEntity
  8
SIZE
 62
     0
370
    -2
100
AcDbLine
 10
-554.9292339771701
 20
-1066.840405703686
 30
0.0
 11
-554.9292339771703
 21
-1803.106032988407
 31
0.0
  0
INSERT
  5
113E
330
AF6
100
AcDbEntity
  8
SIZE
 62
     0
370
    -2
100
AcDbBlockReference
  2
_OPEN30
 10
-554.9292339771701
 20
-1056.840405703686
 30
0.0
 41
10.0
 42
10.0
 43
10.0
 50
90.0
  0
INSERT
  5
113F
330
AF6
100
AcDbEntity
  8
SIZE
 62
     0
370
    -2
100
AcDbBlockReference
  2
_OPEN30
 10
-554.9292339771703
 20
-1813.106032988407
 30
0.0
 41
10.0
 42
10.0
 43
10.0
 50
270.0
  0
MTEXT
  5
1140
330
AF6
100
AcDbEntity
  8
SIZE
 62
     0
100
AcDbMText
 10
-564.92923397717
 20
-1434.973219346047
 30
0.0
 40
10.0
 41
0.0
 71
     5
 72
     1
  1
\A1;756.5
 11
0.0000000000000001
 21
1.0
 31
0.0
 73
     1
 44
1.0
1001
ACAD
1000
MTEXTBEGIN
1070
    73
1070
     1
1070
    44
1040
1.0
1070
    74
1070
     0
1000
MTEXTEND
  0
POINT
  5
1141
330
AF6
100
AcDbEntity
  8
Defpoints
 62
     0
100
AcDbPoint
 10
-429.7738558968567
 20
-1056.840405703687
 30
0.0
  0
POINT
  5
1142
330
AF6
100
AcDbEntity
  8
Defpoints
 62
     0
100
AcDbPoint
 10
-429.7738558968553
 20
-1813.106032988407
 30
0.0
  0
POINT
  5
1143
330
AF6
100
AcDbEntity
  8
Defpoints
 62
     0
100
AcDbPoint
 10
-554.9292339771703
 20
-1813.106032988407
 30
0.0
  0
ENDBLK
  5
B01
330
AF6
100
AcDbEntity
  8
0
100
AcDbBlockEnd
  0
BLOCK
  5
B0D
330
B03
100
AcDbEntity
  8
0
100
AcDbBlockBegin
  2
*D6
 70
     1
 10
0.0
 20
0.0
 30
0.0
  3
*D6
  1

  0
LINE
  5
1129
330
B03
100
AcDbEntity
  8
SIZE
 62
     0
370
    -2
100
AcDbLine
 10
-454.273855896855
 20
-1130.106032988408
 30
0.0
 11
-454.273855896855
 21
-1023.565615705762
 31
0.0
  0
LINE
  5
112A
330
B03
100
AcDbEntity
  8
SIZE
 62
     0
370
    -2
100
AcDbLine
 10
724.7261441031437
 20
-1130.106032988408
 30
0.0
 11
724.7261441031437
 21
-1023.565615705762
 31
0.0
  0
LINE
  5
112B
330
B03
100
AcDbEntity
  8
SIZE
 62
     0
370
    -2
100
AcDbLine
 10
-444.2738558968549
 20
-1028.565615705762
 30
0.0
 11
714.7261441031437
 21
-1028.565615705762
 31
0.0
  0
INSERT
  5
112C
330
B03
100
AcDbEntity
  8
SIZE
 62
     0
370
    -2
100
AcDbBlockReference
  2
_OPEN30
 10
-454.273855896855
 20
-1028.565615705762
 30
0.0
 41
10.0
 42
10.0
 43
10.0
 50
180.0
  0
INSERT
  5
112D
330
B03
100
AcDbEntity
  8
SIZE
 62
     0
370
    -2
100
AcDbBlockReference
  2
_OPEN30
 10
724.7261441031437
 20
-1028.565615705762
 30
0.0
 41
10.0
 42
10.0
 43
10.0
  0
MTEXT
  5
112E
330
B03
100
AcDbEntity
  8
SIZE
 62
     0
100
AcDbMText
 10
135.2261441031444
 20
-1018.565615705762
 30
0.0
 40
10.0
 41
0.0
 71
     5
 72
     1
  1
\A1;1179
 73
     1
 44
1.0
1001
ACAD
1000
MTEXTBEGIN
1070
    73
1070
     1
1070
    44
1040
1.0
1070
    74
1070
     0
1000
MTEXTEND
  0
POINT
  5
112F
330
B03
100
AcDbEntity
  8
Defpoints
 62
     0
100
AcDbPoint
 10
-454.273855896855
 20
-1135.106032988408
 30
0.0
  0
POINT
  5
1130
330
B03
100
AcDbEntity
  8
Defpoints
 62
     0
100
AcDbPoint
 10
724.7261441031437
 20
-1135.106032988408
 30
0.0
  0
POINT
  5
1131
330
B03
100
AcDbEntity
  8
Defpoints
 62
     0
100
AcDbPoint
 10
724.7261441031437
 20
-1028.565615705762
 30
0.0
  0
ENDBLK
  5
B0E
330
B03
100
AcDbEntity
  8
0
100
AcDbBlockEnd
  0
BLOCK
  5
B23
330
B19
100
AcDbEntity
  8
0
100
AcDbBlockBegin
  2
*D7
 70
     1
 10
0.0
 20
0.0
 30
0.0
  3
*D7
  1

  0
LINE
  5
1132
330
B19
100
AcDbEntity
  8
SIZE
 62
     0
370
    -2
100
AcDbLine
 10
-470.7738558968547
 20
-1097.106032988407
 30
0.0
 11
-470.7738558968547
 21
-981.3885813028196
 31
0.0
  0
LINE
  5
1133
330
B19
100
AcDbEntity
  8
SIZE
 62
     0
370
    -2
100
AcDbLine
 10
741.2261441031444
 20
-1097.106032988407
 30
0.0
 11
741.2261441031444
 21
-981.3885813028196
 31
0.0
  0
LINE
  5
1134
330
B19
100
AcDbEntity
  8
SIZE
 62
     0
370
    -2
100
AcDbLine
 10
-460.7738558968548
 20
-986.3885813028197
 30
0.0
 11
731.2261441031444
 21
-986.3885813028197
 31
0.0
  0
INSERT
  5
1135
330
B19
100
AcDbEntity
  8
SIZE
 62
     0
370
    -2
100
AcDbBlockReference
  2
_OPEN30
 10
-470.7738558968547
 20
-986.3885813028197
 30
0.0
 41
10.0
 42
10.0
 43
10.0
 50
180.0
  0
INSERT
  5
1136
330
B19
100
AcDbEntity
  8
SIZE
 62
     0
370
    -2
100
AcDbBlockReference
  2
_OPEN30
 10
741.2261441031444
 20
-986.3885813028197
 30
0.0
 41
10.0
 42
10.0
 43
10.0
  0
MTEXT
  5
1137
330
B19
100
AcDbEntity
  8
SIZE
 62
     0
100
AcDbMText
 10
135.2261441031448
 20
-976.3885813028197
 30
0.0
 40
10.0
 41
0.0
 71
     5
 72
     1
  1
\A1;1212
 73
     1
 44
1.0
1001
ACAD
1000
MTEXTBEGIN
1070
    73
1070
     1
1070
    44
1040
1.0
1070
    74
1070
     0
1000
MTEXTEND
  0
POINT
  5
1138
330
B19
100
AcDbEntity
  8
Defpoints
 62
     0
100
AcDbPoint
 10
-470.7738558968547
 20
-1102.106032988407
 30
0.0
  0
POINT
  5
1139
330
B19
100
AcDbEntity
  8
Defpoints
 62
     0
100
AcDbPoint
 10
741.2261441031444
 20
-1102.106032988407
 30
0.0
  0
POINT
  5
113A
330
B19
100
AcDbEntity
  8
Defpoints
 62
     0
100
AcDbPoint
 10
741.2261441031444
 20
-986.3885813028197
 30
0.0
  0
ENDBLK
  5
B24
330
B19
100
AcDbEntity
  8
0
100
AcDbBlockEnd
  0
BLOCK
  5
BC5
330
BC4
100
AcDbEntity
  8
0
100
AcDbBlockBegin
  2
_DOTBLANK
 70
     0
 10
0.0
 20
0.0
 30
0.0
  3
_DOTBLANK
  1

  0
CIRCLE
  5
BC6
330
BC4
100
AcDbEntity
  8
0
  6
Continuous
 62
     7
100
AcDbCircle
 10
0.0
 20
0.0
 30
0.0
 40
0.5
  0
LINE
  5
BC7
330
BC4
100
AcDbEntity
  8
0
  6
Continuous
 62
     7
100
AcDbLine
 10
-0.5
 20
0.0
 30
0.0
 11
-1.0
 21
0.0
 31
0.0
  0
ENDBLK
  5
BC8
330
BC4
100
AcDbEntity
  8
0
100
AcDbBlockEnd
  0
ENDSEC
  0
SECTION
  2
ENTITIES
  0
LINE
  5
3C9
330
2
100
AcDbEntity
  8
NOTE
100
AcDbLine
 10
724.7261441031437
 20
-1735.106032988408
 30
0.0
 11
724.7261441031437
 21
-1735.106032988408
 31
0.0
  0
LINE
  5
3CA
330
2
100
AcDbEntity
  8
NOTE
100
AcDbLine
 10
724.7261441031437
 20
-1735.106032988408
 30
0.0
 11
724.7261441031437
 21
-1735.106032988408
 31
0.0
  0
LINE
  5
3CB
330
2
100
AcDbEntity
  8
NOTE
100
AcDbLine
 10
718.2261441031437
 20
-1735.106032988408
 30
0.0
 11
724.7261441031437
 21
-1735.106032988408
 31
0.0
  0
LINE
  5
3CC
330
2
100
AcDbEntity
  8
NOTE
100
AcDbLine
 10
724.7261441031437
 20
-1735.106032988408
 30
0.0
 11
731.2261441031437
 21
-1735.106032988408
 31
0.0
  0
LINE
  5
3CD
330
2
100
AcDbEntity
  8
NOTE
100
AcDbLine
 10
724.7261441031437
 20
-1741.606032988408
 30
0.0
 11
724.7261441031437
 21
-1735.106032988408
 31
0.0
  0
LINE
  5
3CE
330
2
100
AcDbEntity
  8
NOTE
100
AcDbLine
 10
724.7261441031437
 20
-1735.106032988408
 30
0.0
 11
724.7261441031437
 21
-1728.606032988408
 31
0.0
  0
LINE
  5
3CF
330
2
100
AcDbEntity
  8
NOTE
100
AcDbLine
 10
724.7261441031437
 20
-1585.106032988408
 30
0.0
 11
724.7261441031437
 21
-1585.106032988408
 31
0.0
  0
LINE
  5
3D0
330
2
100
AcDbEntity
  8
NOTE
100
AcDbLine
 10
724.7261441031437
 20
-1585.106032988408
 30
0.0
 11
724.7261441031437
 21
-1585.106032988408
 31
0.0
  0
LINE
  5
3D1
330
2
100
AcDbEntity
  8
NOTE
100
AcDbLine
 10
718.2261441031437
 20
-1585.106032988408
 30
0.0
 11
724.7261441031437
 21
-1585.106032988408
 31
0.0
  0
LINE
  5
3D2
330
2
100
AcDbEntity
  8
NOTE
100
AcDbLine
 10
724.7261441031437
 20
-1585.106032988408
 30
0.0
 11
731.2261441031437
 21
-1585.106032988408
 31
0.0
  0
LINE
  5
3D3
330
2
100
AcDbEntity
  8
NOTE
100
AcDbLine
 10
724.7261441031437
 20
-1591.606032988408
 30
0.0
 11
724.7261441031437
 21
-1585.106032988408
 31
0.0
  0
LINE
  5
3D4
330
2
100
AcDbEntity
  8
NOTE
100
AcDbLine
 10
724.7261441031437
 20
-1585.106032988408
 30
0.0
 11
724.7261441031437
 21
-1578.606032988408
 31
0.0
  0
LINE
  5
3D5
330
2
100
AcDbEntity
  8
NOTE
100
AcDbLine
 10
724.7261441031437
 20
-1435.106032988407
 30
0.0
 11
724.7261441031437
 21
-1435.106032988407
 31
0.0
  0
LINE
  5
3D6
330
2
100
AcDbEntity
  8
NOTE
100
AcDbLine
 10
724.7261441031437
 20
-1435.106032988407
 30
0.0
 11
724.7261441031437
 21
-1435.106032988407
 31
0.0
  0
LINE
  5
3D7
330
2
100
AcDbEntity
  8
NOTE
100
AcDbLine
 10
718.2261441031437
 20
-1435.106032988407
 30
0.0
 11
724.7261441031437
 21
-1435.106032988407
 31
0.0
  0
LINE
  5
3D8
330
2
100
AcDbEntity
  8
NOTE
100
AcDbLine
 10
724.7261441031437
 20
-1435.106032988407
 30
0.0
 11
731.2261441031437
 21
-1435.106032988407
 31
0.0
  0
LINE
  5
3D9
330
2
100
AcDbEntity
  8
NOTE
100
AcDbLine
 10
724.7261441031437
 20
-1441.606032988408
 30
0.0
 11
724.7261441031437
 21
-1435.106032988407
 31
0.0
  0
LINE
  5
3DA
330
2
100
AcDbEntity
  8
NOTE
100
AcDbLine
 10
724.7261441031437
 20
-1435.106032988407
 30
0.0
 11
724.7261441031437
 21
-1428.606032988408
 31
0.0
  0
LINE
  5
3DB
330
2
100
AcDbEntity
  8
NOTE
100
AcDbLine
 10
724.7261441031437
 20
-1285.106032988408
 30
0.0
 11
724.7261441031437
 21
-1285.106032988408
 31
0.0
  0
LINE
  5
3DC
330
2
100
AcDbEntity
  8
NOTE
100
AcDbLine
 10
724.7261441031437
 20
-1285.106032988408
 30
0.0
 11
724.7261441031437
 21
-1285.106032988408
 31
0.0
  0
LINE
  5
3DD
330
2
100
AcDbEntity
  8
NOTE
100
AcDbLine
 10
718.2261441031437
 20
-1285.106032988408
 30
0.0
 11
724.7261441031437
 21
-1285.106032988408
 31
0.0
  0
LINE
  5
3DE
330
2
100
AcDbEntity
  8
NOTE
100
AcDbLine
 10
724.7261441031437
 20
-1285.106032988408
 30
0.0
 11
731.2261441031437
 21
-1285.106032988408
 31
0.0
  0
LINE
  5
3DF
330
2
100
AcDbEntity
  8
NOTE
100
AcDbLine
 10
724.7261441031437
 20
-1291.606032988408
 30
0.0
 11
724.7261441031437
 21
-1285.106032988408
 31
0.0
  0
LINE
  5
3E0
330
2
100
AcDbEntity
  8
NOTE
100
AcDbLine
 10
724.7261441031437
 20
-1285.106032988408
 30
0.0
 11
724.7261441031437
 21
-1278.606032988408
 31
0.0
  0
LINE
  5
3E1
330
2
100
AcDbEntity
  8
NOTE
100
AcDbLine
 10
724.7261441031437
 20
-1135.106032988408
 30
0.0
 11
724.7261441031437
 21
-1135.106032988408
 31
0.0
  0
LINE
  5
3E2
330
2
100
AcDbEntity
  8
NOTE
100
AcDbLine
 10
724.7261441031437
 20
-1135.106032988408
 30
0.0
 11
724.7261441031437
 21
-1135.106032988408
 31
0.0
  0
LINE
  5
3E3
330
2
100
AcDbEntity
  8
NOTE
100
AcDbLine
 10
718.2261441031437
 20
-1135.106032988408
 30
0.0
 11
724.7261441031437
 21
-1135.106032988408
 31
0.0
  0
LINE
  5
3E4
330
2
100
AcDbEntity
  8
NOTE
100
AcDbLine
 10
724.7261441031437
 20
-1135.106032988408
 30
0.0
 11
731.2261441031437
 21
-1135.106032988408
 31
0.0
  0
LINE
  5
3E5
330
2
100
AcDbEntity
  8
NOTE
100
AcDbLine
 10
724.7261441031437
 20
-1141.606032988408
 30
0.0
 11
724.7261441031437
 21
-1135.106032988408
 31
0.0
  0
LINE
  5
3E6
330
2
100
AcDbEntity
  8
NOTE
100
AcDbLine
 10
724.7261441031437
 20
-1135.106032988408
 30
0.0
 11
724.7261441031437
 21
-1128.606032988408
 31
0.0
  0
LINE
  5
3E7
330
2
100
AcDbEntity
  8
NOTE
100
AcDbLine
 10
-454.273855896855
 20
-1735.106032988408
 30
0.0
 11
-454.273855896855
 21
-1735.106032988408
 31
0.0
  0
LINE
  5
3E8
330
2
100
AcDbEntity
  8
NOTE
100
AcDbLine
 10
-454.273855896855
 20
-1735.106032988408
 30
0.0
 11
-454.273855896855
 21
-1735.106032988408
 31
0.0
  0
LINE
  5
3E9
330
2
100
AcDbEntity
  8
NOTE
100
AcDbLine
 10
-460.773855896855
 20
-1735.106032988408
 30
0.0
 11
-454.273855896855
 21
-1735.106032988408
 31
0.0
  0
LINE
  5
3EA
330
2
100
AcDbEntity
  8
NOTE
100
AcDbLine
 10
-454.273855896855
 20
-1735.106032988408
 30
0.0
 11
-447.773855896855
 21
-1735.106032988408
 31
0.0
  0
LINE
  5
3EB
330
2
100
AcDbEntity
  8
NOTE
100
AcDbLine
 10
-454.273855896855
 20
-1741.606032988408
 30
0.0
 11
-454.273855896855
 21
-1735.106032988408
 31
0.0
  0
LINE
  5
3EC
330
2
100
AcDbEntity
  8
NOTE
100
AcDbLine
 10
-454.273855896855
 20
-1735.106032988408
 30
0.0
 11
-454.273855896855
 21
-1728.606032988408
 31
0.0
  0
LINE
  5
3ED
330
2
100
AcDbEntity
  8
NOTE
100
AcDbLine
 10
-454.273855896855
 20
-1585.106032988408
 30
0.0
 11
-454.273855896855
 21
-1585.106032988408
 31
0.0
  0
LINE
  5
3EE
330
2
100
AcDbEntity
  8
NOTE
100
AcDbLine
 10
-454.273855896855
 20
-1585.106032988408
 30
0.0
 11
-454.273855896855
 21
-1585.106032988408
 31
0.0
  0
LINE
  5
3EF
330
2
100
AcDbEntity
  8
NOTE
100
AcDbLine
 10
-460.773855896855
 20
-1585.106032988408
 30
0.0
 11
-454.273855896855
 21
-1585.106032988408
 31
0.0
  0
LINE
  5
3F0
330
2
100
AcDbEntity
  8
NOTE
100
AcDbLine
 10
-454.273855896855
 20
-1585.106032988408
 30
0.0
 11
-447.773855896855
 21
-1585.106032988408
 31
0.0
  0
LINE
  5
3F1
330
2
100
AcDbEntity
  8
NOTE
100
AcDbLine
 10
-454.273855896855
 20
-1591.606032988408
 30
0.0
 11
-454.273855896855
 21
-1585.106032988408
 31
0.0
  0
LINE
  5
3F2
330
2
100
AcDbEntity
  8
NOTE
100
AcDbLine
 10
-454.273855896855
 20
-1585.106032988408
 30
0.0
 11
-454.273855896855
 21
-1578.606032988408
 31
0.0
  0
LINE
  5
3F3
330
2
100
AcDbEntity
  8
NOTE
100
AcDbLine
 10
-454.273855896855
 20
-1435.106032988407
 30
0.0
 11
-454.273855896855
 21
-1435.106032988407
 31
0.0
  0
LINE
  5
3F4
330
2
100
AcDbEntity
  8
NOTE
100
AcDbLine
 10
-454.273855896855
 20
-1435.106032988407
 30
0.0
 11
-454.273855896855
 21
-1435.106032988407
 31
0.0
  0
LINE
  5
3F5
330
2
100
AcDbEntity
  8
NOTE
100
AcDbLine
 10
-460.773855896855
 20
-1435.106032988407
 30
0.0
 11
-454.273855896855
 21
-1435.106032988407
 31
0.0
  0
LINE
  5
3F6
330
2
100
AcDbEntity
  8
NOTE
100
AcDbLine
 10
-454.273855896855
 20
-1435.106032988407
 30
0.0
 11
-447.773855896855
 21
-1435.106032988407
 31
0.0
  0
LINE
  5
3F7
330
2
100
AcDbEntity
  8
NOTE
100
AcDbLine
 10
-454.273855896855
 20
-1441.606032988408
 30
0.0
 11
-454.273855896855
 21
-1435.106032988407
 31
0.0
  0
LINE
  5
3F8
330
2
100
AcDbEntity
  8
NOTE
100
AcDbLine
 10
-454.273855896855
 20
-1435.106032988407
 30
0.0
 11
-454.273855896855
 21
-1428.606032988408
 31
0.0
  0
LINE
  5
3F9
330
2
100
AcDbEntity
  8
NOTE
100
AcDbLine
 10
-454.273855896855
 20
-1285.106032988408
 30
0.0
 11
-454.273855896855
 21
-1285.106032988408
 31
0.0
  0
LINE
  5
3FA
330
2
100
AcDbEntity
  8
NOTE
100
AcDbLine
 10
-454.273855896855
 20
-1285.106032988408
 30
0.0
 11
-454.273855896855
 21
-1285.106032988408
 31
0.0
  0
LINE
  5
3FB
330
2
100
AcDbEntity
  8
NOTE
100
AcDbLine
 10
-460.773855896855
 20
-1285.106032988408
 30
0.0
 11
-454.273855896855
 21
-1285.106032988408
 31
0.0
  0
LINE
  5
3FC
330
2
100
AcDbEntity
  8
NOTE
100
AcDbLine
 10
-454.273855896855
 20
-1285.106032988408
 30
0.0
 11
-447.773855896855
 21
-1285.106032988408
 31
0.0
  0
LINE
  5
3FD
330
2
100
AcDbEntity
  8
NOTE
100
AcDbLine
 10
-454.273855896855
 20
-1291.606032988408
 30
0.0
 11
-454.273855896855
 21
-1285.106032988408
 31
0.0
  0
LINE
  5
3FE
330
2
100
AcDbEntity
  8
NOTE
100
AcDbLine
 10
-454.273855896855
 20
-1285.106032988408
 30
0.0
 11
-454.273855896855
 21
-1278.606032988408
 31
0.0
  0
LINE
  5
3FF
330
2
100
AcDbEntity
  8
NOTE
100
AcDbLine
 10
-454.273855896855
 20
-1135.106032988408
 30
0.0
 11
-454.273855896855
 21
-1135.106032988408
 31
0.0
  0
LINE
  5
400
330
2
100
AcDbEntity
  8
NOTE
100
AcDbLine
 10
-454.273855896855
 20
-1135.106032988408
 30
0.0
 11
-454.273855896855
 21
-1135.106032988408
 31
0.0
  0
LINE
  5
401
330
2
100
AcDbEntity
  8
NOTE
100
AcDbLine
 10
-460.773855896855
 20
-1135.106032988408
 30
0.0
 11
-454.273855896855
 21
-1135.106032988408
 31
0.0
  0
LINE
  5
402
330
2
100
AcDbEntity
  8
NOTE
100
AcDbLine
 10
-454.273855896855
 20
-1135.106032988408
 30
0.0
 11
-447.773855896855
 21
-1135.106032988408
 31
0.0
  0
LINE
  5
403
330
2
100
AcDbEntity
  8
NOTE
100
AcDbLine
 10
-454.273855896855
 20
-1141.606032988408
 30
0.0
 11
-454.273855896855
 21
-1135.106032988408
 31
0.0
  0
LINE
  5
404
330
2
100
AcDbEntity
  8
NOTE
100
AcDbLine
 10
-454.273855896855
 20
-1135.106032988408
 30
0.0
 11
-454.273855896855
 21
-1128.606032988408
 31
0.0
  0
LINE
  5
578
330
2
100
AcDbEntity
  8
OUTLINE
100
AcDbLine
 10
671.2261441031444
 20
-1802.106032988407
 30
0.0
 11
671.2261441031444
 21
-1068.106032988407
 31
0.0
  0
LINE
  5
579
330
2
100
AcDbEntity
  8
OUTLINE
100
AcDbLine
 10
671.2261441031444
 20
-1068.106032988407
 30
0.0
 11
671.2261441031444
 21
-1058.106032988407
 31
0.0
  0
LINE
  5
57A
330
2
100
AcDbEntity
  8
OUTLINE
100
AcDbLine
 10
671.2261441031444
 20
-1058.106032988407
 30
0.0
 11
701.2261441031442
 21
-1058.106032988407
 31
0.0
  0
LINE
  5
57B
330
2
100
AcDbEntity
  8
OUTLINE
100
AcDbLine
 10
701.2261441031442
 20
-1060.154813476212
 30
0.0
 11
701.2261441031442
 21
-1058.106032988407
 31
0.0
  0
LINE
  5
57C
330
2
100
AcDbEntity
  8
OUTLINE
100
AcDbLine
 10
672.2261441031442
 20
-1059.106032988407
 30
0.0
 11
700.2261441031442
 21
-1059.106032988407
 31
0.0
  0
LINE
  5
57D
330
2
100
AcDbEntity
  8
OUTLINE
100
AcDbLine
 10
671.2261441031444
 20
-1068.106032988407
 30
0.0
 11
672.2261441031442
 21
-1068.106032988407
 31
0.0
  0
LINE
  5
57E
330
2
100
AcDbEntity
  8
OUTLINE
100
AcDbLine
 10
701.2261441031442
 20
-1812.106032988408
 30
0.0
 11
701.2261441031442
 21
-1810.057252500603
 31
0.0
  0
LINE
  5
57F
330
2
100
AcDbEntity
  8
OUTLINE
100
AcDbLine
 10
696.2261441031442
 20
-1812.106032988408
 30
0.0
 11
701.2261441031442
 21
-1812.106032988408
 31
0.0
  0
LINE
  5
580
330
2
100
AcDbEntity
  8
OUTLINE
100
AcDbLine
 10
671.2261441031444
 20
-1812.106032988408
 30
0.0
 11
671.2261441031444
 21
-1802.106032988407
 31
0.0
  0
LINE
  5
581
330
2
100
AcDbEntity
  8
OUTLINE
100
AcDbLine
 10
672.2261441031442
 20
-1802.106032988407
 30
0.0
 11
671.2261441031444
 21
-1802.106032988407
 31
0.0
  0
LINE
  5
582
330
2
100
AcDbEntity
  8
OUTLINE
100
AcDbLine
 10
672.2261441031442
 20
-1811.106032988407
 30
0.0
 11
672.2261441031442
 21
-1802.106032988407
 31
0.0
  0
LINE
  5
583
330
2
100
AcDbEntity
  8
OUTLINE
100
AcDbLine
 10
672.2261441031442
 20
-1068.106032988407
 30
0.0
 11
672.2261441031442
 21
-1802.106032988407
 31
0.0
  0
LINE
  5
584
330
2
100
AcDbEntity
  8
OUTLINE
100
AcDbLine
 10
672.2261441031442
 20
-1068.106032988407
 30
0.0
 11
672.2261441031442
 21
-1059.106032988407
 31
0.0
  0
LINE
  5
585
330
2
100
AcDbEntity
  8
OUTLINE
100
AcDbLine
 10
700.2261441031444
 20
-1811.106032988407
 30
0.0
 11
672.2261441031442
 21
-1811.106032988407
 31
0.0
  0
LINE
  5
587
330
2
100
AcDbEntity
  8
OUTLINE
100
AcDbLine
 10
725.7261441031442
 20
-1738.606032988408
 30
0.0
 11
723.7261441031444
 21
-1738.606032988408
 31
0.0
  0
LINE
  5
588
330
2
100
AcDbEntity
  8
OUTLINE
100
AcDbLine
 10
723.7261441031444
 20
-1731.606032988407
 30
0.0
 11
725.7261441031442
 21
-1731.606032988407
 31
0.0
  0
LINE
  5
589
330
2
100
AcDbEntity
  8
OUTLINE
100
AcDbLine
 10
741.2261441031444
 20
-1768.106032988407
 30
0.0
 11
741.2261441031444
 21
-1102.106032988407
 31
0.0
  0
LINE
  5
58A
330
2
100
AcDbEntity
  8
OUTLINE
100
AcDbLine
 10
700.2261441031444
 20
-1811.106032988407
 30
0.0
 11
741.2261441031444
 21
-1768.106032988407
 31
0.0
  0
LINE
  5
58B
330
2
100
AcDbEntity
  8
OUTLINE
100
AcDbLine
 10
700.2261441031444
 20
-1059.106032988407
 30
0.0
 11
700.2261441031444
 21
-1811.106032988407
 31
0.0
  0
LINE
  5
58C
330
2
100
AcDbEntity
  8
OUTLINE
100
AcDbLine
 10
723.7261441031444
 20
-1581.606032988407
 30
0.0
 11
725.7261441031442
 21
-1581.606032988407
 31
0.0
  0
LINE
  5
58D
330
2
100
AcDbEntity
  8
OUTLINE
100
AcDbLine
 10
725.7261441031442
 20
-1588.606032988407
 30
0.0
 11
723.7261441031444
 21
-1588.606032988407
 31
0.0
  0
LINE
  5
58E
330
2
100
AcDbEntity
  8
OUTLINE
100
AcDbLine
 10
723.7261441031444
 20
-1431.606032988407
 30
0.0
 11
725.7261441031442
 21
-1431.606032988407
 31
0.0
  0
LINE
  5
58F
330
2
100
AcDbEntity
  8
OUTLINE
100
AcDbLine
 10
725.7261441031442
 20
-1438.606032988407
 30
0.0
 11
723.7261441031444
 21
-1438.606032988407
 31
0.0
  0
LINE
  5
590
330
2
100
AcDbEntity
  8
OUTLINE
100
AcDbLine
 10
723.7261441031444
 20
-1281.606032988407
 30
0.0
 11
725.7261441031442
 21
-1281.606032988407
 31
0.0
  0
LINE
  5
591
330
2
100
AcDbEntity
  8
OUTLINE
100
AcDbLine
 10
725.7261441031442
 20
-1288.606032988407
 30
0.0
 11
723.7261441031444
 21
-1288.606032988407
 31
0.0
  0
LINE
  5
592
330
2
100
AcDbEntity
  8
OUTLINE
100
AcDbLine
 10
723.7261441031444
 20
-1131.606032988407
 30
0.0
 11
725.7261441031442
 21
-1131.606032988407
 31
0.0
  0
LINE
  5
593
330
2
100
AcDbEntity
  8
OUTLINE
100
AcDbLine
 10
725.7261441031442
 20
-1138.606032988407
 30
0.0
 11
723.7261441031444
 21
-1138.606032988407
 31
0.0
  0
LINE
  5
594
330
2
100
AcDbEntity
  8
OUTLINE
100
AcDbLine
 10
741.226144103144
 20
-1102.106032988407
 30
0.0
 11
700.2261441031444
 21
-1059.106032988407
 31
0.0
  0
ELLIPSE
  5
5A7
330
2
100
AcDbEntity
  8
OUTLINE
100
AcDbEllipse
 10
686.2261441031444
 20
-1067.241719114387
 30
0.0
 11
-2.0
 21
-0.0000000000000008
 31
0.0
210
0.0
220
0.0
230
1.0
 40
0.8745946342037115
 41
-0.0000000000000006
 42
6.283185307179584
  0
ELLIPSE
  5
5A8
330
2
100
AcDbEntity
  8
OUTLINE
100
AcDbEllipse
 10
686.2261441031444
 20
-1067.726573964648
 30
0.0
 11
2.0
 21
0.0000000000000008
 31
0.0
210
0.0
220
0.0
230
1.0
 40
0.8745946342037115
 41
0.1390417380979214
 42
3.002550915491868
  0
ELLIPSE
  5
5AA
330
2
100
AcDbEntity
  8
OUTLINE
100
AcDbEllipse
 10
686.2261441031444
 20
-1251.391447147429
 30
0.0
 11
2.0
 21
0.0000000000000008
 31
0.0
210
0.0
220
0.0
230
1.0
 40
0.8745946342037115
 41
0.1390417380971336
 42
3.002550915492656
  0
ELLIPSE
  5
5AC
330
2
100
AcDbEntity
  8
OUTLINE
100
AcDbEllipse
 10
686.2261441031444
 20
-1250.906592297168
 30
0.0
 11
-2.0
 21
-0.0000000000000008
 31
0.0
210
0.0
220
0.0
230
1.0
 40
0.8745946342037115
 41
-0.0000000000000006
 42
6.283185307179584
  0
ELLIPSE
  5
5AD
330
2
100
AcDbEntity
  8
OUTLINE
100
AcDbEllipse
 10
686.2261441031444
 20
-1435.056320330206
 30
0.0
 11
2.0
 21
0.0000000000000008
 31
0.0
210
0.0
220
0.0
230
1.0
 40
0.8745946342037115
 41
0.1390417380980305
 42
3.002550915491758
  0
ELLIPSE
  5
5AF
330
2
100
AcDbEntity
  8
OUTLINE
100
AcDbEllipse
 10
686.2261441031444
 20
-1434.571465479943
 30
0.0
 11
-2.0
 21
-0.0000000000000008
 31
0.0
210
0.0
220
0.0
230
1.0
 40
0.8745946342037115
 41
-0.0000000000000006
 42
6.283185307179584
  0
ELLIPSE
  5
5B0
330
2
100
AcDbEntity
  8
OUTLINE
100
AcDbEllipse
 10
686.2261441031444
 20
-1618.721193512983
 30
0.0
 11
2.0
 21
0.0000000000000008
 31
0.0
210
0.0
220
0.0
230
1.0
 40
0.8745946342037115
 41
0.1390417380980305
 42
3.002550915491758
  0
ELLIPSE
  5
5B2
330
2
100
AcDbEntity
  8
OUTLINE
100
AcDbEllipse
 10
686.2261441031444
 20
-1618.23633866272
 30
0.0
 11
-2.0
 21
-0.0000000000000008
 31
0.0
210
0.0
220
0.0
230
1.0
 40
0.8745946342037115
 41
-0.0000000000000006
 42
6.283185307179584
  0
ELLIPSE
  5
5B3
330
2
100
AcDbEntity
  8
OUTLINE
100
AcDbEllipse
 10
686.2261441031444
 20
-1802.386066695772
 30
0.0
 11
2.0
 21
0.0000000000000008
 31
0.0
210
0.0
220
0.0
230
1.0
 40
0.8745946342037115
 41
0.1390417380979214
 42
3.002550915491868
  0
ELLIPSE
  5
5B5
330
2
100
AcDbEntity
  8
OUTLINE
100
AcDbEllipse
 10
686.2261441031444
 20
-1801.90121184551
 30
0.0
 11
-2.0
 21
-0.0000000000000008
 31
0.0
210
0.0
220
0.0
230
1.0
 40
0.8745946342037115
 41
-0.0000000000000006
 42
6.283185307179584
  0
ARC
  5
5B6
330
2
100
AcDbEntity
  8
OUTLINE
100
AcDbCircle
 10
723.7261441031444
 20
-1735.106032988408
 30
0.0
 40
3.5
100
AcDbArc
 50
90.0
 51
270.0
  0
ARC
  5
5B7
330
2
100
AcDbEntity
  8
OUTLINE
100
AcDbCircle
 10
725.7261441031442
 20
-1735.106032988408
 30
0.0
 40
3.5
100
AcDbArc
 50
270.0
 51
90.0
  0
ARC
  5
5B8
330
2
100
AcDbEntity
  8
OUTLINE
100
AcDbCircle
 10
725.7261441031442
 20
-1585.106032988407
 30
0.0
 40
3.5
100
AcDbArc
 50
270.0
 51
90.0
  0
ARC
  5
5B9
330
2
100
AcDbEntity
  8
OUTLINE
100
AcDbCircle
 10
723.7261441031444
 20
-1585.106032988407
 30
0.0
 40
3.5
100
AcDbArc
 50
90.0
 51
270.0
  0
ARC
  5
5BA
330
2
100
AcDbEntity
  8
OUTLINE
100
AcDbCircle
 10
725.7261441031442
 20
-1435.106032988407
 30
0.0
 40
3.5
100
AcDbArc
 50
270.0
 51
90.0
  0
ARC
  5
5BB
330
2
100
AcDbEntity
  8
OUTLINE
100
AcDbCircle
 10
723.7261441031444
 20
-1435.106032988407
 30
0.0
 40
3.5
100
AcDbArc
 50
90.0
 51
270.0
  0
ARC
  5
5BC
330
2
100
AcDbEntity
  8
OUTLINE
100
AcDbCircle
 10
725.7261441031442
 20
-1285.106032988407
 30
0.0
 40
3.5
100
AcDbArc
 50
270.0
 51
90.0
  0
ARC
  5
5BD
330
2
100
AcDbEntity
  8
OUTLINE
100
AcDbCircle
 10
723.7261441031444
 20
-1285.106032988407
 30
0.0
 40
3.5
100
AcDbArc
 50
90.0
 51
270.0
  0
ARC
  5
5BE
330
2
100
AcDbEntity
  8
OUTLINE
100
AcDbCircle
 10
725.7261441031442
 20
-1135.106032988407
 30
0.0
 40
3.5
100
AcDbArc
 50
270.0
 51
90.0
  0
ARC
  5
5BF
330
2
100
AcDbEntity
  8
OUTLINE
100
AcDbCircle
 10
723.7261441031444
 20
-1135.106032988407
 30
0.0
 40
3.5
100
AcDbArc
 50
90.0
 51
270.0
  0
LINE
  5
5C0
330
2
100
AcDbEntity
  8
OUTLINE
100
AcDbLine
 10
-401.7738558968548
 20
-1802.106032988407
 30
0.0
 11
-401.7738558968548
 21
-1811.106032988407
 31
0.0
  0
LINE
  5
5C1
330
2
100
AcDbEntity
  8
OUTLINE
100
AcDbLine
 10
-400.7738558968547
 20
-1812.106032988408
 30
0.0
 11
-400.7738558968547
 21
-1802.106032988407
 31
0.0
  0
LINE
  5
5C2
330
2
100
AcDbEntity
  8
OUTLINE
100
AcDbLine
 10
-430.7738558968548
 20
-1812.106032988408
 30
0.0
 11
-425.7738558968571
 21
-1812.106032988408
 31
0.0
  0
LINE
  5
5C3
330
2
100
AcDbEntity
  8
OUTLINE
100
AcDbLine
 10
-430.7738558968548
 20
-1812.106032988408
 30
0.0
 11
-430.7738558968548
 21
-1810.057252500603
 31
0.0
  0
LINE
  5
5C4
330
2
100
AcDbEntity
  8
OUTLINE
100
AcDbLine
 10
-401.7738558968548
 20
-1811.106032988407
 30
0.0
 11
-429.7738558968547
 21
-1811.106032988407
 31
0.0
  0
LINE
  5
5C5
330
2
100
AcDbEntity
  8
OUTLINE
100
AcDbLine
 10
-400.7738558968547
 20
-1068.106032988407
 30
0.0
 11
-400.7738558968547
 21
-1802.106032988407
 31
0.0
  0
LINE
  5
5C6
330
2
100
AcDbEntity
  8
OUTLINE
100
AcDbLine
 10
-401.7738558968548
 20
-1802.106032988407
 30
0.0
 11
-401.7738558968548
 21
-1068.106032988407
 31
0.0
  0
LINE
  5
5C7
330
2
100
AcDbEntity
  8
OUTLINE
100
AcDbLine
 10
-430.7738558968548
 20
-1060.154813476212
 30
0.0
 11
-430.7738558968548
 21
-1058.106032988407
 31
0.0
  0
LINE
  5
5C8
330
2
100
AcDbEntity
  8
OUTLINE
100
AcDbLine
 10
-430.7738558968548
 20
-1058.106032988407
 30
0.0
 11
-400.7738558968547
 21
-1058.106032988407
 31
0.0
  0
LINE
  5
5C9
330
2
100
AcDbEntity
  8
OUTLINE
100
AcDbLine
 10
-400.7738558968547
 20
-1068.106032988407
 30
0.0
 11
-400.7738558968547
 21
-1058.106032988407
 31
0.0
  0
LINE
  5
5CA
330
2
100
AcDbEntity
  8
OUTLINE
100
AcDbLine
 10
-401.7738558968548
 20
-1068.106032988407
 30
0.0
 11
-400.7738558968547
 21
-1068.106032988407
 31
0.0
  0
LINE
  5
5CB
330
2
100
AcDbEntity
  8
OUTLINE
100
AcDbLine
 10
-401.7738558968548
 20
-1059.106032988407
 30
0.0
 11
-401.7738558968548
 21
-1068.106032988407
 31
0.0
  0
LINE
  5
5CC
330
2
100
AcDbEntity
  8
OUTLINE
100
AcDbLine
 10
-429.7738558968547
 20
-1059.106032988407
 30
0.0
 11
-401.7738558968548
 21
-1059.106032988407
 31
0.0
  0
LINE
  5
5CD
330
2
100
AcDbEntity
  8
OUTLINE
100
AcDbLine
 10
-400.7738558968547
 20
-1802.106032988407
 30
0.0
 11
-401.7738558968548
 21
-1802.106032988407
 31
0.0
  0
LINE
  5
5CF
330
2
100
AcDbEntity
  8
OUTLINE
100
AcDbLine
 10
-429.7738558968547
 20
-1811.106032988407
 30
0.0
 11
-429.7738558968547
 21
-1059.106032988407
 31
0.0
  0
LINE
  5
5D0
330
2
100
AcDbEntity
  8
OUTLINE
100
AcDbLine
 10
-470.7738558968554
 20
-1768.106032988407
 30
0.0
 11
-429.7738558968547
 21
-1811.106032988407
 31
0.0
  0
LINE
  5
5D1
330
2
100
AcDbEntity
  8
OUTLINE
100
AcDbLine
 10
-470.7738558968547
 20
-1102.106032988407
 30
0.0
 11
-470.7738558968547
 21
-1768.106032988407
 31
0.0
  0
LINE
  5
5D2
330
2
100
AcDbEntity
  8
OUTLINE
100
AcDbLine
 10
-453.2738558968548
 20
-1738.606032988408
 30
0.0
 11
-455.2738558968548
 21
-1738.606032988408
 31
0.0
  0
LINE
  5
5D3
330
2
100
AcDbEntity
  8
OUTLINE
100
AcDbLine
 10
-455.2738558968548
 20
-1731.606032988407
 30
0.0
 11
-453.2738558968548
 21
-1731.606032988407
 31
0.0
  0
LINE
  5
5D4
330
2
100
AcDbEntity
  8
OUTLINE
100
AcDbLine
 10
-453.2738558968548
 20
-1588.606032988407
 30
0.0
 11
-455.2738558968548
 21
-1588.606032988407
 31
0.0
  0
LINE
  5
5D5
330
2
100
AcDbEntity
  8
OUTLINE
100
AcDbLine
 10
-455.2738558968548
 20
-1581.606032988407
 30
0.0
 11
-453.2738558968548
 21
-1581.606032988407
 31
0.0
  0
LINE
  5
5D6
330
2
100
AcDbEntity
  8
OUTLINE
100
AcDbLine
 10
-453.2738558968548
 20
-1438.606032988407
 30
0.0
 11
-455.2738558968548
 21
-1438.606032988407
 31
0.0
  0
LINE
  5
5D7
330
2
100
AcDbEntity
  8
OUTLINE
100
AcDbLine
 10
-455.2738558968548
 20
-1431.606032988407
 30
0.0
 11
-453.2738558968548
 21
-1431.606032988407
 31
0.0
  0
LINE
  5
5D8
330
2
100
AcDbEntity
  8
OUTLINE
100
AcDbLine
 10
-453.2738558968548
 20
-1288.606032988407
 30
0.0
 11
-455.2738558968548
 21
-1288.606032988407
 31
0.0
  0
LINE
  5
5D9
330
2
100
AcDbEntity
  8
OUTLINE
100
AcDbLine
 10
-455.2738558968548
 20
-1281.606032988407
 30
0.0
 11
-453.2738558968548
 21
-1281.606032988407
 31
0.0
  0
LINE
  5
5DA
330
2
100
AcDbEntity
  8
OUTLINE
100
AcDbLine
 10
-453.2738558968548
 20
-1138.606032988407
 30
0.0
 11
-455.2738558968548
 21
-1138.606032988407
 31
0.0
  0
LINE
  5
5DB
330
2
100
AcDbEntity
  8
OUTLINE
100
AcDbLine
 10
-455.2738558968548
 20
-1131.606032988407
 30
0.0
 11
-453.2738558968548
 21
-1131.606032988407
 31
0.0
  0
LINE
  5
5DC
330
2
100
AcDbEntity
  8
OUTLINE
100
AcDbLine
 10
-429.7738558968547
 20
-1059.106032988407
 30
0.0
 11
-470.7738558968547
 21
-1102.106032988407
 31
0.0
  0
ELLIPSE
  5
5EF
330
2
100
AcDbEntity
  8
OUTLINE
100
AcDbEllipse
 10
-415.7738558968548
 20
-1067.241719114387
 30
0.0
 11
-2.0
 21
-0.0000000000000008
 31
0.0
210
0.0
220
0.0
230
1.0
 40
0.8745946342037115
 41
-0.0000000000000006
 42
6.283185307179584
  0
ELLIPSE
  5
5F0
330
2
100
AcDbEntity
  8
OUTLINE
100
AcDbEllipse
 10
-415.7738558968548
 20
-1067.726573964648
 30
0.0
 11
2.0
 21
0.0000000000000008
 31
0.0
210
0.0
220
0.0
230
1.0
 40
0.8745946342037115
 41
0.1390417380979214
 42
3.002550915491868
  0
ELLIPSE
  5
5F2
330
2
100
AcDbEntity
  8
OUTLINE
100
AcDbEllipse
 10
-415.7738558968548
 20
-1251.391447147429
 30
0.0
 11
2.0
 21
0.0000000000000008
 31
0.0
210
0.0
220
0.0
230
1.0
 40
0.8745946342037115
 41
0.1390417380979214
 42
3.002550915491868
  0
ELLIPSE
  5
5F4
330
2
100
AcDbEntity
  8
OUTLINE
100
AcDbEllipse
 10
-415.7738558968548
 20
-1250.906592297168
 30
0.0
 11
-2.0
 21
-0.0000000000000008
 31
0.0
210
0.0
220
0.0
230
1.0
 40
0.8745946342037115
 41
-0.0000000000000006
 42
6.283185307179584
  0
ELLIPSE
  5
5F5
330
2
100
AcDbEntity
  8
OUTLINE
100
AcDbEllipse
 10
-415.7738558968548
 20
-1435.056320330206
 30
0.0
 11
2.0
 21
0.0000000000000008
 31
0.0
210
0.0
220
0.0
230
1.0
 40
0.8745946342037115
 41
0.1390417380980305
 42
3.002550915491758
  0
ELLIPSE
  5
5F7
330
2
100
AcDbEntity
  8
OUTLINE
100
AcDbEllipse
 10
-415.7738558968548
 20
-1434.571465479943
 30
0.0
 11
-2.0
 21
-0.0000000000000008
 31
0.0
210
0.0
220
0.0
230
1.0
 40
0.8745946342037115
 41
-0.0000000000000006
 42
6.283185307179584
  0
ELLIPSE
  5
5F8
330
2
100
AcDbEntity
  8
OUTLINE
100
AcDbEllipse
 10
-415.7738558968548
 20
-1618.721193512983
 30
0.0
 11
2.0
 21
0.0000000000000008
 31
0.0
210
0.0
220
0.0
230
1.0
 40
0.8745946342037115
 41
0.1390417380980305
 42
3.002550915491758
  0
ELLIPSE
  5
5FA
330
2
100
AcDbEntity
  8
OUTLINE
100
AcDbEllipse
 10
-415.7738558968548
 20
-1618.23633866272
 30
0.0
 11
-2.0
 21
-0.0000000000000008
 31
0.0
210
0.0
220
0.0
230
1.0
 40
0.8745946342037115
 41
-0.0000000000000006
 42
6.283185307179584
  0
ELLIPSE
  5
5FB
330
2
100
AcDbEntity
  8
OUTLINE
100
AcDbEllipse
 10
-415.7738558968548
 20
-1802.38606669577
 30
0.0
 11
2.0
 21
0.0000000000000008
 31
0.0
210
0.0
220
0.0
230
1.0
 40
0.8745946342037115
 41
0.139041738097079
 42
3.002550915492711
  0
ELLIPSE
  5
5FD
330
2
100
AcDbEntity
  8
OUTLINE
100
AcDbEllipse
 10
-415.7738558968548
 20
-1801.90121184551
 30
0.0
 11
-2.0
 21
-0.0000000000000008
 31
0.0
210
0.0
220
0.0
230
1.0
 40
0.8745946342037115
 41
-0.0000000000000006
 42
6.283185307179584
  0
ARC
  5
5FE
330
2
100
AcDbEntity
  8
OUTLINE
100
AcDbCircle
 10
-455.2738558968548
 20
-1735.106032988408
 30
0.0
 40
3.5
100
AcDbArc
 50
90.0
 51
270.0
  0
ARC
  5
5FF
330
2
100
AcDbEntity
  8
OUTLINE
100
AcDbCircle
 10
-453.2738558968548
 20
-1735.106032988408
 30
0.0
 40
3.5
100
AcDbArc
 50
270.0
 51
90.0
  0
ARC
  5
600
330
2
100
AcDbEntity
  8
OUTLINE
100
AcDbCircle
 10
-455.2738558968548
 20
-1585.106032988407
 30
0.0
 40
3.5
100
AcDbArc
 50
90.0
 51
270.0
  0
ARC
  5
601
330
2
100
AcDbEntity
  8
OUTLINE
100
AcDbCircle
 10
-453.2738558968548
 20
-1585.106032988407
 30
0.0
 40
3.5
100
AcDbArc
 50
270.0
 51
90.0
  0
ARC
  5
602
330
2
100
AcDbEntity
  8
OUTLINE
100
AcDbCircle
 10
-455.2738558968548
 20
-1435.106032988407
 30
0.0
 40
3.5
100
AcDbArc
 50
90.0
 51
270.0
  0
ARC
  5
603
330
2
100
AcDbEntity
  8
OUTLINE
100
AcDbCircle
 10
-453.2738558968548
 20
-1435.106032988407
 30
0.0
 40
3.5
100
AcDbArc
 50
270.0
 51
90.0
  0
ARC
  5
604
330
2
100
AcDbEntity
  8
OUTLINE
100
AcDbCircle
 10
-455.2738558968548
 20
-1285.106032988407
 30
0.0
 40
3.5
100
AcDbArc
 50
90.0
 51
270.0
  0
ARC
  5
605
330
2
100
AcDbEntity
  8
OUTLINE
100
AcDbCircle
 10
-453.2738558968548
 20
-1285.106032988407
 30
0.0
 40
3.5
100
AcDbArc
 50
270.0
 51
90.0
  0
ARC
  5
606
330
2
100
AcDbEntity
  8
OUTLINE
100
AcDbCircle
 10
-455.2738558968548
 20
-1135.106032988407
 30
0.0
 40
3.5
100
AcDbArc
 50
90.0
 51
270.0
  0
ARC
  5
607
330
2
100
AcDbEntity
  8
OUTLINE
100
AcDbCircle
 10
-453.2738558968548
 20
-1135.106032988407
 30
0.0
 40
3.5
100
AcDbArc
 50
270.0
 51
90.0
  0
LINE
  5
608
330
2
100
AcDbEntity
  8
OUTLINE
100
AcDbLine
 10
-429.7738558968553
 20
-1057.106032988407
 30
0.0
 11
-429.7738558968553
 21
-1058.106032988407
 31
0.0
  0
LINE
  5
609
330
2
100
AcDbEntity
  8
OUTLINE
100
AcDbLine
 10
-424.7738558968554
 20
-1057.106032988407
 30
0.0
 11
-429.7738558968553
 21
-1057.106032988407
 31
0.0
  0
LINE
  5
60A
330
2
100
AcDbEntity
  8
OUTLINE
100
AcDbLine
 10
700.2261441031446
 20
-1058.106032988407
 30
0.0
 11
700.2261441031446
 21
-1057.106032988407
 31
0.0
  0
LINE
  5
60B
330
2
100
AcDbEntity
  8
OUTLINE
100
AcDbLine
 10
700.2261441031446
 20
-1057.106032988407
 30
0.0
 11
695.2261441031446
 21
-1057.106032988407
 31
0.0
  0
LINE
  5
60C
330
2
100
AcDbEntity
  8
OUTLINE
100
AcDbLine
 10
-399.7738558968554
 20
-1060.106032988407
 30
0.0
 11
-399.7738558968554
 21
-1071.106032988407
 31
0.0
  0
LINE
  5
60D
330
2
100
AcDbEntity
  8
OUTLINE
100
AcDbLine
 10
670.2261441031446
 20
-1060.106032988407
 30
0.0
 11
670.2261441031446
 21
-1071.106032988407
 31
0.0
  0
LINE
  5
60E
330
2
100
AcDbEntity
  8
OUTLINE
100
AcDbLine
 10
-399.7738558968554
 20
-1058.106032988407
 30
0.0
 11
-424.7738558968554
 21
-1058.106032988407
 31
0.0
  0
LINE
  5
60F
330
2
100
AcDbEntity
  8
OUTLINE
100
AcDbLine
 10
-424.7738558968554
 20
-1058.106032988407
 30
0.0
 11
-424.7738558968554
 21
-1057.106032988407
 31
0.0
  0
LINE
  5
610
330
2
100
AcDbEntity
  8
OUTLINE
100
AcDbLine
 10
-399.7738558968554
 20
-1057.106032988407
 30
0.0
 11
-424.7738558968554
 21
-1057.106032988407
 31
0.0
  0
LINE
  5
611
330
2
100
AcDbEntity
  8
OUTLINE
100
AcDbLine
 10
695.2261441031446
 20
-1057.106032988407
 30
0.0
 11
670.2261441031446
 21
-1057.106032988407
 31
0.0
  0
LINE
  5
612
330
2
100
AcDbEntity
  8
OUTLINE
100
AcDbLine
 10
695.2261441031446
 20
-1057.106032988407
 30
0.0
 11
695.2261441031446
 21
-1058.106032988407
 31
0.0
  0
LINE
  5
613
330
2
100
AcDbEntity
  8
OUTLINE
100
AcDbLine
 10
695.2261441031446
 20
-1058.106032988407
 30
0.0
 11
670.2261441031446
 21
-1058.106032988407
 31
0.0
  0
LINE
  5
614
330
2
100
AcDbEntity
  8
OUTLINE
100
AcDbLine
 10
670.2261441031447
 20
-1057.106032988407
 30
0.0
 11
-399.7738558968549
 21
-1057.106032988407
 31
0.0
  0
LINE
  5
615
330
2
100
AcDbEntity
  8
OUTLINE
100
AcDbLine
 10
670.2261441031446
 20
-1057.106032988407
 30
0.0
 11
670.2261441031446
 21
-1060.106032988407
 31
0.0
  0
LINE
  5
616
330
2
100
AcDbEntity
  8
OUTLINE
100
AcDbLine
 10
-399.7738558968554
 20
-1057.106032988407
 30
0.0
 11
-399.7738558968554
 21
-1060.106032988407
 31
0.0
  0
LINE
  5
617
330
2
100
AcDbEntity
  8
OUTLINE
100
AcDbLine
 10
-394.7738558968554
 20
-1065.106032988407
 30
0.0
 11
-399.7738558968554
 21
-1060.106032988407
 31
0.0
  0
LINE
  5
618
330
2
100
AcDbEntity
  8
OUTLINE
100
AcDbLine
 10
-394.7738558968548
 20
-1065.106032988407
 30
0.0
 11
665.2261441031448
 21
-1065.106032988407
 31
0.0
  0
LINE
  5
61A
330
2
100
AcDbEntity
  8
OUTLINE
100
AcDbLine
 10
670.2261441031447
 20
-1060.106032988407
 30
0.0
 11
665.2261441031448
 21
-1065.106032988407
 31
0.0
  0
LINE
  5
61B
330
2
100
AcDbEntity
  8
OUTLINE
100
AcDbLine
 10
670.2261441031446
 20
-1072.106032988408
 30
0.0
 11
670.2261441031446
 21
-1071.106032988407
 31
0.0
  0
LINE
  5
61C
330
2
100
AcDbEntity
  8
OUTLINE
100
AcDbLine
 10
665.2261441031448
 20
-1072.106032988408
 30
0.0
 11
670.2261441031447
 21
-1072.106032988408
 31
0.0
  0
LINE
  5
61D
330
2
100
AcDbEntity
  8
OUTLINE
100
AcDbLine
 10
665.2261441031446
 20
-1071.106032988407
 30
0.0
 11
665.2261441031446
 21
-1072.106032988408
 31
0.0
  0
LINE
  5
61E
330
2
100
AcDbEntity
  8
OUTLINE
100
AcDbLine
 10
665.2261441031448
 20
-1072.106032988408
 30
0.0
 11
-394.7738558968548
 21
-1072.106032988408
 31
0.0
  0
LINE
  5
61F
330
2
100
AcDbEntity
  8
OUTLINE
100
AcDbLine
 10
670.2261441031447
 20
-1071.106032988407
 30
0.0
 11
665.2261441031448
 21
-1071.106032988407
 31
0.0
  0
LINE
  5
620
330
2
100
AcDbEntity
  8
OUTLINE
100
AcDbLine
 10
-394.7738558968554
 20
-1071.106032988407
 30
0.0
 11
665.2261441031446
 21
-1071.106032988407
 31
0.0
  0
LINE
  5
621
330
2
100
AcDbEntity
  8
OUTLINE
100
AcDbLine
 10
-399.7738558968554
 20
-1071.106032988407
 30
0.0
 11
-399.7738558968554
 21
-1072.106032988408
 31
0.0
  0
LINE
  5
622
330
2
100
AcDbEntity
  8
OUTLINE
100
AcDbLine
 10
-394.7738558968554
 20
-1071.106032988407
 30
0.0
 11
-399.7738558968554
 21
-1071.106032988407
 31
0.0
  0
LINE
  5
623
330
2
100
AcDbEntity
  8
OUTLINE
100
AcDbLine
 10
-394.7738558968554
 20
-1072.106032988408
 30
0.0
 11
-394.7738558968554
 21
-1071.106032988407
 31
0.0
  0
LINE
  5
624
330
2
100
AcDbEntity
  8
OUTLINE
100
AcDbLine
 10
-399.7738558968549
 20
-1072.106032988408
 30
0.0
 11
-394.7738558968554
 21
-1072.106032988408
 31
0.0
  0
LINE
  5
635
330
2
100
AcDbEntity
  8
OUTLINE
100
AcDbLine
 10
670.2261441031437
 20
-1761.97752303488
 30
0.0
 11
670.2261441031437
 21
-1761.102903327743
 31
0.0
  0
LINE
  5
636
330
2
100
AcDbEntity
  8
OUTLINE
100
AcDbLine
 10
670.2261441031437
 20
-1761.102903327743
 30
0.0
 11
665.2261441031437
 21
-1758.678855226511
 31
0.0
  0
LINE
  5
637
330
2
100
AcDbEntity
  8
OUTLINE
100
AcDbLine
 10
665.2261441031437
 20
-1759.553474933649
 30
0.0
 11
670.2261441031437
 21
-1761.977523034882
 31
0.0
  0
LINE
  5
638
330
2
100
AcDbEntity
  8
OUTLINE
100
AcDbLine
 10
670.2261441031437
 20
-1769.249667338575
 30
0.0
 11
670.2261441031437
 21
-1761.97752303488
 31
0.0
  0
LINE
  5
639
330
2
100
AcDbEntity
  8
OUTLINE
100
AcDbLine
 10
-394.7738558968564
 20
-1758.678855226509
 30
0.0
 11
665.2261441031437
 21
-1758.678855226509
 31
0.0
  0
LINE
  5
63A
330
2
100
AcDbEntity
  8
OUTLINE
100
AcDbLine
 10
665.2261441031437
 20
-1758.678855226511
 30
0.0
 11
665.2261441031437
 21
-1759.553474933649
 31
0.0
  0
LINE
  5
63B
330
2
100
AcDbEntity
  8
OUTLINE
100
AcDbLine
 10
-394.7738558968564
 20
-1759.553474933649
 30
0.0
 11
665.2261441031437
 21
-1759.553474933649
 31
0.0
  0
LINE
  5
63C
330
2
100
AcDbEntity
  8
OUTLINE
100
AcDbLine
 10
-394.7738558968567
 20
-1758.678855226511
 30
0.0
 11
-399.7738558968567
 21
-1761.102903327743
 31
0.0
  0
LINE
  5
63D
330
2
100
AcDbEntity
  8
OUTLINE
100
AcDbLine
 10
-394.7738558968564
 20
-1759.553474933649
 30
0.0
 11
-394.7738558968564
 21
-1758.678855226511
 31
0.0
  0
LINE
  5
63E
330
2
100
AcDbEntity
  8
OUTLINE
100
AcDbLine
 10
-399.7738558968563
 20
-1761.97752303488
 30
0.0
 11
-394.7738558968564
 21
-1759.553474933649
 31
0.0
  0
LINE
  5
640
330
2
100
AcDbEntity
  8
OUTLINE
100
AcDbLine
 10
-424.7738558968554
 20
-1812.106032988408
 30
0.0
 11
-425.7738558968576
 21
-1812.106032988408
 31
0.0
  0
LINE
  5
641
330
2
100
AcDbEntity
  8
OUTLINE
100
AcDbLine
 10
-424.7738558968554
 20
-1813.106032988407
 30
0.0
 11
-424.7738558968554
 21
-1812.106032988408
 31
0.0
  0
LINE
  5
642
330
2
100
AcDbEntity
  8
OUTLINE
100
AcDbLine
 10
-399.7738558968554
 20
-1812.106032988408
 30
0.0
 11
-424.7738558968554
 21
-1812.106032988408
 31
0.0
  0
LINE
  5
643
330
2
100
AcDbEntity
  8
OUTLINE
100
AcDbLine
 10
-399.7738558968554
 20
-1810.106032988407
 30
0.0
 11
-399.7738558968554
 21
-1812.106032988408
 31
0.0
  0
LINE
  5
644
330
2
100
AcDbEntity
  8
OUTLINE
100
AcDbLine
 10
-399.7738558968554
 20
-1810.106032988407
 30
0.0
 11
-394.7738558968554
 21
-1805.106032988408
 31
0.0
  0
LINE
  5
645
330
2
100
AcDbEntity
  8
OUTLINE
100
AcDbLine
 10
-394.7738558968554
 20
-1805.106032988408
 30
0.0
 11
665.2261441031448
 21
-1805.106032988408
 31
0.0
  0
LINE
  5
646
330
2
100
AcDbEntity
  8
OUTLINE
100
AcDbLine
 10
665.2261441031446
 20
-1805.106032988408
 30
0.0
 11
670.2261441031446
 21
-1810.106032988407
 31
0.0
  0
LINE
  5
647
330
2
100
AcDbEntity
  8
OUTLINE
100
AcDbLine
 10
670.2261441031446
 20
-1812.106032988408
 30
0.0
 11
670.2261441031446
 21
-1810.106032988407
 31
0.0
  0
LINE
  5
648
330
2
100
AcDbEntity
  8
OUTLINE
100
AcDbLine
 10
695.2261441031446
 20
-1812.106032988408
 30
0.0
 11
670.2261441031446
 21
-1812.106032988408
 31
0.0
  0
LINE
  5
649
330
2
100
AcDbEntity
  8
OUTLINE
100
AcDbLine
 10
695.2261441031444
 20
-1812.106032988408
 30
0.0
 11
695.2261441031444
 21
-1813.106032988407
 31
0.0
  0
LINE
  5
64A
330
2
100
AcDbEntity
  8
OUTLINE
100
AcDbLine
 10
696.2261441031442
 20
-1812.106032988408
 30
0.0
 11
695.2261441031444
 21
-1812.106032988408
 31
0.0
  0
LINE
  5
64C
330
2
100
AcDbEntity
  8
OUTLINE
100
AcDbLine
 10
-399.7738558968563
 20
-1761.102903327743
 30
0.0
 11
-399.7738558968563
 21
-1761.97752303488
 31
0.0
  0
LINE
  5
64D
330
2
100
AcDbEntity
  8
OUTLINE
100
AcDbLine
 10
-399.7738558968563
 20
-1761.977523034882
 30
0.0
 11
-399.7738558968563
 21
-1769.249667338577
 31
0.0
  0
LINE
  5
64E
330
2
100
AcDbEntity
  8
OUTLINE
100
AcDbLine
 10
-429.7738558968553
 20
-1812.106032988408
 30
0.0
 11
-429.7738558968553
 21
-1813.106032988407
 31
0.0
  0
LINE
  5
64F
330
2
100
AcDbEntity
  8
OUTLINE
100
AcDbLine
 10
-399.7738558968563
 20
-1769.249667338575
 30
0.0
 11
-399.7738558968563
 21
-1810.106032988407
 31
0.0
  0
LINE
  5
650
330
2
100
AcDbEntity
  8
OUTLINE
100
AcDbLine
 10
-399.7738558968563
 20
-1769.249667338575
 30
0.0
 11
670.2261441031437
 21
-1769.249667338575
 31
0.0
  0
LINE
  5
651
330
2
100
AcDbEntity
  8
OUTLINE
100
AcDbLine
 10
670.2261441031437
 20
-1810.106032988407
 30
0.0
 11
670.2261441031437
 21
-1769.249667338577
 31
0.0
  0
LINE
  5
652
330
2
100
AcDbEntity
  8
OUTLINE
100
AcDbLine
 10
700.2261441031446
 20
-1813.106032988407
 30
0.0
 11
700.2261441031446
 21
-1812.106032988408
 31
0.0
  0
LINE
  5
659
330
2
100
AcDbEntity
  8
OUTLINE
100
AcDbLine
 10
-429.7738558968553
 20
-1813.106032988407
 30
0.0
 11
-424.7738558968554
 21
-1813.106032988407
 31
0.0
  0
LINE
  5
65A
330
2
100
AcDbEntity
  8
OUTLINE
100
AcDbLine
 10
-424.7738558968554
 20
-1813.106032988407
 30
0.0
 11
695.2261441031446
 21
-1813.106032988407
 31
0.0
  0
LINE
  5
65B
330
2
100
AcDbEntity
  8
OUTLINE
100
AcDbLine
 10
695.2261441031446
 20
-1813.106032988407
 30
0.0
 11
700.2261441031446
 21
-1813.106032988407
 31
0.0
  0
ELLIPSE
  5
87E
330
2
100
AcDbEntity
  8
OUTLINE
100
AcDbEllipse
 10
135.2261441031435
 20
-1790.365920602782
 30
0.0
 11
2.0
 21
-0.0000000000000076
 31
0.0
210
0.0
220
0.0
230
1.0
 40
0.8746197071393957
 41
0.1390246718229224
 42
3.002567981766885
  0
ELLIPSE
  5
880
330
2
100
AcDbEntity
  8
OUTLINE
100
AcDbEllipse
 10
135.2261441031435
 20
-1789.881110982537
 30
0.0
 11
-2.0
 21
0.0000000000000076
 31
0.0
210
0.0
220
0.0
230
1.0
 40
0.8746197071393957
 41
0.0000000000000047
 42
6.283185307179588
  0
ELLIPSE
  5
881
330
2
100
AcDbEntity
  8
OUTLINE
100
AcDbEllipse
 10
420.2261441031433
 20
-1790.365920602782
 30
0.0
 11
2.0
 21
-0.0000000000000076
 31
0.0
210
0.0
220
0.0
230
1.0
 40
0.8746197071393957
 41
0.1390246718229224
 42
3.002567981766885
  0
ELLIPSE
  5
883
330
2
100
AcDbEntity
  8
OUTLINE
100
AcDbEllipse
 10
420.2261441031433
 20
-1789.881110982537
 30
0.0
 11
-2.0
 21
0.0000000000000076
 31
0.0
210
0.0
220
0.0
230
1.0
 40
0.8746197071393957
 41
0.0000000000000047
 42
6.283185307179588
  0
ELLIPSE
  5
884
330
2
100
AcDbEntity
  8
OUTLINE
100
AcDbEllipse
 10
-149.7738558968563
 20
-1790.365920602782
 30
0.0
 11
2.0
 21
-0.0000000000000076
 31
0.0
210
0.0
220
0.0
230
1.0
 40
0.8746197071393957
 41
0.1390246718229224
 42
3.002567981766885
  0
ELLIPSE
  5
886
330
2
100
AcDbEntity
  8
OUTLINE
100
AcDbEllipse
 10
-149.7738558968563
 20
-1789.881110982537
 30
0.0
 11
-2.0
 21
0.0000000000000076
 31
0.0
210
0.0
220
0.0
230
1.0
 40
0.8746197071393957
 41
0.0000000000000047
 42
6.283185307179588
  0
LINE
  5
887
330
2
100
AcDbEntity
  8
OUTLINE
100
AcDbLine
 10
670.2261441031432
 20
-1056.840147130371
 30
0.0
 11
-399.7738558968567
 21
-1056.840147130371
 31
0.0
  0
LINE
  5
888
330
2
100
AcDbEntity
  8
OUTLINE
100
AcDbLine
 10
-399.7738558968567
 20
-1056.840147130373
 30
0.0
 11
-399.7738558968567
 21
-1057.106032988407
 31
0.0
  0
LINE
  5
889
330
2
100
AcDbEntity
  8
OUTLINE
100
AcDbLine
 10
-399.7738558968567
 20
-1056.840147130371
 30
0.0
 11
-424.7738558968566
 21
-1056.840147130373
 31
0.0
  0
LINE
  5
88A
330
2
100
AcDbEntity
  8
OUTLINE
100
AcDbLine
 10
695.2261441031432
 20
-1056.840147130371
 30
0.0
 11
670.2261441031432
 21
-1056.840147130371
 31
0.0
  0
LINE
  5
88B
330
2
100
AcDbEntity
  8
OUTLINE
100
AcDbLine
 10
670.2261441031432
 20
-1057.106032988407
 30
0.0
 11
670.2261441031432
 21
-1056.840147130371
 31
0.0
  0
LINE
  5
8A0
330
2
100
AcDbEntity
  8
OUTLINE
100
AcDbLine
 10
695.7057701420771
 20
-1057.106032988407
 30
0.0
 11
695.2261441031461
 21
-1056.840147130371
 31
0.0
  0
LINE
  5
8A1
330
2
100
AcDbEntity
  8
OUTLINE
100
AcDbLine
 10
695.2261441031432
 20
-1056.840147130371
 30
0.0
 11
700.2261441031432
 21
-1056.840405703687
 31
0.0
  0
LINE
  5
8A2
330
2
100
AcDbEntity
  8
OUTLINE
100
AcDbLine
 10
700.2261441031432
 20
-1056.840405703695
 30
0.0
 11
700.2261441031432
 21
-1057.106032988407
 31
0.0
  0
LINE
  5
8AB
330
2
100
AcDbEntity
  8
OUTLINE
100
AcDbLine
 10
-429.7738558968567
 20
-1057.106032988407
 30
0.0
 11
-429.7738558968567
 21
-1056.840405703697
 31
0.0
  0
LINE
  5
8AC
330
2
100
AcDbEntity
  8
OUTLINE
100
AcDbLine
 10
-429.7738558968567
 20
-1056.840405703687
 30
0.0
 11
-424.7738558968566
 21
-1056.840147130373
 31
0.0
  0
LINE
  5
8AD
330
2
100
AcDbEntity
  8
OUTLINE
100
AcDbLine
 10
-424.7738558968585
 20
-1056.840147130373
 30
0.0
 11
-425.2534819357861
 21
-1057.106032988407
 31
0.0
  0
ELLIPSE
  5
8EC
330
2
100
AcDbEntity
  8
OUTLINE
100
AcDbEllipse
 10
686.2261441031437
 20
-1619.206048363247
 30
0.0
 11
2.5
 21
0.0000000000000011
 31
0.0
210
0.0
220
0.0
230
1.0
 40
0.8745946342037102
 41
1.174761394212916
 42
1.96683125937505
  0
ELLIPSE
  5
8EE
330
2
100
AcDbEntity
  8
OUTLINE
100
AcDbEllipse
 10
686.2261441031437
 20
-1435.541175180469
 30
0.0
 11
2.5
 21
0.0000000000000011
 31
0.0
210
0.0
220
0.0
230
1.0
 40
0.8745946342037102
 41
1.174761394219327
 42
1.966831259367436
  0
ELLIPSE
  5
8F0
330
2
100
AcDbEntity
  8
OUTLINE
100
AcDbEllipse
 10
686.2261441031435
 20
-1251.87630199769
 30
0.0
 11
2.5
 21
0.0000000000000011
 31
0.0
210
0.0
220
0.0
230
1.0
 40
0.8745946342037102
 41
1.174761394225487
 42
1.966831259360587
  0
ELLIPSE
  5
8F2
330
2
100
AcDbEntity
  8
OUTLINE
100
AcDbEllipse
 10
686.2261441031432
 20
-1068.211428814911
 30
0.0
 11
2.5
 21
0.0000000000000011
 31
0.0
210
0.0
220
0.0
230
1.0
 40
0.8745946342037102
 41
1.174761394218553
 42
1.966831259367167
  0
ELLIPSE
  5
8F4
330
2
100
AcDbEntity
  8
OUTLINE
100
AcDbEllipse
 10
-415.7738558968558
 20
-1619.206048363247
 30
0.0
 11
2.5
 21
0.0000000000000011
 31
0.0
210
0.0
220
0.0
230
1.0
 40
0.8745946342037102
 41
1.17476139421204
 42
1.966831259373931
  0
ELLIPSE
  5
8F6
330
2
100
AcDbEntity
  8
OUTLINE
100
AcDbEllipse
 10
-415.7738558968563
 20
-1435.541175180469
 30
0.0
 11
2.5
 21
0.0000000000000011
 31
0.0
210
0.0
220
0.0
230
1.0
 40
0.8745946342037102
 41
1.174761394218538
 42
1.966831259366543
  0
ELLIPSE
  5
8F8
330
2
100
AcDbEntity
  8
OUTLINE
100
AcDbEllipse
 10
-415.7738558968565
 20
-1251.87630199769
 30
0.0
 11
2.5
 21
0.0000000000000011
 31
0.0
210
0.0
220
0.0
230
1.0
 40
0.8745946342037102
 41
1.174761394223932
 42
1.966831259358763
  0
ELLIPSE
  5
8FA
330
2
100
AcDbEntity
  8
OUTLINE
100
AcDbEllipse
 10
-415.7738558968565
 20
-1068.211428814911
 30
0.0
 11
2.5
 21
0.0000000000000011
 31
0.0
210
0.0
220
0.0
230
1.0
 40
0.8745946342037102
 41
1.174761394217084
 42
1.966831259365259
  0
ELLIPSE
  5
8FC
330
2
100
AcDbEntity
  8
OUTLINE
100
AcDbEllipse
 10
-149.7738558968558
 20
-1790.900862453085
 30
0.0
 11
2.5
 21
0.0000000000000011
 31
0.0
210
0.0
220
0.0
230
1.0
 40
0.8745946342037102
 41
1.031373586840542
 42
2.110219066812264
  0
ELLIPSE
  5
8FE
330
2
100
AcDbEntity
  8
OUTLINE
100
AcDbEllipse
 10
135.2261441031441
 20
-1790.900862453085
 30
0.0
 11
2.5
 21
0.0000000000000011
 31
0.0
210
0.0
220
0.0
230
1.0
 40
0.8745946342037102
 41
1.031373586840542
 42
2.110219066812164
  0
ELLIPSE
  5
900
330
2
100
AcDbEntity
  8
OUTLINE
100
AcDbEllipse
 10
686.2261441031441
 20
-1802.870921546028
 30
0.0
 11
2.5
 21
0.0000000000000011
 31
0.0
210
0.0
220
0.0
230
1.0
 40
0.8745946342037102
 41
1.174761394247251
 42
1.966831259341418
  0
ELLIPSE
  5
903
330
2
100
AcDbEntity
  8
OUTLINE
100
AcDbEllipse
 10
-415.7738558968558
 20
-1802.870921546028
 30
0.0
 11
2.5
 21
0.0000000000000011
 31
0.0
210
0.0
220
0.0
230
1.0
 40
0.8745946342037102
 41
1.174761394239511
 42
1.966831259347059
  0
ELLIPSE
  5
906
330
2
100
AcDbEntity
  8
OUTLINE
100
AcDbEllipse
 10
660.2261441031437
 20
-1438.16495908308
 30
0.0
 11
2.049999999999998
 21
0.0000000000000009
 31
0.0
210
0.0
220
0.0
230
1.0
 40
0.8745946342037102
 41
0.2738371920577924
 42
2.867755461527911
  0
ELLIPSE
  5
909
330
2
100
AcDbEntity
  8
OUTLINE
100
AcDbEllipse
 10
660.2261441031437
 20
-1437.680104232819
 30
0.0
 11
-2.049999999999998
 21
-0.0000000000000009
 31
0.0
210
0.0
220
0.0
230
1.0
 40
0.8745946342037115
 41
3.277221913676631
 42
6.147556047082462
  0
ELLIPSE
  5
90A
330
2
100
AcDbEntity
  8
OUTLINE
100
AcDbEllipse
 10
485.2261441031436
 20
-1432.917391277858
 30
0.0
 11
2.049999999999998
 21
0.0000000000000009
 31
0.0
210
0.0
220
0.0
230
1.0
 40
0.8745946342037102
 41
0.2738371920577107
 42
2.867755461527778
  0
ELLIPSE
  5
90D
330
2
100
AcDbEntity
  8
OUTLINE
100
AcDbEllipse
 10
485.2261441031436
 20
-1432.432536427597
 30
0.0
 11
-2.049999999999998
 21
-0.0000000000000009
 31
0.0
210
0.0
220
0.0
230
1.0
 40
0.8745946342037115
 41
3.277221913677521
 42
6.147556047081587
  0
ELLIPSE
  5
90E
330
2
100
AcDbEntity
  8
OUTLINE
100
AcDbEllipse
 10
310.2261441031437
 20
-1438.16495908308
 30
0.0
 11
2.049999999999998
 21
0.0000000000000009
 31
0.0
210
0.0
220
0.0
230
1.0
 40
0.8745946342037102
 41
0.2738371920577924
 42
2.867755461527911
  0
ELLIPSE
  5
911
330
2
100
AcDbEntity
  8
OUTLINE
100
AcDbEllipse
 10
310.2261441031437
 20
-1437.680104232819
 30
0.0
 11
-2.049999999999998
 21
-0.0000000000000009
 31
0.0
210
0.0
220
0.0
230
1.0
 40
0.8745946342037115
 41
3.277221913676631
 42
6.147556047082462
  0
ELLIPSE
  5
912
330
2
100
AcDbEntity
  8
OUTLINE
100
AcDbEllipse
 10
135.2261441031437
 20
-1432.917391277858
 30
0.0
 11
2.049999999999998
 21
0.0000000000000009
 31
0.0
210
0.0
220
0.0
230
1.0
 40
0.8745946342037102
 41
0.2738371920577107
 42
2.867755461527778
  0
ELLIPSE
  5
915
330
2
100
AcDbEntity
  8
OUTLINE
100
AcDbEllipse
 10
135.2261441031437
 20
-1432.432536427597
 30
0.0
 11
-2.049999999999998
 21
-0.0000000000000009
 31
0.0
210
0.0
220
0.0
230
1.0
 40
0.8745946342037115
 41
3.277221913677521
 42
6.147556047081587
  0
ELLIPSE
  5
91B
330
2
100
AcDbEntity
  8
OUTLINE
100
AcDbEllipse
 10
420.2261441031441
 20
-1790.900862453085
 30
0.0
 11
2.5
 21
0.0000000000000011
 31
0.0
210
0.0
220
0.0
230
1.0
 40
0.8745946342037102
 41
1.031373586840542
 42
2.110219066812164
  0
ELLIPSE
  5
91E
330
2
100
AcDbEntity
  8
OUTLINE
100
AcDbEllipse
 10
-39.77385589685628
 20
-1438.16495908308
 30
0.0
 11
2.049999999999998
 21
0.0000000000000009
 31
0.0
210
0.0
220
0.0
230
1.0
 40
0.8745946342037102
 41
0.2738371920577924
 42
2.867755461527911
  0
ELLIPSE
  5
921
330
2
100
AcDbEntity
  8
OUTLINE
100
AcDbEllipse
 10
-39.77385589685628
 20
-1437.680104232819
 30
0.0
 11
-2.049999999999998
 21
-0.0000000000000009
 31
0.0
210
0.0
220
0.0
230
1.0
 40
0.8745946342037115
 41
3.277221913676631
 42
6.147556047082462
  0
ELLIPSE
  5
922
330
2
100
AcDbEntity
  8
OUTLINE
100
AcDbEllipse
 10
-214.7738558968563
 20
-1432.917391277858
 30
0.0
 11
2.049999999999998
 21
0.0000000000000009
 31
0.0
210
0.0
220
0.0
230
1.0
 40
0.8745946342037102
 41
0.273837192057659
 42
2.867755461527806
  0
ELLIPSE
  5
925
330
2
100
AcDbEntity
  8
OUTLINE
100
AcDbEllipse
 10
-214.7738558968563
 20
-1432.432536427597
 30
0.0
 11
-2.049999999999998
 21
-0.0000000000000009
 31
0.0
210
0.0
220
0.0
230
1.0
 40
0.8745946342037115
 41
3.277221913676524
 42
6.147556047082583
  0
ELLIPSE
  5
926
330
2
100
AcDbEntity
  8
OUTLINE
100
AcDbEllipse
 10
-389.7738558968563
 20
-1438.16495908308
 30
0.0
 11
2.049999999999998
 21
0.0000000000000009
 31
0.0
210
0.0
220
0.0
230
1.0
 40
0.8745946342037102
 41
0.2738371920577625
 42
2.867755461527911
  0
ELLIPSE
  5
929
330
2
100
AcDbEntity
  8
OUTLINE
100
AcDbEllipse
 10
-389.7738558968563
 20
-1437.680104232819
 30
0.0
 11
-2.049999999999998
 21
-0.0000000000000009
 31
0.0
210
0.0
220
0.0
230
1.0
 40
0.8745946342037115
 41
3.277221913676631
 42
6.147556047082479
  0
LINE
  5
92A
330
2
100
AcDbEntity
  8
OUTLINE
100
AcDbLine
 10
-394.7738558968536
 20
-1443.802266672243
 30
0.0
 11
665.2261441031463
 21
-1443.802266672241
 31
0.0
  0
LINE
  5
92C
330
2
100
AcDbEntity
  8
OUTLINE
100
AcDbLine
 10
665.2261441031463
 20
-1443.317411821981
 30
0.0
 11
665.2261441031463
 21
-1443.802266672243
 31
0.0
  0
LINE
  5
92D
330
2
100
AcDbEntity
  8
OUTLINE
100
AcDbLine
 10
665.2261441031463
 20
-1443.802266672243
 30
0.0
 11
670.2261441031463
 21
-1439.429293501224
 31
0.0
  0
LINE
  5
92E
330
2
100
AcDbEntity
  8
OUTLINE
100
AcDbLine
 10
670.2261441031463
 20
-1439.429293501224
 30
0.0
 11
670.2261441031463
 21
-1438.944438650962
 31
0.0
  0
LINE
  5
92F
330
2
100
AcDbEntity
  8
OUTLINE
100
AcDbLine
 10
670.2261441031463
 20
-1426.700113772109
 30
0.0
 11
670.2261441031463
 21
-1425.368502843641
 31
0.0
  0
LINE
  5
930
330
2
100
AcDbEntity
  8
OUTLINE
100
AcDbLine
 10
-399.7738558968535
 20
-1411.764728480324
 30
0.0
 11
670.2261441031463
 21
-1411.764728480322
 31
0.0
  0
LINE
  5
931
330
2
100
AcDbEntity
  8
OUTLINE
100
AcDbLine
 10
670.2261441031463
 20
-1424.88364799338
 30
0.0
 11
670.2261441031463
 21
-1411.764728480324
 31
0.0
  0
LINE
  5
932
330
2
100
AcDbEntity
  8
OUTLINE
100
AcDbLine
 10
670.2261441031463
 20
-1425.368502843641
 30
0.0
 11
670.2261441031463
 21
-1424.88364799338
 31
0.0
  0
LINE
  5
933
330
2
100
AcDbEntity
  8
OUTLINE
100
AcDbLine
 10
670.2261441031463
 20
-1424.88364799338
 30
0.0
 11
665.2261441031463
 21
-1429.256621164399
 31
0.0
  0
LINE
  5
934
330
2
100
AcDbEntity
  8
OUTLINE
100
AcDbLine
 10
665.2261441031463
 20
-1429.74147601466
 30
0.0
 11
670.2261441031463
 21
-1425.368502843641
 31
0.0
  0
LINE
  5
936
330
2
100
AcDbEntity
  8
OUTLINE
100
AcDbLine
 10
-394.7738558968536
 20
-1429.256621164399
 30
0.0
 11
665.2261441031463
 21
-1429.256621164397
 31
0.0
  0
LINE
  5
937
330
2
100
AcDbEntity
  8
OUTLINE
100
AcDbLine
 10
665.2261441031463
 20
-1429.256621164399
 30
0.0
 11
665.2261441031463
 21
-1429.74147601466
 31
0.0
  0
LINE
  5
938
330
2
100
AcDbEntity
  8
OUTLINE
100
AcDbLine
 10
-394.7738558968536
 20
-1429.74147601466
 30
0.0
 11
665.2261441031463
 21
-1429.741476014658
 31
0.0
  0
LINE
  5
939
330
2
100
AcDbEntity
  8
OUTLINE
100
AcDbLine
 10
-394.7738558968536
 20
-1429.74147601466
 30
0.0
 11
-394.7738558968536
 21
-1429.256621164399
 31
0.0
  0
LINE
  5
93A
330
2
100
AcDbEntity
  8
OUTLINE
100
AcDbLine
 10
-399.7738558968535
 20
-1425.368502843643
 30
0.0
 11
-394.7738558968536
 21
-1429.74147601466
 31
0.0
  0
LINE
  5
93B
330
2
100
AcDbEntity
  8
OUTLINE
100
AcDbLine
 10
-394.7738558968536
 20
-1429.256621164399
 30
0.0
 11
-399.7738558968535
 21
-1424.88364799338
 31
0.0
  0
LINE
  5
93C
330
2
100
AcDbEntity
  8
OUTLINE
100
AcDbLine
 10
-399.7738558968535
 20
-1426.700113772111
 30
0.0
 11
-398.2513094777551
 21
-1426.700113772111
 31
0.0
  0
LINE
  5
93E
330
2
100
AcDbEntity
  8
OUTLINE
100
AcDbLine
 10
668.7035976840491
 20
-1426.700113772109
 30
0.0
 11
670.2261441031463
 21
-1426.700113772109
 31
0.0
  0
LINE
  5
93F
330
2
100
AcDbEntity
  8
OUTLINE
100
AcDbLine
 10
670.2261441031463
 20
-1438.944438650962
 30
0.0
 11
670.2261441031463
 21
-1426.700113772109
 31
0.0
  0
LINE
  5
940
330
2
100
AcDbEntity
  8
OUTLINE
100
AcDbLine
 10
670.2261441031463
 20
-1438.944438650962
 30
0.0
 11
665.2261441031463
 21
-1443.317411821981
 31
0.0
  0
LINE
  5
941
330
2
100
AcDbEntity
  8
OUTLINE
100
AcDbLine
 10
-394.7738558968536
 20
-1443.317411821981
 30
0.0
 11
665.2261441031463
 21
-1443.317411821979
 31
0.0
  0
LINE
  5
942
330
2
100
AcDbEntity
  8
OUTLINE
100
AcDbLine
 10
-399.7738558968535
 20
-1424.88364799338
 30
0.0
 11
-399.7738558968535
 21
-1411.764728480324
 31
0.0
  0
LINE
  5
943
330
2
100
AcDbEntity
  8
OUTLINE
100
AcDbLine
 10
-399.7738558968535
 20
-1424.883647993381
 30
0.0
 11
-399.7738558968535
 21
-1425.368502843643
 31
0.0
  0
LINE
  5
944
330
2
100
AcDbEntity
  8
OUTLINE
100
AcDbLine
 10
-399.7738558968535
 20
-1426.700113772111
 30
0.0
 11
-399.7738558968535
 21
-1425.368502843641
 31
0.0
  0
LINE
  5
945
330
2
100
AcDbEntity
  8
OUTLINE
100
AcDbLine
 10
-399.7738558968535
 20
-1438.944438650964
 30
0.0
 11
-399.7738558968535
 21
-1426.700113772111
 31
0.0
  0
LINE
  5
946
330
2
100
AcDbEntity
  8
OUTLINE
100
AcDbLine
 10
-399.7738558968535
 20
-1438.944438650964
 30
0.0
 11
-399.7738558968535
 21
-1439.429293501225
 31
0.0
  0
LINE
  5
947
330
2
100
AcDbEntity
  8
OUTLINE
100
AcDbLine
 10
-394.7738558968536
 20
-1443.317411821981
 30
0.0
 11
-399.7738558968535
 21
-1438.944438650962
 31
0.0
  0
LINE
  5
948
330
2
100
AcDbEntity
  8
OUTLINE
100
AcDbLine
 10
-394.7738558968536
 20
-1443.802266672244
 30
0.0
 11
-394.7738558968536
 21
-1443.317411821983
 31
0.0
  0
LINE
  5
949
330
2
100
AcDbEntity
  8
OUTLINE
100
AcDbLine
 10
-399.7738558968535
 20
-1439.429293501225
 30
0.0
 11
-394.7738558968536
 21
-1443.802266672243
 31
0.0
  0
ELLIPSE
  5
958
330
2
100
AcDbEntity
  8
OUTLINE
100
AcDbEllipse
 10
135.2261441031464
 20
-1432.432536427594
 30
0.0
 11
2.049999999999998
 21
0.0000000000000076
 31
0.0
210
0.0
220
0.0
230
1.0
 40
0.8745946342037115
 41
0.1356292600918318
 42
3.005963393497946
  0
ELLIPSE
  5
95A
330
2
100
AcDbEntity
  8
OUTLINE
100
AcDbEllipse
 10
-39.77385589685355
 20
-1437.680104232817
 30
0.0
 11
2.049999999999998
 21
0.0000000000000076
 31
0.0
210
0.0
220
0.0
230
1.0
 40
0.8745946342037115
 41
0.1356292600918318
 42
3.005963393497946
  0
ELLIPSE
  5
95C
330
2
100
AcDbEntity
  8
OUTLINE
100
AcDbEllipse
 10
-214.7738558968535
 20
-1432.432536427595
 30
0.0
 11
2.049999999999998
 21
0.0000000000000076
 31
0.0
210
0.0
220
0.0
230
1.0
 40
0.8745946342037115
 41
0.1356292600919384
 42
3.005963393497839
  0
ELLIPSE
  5
95E
330
2
100
AcDbEntity
  8
OUTLINE
100
AcDbEllipse
 10
-389.7738558968535
 20
-1437.680104232817
 30
0.0
 11
2.049999999999998
 21
0.0000000000000076
 31
0.0
210
0.0
220
0.0
230
1.0
 40
0.8745946342037115
 41
0.1356292600918318
 42
3.005963393497946
  0
ELLIPSE
  5
960
330
2
100
AcDbEntity
  8
OUTLINE
100
AcDbEllipse
 10
135.2261441031464
 20
-1431.947681577332
 30
0.0
 11
-2.049999999999998
 21
-0.0000000000000076
 31
0.0
210
0.0
220
0.0
230
1.0
 40
0.8745946342037115
 41
-0.0000000000000042
 42
6.28318530717958
  0
ELLIPSE
  5
961
330
2
100
AcDbEntity
  8
OUTLINE
100
AcDbEllipse
 10
-39.77385589685355
 20
-1437.195249382555
 30
0.0
 11
-2.049999999999998
 21
-0.0000000000000076
 31
0.0
210
0.0
220
0.0
230
1.0
 40
0.8745946342037115
 41
-0.0000000000000042
 42
6.28318530717958
  0
ELLIPSE
  5
962
330
2
100
AcDbEntity
  8
OUTLINE
100
AcDbEllipse
 10
-214.7738558968535
 20
-1431.947681577334
 30
0.0
 11
-2.049999999999998
 21
-0.0000000000000076
 31
0.0
210
0.0
220
0.0
230
1.0
 40
0.8745946342037115
 41
-0.0000000000000042
 42
6.28318530717958
  0
ELLIPSE
  5
963
330
2
100
AcDbEntity
  8
OUTLINE
100
AcDbEllipse
 10
-389.7738558968535
 20
-1437.195249382555
 30
0.0
 11
-2.049999999999998
 21
-0.0000000000000076
 31
0.0
210
0.0
220
0.0
230
1.0
 40
0.8745946342037115
 41
-0.0000000000000042
 42
6.28318530717958
  0
ELLIPSE
  5
964
330
2
100
AcDbEntity
  8
OUTLINE
100
AcDbEllipse
 10
310.2261441031465
 20
-1437.680104232817
 30
0.0
 11
2.049999999999998
 21
0.0000000000000076
 31
0.0
210
0.0
220
0.0
230
1.0
 40
0.8745946342037115
 41
0.1356292600918318
 42
3.005963393497946
  0
ELLIPSE
  5
966
330
2
100
AcDbEntity
  8
OUTLINE
100
AcDbEllipse
 10
310.2261441031465
 20
-1437.195249382555
 30
0.0
 11
-2.049999999999998
 21
-0.0000000000000076
 31
0.0
210
0.0
220
0.0
230
1.0
 40
0.8745946342037115
 41
-0.0000000000000042
 42
6.28318530717958
  0
ELLIPSE
  5
967
330
2
100
AcDbEntity
  8
OUTLINE
100
AcDbEllipse
 10
485.2261441031465
 20
-1432.432536427594
 30
0.0
 11
2.049999999999998
 21
0.0000000000000076
 31
0.0
210
0.0
220
0.0
230
1.0
 40
0.8745946342037115
 41
0.1356292600918318
 42
3.005963393497946
  0
ELLIPSE
  5
969
330
2
100
AcDbEntity
  8
OUTLINE
100
AcDbEllipse
 10
485.2261441031465
 20
-1431.947681577332
 30
0.0
 11
-2.049999999999998
 21
-0.0000000000000076
 31
0.0
210
0.0
220
0.0
230
1.0
 40
0.8745946342037115
 41
-0.0000000000000042
 42
6.28318530717958
  0
ELLIPSE
  5
96A
330
2
100
AcDbEntity
  8
OUTLINE
100
AcDbEllipse
 10
660.2261441031465
 20
-1437.680104232817
 30
0.0
 11
2.049999999999998
 21
0.0000000000000076
 31
0.0
210
0.0
220
0.0
230
1.0
 40
0.8745946342037115
 41
0.1356292600918318
 42
3.005963393497946
  0
ELLIPSE
  5
96C
330
2
100
AcDbEntity
  8
OUTLINE
100
AcDbEllipse
 10
660.2261441031465
 20
-1437.195249382555
 30
0.0
 11
-2.049999999999998
 21
-0.0000000000000076
 31
0.0
210
0.0
220
0.0
230
1.0
 40
0.8745946342037115
 41
-0.0000000000000042
 42
6.28318530717958
  0
MTEXT
  5
A98
330
2
100
AcDbEntity
  8
ETC
100
AcDbMText
 10
-133.5711506472962
 20
-822.9761740937679
 30
0.0
 40
40.0
 41
681.0449940177639
 71
     1
 72
     5
  1
AG1S/AG1T-KK76TD\P下面図
 73
     1
 44
1.0
1001
ACAD
1000
MTEXTBEGIN
1070
    73
1070
     1
1070
    44
1040
1.0
1070
    74
1070
     0
1000
MTEXTEND
1000
ACAD_MTEXT_DEFINED_HEIGHT_BEGIN
1070
    46
1040
157.6249730112758
1000
ACAD_MTEXT_DEFINED_HEIGHT_END
  0
DIMENSION
  5
AC0
330
2
100
AcDbEntity
  8
SIZE
100
AcDbDimension
  2
*D1
 10
-520.0531580550154
 20
-1285.106032988408
 30
0.0
 11
-530.0531580550151
 21
-1210.106032988408
 31
0.0
 70
    32
 71
     5
 42
150.0
  3
STANDARD
100
AcDbAlignedDimension
 13
-454.273855896855
 23
-1135.106032988408
 33
0.0
 14
-454.273855896855
 24
-1285.106032988408
 34
0.0
 50
90.0
100
AcDbRotatedDimension
1001
ACAD
1000
DSTYLE
1002
{
1070
    40
1040
5.0
1070
    45
1040
0.5
1070
   271
1070
     1
1070
   272
1070
     1
1002
}
  0
DIMENSION
  5
ACE
330
2
100
AcDbEntity
  8
SIZE
100
AcDbDimension
  2
*D2
 10
-519.6715124495415
 20
-1435.106032988407
 30
0.0
 11
-529.6715124495412
 21
-1360.106032988407
 31
0.0
 70
    32
 71
     5
 42
149.9999999999988
  3
STANDARD
100
AcDbAlignedDimension
 13
-454.273855896855
 23
-1285.106032988408
 33
0.0
 14
-454.273855896855
 24
-1435.106032988407
 34
0.0
 50
90.0
100
AcDbRotatedDimension
1001
ACAD
1000
DSTYLE
1002
{
1070
    40
1040
5.0
1070
    45
1040
0.5
1070
   271
1070
     1
1070
   272
1070
     1
1002
}
  0
DIMENSION
  5
ADB
330
2
100
AcDbEntity
  8
SIZE
100
AcDbDimension
  2
*D3
 10
-519.5112045599556
 20
-1585.106032988407
 30
0.0
 11
-529.5112045599553
 21
-1510.106032988407
 31
0.0
 70
    32
 71
     5
 42
150.0000000000009
  3
STANDARD
100
AcDbAlignedDimension
 13
-454.273855896855
 23
-1435.106032988407
 33
0.0
 14
-454.273855896855
 24
-1585.106032988408
 34
0.0
 50
90.0
100
AcDbRotatedDimension
1001
ACAD
1000
DSTYLE
1002
{
1070
    40
1040
5.0
1070
    45
1040
0.5
1070
   271
1070
     1
1070
   272
1070
     1
1002
}
  0
DIMENSION
  5
AE8
330
2
100
AcDbEntity
  8
SIZE
100
AcDbDimension
  2
*D4
 10
-519.7518688373703
 20
-1735.106032988408
 30
0.0
 11
-529.7518688373701
 21
-1660.106032988408
 31
0.0
 70
    32
 71
     5
 42
150.0
  3
STANDARD
100
AcDbAlignedDimension
 13
-454.273855896855
 23
-1585.106032988408
 33
0.0
 14
-454.273855896855
 24
-1735.106032988408
 34
0.0
 50
90.0
100
AcDbRotatedDimension
1001
ACAD
1000
DSTYLE
1002
{
1070
    40
1040
5.0
1070
    45
1040
0.5
1070
   271
1070
     1
1070
   272
1070
     1
1002
}
  0
DIMENSION
  5
AF5
330
2
100
AcDbEntity
  8
SIZE
100
AcDbDimension
  2
*D5
 10
-554.9292339771703
 20
-1813.106032988407
 30
0.0
 11
-564.92923397717
 21
-1434.973219346047
 31
0.0
 70
    32
 71
     5
 42
756.26562728472
  3
STANDARD
100
AcDbAlignedDimension
 13
-429.7738558968567
 23
-1056.840405703687
 33
0.0
 14
-429.7738558968553
 24
-1813.106032988407
 34
0.0
 50
90.0
100
AcDbRotatedDimension
1001
ACAD
1000
DSTYLE
1002
{
1070
    40
1040
5.0
1070
    45
1040
0.5
1070
   271
1070
     1
1070
   272
1070
     1
1002
}
  0
DIMENSION
  5
B02
330
2
100
AcDbEntity
  8
SIZE
100
AcDbDimension
  2
*D6
 10
724.7261441031437
 20
-1028.565615705762
 30
0.0
 11
135.2261441031444
 21
-1028.565615705762
 31
0.0
 70
   160
 71
     5
 42
1178.999999999998
  3
STANDARD
100
AcDbAlignedDimension
 13
-454.273855896855
 23
-1135.106032988408
 33
0.0
 14
724.7261441031437
 24
-1135.106032988408
 34
0.0
100
AcDbRotatedDimension
1001
ACAD
1000
DSTYLE
1002
{
1070
    40
1040
5.0
1070
    45
1040
0.5
1070
   271
1070
     1
1070
   272
1070
     1
1002
}
  0
DIMENSION
  5
B18
330
2
100
AcDbEntity
  8
SIZE
100
AcDbDimension
  2
*D7
 10
741.2261441031444
 20
-986.3885813028197
 30
0.0
 11
135.2261441031448
 21
-976.3885813028197
 31
0.0
 70
    32
 71
     5
 42
1211.999999999999
  3
STANDARD
100
AcDbAlignedDimension
 13
-470.7738558968547
 23
-1102.106032988407
 33
0.0
 14
741.2261441031444
 24
-1102.106032988407
 34
0.0
100
AcDbRotatedDimension
1001
ACAD
1000
DSTYLE
1002
{
1070
    40
1040
5.0
1070
    45
1040
0.5
1070
   271
1070
     1
1070
   272
1070
     1
1002
}
  0
MULTILEADER
  5
B71
330
2
100
AcDbEntity
  8
NOTE
 92
      760
310
F8020000120000000C000000100000000A0000000C00000016000000000000C00C00000013000000112700003C00000006000000020000004A1FB3B7FA1380C0BF9FA0CAF89C8FC00000000000000000C53361FFDB1680C0BF9FA0CAF89C8FC000000000000000000C00000013000000010000000C00000014000000010000
310
00540000000700000003000000F5593C4FEDCD7CC0EB1FC3FE668291C0000000000000000053038288F1987CC0F981481A3AB191C000000000000000009E737EF9CE077DC08ABD6AB63A8991C000000000000000000C00000013000000891300003C0000000600000002000000CA665D24DEEA7CC0BAEE96DAD08591C00000
310
0000000000004A1FB3B7FA1380C0BF9FA0CAF89C8FC000000000000000000C000000130000009A3A00003C00000006000000020000005758AA91001082C0BF9FA0CAF89C8FC00000000000000000C53361FFDB1680C0BF9FA0CAF89C8FC000000000000000000C00000016000000000000C00C00000012000000FF7F00000C
310
00000017000000FFFFFFFF0C00000016000000000000C00C00000013000000993A0000A80000000B0000000DC685486E2B82C08C6C6D97C5898FC0000000000000000000000000000000000000000000000000000000000000F03F000000000000F03F0000000000000000000000000000000031302D000300000001000000
310
0000000000002840000000000000F03F0000000000000000000000000000F03F0000000000000000000000000000000000000000726F6D616E732E7368780000657874666F6E742E73687800B00000000B000000310F186DB71D82C046B6B6CBE21490C0000000000000000000000000000000000000000000000000000000
310
000000F03F000000000000F03F0000000000000000000000000000000039817E3792B78C8A00FF70FF08000000010000000000000000002840000000000000F03F0000000000000000000000000000F03F0000000000000000000000000000000000000000726F6D616E732E7368780000657874666F6E742E73687800
100
AcDbMLeader
300
CONTEXT_DATA{
 40
1.0
 10
-580.0002778347215
 20
-1004.421480231166
 30
0.0
 41
12.0
140
12.0
145
2.0
174
     1
175
     6
176
     0
177
     0
290
     1
304
10-\P9×7長穴
 11
0.0
 21
0.0
 31
1.0
340
23
 12
-578.0002778347213
 22
-997.2214802311659
 32
0.0
 13
1.0
 23
0.0
 33
0.0
 42
0.0
 43
0.0
 44
0.0
 45
1.0
170
     1
 90
-1073741824
171
     1
172
     5
 91
-1073741824
141
0.0
 92
  2482172
291
     0
292
     0
173
     0
293
     0
142
0.0
143
0.0
294
     0
295
     0
296
     0
110
-457.5589680746681
120
-1132.306740887578
130
0.0
111
1.0
121
0.0
131
0.0
112
0.0
122
1.0
132
0.0
297
     0
302
LEADER{
290
     1
291
     1
 10
-514.4974206918643
 20
-1011.621480231166
 30
0.0
 11
-1.0
 21
0.0
 31
0.0
 90
        0
 40
0.36
304
LEADER_LINE{
 10
-457.5589680746681
 20
-1132.306740887578
 30
0.0
 91
        0
305
}
303
}
301
}
340
A73
 90
 67453952
170
     1
 91
-1056964608
341
26
171
    -2
290
     1
291
     1
 41
0.36
 42
12.0
172
     2
343
23
173
     1
 95
        6
174
     1
175
     2
 92
-1056964608
292
     0
 93
-1056964608
 10
1.0
 20
1.0
 30
1.0
 43
0.0
176
     0
293
     0
294
     0
178
     0
179
     1
 45
1.0
1001
ACAD_MLEADERVER
1070
     2
  0
LINE
  5
111E
330
2
100
AcDbEntity
  8
BASIS
  6
DASHDOT
 62
     6
100
AcDbLine
 10
135.2261441031451
 20
-1842.478405220458
 30
0.0
 11
135.2261441031451
 21
-1040.514710907856
 31
0.0
  0
LINE
  5
111F
330
2
100
AcDbEntity
  8
ARRANGE
  6
Continuous
 62
     1
100
AcDbLine
 10
118.5420265387415
 20
-1451.790150552811
 30
0.0
 11
151.9102616675491
 21
-1418.421915424003
 31
0.0
  0
LINE
  5
1120
330
2
100
AcDbEntity
  8
ARRANGE
  6
Continuous
 62
     1
100
AcDbLine
 10
118.5420265387415
 20
-1418.421915424003
 30
0.0
 11
151.9102616675491
 21
-1451.790150552811
 31
0.0
  0
CIRCLE
  5
1121
330
2
100
AcDbEntity
  8
ARRANGE
100
AcDbCircle
 10
135.2261441031451
 20
-1435.106032988407
 30
0.0
 40
15.0
  0
LINE
  5
1128
330
2
100
AcDbEntity
  8
BASIS
100
AcDbLine
 10
-479.7830989548761
 20
-1435.106032988407
 30
0.0
 11
760.9013937360759
 21
-1435.106032988407
 31
0.0
  0
ENDSEC
  0
SECTION
  2
OBJECTS
  0
DICTIONARY
  5
A
330
0
100
AcDbDictionary
281
     1
  3
ACAD_2007HEADERVARS_RT
350
116E
  3
ACAD_BACKGROUND
350
A79
  3
ACAD_COLOR
350
4D
  3
ACAD_GROUP
350
3A
  3
ACAD_LAYOUT
350
17
  3
ACAD_MATERIAL
350
C
  3
ACAD_MLEADERSTYLE
350
A72
  3
ACAD_MLINESTYLE
350
3B
  3
ACAD_PLOTSETTINGS
350
3C
  3
ACAD_PLOTSTYLENAME
350
9
  3
ACAD_SCALELIST
350
4E
  3
ACAD_TABLESTYLE
350
4F
  3
ACAD_VISUALSTYLE
350
2D
  3
AcadDim
350
B25
  3
ACDB_RECOMPOSE_DATA
350
A5D
  3
AcDbVariableDictionary
350
A5E
  3
AcmDictionary
350
A57
  3
DWGPROPS
350
116D
  0
DICTIONARY
  5
20
330
1F
100
AcDbDictionary
280
     1
281
     1
  3
ACAD_LAYERFILTERS
360
116B
  3
ACAD_LAYERSTATES
360
21
  3
ACLYDICTIONARY
360
116A
  0
DICTIONARY
  5
6
330
5
100
AcDbDictionary
280
     1
281
     1
  3
ADSK_XREC_LAYER_RECONCILED
360
7
  0
DICTIONARY
  5
BCB
330
BCA
100
AcDbDictionary
280
     1
281
     1
  0
DICTIONARY
  5
BCD
330
BCC
100
AcDbDictionary
280
     1
281
     1
  0
DICTIONARY
  5
BCF
330
BCE
100
AcDbDictionary
280
     1
281
     1
  0
DICTIONARY
  5
BD1
330
BD0
100
AcDbDictionary
280
     1
281
     1
  0
DICTIONARY
  5
BD3
330
BD2
100
AcDbDictionary
280
     1
281
     1
  0
DICTIONARY
  5
BD5
330
BD4
100
AcDbDictionary
280
     1
281
     1
  0
DICTIONARY
  5
BD7
330
BD6
100
AcDbDictionary
280
     1
281
     1
  0
DICTIONARY
  5
3
330
2
100
AcDbDictionary
280
     1
281
     1
  0
DICTIONARY
  5
116E
102
{ACAD_REACTORS
330
A
102
}
330
A
100
AcDbDictionary
281
     1
  3
DIMARCSYM
350
1170
  3
DIMFXL
350
116F
  3
DIMJOGANG
350
1171
  0
DICTIONARY
  5
A79
102
{ACAD_REACTORS
330
A
102
}
330
A
100
AcDbDictionary
281
     1
  0
DICTIONARY
  5
4D
102
{ACAD_REACTORS
330
A
102
}
330
A
100
AcDbDictionary
281
     1
  0
DICTIONARY
  5
3A
102
{ACAD_REACTORS
330
A
102
}
330
A
100
AcDbDictionary
281
     1
  0
DICTIONARY
  5
17
102
{ACAD_REACTORS
330
A
102
}
330
A
100
AcDbDictionary
281
     1
  3
Model
350
16
  3
レイアウト1
350
1B
  0
DICTIONARY
  5
C
102
{ACAD_REACTORS
330
A
102
}
330
A
100
AcDbDictionary
281
     1
  3
ByBlock
350
45
  3
ByLayer
350
3D
  3
Global
350
B
  0
DICTIONARY
  5
A72
102
{ACAD_REACTORS
330
A
102
}
330
A
100
AcDbDictionary
281
     1
  3
Standard
350
A73
  0
DICTIONARY
  5
3B
102
{ACAD_REACTORS
330
A
102
}
330
A
100
AcDbDictionary
281
     1
  3
STANDARD
350
53
  0
DICTIONARY
  5
3C
102
{ACAD_REACTORS
330
A
102
}
330
A
100
AcDbDictionary
281
     1
  0
ACDBDICTIONARYWDFLT
  5
9
102
{ACAD_REACTORS
330
A
102
}
330
A
100
AcDbDictionary
281
     1
  3
Normal
350
8
100
AcDbDictionaryWithDefault
340
8
  0
DICTIONARY
  5
4E
102
{ACAD_REACTORS
330
A
102
}
330
A
100
AcDbDictionary
281
     1
  3
*A1
350
BD9
  3
A0
350
56
  3
A1
350
57
  3
A2
350
58
  3
A3
350
59
  3
A4
350
5A
  3
A5
350
5B
  3
A6
350
5C
  3
A7
350
5D
  3
A8
350
5E
  3
A9
350
5F
  3
B0
350
60
  3
B1
350
61
  3
B2
350
62
  3
B3
350
63
  3
B4
350
64
  3
B5
350
65
  3
B6
350
66
  3
B7
350
67
  3
B8
350
68
  3
B9
350
69
  3
C0
350
6A
  3
C1
350
6B
  3
C2
350
6C
  3
C3
350
6D
  3
C4
350
6E
  3
C5
350
6F
  3
C6
350
70
  3
C7
350
71
  3
C8
350
72
  3
C9
350
73
  3
D0
350
74
  3
D1
350
75
  3
D2
350
76
  0
DICTIONARY
  5
4F
102
{ACAD_REACTORS
330
A
102
}
330
A
100
AcDbDictionary
281
     1
  3
Standard
350
54
  0
DICTIONARY
  5
2D
102
{ACAD_REACTORS
330
A
102
}
330
A
100
AcDbDictionary
281
     1
  3
2dWireframe
350
A69
  3
3D Hidden
350
A6A
  3
3dWireframe
350
55
  3
Basic
350
A68
  3
Brighten
350
A6D
  3
ColorChange
350
A71
  3
Conceptual
350
A6B
  3
Dim
350
A6C
  3
Facepattern
350
A70
  3
Flat
350
A64
  3
FlatWithEdges
350
A65
  3
Gouraud
350
A66
  3
GouraudWithEdges
350
A67
  3
Linepattern
350
A6F
  3
Realistic
350
2C
  3
Thicken
350
A6E
  0
XRECORD
  5
B25
102
{ACAD_REACTORS
330
A
102
}
330
A
100
AcDbXrecord
280
     1
 90
   990106
  3

 60
     0
 61
     0
 62
     1
 63
     3
 64
     0
 65
     0
 66
     0
 67
     3
 68
     1
 69
     0
 70
     0
 71
     0
 72
     0
 40
0.0
170
     0
340
B27
  0
XRECORD
  5
A5D
102
{ACAD_REACTORS
330
A
102
}
330
A
100
AcDbXrecord
280
     1
 90
        1
330
54
  0
DICTIONARY
  5
A5E
102
{ACAD_REACTORS
330
A
102
}
330
A
100
AcDbDictionary
281
     1
  3
CANNOSCALE
350
A61
  3
CMLEADERSTYLE
350
A60
  3
CTABLESTYLE
350
A5F
  3
DIMASSOC
350
ABA
  3
HIDETEXT
350
AB9
  3
INDEXCTL
350
AB8
  3
LIGHTINGUNITS
350
A62
  3
MSLTSCALE
350
AB6
  3
SORTENTS
350
AB7
  0
DICTIONARY
  5
A57
102
{ACAD_REACTORS
330
A
102
}
330
A
100
AcDbDictionary
281
     1
  3
AcmBOMDATA
350
A58
  0
XRECORD
  5
116D
102
{ACAD_REACTORS
330
A
102
}
330
A
100
AcDbXrecord
280
     1
  1
DWGPROPS COOKIE
  2

  3

  4

  6

  7

  8
W000135
  9

300
=
301
=
302
=
303
=
304
=
305
=
306
=
307
=
308
=
309
=
 40
1.85198980324074
 41
2451324.468257373
 42
2454987.712279745
  1

 90
        0
  0
DICTIONARY
  5
116B
102
{ACAD_REACTORS
330
20
102
}
330
20
100
AcDbDictionary
281
     1
  0
DICTIONARY
  5
21
102
{ACAD_REACTORS
330
20
102
}
330
20
100
AcDbDictionary
281
     1
  0
DICTIONARY
  5
116A
102
{ACAD_REACTORS
330
20
102
}
330
20
100
AcDbDictionary
281
     1
1001
ACAD
1000
<All
  0
XRECORD
  5
7
102
{ACAD_REACTORS
330
6
102
}
330
6
100
AcDbXrecord
280
     1
290
     1
  0
XRECORD
  5
1170
102
{ACAD_REACTORS
330
116E
102
}
330
116E
100
AcDbXrecord
280
     1
 70
     1
  0
XRECORD
  5
116F
102
{ACAD_REACTORS
330
116E
102
}
330
116E
100
AcDbXrecord
280
     1
 40
15.0
  0
XRECORD
  5
1171
102
{ACAD_REACTORS
330
116E
102
}
330
116E
100
AcDbXrecord
280
     1
 40
1.570796326794896
  0
LAYOUT
  5
16
102
{ACAD_XDICTIONARY
360
1172
102
}
102
{ACAD_REACTORS
330
17
102
}
330
17
100
AcDbPlotSettings
  1

  2
なし
  4

  6

 40
0.0
 41
0.0
 42
0.0
 43
0.0
 44
0.0
 45
0.0
 46
0.0
 47
0.0
 48
0.0
 49
0.0
140
0.0
141
0.0
142
1.0
143
1.0
 70
  1712
 72
     0
 73
     0
 74
     0
  7

 75
     0
147
1.0
148
0.0
149
0.0
100
AcDbLayout
  1
Model
 70
     1
 71
     0
 10
0.0
 20
0.0
 11
12.0
 21
9.0
 12
0.0
 22
0.0
 32
0.0
 14
0.0
 24
0.0
 34
0.0
 15
0.0
 25
0.0
 35
0.0
146
0.0
 13
0.0
 23
0.0
 33
0.0
 16
1.0
 26
0.0
 36
0.0
 17
0.0
 27
1.0
 37
0.0
 76
     0
330
2
331
B29
  0
LAYOUT
  5
1B
102
{ACAD_XDICTIONARY
360
1C
102
}
102
{ACAD_REACTORS
330
17
102
}
330
17
100
AcDbPlotSettings
  1

  2
Microsoft XPS Document Writer
  4
A4
  6

 40
3.174999952316282
 41
3.174999952316282
 42
3.175003051757812
 43
3.17498779296875
 44
210.0156707763672
 45
297.0106506347656
 46
0.0
 47
0.0
 48
0.0
 49
0.0
140
0.0
141
0.0
142
1.0
143
1.0
 70
   688
 72
     1
 73
     1
 74
     5
  7

 75
    16
147
1.0
148
0.0
149
0.0
100
AcDbLayout
  1
レイアウト1
 70
     1
 71
     1
 10
0.0
 20
0.0
 11
12.0
 21
9.0
 12
0.0
 22
0.0
 32
0.0
 14
-1791.263809985266
 24
-1851.755345120029
 34
0.0
 15
3833.539185581147
 25
1884.646857374196
 35
0.0
146
0.0
 13
0.0
 23
0.0
 33
0.0
 16
1.0
 26
0.0
 36
0.0
 17
0.0
 27
1.0
 37
0.0
 76
     0
330
18
1001
ACAD_PSEXT
1000
Microsoft XPS Document Writer
1000
Microsoft XPS Document Writer
1000
XPSPort:
1000

1070
     0
  0
MATERIAL
  5
45
102
{ACAD_XDICTIONARY
360
46
102
}
102
{ACAD_REACTORS
330
C
102
}
330
C
100
AcDbMaterial
  1
ByBlock
 72
     0
 43
0.0208333333333333
 43
0.0
 43
0.0
 43
0.0
 43
0.0
 43
0.0208333333333333
 43
0.0
 43
0.0
 43
0.0
 43
0.0
 43
1.0
 43
0.0
 43
0.0
 43
0.0
 43
0.0
 43
1.0
 77
     0
 47
0.0208333333333333
 47
0.0
 47
0.0
 47
0.0
 47
0.0
 47
0.0208333333333333
 47
0.0
 47
0.0
 47
0.0
 47
0.0
 47
1.0
 47
0.0
 47
0.0
 47
0.0
 47
0.0
 47
1.0
171
     0
 49
0.0208333333333333
 49
0.0
 49
0.0
 49
0.0
 49
0.0
 49
0.0208333333333333
 49
0.0
 49
0.0
 49
0.0
 49
0.0
 49
1.0
 49
0.0
 49
0.0
 49
0.0
 49
0.0
 49
1.0
175
     0
142
0.0208333333333333
142
0.0
142
0.0
142
0.0
142
0.0
142
0.0208333333333333
142
0.0
142
0.0
142
0.0
142
0.0
142
1.0
142
0.0
142
0.0
142
0.0
142
0.0
142
1.0
179
     0
144
0.0208333333333333
144
0.0
144
0.0
144
0.0
144
0.0
144
0.0208333333333333
144
0.0
144
0.0
144
0.0
144
0.0
144
1.0
144
0.0
144
0.0
144
0.0
144
0.0
144
1.0
147
0.0208333333333333
147
0.0
147
0.0
147
0.0
147
0.0
147
0.0208333333333333
147
0.0
147
0.0
147
0.0
147
0.0
147
1.0
147
0.0
147
0.0
147
0.0
147
0.0
147
1.0
  0
MATERIAL
  5
3D
102
{ACAD_XDICTIONARY
360
3E
102
}
102
{ACAD_REACTORS
330
C
102
}
330
C
100
AcDbMaterial
  1
ByLayer
 72
     0
 43
0.0208333333333333
 43
0.0
 43
0.0
 43
0.0
 43
0.0
 43
0.0208333333333333
 43
0.0
 43
0.0
 43
0.0
 43
0.0
 43
1.0
 43
0.0
 43
0.0
 43
0.0
 43
0.0
 43
1.0
 77
     0
 47
0.0208333333333333
 47
0.0
 47
0.0
 47
0.0
 47
0.0
 47
0.0208333333333333
 47
0.0
 47
0.0
 47
0.0
 47
0.0
 47
1.0
 47
0.0
 47
0.0
 47
0.0
 47
0.0
 47
1.0
171
     0
 49
0.0208333333333333
 49
0.0
 49
0.0
 49
0.0
 49
0.0
 49
0.0208333333333333
 49
0.0
 49
0.0
 49
0.0
 49
0.0
 49
1.0
 49
0.0
 49
0.0
 49
0.0
 49
0.0
 49
1.0
175
     0
142
0.0208333333333333
142
0.0
142
0.0
142
0.0
142
0.0
142
0.0208333333333333
142
0.0
142
0.0
142
0.0
142
0.0
142
1.0
142
0.0
142
0.0
142
0.0
142
0.0
142
1.0
179
     0
144
0.0208333333333333
144
0.0
144
0.0
144
0.0
144
0.0
144
0.0208333333333333
144
0.0
144
0.0
144
0.0
144
0.0
144
1.0
144
0.0
144
0.0
144
0.0
144
0.0
144
1.0
147
0.0208333333333333
147
0.0
147
0.0
147
0.0
147
0.0
147
0.0208333333333333
147
0.0
147
0.0
147
0.0
147
0.0
147
1.0
147
0.0
147
0.0
147
0.0
147
0.0
147
1.0
  0
MATERIAL
  5
B
102
{ACAD_XDICTIONARY
360
D
102
}
102
{ACAD_REACTORS
330
C
102
}
330
C
100
AcDbMaterial
  1
Global
 72
     0
 43
0.0208333333333333
 43
0.0
 43
0.0
 43
0.0
 43
0.0
 43
0.0208333333333333
 43
0.0
 43
0.0
 43
0.0
 43
0.0
 43
1.0
 43
0.0
 43
0.0
 43
0.0
 43
0.0
 43
1.0
 77
     0
 47
0.0208333333333333
 47
0.0
 47
0.0
 47
0.0
 47
0.0
 47
0.0208333333333333
 47
0.0
 47
0.0
 47
0.0
 47
0.0
 47
1.0
 47
0.0
 47
0.0
 47
0.0
 47
0.0
 47
1.0
171
     0
 49
0.0208333333333333
 49
0.0
 49
0.0
 49
0.0
 49
0.0
 49
0.0208333333333333
 49
0.0
 49
0.0
 49
0.0
 49
0.0
 49
1.0
 49
0.0
 49
0.0
 49
0.0
 49
0.0
 49
1.0
175
     0
142
0.0208333333333333
142
0.0
142
0.0
142
0.0
142
0.0
142
0.0208333333333333
142
0.0
142
0.0
142
0.0
142
0.0
142
1.0
142
0.0
142
0.0
142
0.0
142
0.0
142
1.0
179
     0
144
0.0208333333333333
144
0.0
144
0.0
144
0.0
144
0.0
144
0.0208333333333333
144
0.0
144
0.0
144
0.0
144
0.0
144
1.0
144
0.0
144
0.0
144
0.0
144
0.0
144
1.0
147
0.0208333333333333
147
0.0
147
0.0
147
0.0
147
0.0
147
0.0208333333333333
147
0.0
147
0.0
147
0.0
147
0.0
147
1.0
147
0.0
147
0.0
147
0.0
147
0.0
147
1.0
  0
MLEADERSTYLE
  5
A73
102
{ACAD_REACTORS
330
A72
330
B71
102
}
330
A72
100
AcDbMLeaderStyle
170
     2
171
     1
172
     0
 90
        2
 40
0.0
 41
0.0
173
     1
 91
-1056964608
340
26
 92
       -2
290
     1
 42
2.0
291
     1
 43
0.36
  3
Standard
 44
4.0
300

342
23
174
     1
178
     6
175
     1
176
     0
 93
-1056964608
 45
4.0
292
     0
297
     0
 46
4.0
 94
-1056964608
 47
1.0
 49
1.0
140
1.0
293
     1
141
0.0
294
     1
177
     0
142
1.0
295
     0
296
     0
143
0.125
1001
ACAD_MLEADERVER
1070
     2
  0
MLINESTYLE
  5
53
102
{ACAD_REACTORS
330
3B
102
}
330
3B
100
AcDbMlineStyle
  2
STANDARD
 70
     0
  3

 62
   256
 51
90.0
 52
90.0
 71
     2
 49
0.5
 62
   256
  6
BYLAYER
 49
-0.5
 62
   256
  6
BYLAYER
  0
ACDBPLACEHOLDER
  5
8
102
{ACAD_REACTORS
330
9
102
}
330
9
  0
SCALE
  5
BD9
102
{ACAD_REACTORS
330
4E
102
}
330
4E
100
AcDbScale
 70
     0
300
1:5_XREF
140
1.0
141
5.0
290
     0
  0
SCALE
  5
56
102
{ACAD_REACTORS
330
4E
102
}
330
4E
100
AcDbScale
 70
     0
300
1:1
140
1.0
141
1.0
290
     1
  0
SCALE
  5
57
102
{ACAD_REACTORS
330
4E
102
}
330
4E
100
AcDbScale
 70
     0
300
1:2
140
1.0
141
2.0
290
     0
  0
SCALE
  5
58
102
{ACAD_REACTORS
330
4E
102
}
330
4E
100
AcDbScale
 70
     0
300
1:4
140
1.0
141
4.0
290
     0
  0
SCALE
  5
59
102
{ACAD_REACTORS
330
4E
102
}
330
4E
100
AcDbScale
 70
     0
300
1:5
140
1.0
141
5.0
290
     0
  0
SCALE
  5
5A
102
{ACAD_REACTORS
330
4E
102
}
330
4E
100
AcDbScale
 70
     0
300
1:8
140
1.0
141
8.0
290
     0
  0
SCALE
  5
5B
102
{ACAD_REACTORS
330
4E
102
}
330
4E
100
AcDbScale
 70
     0
300
1:10
140
1.0
141
10.0
290
     0
  0
SCALE
  5
5C
102
{ACAD_REACTORS
330
4E
102
}
330
4E
100
AcDbScale
 70
     0
300
1:16
140
1.0
141
16.0
290
     0
  0
SCALE
  5
5D
102
{ACAD_REACTORS
330
4E
102
}
330
4E
100
AcDbScale
 70
     0
300
1:20
140
1.0
141
20.0
290
     0
  0
SCALE
  5
5E
102
{ACAD_REACTORS
330
4E
102
}
330
4E
100
AcDbScale
 70
     0
300
1:30
140
1.0
141
30.0
290
     0
  0
SCALE
  5
5F
102
{ACAD_REACTORS
330
4E
102
}
330
4E
100
AcDbScale
 70
     0
300
1:40
140
1.0
141
40.0
290
     0
  0
SCALE
  5
60
102
{ACAD_REACTORS
330
4E
102
}
330
4E
100
AcDbScale
 70
     0
300
1:50
140
1.0
141
50.0
290
     0
  0
SCALE
  5
61
102
{ACAD_REACTORS
330
4E
102
}
330
4E
100
AcDbScale
 70
     0
300
1:100
140
1.0
141
100.0
290
     0
  0
SCALE
  5
62
102
{ACAD_REACTORS
330
4E
102
}
330
4E
100
AcDbScale
 70
     0
300
2:1
140
2.0
141
1.0
290
     0
  0
SCALE
  5
63
102
{ACAD_REACTORS
330
4E
102
}
330
4E
100
AcDbScale
 70
     0
300
4:1
140
4.0
141
1.0
290
     0
  0
SCALE
  5
64
102
{ACAD_REACTORS
330
4E
102
}
330
4E
100
AcDbScale
 70
     0
300
8:1
140
8.0
141
1.0
290
     0
  0
SCALE
  5
65
102
{ACAD_REACTORS
330
4E
102
}
330
4E
100
AcDbScale
 70
     0
300
10:1
140
10.0
141
1.0
290
     0
  0
SCALE
  5
66
102
{ACAD_REACTORS
330
4E
102
}
330
4E
100
AcDbScale
 70
     0
300
100:1
140
100.0
141
1.0
290
     0
  0
SCALE
  5
67
102
{ACAD_REACTORS
330
4E
102
}
330
4E
100
AcDbScale
 70
     0
300
1/128" = 1'-0"
140
0.0078125
141
12.0
290
     0
  0
SCALE
  5
68
102
{ACAD_REACTORS
330
4E
102
}
330
4E
100
AcDbScale
 70
     0
300
1/64" = 1'-0"
140
0.015625
141
12.0
290
     0
  0
SCALE
  5
69
102
{ACAD_REACTORS
330
4E
102
}
330
4E
100
AcDbScale
 70
     0
300
1/32" = 1'-0"
140
0.03125
141
12.0
290
     0
  0
SCALE
  5
6A
102
{ACAD_REACTORS
330
4E
102
}
330
4E
100
AcDbScale
 70
     0
300
1/16" = 1'-0"
140
0.0625
141
12.0
290
     0
  0
SCALE
  5
6B
102
{ACAD_REACTORS
330
4E
102
}
330
4E
100
AcDbScale
 70
     0
300
3/32" = 1'-0"
140
0.09375
141
12.0
290
     0
  0
SCALE
  5
6C
102
{ACAD_REACTORS
330
4E
102
}
330
4E
100
AcDbScale
 70
     0
300
1/8" = 1'-0"
140
0.125
141
12.0
290
     0
  0
SCALE
  5
6D
102
{ACAD_REACTORS
330
4E
102
}
330
4E
100
AcDbScale
 70
     0
300
3/16" = 1'-0"
140
0.1875
141
12.0
290
     0
  0
SCALE
  5
6E
102
{ACAD_REACTORS
330
4E
102
}
330
4E
100
AcDbScale
 70
     0
300
1/4" = 1'-0"
140
0.25
141
12.0
290
     0
  0
SCALE
  5
6F
102
{ACAD_REACTORS
330
4E
102
}
330
4E
100
AcDbScale
 70
     0
300
3/8" = 1'-0"
140
0.375
141
12.0
290
     0
  0
SCALE
  5
70
102
{ACAD_REACTORS
330
4E
102
}
330
4E
100
AcDbScale
 70
     0
300
1/2" = 1'-0"
140
0.5
141
12.0
290
     0
  0
SCALE
  5
71
102
{ACAD_REACTORS
330
4E
102
}
330
4E
100
AcDbScale
 70
     0
300
3/4" = 1'-0"
140
0.75
141
12.0
290
     0
  0
SCALE
  5
72
102
{ACAD_REACTORS
330
4E
102
}
330
4E
100
AcDbScale
 70
     0
300
1" = 1'-0"
140
1.0
141
12.0
290
     0
  0
SCALE
  5
73
102
{ACAD_REACTORS
330
4E
102
}
330
4E
100
AcDbScale
 70
     0
300
1-1/2" = 1'-0"
140
1.5
141
12.0
290
     0
  0
SCALE
  5
74
102
{ACAD_REACTORS
330
4E
102
}
330
4E
100
AcDbScale
 70
     0
300
3" = 1'-0"
140
3.0
141
12.0
290
     0
  0
SCALE
  5
75
102
{ACAD_REACTORS
330
4E
102
}
330
4E
100
AcDbScale
 70
     0
300
6" = 1'-0"
140
6.0
141
12.0
290
     0
  0
SCALE
  5
76
102
{ACAD_REACTORS
330
4E
102
}
330
4E
100
AcDbScale
 70
     0
300
1'-0" = 1'-0"
140
12.0
141
12.0
290
     0
  0
TABLESTYLE
  5
54
102
{ACAD_XDICTIONARY
360
A5B
102
}
102
{ACAD_REACTORS
330
4F
102
}
330
4F
100
AcDbTableStyle
  3
Standard
 70
     0
 71
     0
 40
1.5
 41
1.5
280
     0
281
     0
  7
STANDARD
140
4.5
170
     2
 62
     0
 63
     7
283
     0
274
    -2
284
     1
 64
     0
275
    -2
285
     1
 65
     0
276
    -2
286
     1
 66
     0
277
    -2
287
     1
 67
     0
278
    -2
288
     1
 68
     0
279
    -2
289
     1
 69
     0
  7
STANDARD
140
6.0
170
     5
 62
     0
 63
     7
283
     0
274
    -2
284
     1
 64
     0
275
    -2
285
     1
 65
     0
276
    -2
286
     1
 66
     0
277
    -2
287
     1
 67
     0
278
    -2
288
     1
 68
     0
279
    -2
289
     1
 69
     0
  7
STANDARD
140
4.5
170
     5
 62
     0
 63
     7
283
     0
274
    -2
284
     1
 64
     0
275
    -2
285
     1
 65
     0
276
    -2
286
     1
 66
     0
277
    -2
287
     1
 67
     0
278
    -2
288
     1
 68
     0
279
    -2
289
     1
 69
     0
  0
VISUALSTYLE
  5
A69
102
{ACAD_REACTORS
330
2D
102
}
330
2D
100
AcDbVisualStyle
  2
2dWireframe
 70
     4
 71
     0
 72
     2
 73
     0
 90
        0
 40
-0.6
 41
-30.0
 62
     5
 63
     7
 74
     1
 91
        4
 64
     7
 65
   257
 75
     1
175
     1
 42
1.0
 92
        0
 66
   257
 43
1.0
 76
     1
 77
     6
 78
     2
 67
     7
 79
     5
170
     0
171
     0
290
     0
174
     0
 93
        1
 44
0.0
173
     0
291
     0
 45
0.0
1001
ACAD
1000
AcDbSavedByObjectVersion
1070
     0
1000
AcDbSavedByObjectVersion
1070
     0
  0
VISUALSTYLE
  5
A6A
102
{ACAD_REACTORS
330
2D
102
}
330
2D
100
AcDbVisualStyle
  2
3D Hidden
 70
     6
 71
     1
 72
     2
 73
     2
 90
        0
 40
-0.6
 41
-30.0
 62
     5
 63
     7
 74
     2
 91
        2
 64
     7
 65
   257
 75
     2
175
     1
 42
40.0
 92
        0
 66
   257
 43
1.0
 76
     1
 77
     6
 78
     2
 67
     7
 79
     3
170
     0
171
     0
290
     0
174
     0
 93
        1
 44
0.0
173
     0
291
     0
 45
0.0
1001
ACAD
1000
AcDbSavedByObjectVersion
1070
     0
1000
AcDbSavedByObjectVersion
1070
     0
  0
VISUALSTYLE
  5
55
102
{ACAD_REACTORS
330
2D
102
}
330
2D
100
AcDbVisualStyle
  2
3dWireframe
 70
     5
 71
     0
 72
     2
 73
     0
 90
        0
 40
-0.6
 41
-30.0
 62
     5
 63
     7
 74
     1
 91
        4
 64
     7
 65
   257
 75
     1
175
     1
 42
1.0
 92
        0
 66
   257
 43
1.0
 76
     1
 77
     6
 78
     2
 67
     7
 79
     5
170
     0
171
     0
290
     0
174
     0
 93
        1
 44
0.0
173
     0
291
     0
 45
0.0
1001
ACAD
1000
AcDbSavedByObjectVersion
1070
     0
1000
AcDbSavedByObjectVersion
1070
     0
  0
VISUALSTYLE
  5
A68
102
{ACAD_REACTORS
330
2D
102
}
330
2D
100
AcDbVisualStyle
  2
Basic
 70
     7
 71
     1
 72
     0
 73
     1
 90
        0
 40
-0.6
 41
-30.0
 62
     5
 63
     7
 74
     0
 91
        4
 64
     7
 65
   257
 75
     1
175
     1
 42
1.0
 92
        8
 66
     7
 43
1.0
 76
     1
 77
     6
 78
     2
 67
     7
 79
     5
170
     0
171
     0
290
     0
174
     0
 93
        1
 44
0.0
173
     0
291
     1
 45
0.0
1001
ACAD
1000
AcDbSavedByObjectVersion
1070
     0
1000
AcDbSavedByObjectVersion
1070
     0
  0
VISUALSTYLE
  5
A6D
102
{ACAD_REACTORS
330
2D
102
}
330
2D
100
AcDbVisualStyle
  2
Brighten
 70
    12
 71
     2
 72
     2
 73
     0
 90
        0
 40
-0.6
 41
-30.0
 62
     5
 63
     7
 74
     1
 91
        4
 64
     7
 65
   257
 75
     1
175
     1
 42
1.0
 92
        8
 66
     7
 43
1.0
 76
     1
 77
     6
 78
     2
 67
     7
 79
     5
170
     0
171
     0
290
     0
174
     0
 93
        1
 44
50.0
173
     0
291
     1
 45
0.0
1001
ACAD
1000
AcDbSavedByObjectVersion
1070
     0
1000
AcDbSavedByObjectVersion
1070
     0
  0
VISUALSTYLE
  5
A71
102
{ACAD_REACTORS
330
2D
102
}
330
2D
100
AcDbVisualStyle
  2
ColorChange
 70
    16
 71
     2
 72
     2
 73
     3
 90
        0
 40
-0.6
 41
-30.0
 62
     5
 63
     8
 74
     1
 91
        4
 64
     7
 65
   257
 75
     1
175
     1
 42
1.0
 92
        8
 66
     8
 43
1.0
 76
     1
 77
     6
 78
     2
 67
     7
 79
     5
170
     0
171
     0
290
     0
174
     0
 93
        1
 44
0.0
173
     0
291
     1
 45
0.0
1001
ACAD
1000
AcDbSavedByObjectVersion
1070
     0
1000
AcDbSavedByObjectVersion
1070
     0
  0
VISUALSTYLE
  5
A6B
102
{ACAD_REACTORS
330
2D
102
}
330
2D
100
AcDbVisualStyle
  2
Conceptual
 70
     9
 71
     3
 72
     2
 73
     0
 90
        0
 40
-0.6
 41
-30.0
 62
     5
 63
     7
 74
     2
 91
        2
 64
     7
 65
   257
 75
     1
175
     1
 42
40.0
 92
        8
 66
     7
 43
1.0
 76
     1
 77
     6
 78
     2
 67
     7
 79
     3
170
     0
171
     0
290
     0
174
     0
 93
        1
 44
0.0
173
     0
291
     0
 45
0.0
1001
ACAD
1000
AcDbSavedByObjectVersion
1070
     0
1000
AcDbSavedByObjectVersion
1070
     0
  0
VISUALSTYLE
  5
A6C
102
{ACAD_REACTORS
330
2D
102
}
330
2D
100
AcDbVisualStyle
  2
Dim
 70
    11
 71
     2
 72
     2
 73
     0
 90
        0
 40
-0.6
 41
-30.0
 62
     5
 63
     7
 74
     1
 91
        4
 64
     7
 65
   257
 75
     1
175
     1
 42
1.0
 92
        8
 66
     7
 43
1.0
 76
     1
 77
     6
 78
     2
 67
     7
 79
     5
170
     0
171
     0
290
     0
174
     0
 93
        1
 44
-50.0
173
     0
291
     1
 45
0.0
1001
ACAD
1000
AcDbSavedByObjectVersion
1070
     0
1000
AcDbSavedByObjectVersion
1070
     0
  0
VISUALSTYLE
  5
A70
102
{ACAD_REACTORS
330
2D
102
}
330
2D
100
AcDbVisualStyle
  2
Facepattern
 70
    15
 71
     2
 72
     2
 73
     0
 90
        0
 40
-0.6
 41
-30.0
 62
     5
 63
     7
 74
     1
 91
        4
 64
     7
 65
   257
 75
     1
175
     1
 42
1.0
 92
        8
 66
     7
 43
1.0
 76
     1
 77
     6
 78
     2
 67
     7
 79
     5
170
     0
171
     0
290
     0
174
     0
 93
        1
 44
0.0
173
     0
291
     1
 45
0.0
1001
ACAD
1000
AcDbSavedByObjectVersion
1070
     0
1000
AcDbSavedByObjectVersion
1070
     0
  0
VISUALSTYLE
  5
A64
102
{ACAD_REACTORS
330
2D
102
}
330
2D
100
AcDbVisualStyle
  2
Flat
 70
     0
 71
     2
 72
     1
 73
     1
 90
        2
 40
-0.6
 41
30.0
 62
     5
 63
     7
 74
     0
 91
        4
 64
     7
 65
   257
 75
     1
175
     1
 42
1.0
 92
        8
 66
     7
 43
1.0
 76
     1
 77
     6
 78
     2
 67
     7
 79
     5
170
     0
171
     0
290
     0
174
     0
 93
       13
 44
0.0
173
     0
291
     1
 45
0.0
1001
ACAD
1000
AcDbSavedByObjectVersion
1070
     0
1000
AcDbSavedByObjectVersion
1070
     0
  0
VISUALSTYLE
  5
A65
102
{ACAD_REACTORS
330
2D
102
}
330
2D
100
AcDbVisualStyle
  2
FlatWithEdges
 70
     1
 71
     2
 72
     1
 73
     1
 90
        2
 40
-0.6
 41
30.0
 62
     5
 63
     7
 74
     1
 91
        4
 64
     7
 65
   257
 75
     1
175
     1
 42
1.0
 92
        0
 66
   257
 43
1.0
 76
     1
 77
     6
 78
     2
 67
     7
 79
     5
170
     0
171
     0
290
     0
174
     0
 93
       13
 44
0.0
173
     0
291
     1
 45
0.0
1001
ACAD
1000
AcDbSavedByObjectVersion
1070
     0
1000
AcDbSavedByObjectVersion
1070
     0
  0
VISUALSTYLE
  5
A66
102
{ACAD_REACTORS
330
2D
102
}
330
2D
100
AcDbVisualStyle
  2
Gouraud
 70
     2
 71
     2
 72
     2
 73
     1
 90
        2
 40
-0.6
 41
30.0
 62
     5
 63
     7
 74
     0
 91
        4
 64
     7
 65
   257
 75
     1
175
     1
 42
1.0
 92
        0
 66
     7
 43
1.0
 76
     1
 77
     6
 78
     2
 67
     7
 79
     5
170
     0
171
     0
290
     0
174
     0
 93
       13
 44
0.0
173
     0
291
     1
 45
0.0
1001
ACAD
1000
AcDbSavedByObjectVersion
1070
     0
1000
AcDbSavedByObjectVersion
1070
     0
  0
VISUALSTYLE
  5
A67
102
{ACAD_REACTORS
330
2D
102
}
330
2D
100
AcDbVisualStyle
  2
GouraudWithEdges
 70
     3
 71
     2
 72
     2
 73
     1
 90
        2
 40
-0.6
 41
30.0
 62
     5
 63
     7
 74
     1
 91
        4
 64
     7
 65
   257
 75
     1
175
     1
 42
1.0
 92
        0
 66
   257
 43
1.0
 76
     1
 77
     6
 78
     2
 67
     7
 79
     5
170
     0
171
     0
290
     0
174
     0
 93
       13
 44
0.0
173
     0
291
     1
 45
0.0
1001
ACAD
1000
AcDbSavedByObjectVersion
1070
     0
1000
AcDbSavedByObjectVersion
1070
     0
  0
VISUALSTYLE
  5
A6F
102
{ACAD_REACTORS
330
2D
102
}
330
2D
100
AcDbVisualStyle
  2
Linepattern
 70
    14
 71
     2
 72
     2
 73
     0
 90
        0
 40
-0.6
 41
-30.0
 62
     5
 63
     7
 74
     1
 91
        4
 64
     7
 65
   257
 75
     7
175
     7
 42
1.0
 92
        8
 66
     7
 43
1.0
 76
     1
 77
     6
 78
     2
 67
     7
 79
     5
170
     0
171
     0
290
     0
174
     0
 93
        1
 44
0.0
173
     0
291
     1
 45
0.0
1001
ACAD
1000
AcDbSavedByObjectVersion
1070
     0
1000
AcDbSavedByObjectVersion
1070
     0
  0
VISUALSTYLE
  5
2C
102
{ACAD_REACTORS
330
2D
102
}
330
2D
100
AcDbVisualStyle
  2
Realistic
 70
     8
 71
     2
 72
     2
 73
     0
 90
        0
 40
-0.6
 41
-30.0
 62
     5
 63
     7
 74
     1
 91
        0
 64
     7
 65
   257
 75
     1
175
     1
 42
1.0
 92
        8
 66
     8
 43
1.0
 76
     1
 77
     6
 78
     2
 67
     7
 79
     5
170
     0
171
     0
290
     0
174
     0
 93
       13
 44
0.0
173
     0
291
     0
 45
0.0
1001
ACAD
1000
AcDbSavedByObjectVersion
1070
     0
1000
AcDbSavedByObjectVersion
1070
     0
  0
VISUALSTYLE
  5
A6E
102
{ACAD_REACTORS
330
2D
102
}
330
2D
100
AcDbVisualStyle
  2
Thicken
 70
    13
 71
     2
 72
     2
 73
     0
 90
        0
 40
-0.6
 41
-30.0
 62
     5
 63
     7
 74
     1
 91
        4
 64
     7
 65
   257
 75
     1
175
     1
 42
1.0
 92
       12
 66
     7
 43
1.0
 76
     1
 77
     6
 78
     2
 67
     7
 79
     5
170
     0
171
     0
290
     0
174
     0
 93
        1
 44
0.0
173
     0
291
     1
 45
0.0
1001
ACAD
1000
AcDbSavedByObjectVersion
1070
     0
1000
AcDbSavedByObjectVersion
1070
     0
  0
DICTIONARYVAR
  5
A61
102
{ACAD_REACTORS
330
A5E
102
}
330
A5E
100
DictionaryVariables
280
     0
  1
1:1
  0
DICTIONARYVAR
  5
A60
102
{ACAD_REACTORS
330
A5E
102
}
330
A5E
100
DictionaryVariables
280
     0
  1
STANDARD
  0
DICTIONARYVAR
  5
A5F
102
{ACAD_REACTORS
330
A5E
102
}
330
A5E
100
DictionaryVariables
280
     0
  1
STANDARD
  0
DICTIONARYVAR
  5
ABA
102
{ACAD_REACTORS
330
A5E
102
}
330
A5E
100
DictionaryVariables
280
     0
  1
1
  0
DICTIONARYVAR
  5
AB9
102
{ACAD_REACTORS
330
A5E
102
}
330
A5E
100
DictionaryVariables
280
     0
  1
1
  0
DICTIONARYVAR
  5
AB8
102
{ACAD_REACTORS
330
A5E
102
}
330
A5E
100
DictionaryVariables
280
     0
  1
0
  0
DICTIONARYVAR
  5
A62
102
{ACAD_REACTORS
330
A5E
102
}
330
A5E
100
DictionaryVariables
280
     0
  1
0
  0
DICTIONARYVAR
  5
AB6
102
{ACAD_REACTORS
330
A5E
102
}
330
A5E
100
DictionaryVariables
280
     0
  1
1
  0
DICTIONARYVAR
  5
AB7
102
{ACAD_REACTORS
330
A5E
102
}
330
A5E
100
DictionaryVariables
280
     0
  1
127
  0
ACAD_PROXY_OBJECT
  5
A58
102
{ACAD_REACTORS
330
A57
102
}
330
A57
100
AcDbProxyObject
 90
      499
 91
      558
 95
  1638427
 70
     0
 93
      167
310
4050100057356C1D9F506AA40CA8010400C400E802
350
A59
 94
        0
1001
ACAD
1000
AcRTDxfName
1000
ACMDATADICTIONARY
1000
AcRTDxfName
1000
ACMDATADICTIONARY
1000
AcRTDxfName
1000
ACMDATADICTIONARY
  0
DICTIONARY
  5
1172
330
16
100
AcDbDictionary
280
     1
281
     1
  3
ACAD_XREC_ROUNDTRIP
360
1173
  0
DICTIONARY
  5
1C
330
1B
100
AcDbDictionary
280
     1
281
     1
  3
ACAD_XREC_ROUNDTRIP
360
1174
  3
ADSK_XREC_LAYOUTTHUMBNAIL
360
1D
  0
DICTIONARY
  5
46
330
45
100
AcDbDictionary
280
     1
281
     1
  3
ACAD_XREC_ROUNDTRIP
360
AB0
  3
BUMPTILE
360
47
  3
DIFFUSETILE
360
48
  3
OPACITYTILE
360
49
  3
REFLECTIONTILE
360
4A
  3
REFRACTIONTILE
360
4B
  3
SPECULARTILE
360
4C
  0
DICTIONARY
  5
3E
330
3D
100
AcDbDictionary
280
     1
281
     1
  3
ACAD_XREC_ROUNDTRIP
360
AAF
  3
BUMPTILE
360
3F
  3
DIFFUSETILE
360
40
  3
OPACITYTILE
360
41
  3
REFLECTIONTILE
360
42
  3
REFRACTIONTILE
360
43
  3
SPECULARTILE
360
44
  0
DICTIONARY
  5
D
330
B
100
AcDbDictionary
280
     1
281
     1
  3
ACAD_XREC_ROUNDTRIP
360
AA8
  3
BUMPTILE
360
E
  3
DIFFUSETILE
360
F
  3
OPACITYTILE
360
10
  3
REFLECTIONTILE
360
11
  3
REFRACTIONTILE
360
12
  3
SPECULARTILE
360
13
  0
DICTIONARY
  5
A5B
330
54
100
AcDbDictionary
280
     1
281
     1
  3
ACAD_ROUNDTRIP_2008_TABLESTYLE_CELLSTYLEMAP
360
116C
  3
ACAD_XREC_ROUNDTRIP
360
1175
  0
ACAD_PROXY_OBJECT
  5
A59
102
{ACAD_REACTORS
330
A58
102
}
330
A58
100
AcDbProxyObject
 90
      499
 91
      559
 95
  1638427
 70
     0
 93
      358
310
057356C1D9F406406AA8FFFFFFFF067D010040485A0802380188029801680258025801B801B002A0022005D004
330
2
330
0
330
0
 94
        0
1001
ACAD
1000
AcRTDxfName
1000
ACMDATAENTRYBLOCK
1000
AcRTDxfName
1000
ACMDATAENTRYBLOCK
1000
AcRTDxfName
1000
ACMDATAENTRYBLOCK
  0
XRECORD
  5
1173
102
{ACAD_REACTORS
330
1172
102
}
330
1172
100
AcDbXrecord
280
     1
102
SHADEPLOT
 70
     0
102
SHADEPLOTRESLEVEL
 70
     2
102
SHADEPLOTCUSTOMDPI
 70
   300
  0
XRECORD
  5
1174
102
{ACAD_REACTORS
330
1C
102
}
330
1C
100
AcDbXrecord
280
     1
102
SHADEPLOT
 70
     0
102
SHADEPLOTRESLEVEL
 70
     2
102
SHADEPLOTCUSTOMDPI
 70
   300
  0
XRECORD
  5
1D
102
{ACAD_REACTORS
330
1C
102
}
330
1C
100
AcDbXrecord
280
     1
310
28000000B4000000860000000100080000000000385E0000000000000000000000010000000000000000000000000000FFFFFF000000000000000000000000000000000000000000000000000000000000000000330000006600000099000000CC000000FF00000000330000333300006633000099330000CC330000FF3300
310
0000660000336600006666000099660000CC660000FF66000000990000339900006699000099990000CC990000FF99000000CC000033CC000066CC000099CC0000CCCC0000FFCC000000FF000033FF000066FF000099FF0000CCFF0000FFFF000000003300330033006600330099003300CC003300FF003300003333003333
310
33006633330099333300CC333300FF33330000663300336633006666330099663300CC663300FF66330000993300339933006699330099993300CC993300FF99330000CC330033CC330066CC330099CC3300CCCC3300FFCC330000FF330033FF330066FF330099FF3300CCFF3300FFFF330000006600330066006600660099
310
006600CC006600FF00660000336600333366006633660099336600CC336600FF33660000666600336666006666660099666600CC666600FF66660000996600339966006699660099996600CC996600FF99660000CC660033CC660066CC660099CC6600CCCC6600FFCC660000FF660033FF660066FF660099FF6600CCFF6600
310
FFFF660000009900330099006600990099009900CC009900FF00990000339900333399006633990099339900CC339900FF33990000669900336699006666990099669900CC669900FF66990000999900339999006699990099999900CC999900FF99990000CC990033CC990066CC990099CC9900CCCC9900FFCC990000FF99
310
0033FF990066FF990099FF9900CCFF9900FFFF99000000CC003300CC006600CC009900CC00CC00CC00FF00CC000033CC003333CC006633CC009933CC00CC33CC00FF33CC000066CC003366CC006666CC009966CC00CC66CC00FF66CC000099CC003399CC006699CC009999CC00CC99CC00FF99CC0000CCCC0033CCCC0066CC
310
CC0099CCCC00CCCCCC00FFCCCC0000FFCC0033FFCC0066FFCC0099FFCC00CCFFCC00FFFFCC000000FF003300FF006600FF009900FF00CC00FF00FF00FF000033FF003333FF006633FF009933FF00CC33FF00FF33FF000066FF003366FF006666FF009966FF00CC66FF00FF66FF000099FF003399FF006699FF009999FF00CC
310
99FF00FF99FF0000CCFF0033CCFF0066CCFF0099CCFF00CCCCFF00FFCCFF0000FFFF0033FFFF0066FFFF0099FFFF00CCFFFF00FFFFFF00000000000D0D0D001A1A1A00282828003535350043434300505050005D5D5D006B6B6B00787878008686860093939300A1A1A100AEAEAE00BBBBBB00C9C9C900D6D6D600E4E4E400
310
F1F1F100FFFFFF0000000000000000000000000000000000000000000000000000000000000000000000000000000000E2E2E2E2E2E2E2E2E2E2E2E2E2E2E2E2E2E2E2E2E2E2E2E2E2E2E2E2E2E2E2E2E2E2E2E2E2E2E2E2E2E2E2E2E2E2E2E2E2E2E2E2E2E2E2E2E2E2E2E2E2E2E2E2E2E2E2E2E2E2E2E2E2E2E2E2E2E2E2
310
E2E2E2E2E2E2E2E2E2E2E2E2E2E2E2E2E2E2E2E2E2E2E2E2E2E2E2E2E2E2E2E2E2E2E2E2E2E2E2E2E2E2E2E2E2E2E2E2E2E2E2E2E2E2E2E2E2E2E2E2E2E2E2E2E2E2E2E2E2E2E2E2E2E2E2E2E2E2E2E2E2E2E2E2E2E2E2E2E2E2E2E2E2E2E2E2E2E2E2E2E2E2E2E2E2E2E2E2E2E2E2E2E2E2E2E2E2E2E2E2E2E2E2E2E2E2E2
310
E2E2E2E2E2E2E2E2E2E2E2E2E2E2E2E2E2E2E2E2E2E2E2E2E2E2E2E2E2E2E2E2E2E2E2E2E2E2E2E2E2E2E2E2E2E2E2E2E2E2E2E2E2E2E2E2E2E2E2E2E2E2E2E2E2E2E2E2E2E2E2E2E2E2E2E2E2E2E2E2E2E2E2E2E2E2E2E2E2E2E2E2E2E2E2E2E2E2E2E2E2E2E2E2E2E2E2E2E2E2E2E2E2E2E2E2E2E2E2E2E2E2E2E2E2E2E2
310
E2E2E2E2E2E2E2E2E2E2E2E2E2E2E2E2E2E2E2E2E2E2E2E2E2E2E2E2E2E2E2E2E2E2E2E2E2E2E2E2E2E2E2E2E2E2E2E2E2E2E2E2E2E2E2E2E2E2E2E2E2E2E2E2E2E2E2E2E2E2E2E2E2E2E2E2E2E2E2E2E2E2E2E2E2E2E2E2E2E2E2E2E2E2E2E2E2E2E2E2E2E2E2E2E2E2E2E2E2E2E2E2E2E2E2E2E2E2E2E2E2E2E2E2E2E2E2
310
E2E2E2E2E2E2E2E2E2E2E2E2E2E2E2E2E2E2E2E2E2E2E2E2E2E2E2E2E2E2E2E2E2E2E2E2E2E2E2E2E2E2E2E2E2E2E2E2E2E2E2E2E2E2E2E2E2E2E2E2E2E2E2E2E2E2E2E2E2E2E2E2E2E2E2E2E2E2E2E2E2E2E2E2E2E2E2E2E2E2E2E2E2E2E2E2E2E2E2E2E2E2E2E2E2E2E2E2E2E2E2E2E2E2E2E2E2E2E2E2E2E2E2E2E2E2E2
310
E2E2E2E2E2E2E2E2E2E2E2E2E2E2E2E2E2E2E2E2E2E2E2E2E2E2E2E2E2E2E2E2E2E2E2E2E2E2E2E2E2E2E2E2E2E2E2E2E2E2E2E2E2E2E2E2E2E2E2E2E2E2E2E2E2E2E2E2E2E2E2E2E2E2E2E2E2E2E2E2E2E2E2E2E2E2E2E2E2E2E2E2E2E2E2E2E2E2E2E2E2E2E2E2E2E2E2E2E2E2E2E2E2E2E2E2E2E2E2E2E2E2E2E2E2E2E2
310
E2E2E2E2E2E2E2E2E2E2E2E2E2E2E2E2E2E2E2E2E2E2E2E2E2E2E2E2E2E2E2E2E2E2E2E2E2E2E2E2E2E2E2E2E2E2E2E2E2E2E2E2E2E2E2E2E2E2E2E2E2E2E2E2E2E2E2E2E2E2E2E2E2E2E2E2E2E2E2E2E2E2E2E2E2E2E2E2E2E2E2E2E2E2E2E2E2E2E2E2E2E2E2E2E2E2E2E2E2E2E2E2E2E2E2E2E2E2E2E2E2E2E2E2E2E2E2
310
E2E2E2E2E2E2E2E2E2E2E2E2E2E2E2E2E2E2E2E2E2E2E2E2E2E2E2E2E2E2E2E2E2E2E2E2E2E2E2E2E2E2E2E2E2E2E2E2E2E2E2E2E2E2E2E2E2E2E2E2E2E2E2E2E2E2E2E2E2E2E2E2E2E2E2E2E2E2E2E2E2E2E2E2E2E2E2E2E2E2E2E2E2E2E2E2E2E2E2E2E2E2E2E2E2E2E2E2E2E2E2E2E2E2E2E2E2E2E2E2E2E2E2E2E2E2E2
310
E2E2E2E2E2E2E2E2E2E2E2E2E2E2E2E2E2E2E2E2E2E2E2E2E2E2E2E2E2E2E2E2E2E2E2E2E2E2E2E2E2E2E2E2E2E2E2E2E2E2E2E2E2E2E2E2E2E2E2E2E2E2E2E2E2E2E2E2E2E2E2E2E2E2E2E2E2E2E2E2E2E2E2E2E2E2E2E2E2E2E2E2E2E2E2E2E2E2E2E2E2E2E2E2E2E2E2E2E2E2E2E2E2E2E2E2E2E2E2E2E2E2E2E2E2E2E2
310
E2E2E2E2E2E2E2E2E2E2E2E2E2E2E2E2E2E2E2E2E2E2E2E2E2E2E2E2E2E2E2E2E2E2E2E2E2E2E2E2E2E2E2E2E2E2E2E2E2E2E2E2E2E2E2E2E2E2E2E2E2E2E2E2E2E2E2E2E2E2E2E2E2E2E2E2E2E2E2E2E2E2E2E2E2E2E2E2E2E2E2E2E2E2E2E2E2E2E2E2E2E2E2E2E2E2E2E2E2E2E2E2E2E2E2E2E2E2E2E2E2E2E2E2E2E2E2
310
E2E2E2E2E2E2E2E2E2E2E2E2E2E2E2E2E2E2E2E2E2E2E2E2E2E2E2E2E2E2E2E2E2E2E2E2E2E2E2E2E2E2E2E2E2E2E2E2E2E2E2E2E2E2E2E2E2E2E2E2E2E2E2E2E2E2E2E2E2E2E2E2E2E2E2E2E2E2E2E2E2E2E2E2E2E2E2E2E2E2E2E2E2E2E2E2E2E2E2E2E2E2E2E2E2E2E2E2E2E2E2E2E2E2E2E2E2E2E2E2E2E2E2E2E2E2E2
310
E2E2E2E2E2E2E2E2E2E2E2E2E2E2E2E2E2E2E2E2E2E2E2E2E2E2E2E2E2E2E2E2E2E2E2E2E2E2E2E2E2E2E2E2E2E2E2E2E2E2E2E2E2E2E2E2E2E2E2E2E2E2E2E2E2E2E2E2E2E2E2E2E2E2E2E2E2E2E2E2E2E2E2E2E2E2E2E2E2E2E2E2E2E2E2E2E2E2E2E2E2E2E2E2E2E2E2E2E2E2E2E2E2E2E2E2E2E2E2E2E2E2E2E2E2E2E2
310
E2E2E2E2E2E2E2E2E2E2E2E2E2E2E2E2E2E2E2E2E2E2E2E2E2E2E2E2E2E2E2E2E2E2E2E2E2E2E2E2E2E2E2E2E2E2E2E2E2E2E2E2E2E2E2E2E2E2E2E2E2E2E2E2E2E2E2E2E2E2E2E2E2E2E2E2E2E2E2E2E2E2E2E2E2E2E2E2E2E2E2E2E2E2E2E2E2E2E2E2E2E2E2E2E2E2E2E2E2E2E2E2E2E2E2E2E2E2E2E2E2E2E2E2E2E2E2
310
E2E2E2E2E2E2E2E2E2E2E2E2E2E2E2E2E2E2E2E2E2E2E2E2E2E2E2E2E2E2E2E2E2E2E2E2E2E2E2E2E2E2E2E2E2E2E2E2E2E2E2E2E2E2E2E2E2E2E2E2E2E2E2E2E2E2E2E2E2E2E2E2E2E2E2E2E2E2E2E2E2E2E2E2E2E2E2E2E2E2E2E2E2E2E2E2E2E2E2E2E2E2E2E2E2E2E2E2E2E2E2E2E2E2E2E2E2E2E2E2E2E2E2E2E2E2E2
310
E2E2E2E2E2E2E2E2E2E2E2E2E2E2E2E2E2E2E2E2E2E2E2E2E2E2E2E2E2E2E2E2E2E2E2E2E2E2E2E2E2E2E2E2E2E2E2E2E2E2E2E2E2E2E2E2E2E2E2E2E2E2E2E2E2E2E2E2E2E2E2E2E2E2E2E2E2E2E2E2E2E2E2E2E2E2E2E2E2E2E2E2E2E2E2E2E2E2E2E2E2E2E2E2E2E2E2E2E2E2E2E2E2E2E2E2E2E2E2E2E2E2E2E2E2E2E2
310
E2E2E2E2E2E2E2E2E2E2E2E2E2E2E2E2E2E2E2E2E2E2E2E2E2E2E2E2E2E2E2E2E2E2E2E2E2E2E2E2E2E2E2E2E2E2E2E2E2E2E2E2E2E2E2E2E2E2E2E2E2E2E2E2E2E2E2E2E2E2E2E2E2E2E2E2E2E2E2E2E2E2E2E2E2E2E2E2E2E2E2E2E2E2E2E2E2E2E2E2E2E2E2E2E2E2E2E2E2E2E2E2E2E2E2E2E2E2E2E2E2E2E2E2E2E2E2
310
E2E2E2E2E2E2E2E2E2E2E2E2E2E2E2E2E2E2E2E2E2E2E2E2E2E2E2E2E2E2E2E2E2E2E2E2E2E2E2E2E2E2E2E2E2E2E2E2E2E2E2E2E2E2E2E2E2E2E2E2E2E2E2E2E2E2E2E2E2E2E2E2E2E2E2E2E2E2E2E2E2E2E2E2E2E2E2E2E2E2E2E2E2E2E2E2E2E2E2E2E2E2E2E2E2E2E2E2E2E2E2E2E2E2E2E2E2E2E2E2E2E2E2E2E2E2E2
310
E2E2E2E2E2E2E2E2E2E2E2E2E2E2E2E2E2E2E2E2E2E2E2E2E2E2E2E2E2E2E2E2E2E2E2E2E2E2E2E2E2E2E2E2E2E2E2E2E2E2E2E2E2E2E2E2E2E2E2E2E2E2E2E2E2E2E2E2E2E2E2E2E2E2E2E2E2E2E2E2E2E2E2E2E2E2E2E2E2E2E2E2E2E2E2E2E2E2E2E2E2E2E2E2E2E2E2E2E2E2E2E2E2E2E2E2E2E2E2E2E2E2E2E2E2E2E2
310
E2E2E2E2E2E2E2E2E2E2E2E2E2E2E2E2E2E2E2E2E2E2E2E2E2E2E2E2E2E2E2E2E2E2E2E2E2E2E2E2E2E2E2E2E2E2E2E2E2E2E2E2E2E2E2E2E2E2E2E2E2E2E2E2E2E2E2E2E2E2E2E2E2E2E2E2E2E2E2E2E2E2E2E2E2E2E2E2E2E2E2E2E2E2E2E2E2E2E2E2E2E2E2E2E2E2E2E2E2E2E2E2E2E2E2E2E2E2E2E2E2E2E2E2E2E2E2
310
E2E2E2E2E2E2E2E2E2E2E2E2E2E2E2E2E2E2E2E2E2E2E2E2E2E2E2E2E2E2E2E2E2E2E2E2E2E2E2E2E2E2E2E2E2E2E2E2E2E2E2E2E2E2E2E2E2E2E2E2E2E2E2E2E2E2E2E2E2E2E2E2E2E2E2E2E2E2E2E2E2E2E2E2E2E2E2E2E2E2E2E2E2E2E2E2E2E2E2E2E2E2E2E2E2E2E2E2E2E2E2E2E2E2E2E2E2E2E2E2E2E2E2E2E2E2E2
310
E2E2E2E2E2E2E2E2E2E2E2E2E2E2E2E2E2E2E2E2E2E2E2E2E2E2E2E2E2E2E2E2E2E2E2E2E2E2E2E2E2E2E2E2E2E2E2E2E2E2E2E2E2E2E2E2E2E2E2E2E2E2E2E2E2E2E2E2E2E2E2E2E2E2E2E2E2E2E2E2E2E2E2E2E2E2E2E2E2E2E2E2E2E2E2E2E2E2E2E2E2E2E2E2E2E2E2E2E2E2E2E2E2E2E2E2E2E2E2E2E2E2E2E2E2E2E2
310
E2E2E2E2E2E2E2E2E2E2E2E2E2E2E2E2E2E2E2E2E2E2E2E2E2E2E2E2E2E2E2E2E2E2E2E2E2E2E2E2E2E2E2E2E2E2E2E2E2E2E2E2E2E2E2E2E2E2E2E2E2E2E2E2E2E2E2E2E2E2E2E2E2E2E2E2E2E2E2E2E2E2E2E2E2E2E2E2E2E2E2E2E2E2E2E2E2E2E2E2E2E2E2E2E2E2E2E2E2E2E2E2E2E2E2E2E2E2E2E2E2E2E2E2E2E2E2
310
E2E2E2E2E2E2E2E2E2E2E2E2E2E2E2E2E2E2E2E2E2E2E2E2E2E2E2E2E2E2E2E2E2E2E2E2E2E2E2E2E2E2E2E2E2E2E2E2E2E2E2E2E2E2E2E2E2E2E2E2E2E2E2E2E2E2E2E2E2E2E2E2E2E2E2E2E2E2E2E2E2E2E2E2E2E2E2E2E2E2E2E2E2E2E2E2E2E2E2E2E2E2E2E2E2E2E2E2E2E2E2E2E2E2E2E2E2E2E2E2E2E2E2E2E2E2E2
310
E2E2E2E2E2E2E2E2E2E2E2E2E2E2E2E2E2E2E2E2E2E2E2E2E2E2E2E2E2E2E2E2E2E2E2E2E2E2E2E2E2E2E2E2E2E2E2E2E2E2E2E2E2E2E2E2E2E2E2E2E2E2E2E2E2E2E2E2E2E2E2E2E2E2E2E2E2E2E2E2E2E2E2E2E2E2E2E2E2E2E2E2E2E2E2E2E2E2E2E2E2E2E2E2E2E2E2E2E2E2E2E2E2E2E2E2E2E2E2E2E2E2E2E2E2E2E2
310
E2E2E2E2E2E2E2E2E2E2E2E2E2E2E2E2E2E2E2E2E2E2E2E2E2E2E2E2E2E2E2E2E2E2E2E2E2E2E2E2E2E2E2E2E2E2E2E2E2E2E2E2E2E2E2E2E2E2E2E2E2E2E2E2E2E2E2E2E2E2E2E2E2E2E2E2E2E2E2E2E2E2E2E2E2E2E2E2E2E2E2E2E2E2E2E2E2E2E2E2E2E2E2E2E2E2E2E2E2E2E2E2E2E2E2E2E2E2E2E2E2E2E2E2E2E2E2
310
E2E2E2E2E2E2E2E2E2E2E2E2E2E2E2E2E2E2E2E2E2E2E2E2E2E2E2E2E2E2E2E2E2E2E2E2E2E2E2E2E2E2E2E2E2E2E2E2E2E2E2E2E2E2E2E2E2E2E2E2E2E2E2E2E2E2E2E2E2E2E2E2E2E2E2E2E2E2E2E2E2E2E2E2E2E2E2E2E2E2E2E2E2E2E2E2E2E2E2E2E2E2E2E2E2E2E2E2E2E2E2E2E2E2E2E2E2E2E2E2E2E2E2E2E2E2E2
310
E2E2E2E2E2E2E2E2E2E2E2E2E2E2E2E2E2E2E2E2E2E2E2E2E2E2E2E2E2E2E2E2E2E2E2E2E2E2E2E2E2E2E2E2E2E2E2E2E2E2E2E2E2E2E2E2E2E2E2E2E2E2E2E2E2E2E2E2E2E2E2E2E2E2E2E2E2E2E2E2E2E2E2E2E2E2E2E2E2E2E2E2E2E2E2E2E2E2E2E2E2E2E2E2E2E2E2E2E2E2E2E2E2E2E2E2E2E2E2E2E2E2E2E2E2E2E2
310
E2E2E2E2E2E2E2E2E2E2E2E2E2E2E2E2E2E2E2E2E2E2E2E2E2E2E2E2E2E2E2E2E2E2E2E2E2E2E2E2E2E2E2E2E2E2E2E2E2E2E2E2E2E2E2E2E2E2E2E2E2E2E2E2E2E2E2E2E2E2E2E2E2E2E2E2E2E2E2E2E2E2E2E2E2E2E2E2E2E2E2E2E2E2E2E2E2E2E2E2E2E2E2E2E2E2E2E2E2E2E2E2E2E2E2E2E2E2E2E2E2E2E2E2E2E2E2
310
E2E2E2E2E2E2E2E2E2E2E2E2E2E2E2E2E2E2E2E2E2E2E2E2E2E2E2E2E2E2E2E2E2E2E2E2E2E2E2E2E2E2E2E2E2E2E2E2E2E2E2E2E2E2E2E2E2E2E2E2E2E2E2E2E2E2E2E2E2E2E2E2E2E2E2E2E2E2E2E2E2E2E2E2E2E2E2E2E2E2E2E2E2E2E2E2E2E2E2E2E2E2E2E2E2E2E2E2E2E2E2E2E2E2E2E2E2E2E2E2E2E2E2E2E2E2E2
310
E2E2E2E2E2E2E2E2E2E2E2E2E2E2E2E2E2E2E2E2E2E2E2E2E2E2E2E2E2E2E2E2E2E2E2E2E2E2E2E2E2E2E2E2E2E2E2E2E2E2E2E2E2E2E2E2E2E2E2E2E2E2E2E2E2E2E2E2E2E2E2E2E2E2E2E2E2E2E2E2E2E2E2E2E2E2E2E2E2E2E2E2E2E2E2E2E2E2E2E2E2E2E2E2E2E2E2E2E2E2E2E2E2E2E2E2E2E2E2E2E2E2E2E2E2E2E2
310
E2E2E2E2E2E2E2E2E2E2E2E2E2E2E2E2E2F5E2E2E2E2E2E2E2E2E2E2E2E2E2E2E2E2E2E2E2E2E2E2E2E2E2E2E2E2E2E2E2E2E2E2E2E2E2E2E2E2E2E2E2E2E2E2E2E2E2E2E2E2E2E2E2E2E2E2E2E2E2E2E2E2E2E2E2E2E2E2E2E2E2E2E2E2E2E2E2E2E2E2E2E2E2E2E2E2E2E2E2E2E2E2E2E2E2E2E2E2E2E2E2E2E2E2E2E2E2
310
E2E2E2E2E2E2E2E2E2E2E2E2E2E2E2E2E2E2E2E2E2E2E2E2E2E2E2E2E2E2E2E2E2E2E2E2E2E2E2E2E2E2E2E2E2E2E2E2E2E2E2E2E2E2E2E2E2E2E2E2E2E2E2E2E2E2E2E2E2F5E2E2E2E2E2E2E2E2E2E2E2E2E2E2E2E2E2E2E2E2E2E2E2E2E2E2E2E2E2E2E2E2E2E2E2E2E2E2E2E2E2E2E2E2E2E2E2E2E2E2E2E2E2E2E2E2E2
310
E2E2E2E2E2E2E2E2E2E2E2E2E2E2E2E2E2E2E2E2E2E2E2E2E2E2E2E2E2E2E2E2E2E2E2E2E2E2E2E2E2E2E2E2E2E2E2E2E2E2E2E2E2E2E2E2E2E2E2E2E2E2E2E2E2E2E2E2E2E2E2E2E2E2E2E2E2E2E2E2E2E2E2E2E2E2E2E2E2E2E2E2E2E2E2E2E2E2E2E2E2E2E2E2E2E2E2E2E2E2E2E2E2E2E2E2E2E2E2E2E2E2F5E2E2E2E2
310
E2E2E2E2E2E2E2E2E2E2E2E2E2E2E2E2E2E2E2E2E2E2E2E2E2E2E2E2E2E2E2E2E2E2E2E2E2E2E2E2E2E2E2E2E2E2E2E2E2E2E2E2E2E2E2E2E2E2E2E2E2E2E2E2E2E2E2E2E2E2E2E2E2E2E2E2E2E2E2E2E2E2E2E2E2E2E2E2E2E2E2E2E2E2E2E2E2E2E2E2E2E2E2E2E2E2E2E2E2E2E2E2E2E2E2E2E2E2E2E2E2E2E2E2E2E2E2
310
E2E2E2E2E2E2E2E2E2E2E2E2E2E2E2E2E2E2E2E2E2E2E2E2E2E2E2E2E2E2E2E2E2E2E2E2E2E2E2E2E2E2E2E2E2E2E2F5E2E2E2E2E2E2E2E2E2E2E2E2E2E2E2E2E2E2E2E2E2E2E2E2E2E2E2E2E2E2E2E2E2E2E2E2E2E2E2E2E2E2E2E2E2E2E2E2E2E2E2E2E2E2E2E2E2E2E2E2E2E2E2E2E2E2E2E2E2E2E2E2E2E2E2E2E2E2E2
310
E2E2E2E2E2E2E2E2E2E2E2E2E2E2E2E2E2E2E2E2E2E2E2E2E2E2E2E2E2E2E2E2E2E2E2E2E2E2E2E2E2E2E2E2E2E2E2E2E2E2E2E2E2E2E2E2E2E2E2E2E2E2E2E2E2E2E2E2E2E2E2E2E2E2E2E2E2E2E2E2E2E2E2E2E2E2E2E2E2E2E2E2E2E2E2E2E2E2E2F5E2E2E2E2E2E2E2E2E2E2E2E2E2E2E2E2E2E2E2E2E2E2E2E2E2E2E2
310
E2E2E2E2E2E2E2E2E2E2E2E2E2E2E2E2E2E2E2E2E2E2E2E2E2E2E2E2E2E2E2E2E2E2E2E2E2E2E2E2E2E2E2E2E2E2E2E2E2E2E2E2E2E2E2E2E2E2E2E2E2E2E2E2E2E2E2E2E2E2E2E2E2E2E2E2E2E2E2E2E2E2E2E2E2E2E2E2E2E2E2E2E2E2E2E2E2E2E2E2E2E2E2E2E2E2E2E2E2E2E2E2E2E2E2E2E2E2E2E2E2E2E2E2E2E2E2
310
E2E2E2E2E2E2E2E2E2E2E2E2E2E2E2E2E2E2E2E2E2E2E2E2F5E2E2E2E2E2E2E2E2E2E2E2E2E2E2E2E2E2E2E2E2E2E2E2E2E2E2E2E2E2E2E2E2E2E2E2E2E2E2E2E2E2E2E2E2E2E2E2E2E2E2E2E2E2E2E2E2E2E2E2E2E2E2E2E2E2E2E2E2E2E2E2E2E2E2E2E2E2E2E2E2E2E2E2E2E2E2E2E2E2E2E2E2E2E2E2E2E2E2E2E2E2E2
310
E2E2E2E2E2E2E2E2E2E2E2E2E2E2E2E2E2E2E2E2E2E2E2E2E2E2E2E2E2E2E2E2E2E2E2E2E2E2E2E2E2E2E2E2E2E2E2E2E2E2E2E2E2E2E2E2E2E2E2E2E2E2E2E2E2E2E2E2E2E2E2E2E2E2E2E2F5E2E2E2E2E2E2E2E2E2E2E2E2E2E2E2E2E2E2E2E2E2E2E2E2E2E2E2E2E2E2E2E2E2E2E2E2E2E2E2E2E2E2E2E2E2E2E2E2E2E2
310
E2E2E2E2E2E2E2E2E2E2E2E2E2E2E2E2E2E2E2E2E2E2E2E2E2E2E2E2E2E2E2E2E2E2E2E2E2E2E2E2E2E2E2E2E2E2E2E2E2E2E2E2E2E2E2E2E2E2E2E2E2E2E2E2E2E2E2E2E2E2E2E2E2E2E2E2E2E2E2E2E2E2E2E2E2E2E2E2E2E2E2E2E2E2E2E2E2E2E2E2E2E2E2E2E2E2E2E2E2E2E2E2E2E2E2E2E2E2E2E2E2E2E2E2E2E2E2
310
E2F5E2E2E2E2E2E2E2E2E2E2E2E2E2E2E2E2E2E2E2E2E2E2E2E2E2E2E2E2E2E2E2E2E2E2E2E2E2E2E2E2E2E2E2E2E2E2E2E2E2E2E2E2E2E2E2E2E2E2E2E2E2E2E2E2E2E2E2E2E2E2E2E2E2E2E2E2E2E2E2E2E2E2E2E2E2E2E2E2E2E2E2E2E2E2E2E2E2E2E2E2E2E2E2E2E2E2E2E2E2E2E2E2E2E2E2E2E2E2E2E2E2E2E2E2E2
310
E2E2E2E2E2E2E2E2E2E2E2E2E2E2E2E2E2E2E2E2E2E2E2E2E2E2E2E2E2E2E2E2E2E2E2E2E2E2E2E2E2E2E2E2E2E2E2E2E2E2E2E2F5F5E2E2E2E2E2E2E2E2E2E2E2E2E2E2E2E2E2E2E2E2E2E2E2E2E2E2E2E2E2E2E2E2E2E2E2E2E2E2E2E2E2E2E2E2E2E2E2E2E2E2E2E2E2E2E2E2E2E2E2E2E2E2E2E2E2E2E2E2E2E2E2E2E2
310
E2E2E2E2E2E2E2E2E2E2E2E2E2E2E2E2E2E2E2E2E2E2E2E2E2E2E2E2E2E2E2E2E2E2E2E2E2E2E2E2E2E2E2E2E2E2E2E2E2E2E2E2E2E2E2E2E2E2E2E2E2E2E2E2E2E2E2E2E2E2E2E2E2E2E2E2E2E2E2E2E2E2E2E2E2E2E2E2E2E2E2E2E2E2E2E2E2E2E2E2E2E2E2E2F5E2E2E2E2E2E2E2E2E2E2E2E2E2E2E2E2E2E2E2E2E2E2
310
E2E2E2E2E2E2E2E2E2E2E2E2E2E2E2E2E2E2E2E2E2E2E2E2E2E2E2E2E2E2E2E2E2E2E2E2E2E2E2E2E2E2E2E2E2E2E2E2E2E2E2E2E2E2E2E2E2E2E2E2E2E2E2E2E2E2E2E2E2E2E2E2E2E2E2E2E2E2E2E2E2E2E2E2E2E2E2E2E2E2E2E2E2E2E2E2E2E2E2E2E2E2E2E2E2E2E2E2E2E2E2E2E2E2E2E2E2E2E2E2E2E2E2E2E2E2E2
310
E2E2E2E2E2E2E2E2E2E2E2E2E2E2E2E2E2E2E2E2E2E2E2E2E2E2E2E2E2F5E2E2E2E2E2E2E2E2E2E2E2E2E2E2E2E2E2E2E2E2E2E2E2E2E2E2E2E2E2E2E2E2E2E2E2E2E2E2E2E2E2E2E2E2E2E2E2E2E2E2E2E2E2E2E2E2E2E2E2E2E2E2E2E2E2E2E2E2E2E2E2E2E2E2E2E2E2E2E2E2E2E2E2E2E2E2E2E2E2E2E2E2E2E2E2E2E2
310
E2E2E2E2E2E2E2E2E2E2E2E2E2E2E2E2E2E2E2E2E2E2E2E2E2E2E2E2E2E2E2E2E2E2E2E2E2E2E2E2E2E2E2E2E2E2E2E2E2E2E2E2E2E2E2E2E2E2E2E2E2E2E2E2E2E2E2E2E2E2E2E2E2E2E2E2E2E2E2E2E2F5E2E2E2E2E2E2E2E2E2E2E2E2E2E2E2E2E2E2E2E2E2E2E2E2E2E2E2E2E2E2E2E2E2E2E2E2E2E2E2E2E2E2E2E2E2
310
E2E2E2E2E2E2E2E2E2E2E2E2E2E2E2E2E2E2E2E2E2E2E2E2E2E2E2E2E2E2E2E2E2E2E2E2E2E2E2E2E2E2E2E2E2E2E2E2E2E2E2E2E2E2E2E2E2E2E2E2E2E2E2E2E2E2E2E2E2E2E2E2E2E2E2E2E2E2E2E2E2E2E2E2E2E2E2E2E2E2E2E2E2E2E2E2E2E2E2E2E2E2E2E2E2E2E2E2E2E2E2E2E2E2E2E2E2E2E2E2E2E2E2E2E2E2E2
310
E2E2E2E2E2E2F5E2E2E2E2E2E2E2E2E2E2E2E2E2E2E2E2E2E2E2E2E2E2E2E2E2E2E2E2E2E2E2E2E2E2E2E2E2E2E2E2E2E2E2E2E2E2E2E2E2E2E2E2E2E2E2E2E2E2E2E2E2E2E2E2E2E2E2E2E2E2E2E2E2E2E2E2E2E2E2E2E2E2E2E2E2E2E2E2E2E2E2E2E2E2E2E2E2E2E2E2E2E2E2E2E2E2E2E2E2E2E2E2E2E2E2E2E2E2E2E2
310
E2E2E2E2E2E2E2E2E2E2E2E2E2E2E2E2E2E2E2E2E2E2E2E2E2E2E2E2E2E2E2E2E2E2E2E2E2E2E2E2E2E2E2E2E2E2E2E2E2E2E2E2E2E2E2E2E2F5F5E2E2E2E2E2E2E2E2E2E2E2E2E2E2E2E2E2E2E2E2E2E2E2E2E2E2E2E2E2E2E2E2E2E2E2E2E2E2E2E2E2E2E2E2E2E2E2E2E2E2E2E2E2E2E2E2E2E2E2E2E2E2E2E2E2E2E2E2
310
E2E2E2E2E2E2E2E2E2E2E2E2E2E2E2E2E2E2E2E2E2E2E2E2E2E2E2E2E2E2E2E2E2E2E2E2E2E2E2E2E2E2E2E2E2E2E2E2E2E2E2E2E2E2E2E2E2E2E2E2E2E2E2E2E2E2E2E2E2E2E2E2E2E2E2E2E2E2E2E2E2E2E2E2E2E2E2E2E2E2E2E2E2E2E2E2E2E2E2E2E2E2E2E2E2E2E2E2E2F5E2E2E2E2E2E2E2E2E2E2E2E2E2E2E2E2E2
310
E2E2E2E2E2E2E2E2E2E2E2E2E2E2E2E2E2E2E2E2E2E2E2E2E2E2E2E2E2E2E2E2E2E2E2E2E2E2E2E2E2E2E2E2E2E2E2E2E2E2E2E2E2E2E2E2E2E2E2E2E2E2E2E2E2E2E2E2E2E2E2E2E2E2E2E2E2E2E2E2E2E2E2E2E2E2E2E2E2E2E2E2E2E2E2E2E2E2E2E2E2E2E2E2E2E2E2E2E2E2E2E2E2E2E2E2E2E2E2E2E2E2E2E2E2E2E2
310
E2E2E2E2E2E2E2E2E2E2E2E2E2E2E2E2E2E2E2E2E2E2E2E2E2E2E2E2E2E2E2E2E2E2F5E2E2E2E2E2E2E2E2E2E2E2E2E2E2E2E2E2E2E2E2E2E2E2E2E2E2E2E2E2E2E2E2E2E2E2E2E2E2E2E2E2E2E2E2E2E2E2E2E2E2E2E2E2E2E2E2E2E2E2E2E2E2E2E2E2E2E2E2E2E2E2E2E2E2E2E2E2E2E2E2E2E2E2E2E2E2E2E2E2E2E2E2
310
E2E2E2E2E2E2E2E2E2E2E2E2E2E2E2E2E2E2E2E2E2E2E2E2E2E2E2E2E2E2E2E2E2E2E2E2E2E2E2E2E2E2E2E2E2E2E2E2E2E2E2E2E2E2E2E2E2E2E2E2E2E2E2E2E2E2E2E2E2E2E2E2E2E2E2E2E2E2E2E2E2E2E2E2E2E2F5E2E2E2E2E2E2E2E2E2E2E2E2E2E2E2E2E2E2E2E2E2E2E2E2E2E2E2E2E2E2E2E2E2E2E2E2E2E2E2E2
310
E2E2E2E2E2E2E2E2E2E2E2E2E2E2E2E2E2E2E2E2E2E2E2E2E2E2E2E2E2E2E2E2E2E2E2E2E2E2E2E2E2E2E2E2E2E2E2E2E2E2E2E2E2E2E2E2E2E2E2E2E2E2E2E2E2E2E2E2E2E2E2E2E2E2E2E2E2E2E2E2E2E2E2E2E2E2E2E2E2E2E2E2E2E2E2E2E2E2E2E2E2E2E2E2E2E2E2E2E2E2E2E2E2E2E2E2E2E2E2E2E2E2E2E2E2E2E2
310
E2E2E2E2E2E2E2E2E2E2E2F5E2E2E2E2E2E2E2E2E2E2E2E2E2E2E2E2E2E2E2E2E2E2E2E2E2E2E2E2E2E2E2E2E2E2E2E2E2E2E2E2E2E2E2E2E2E2E2E2E2E2E2E2E2E2E2E2E2E2E2E2E2E2E2E2E2E2E2E2E2E2E2E2E2E2E2E2E2E2E2E2E2E2E2E2E2E2E2E2E2E2E2E2E2E2E2E2E2E2E2E2E2E2E2E2E2E2E2E2E2E2E2E2E2E2E2
310
E2E2E2E2E2E2E2E2E2E2E2E2E2E2E2E2E2E2E2E2E2E2E2E2E2E2E2E2E2E2E2E2E2E2E2E2E2E2E2E2E2E2E2E2E2E2E2E2E2E2E2E2E2E2E2E2E2E2E2E2E2E2F5F5E2E2E2E2E2E2E2E2E2E2E2E2E2E2E2E2E2E2E2E2E2E2E2E2E2E2E2E2E2E2E2E2E2E2E2E2E2E2E2E2E2E2E2E2E2E2E2E2E2E2E2E2E2E2E2E2E2E2E2E2E2E2E2
310
E2E2E2E2E2E2E2E2E2E2E2E2E2E2E2E2E2E2E2E2E2E2E2E2E2E2E2E2E2E2E2E2E2E2E2E2E2E2E2E2E2E2E2E2E2E2E2E2E2E2E2E2E2E2E2E2E2E2E2E2E2E2E2E2E2E2E2E2E2E2E2E2E2E2E2E2E2E2E2E2E2E2E2E2E2E2E2E2E2E2E2E2E2E2E2E2E2E2E2E2E2E2E2E2E2E2E2E2E2E2E2E2E2E2F5E2E2E2E2E2E2E2E2E2E2E2E2
310
E2E2E2E2E2E2E2E2E2E2E2E2E2E2E2E2E2E2E2E2E2E2E2E2E2E2E2E2E2E2E2E2E2E2E2E2E2E2E2E2E2E2E2E2E2E2E2E2E2E2E2E2E2E2E2E2E2E2E2E2E2E2E2E2E2E2E2E2E2E2E2E2E2E2E2E2E2E2E2E2E2E2E2E2E2E2E2E2E2E2E2E2E2E2E2E2E2E2E2E2E2E2E2E2E2E2E2E2E2E2E2E2E2E2E2E2E2E2E2E2E2E2E2E2E2E2E2
310
E2E2E2E2E2E2E2E2E2E2E2E2E2E2E2E2E2E2E2E2E2E2E2E2E2E2E2E2E2E2E2E2E2E2E2E2E2E2E2F5E2E2E2E2E2E2E2E2E2E2E2E2E2E2E2E2E2E2E2E2E2E2E2E2E2E2E2E2E2E2E2E2E2E2E2E2E2E2E2E2E2E2E2E2E2E2E2E2E2E2E2E2E2E2E2E2E2E2E2E2E2E2E2E2E2E2E2E2E2E2E2E2E2E2E2E2E2E2E2E2E2E2E2E2E2E2E2
310
E2E2E2E2E2E2E2E2E2E2E2E2E2E2E2E2E2E2E2E2E2E2E2E2E2E2E2E2E2E2E2E2E2E2E2E2E2E2E2E2E2E2E2E2E2E2E2E2E2E2E2E2E2E2E2E2E2E2E2E2E2E2E2E2E2E2E2E2E2E2E2E2E2E2E2E2E2E2E2E2E2E2E2E2E2E2E2E2E2E2E2F5E2E2E2E2E2E2E2E2E2E2E2E2E2E2E2E2E2E2E2E2E2E2E2E2E2E2E2E2E2E2E2E2E2E2E2
310
E2E2E2E2E2E2E2E2E2E2E2E2E2E2E2E2E2E2E2E2E2E2E2E2E2E2E2E2E2E2E2E2E2E2E2E2E2E2E2E2E2E2E2E2E2E2E2E2E2E2E2E2E2E2E2E2E2E2E2E2E2E2E2E2E2E2E2E2E2E2E2E2E2E2E2E2E2E2E2E2E2E2E2E2E2E2E2E2E2E2E2E2E2E2E2E2E2E2E2E2E2E2E2E2E2E2E2E2E2E2E2E2E2E2E2E2E2E2E2E2E2E2E2E2E2E2E2
310
E2E2E2E2E2E2E2E2E2E2E2E2E2E2E2E2F5E2E2E2E2E2E2E2E2E2E2E2E2E2E2E2E2E2E2E2E2E2E2E2E2E2E2E2E2E2E2E2E2E2E2E2E2E2E2E2E2E2E2E2E2E2E2E2E2E2E2E2E2E2E2E2E2E2E2E2E2E2E2E2E2E2E2E2E2E2E2E2E2E2E2E2E2E2E2E2E2E2E2E2E2E2E2E2E2E2E2E2E2E2E2E2E2E2E2E2E2E2E2E2E2E2E2E2E2E2E2
310
E2E2E2E2E2E2E2E2E2E2E2E2E2E2E2E2E2E2E2E2E2E2E2E2E2E2E2E2E2E2E2E2E2E2E2E2E2E2E2E2E2E2E2E2E2E2E2E2E2E2E2E2E2E2E2E2E2E2E2E2E2E2E2E2E2E2E2F5F5E2E2E2E2E2E2E2E2E2E2E2E2E2E2E2E2E2E2E2E2E2E2E2E2E2E2E2E2E2E2E2E2E2E2E2E2E2E2E2E2E2E2E2E2E2E2E2E2E2E2E2E2E2E2E2E2E2E2
310
E2E2E2E2E2E2E2E2E2E2E2E2E2E2E2E2E2E2E2E2E2E2E2E2E2E2E2E2E2E2E2E2E2E2E2E2E2E2E2E2E2E2E2E2E2E2E2E2E2E2E2E2E2E2E2E2E2E2E2E2E2E2E2E2E2E2E2E2E2E2E2E2E2E2E2E2E2E2E2E2E2E2E2E2E2E2E2E2E2E2E2E2E2E2E2E2E2E2E2E2E2E2E2E2E2E2E2E2E2E2E2E2E2E2E2E2E2E2E2F5E2E2E2E2E2E2E2
310
E2E2E2E2E2E2E2E2E2E2E2E2E2E2E2E2E2E2E2E2E2E2E2E2E2E2E2E2E2E2E2E2E2E2E2E2E2E2E2E2E2E2E2E2E2E2E2E2E2E2E2E2E2E2E2E2E2E2E2E2E2E2E2E2E2E2E2E2E2E2E2E2E2E2E2E2E2E2E2E2E2E2E2E2E2E2E2E2E2E2E2E2E2E2E2E2E2E2E2E2E2E2E2E2E2E2E2E2E2E2E2E2E2E2E2E2E2E2E2E2E2E2E2E2E2E2E2
310
E2E2E2E2E2E2E2E2E2E2E2E2E2E2E2E2E2E2E2E2E2E2E2E2E2E2E2E2E2E2E2E2E2E2E2E2E2E2E2E2E2E2E2E2F5E2E2E2E2E2E2E2E2E2E2E2E2E2E2E2E2E2E2E2E2E2E2E2E2E2E2E2E2E2E2E2E2E2E2E2E2E2E2E2E2E2E2E2E2E2E2E2E2E2E2E2E2E2E2E2E2E2E2E2E2E2E2E2E2E2E2E2E2E2E2E2E2E2E2E2E2E2E2E2E2E2E2
310
E2E2E2E2E2E2E2E2E2E2E2E2E2E2E2E2E2E2E2E2E2E2E2E2E2E2E2E2E2E2E2E2E2E2E2E2E2E2E2E2E2E2E2E2E2E2E2E2E2E2E2E2E2E2E2E2E2E2E2E2E2E2E2E2E2E2E2E2E2E2E2E2E2E2E2E2E2E2E2E2E2E2E2E2E2E2E2E2E2E2E2E2E2E2E2E2F5E2E2E2E2E2E2E2E2E2E2E2E2E2E2E2E2E2E2E2E2E2E2E2E2E2E2E2E2E2E2
310
E2E2E2E2E2E2E2E2E2E2E2E2E2E2E2E2E2E2E2E2E2E2E2E2E2E2E2E2E2E2E2E2E2E2E2E2E2E2E2E2E2E2E2E2E2E2E2E2E2E2E2E2E2E2E2E2E2E2E2E2E2E2E2E2E2E2E2E2E2E2E2E2E2E2E2E2E2E2E2E2E2E2E2E2E2E2E2E2E2E2E2E2E2E2E2E2E2E2E2E2E2E2E2E2E2E2E2E2E2E2E2E2E2E2E2E2E2E2E2E2E2E2E2E2E2E2E2
310
E2E2E2E2E2E2E2E2E2E2E2E2E2E2E2E2E2E2E2E2E2F5E2E2E2E2E2E2E2E2E2E2E2E2E2E2E2E2E2E2E2E2E2E2E2E2E2E2E2E2E2E2E2E2E2E2E2E2E2E2E2E2E2E2E2E2E2E2E2E2E2E2E2E2E2E2E2E2E2E2E2E2E2E2E2E2E2E2E2E2E2E2E2E2E2E2E2E2E2E2E2E2E2E2E2E2E2E2E2E2E2E2E2E2E2E2E2E2E2E2E2E2E2E2E2E2E2
310
E2E2E2E2E2E2E2E2E2E2E2E2E2E2E2E2E2E2E2E2E2E2E2E2E2E2E2E2E2E2E2E2E2E2E2E2E2E2E2E2E2E2E2E2E2E2E2E2E2E2E2E2E2E2E2E2E2E2E2E2E2E2E2E2E2E2E2E2E2E2E2E2E2F5E2E2E2E2E2E2E2E2E2E2E2E2E2E2E2E2E2E2E2E2E2E2E2E2E2E2E2E2E2E2E2E2E2E2E2E2E2E2E2E2E2E2E2E2E2E2E2E2E2E2E2E2E2
310
E2E2E2E2E2E2E2E2E2E2E2E2E2E2E2E2E2E2E2E2E2E2E2E2E2E2E2E2E2E2E2E2E2E2E2E2E2E2E2E2E2E2E2E2E2E2E2E2E2E2E2E2E2E2E2E2E2E2E2E2E2E2E2E2E2E2E2E2E2E2E2E2E2E2E2E2E2E2E2E2E2E2E2E2E2E2E2E2E2E2E2E2E2E2E2E2E2E2E2E2E2E2E2E2E2E2E2E2E2E2E2E2E2E2E2E2E2E2E2E2E2E2E2E2F5F5E2
310
E2E2E2E2E2E2E2E2E2E2E2E2E2E2E2E2E2E2E2E2E2E2E2E2E2E2E2E2E2E2E2E2E2E2E2E2E2E2E2E2E2E2E2E2E2E2E2E2E2E2E2E2E2E2E2E2E2E2E2E2E2E2E2E2E2E2E2E2E2E2E2E2E2E2E2E2E2E2E2E2E2E2E2E2E2E2E2E2E2E2E2E2E2E2E2E2E2E2E2E2E2E2E2E2E2E2E2E2E2E2E2E2E2E2E2E2E2E2E2E2E2E2E2E2E2E2E2
310
E2E2E2E2E2E2E2E2E2E2E2E2E2E2E2E2E2E2E2E2E2E2E2E2E2E2E2E2E2E2E2E2E2E2E2E2E2E2E2E2E2E2E2E2E2E2E2E2E2F5E2E2E2E2E2E2E2E2E2E2E2E2E2E2E2E2E2E2E2E2E2E2E2E2E2E2E2E2E2E2E2E2E2E2E2E2E2E2E2E2E2E2E2E2E2E2E2E2E2E2E2E2E2E2E2E2E2E2E2E2E2E2E2E2E2E2E2E2E2E2E2E2E2E2E2E2E2
310
E2E2E2E2E2E2E2E2E2E2E2E2E2E2E2E2E2E2E2E2E2E2E2E2E2E2E2E2E2E2E2E2E2E2E2E2E2E2E2E2E2E2E2E2E2E2E2E2E2E2E2E2E2E2E2E2E2E2E2E2E2E2E2E2E2E2E2E2E2E2E2E2E2E2E2E2E2E2E2E2E2E2E2E2E2E2E2E2E2E2E2E2E2E2E2E2E2E2E2E2E2F5E2E2E2E2E2E2E2E2E2E2E2E2E2E2E2E2E2E2E2E2E2E2E2E2E2
310
E2E2E2E2E2E2E2E2E2E2E2E2E2E2E2E2E2E2E2E2E2E2E2E2E2E2E2E2E2E2E2E2E2E2E2E2E2E2E2E2E2E2E2E2E2E2E2E2E2E2E2E2E2E2E2E2E2E2E2E2E2E2E2E2E2E2E2E2E2E2E2E2E2E2E2E2E2E2E2E2E2E2E2E2E2E2E2E2E2E2E2E2E2E2E2E2E2E2E2E2E2E2E2E2E2E2E2E2E2E2E2E2E2E2E2E2E2E2E2E2E2E2E2E2E2E2E2
310
E2E2E2E2E2E2E2E2E2E2E2E2E2E2E2E2E2E2E2E2E2E2E2E2E2E2F5E2E2E2E2E2E2E2E2E2E2E2E2E2E2E2E2E2E2E2E2E2E2E2E2E2E2E2E2E2E2E2E2E2E2E2E2E2E2E2E2E2E2E2E2E2E2E2E2E2E2E2E2E2E2E2E2E2E2E2E2E2E2E2E2E2E2E2E2E2E2E2E2E2E2E2E2E2E2E2E2E2E2E2E2E2E2E2E2E2E2E2E2E2E2E2E2E2E2E2E2
310
E2E2E2E2E2E2E2E2E2E2E2E2E2E2E2E2E2E2E2E2E2E2E2E2E2E2E2E2E2E2E2E2E2E2E2E2E2E2E2E2E2E2E2E2E2E2E2E2E2E2E2E2E2E2E2E2E2E2E2E2E2E2E2E2E2E2E2E2E2E2E2E2E2E2E2E2E2E2F5E2E2E2E2E2E2E2E2E2E2E2E2E2E2E2E2E2E2E2E2E2E2E2E2E2E2E2E2E2E2E2E2E2E2E2E2E2E2E2E2E2E2E2E2E2E2E2E2
310
E2E2E2E2E2E2E2E2E2E2E2E2E2E2E2E2E2E2E2E2E2E2E2E2E2E2E2E2E2E2E2E2E2E2E2E2E2E2E2E2E2E2E2E2E2E2E2E2E2E2E2E2E2E2E2E2E2E2E2E2E2E2E2E2E2E2E2E2E2E2E2E2E2E2E2E2E2E2E2E2E2E2E2E2E2E2E2E2E2E2E2E2E2E2E2E2E2E2E2E2E2E2E2E2E2E2E2E2E2E2E2E2E2E2E2E2E2E2E2E2E2E2E2E2E2E2E2
310
E2E2F5F5E2E2E2E2E2E2E2E2E2E2E2E2E2E2E2E2E2E2E2E2E2E2E2E2E2E2E2E2E2E2E2E2E2E2E2E2E2E2E2E2E2E2E2E2E2E2E2E2E2E2E2E2E2E2E2E2E2E2E2E2E2E2E2E2E2E2E2E2E2E2E2E2E2E2E2E2E2E2E2E2E2E2E2E2E2E2E2E2E2E2E2E2E2E2E2E2E2E2E2E2E2E2E2E2E2E2E2E2E2E2E2E2E2E2E2E2E2E2E2E2E2E2E2
310
E2E2E2E2E2E2E2E2E2E2E2E2E2E2E2E2E2E2E2E2E2E2E2E2E2E2E2E2E2E2E2E2E2E2E2E2E2E2E2E2E2E2E2E2E2E2E2E2E2E2E2E2E2E2F5E2E2E2E2E2E2E2E2E2E2E2E2E2E2E2E2E2E2E2E2E2E2E2E2E2E2E2E2E2E2E2E2E2E2E2E2E2E2E2E2E2E2E2E2E2E2E2E2E2E2E2E2E2E2E2E2E2E2E2E2E2E2E2E2E2E2E2E2E2E2E2E2
310
E2E2E2E2E2E2E2E2E2E2E2E2E2E2E2E2E2E2E2E2E2E2E2E2E2E2E2E2E2E2E2E2E2E2E2E2E2E2E2E2E2E2E2E2E2E2E2E2E2E2E2E2E2E2E2E2E2E2E2E2E2E2E2E2E2E2E2E2E2E2E2E2E2E2E2E2E2E2E2E2E2E2E2E2E2E2E2E2E2E2E2E2E2E2E2E2E2E2E2E2E2E2E2E2E2E2F5E2E2E2E2E2E2E2E2E2E2E2E2E2E2E2E2E2E2E2E2
310
E2E2E2E2E2E2E2E2E2E2E2E2E2E2E2E2E2E2E2E2E2E2E2E2E2E2E2E2E2E2E2E2E2E2E2E2E2E2E2E2E2E2E2E2E2E2E2E2E2E2E2E2E2E2E2E2E2E2E2E2E2E2E2E2E2E2E2E2E2E2E2E2E2E2E2E2E2E2E2E2E2E2E2E2E2E2E2E2E2E2E2E2E2E2E2E2E2E2E2E2E2E2E2E2E2E2E2E2E2E2E2E2E2E2E2E2E2E2E2E2E2E2E2E2E2E2E2
310
E2E2E2E2E2E2E2E2E2E2E2E2E2E2E2E2E2E2E2E2E2E2E2E2E2E2E2E2E2E2E2F5E2E2E2E2E2E2E2E2E2E2E2E2E2E2E2E2E2E2E2E2E2E2E2E2E2E2E2E2E2E2E2E2E2E2E2E2E2E2E2E2E2E2E2E2E2E2E2E2E2E2E2E2E2E2E2E2E2E2E2E2E2E2E2E2E2E2E2E2E2E2E2E2E2E2E2E2E2E2E2E2E2E2E2E2E2E2E2E2E2E2E2E2E2E2E2
310
E2E2E2E2E2E2E2E2E2E2E2E2E2E2E2E2E2E2E2E2E2E2E2E2E2E2E2E2E2E2E2E2E2E2E2E2E2E2E2E2E2E2E2E2E2E2E2E2E2E2E2E2E2E2E2E2E2E2E2E2E2E2E2E2E2E2E2E2E2E2E2E2E2E2E2E2E2E2E2E2E2E2E2F5E2E2E2E2E2E2E2E2E2E2E2E2E2E2E2E2E2E2E2E2E2E2E2E2E2E2E2E2E2E2E2E2E2E2E2E2E2E2E2E2E2E2E2
310
E2E2E2E2E2E2E2E2E2E2E2E2E2E2E2E2E2E2E2E2E2E2E2E2E2E2E2E2E2E2E2E2E2E2E2E2E2E2E2E2E2E2E2E2E2E2E2E2E2E2E2E2E2E2E2E2E2E2E2E2E2E2E2E2E2E2E2E2E2E2E2E2E2E2E2E2E2E2E2E2E2E2E2E2E2E2E2E2E2E2E2E2E2E2E2E2E2E2E2E2E2E2E2E2E2E2E2E2E2E2E2E2E2E2E2E2E2E2E2E2E2E2E2E2E2E2E2
310
E2E2E2E2E2E2E2F5F5E2E2E2E2E2E2E2E2E2E2E2E2E2E2E2E2E2E2E2E2E2E2E2E2E2E2E2E2E2E2E2E2E2E2E2E2E2E2E2E2E2E2E2E2E2E2E2E2E2E2E2E2E2E2E2E2E2E2E2E2E2E2E2E2E2E2E2E2E2E2E2E2E2E2E2E2E2E2E2E2E2E2E2E2E2E2E2E2E2E2E2E2E2E2E2E2E2E2E2E2E2E2E2E2E2E2E2E2E2E2E2E2E2E2E2E2E2E2
310
E2E2E2E2E2E2E2E2E2E2E2E2E2E2E2E2E2E2E2E2E2E2E2E2E2E2E2E2E2E2E2E2E2E2E2E2E2E2E2E2E2E2E2E2E2E2E2E2E2E2E2E2E2E2E2E2E2E2E2F5E2E2E2E2E2E2E2E2E2E2E2E2E2E2E2E2E2E2E2E2E2E2E2E2E2E2E2E2E2E2E2E2E2E2E2E2E2E2E2E2E2E2E2E2E2E2E2E2E2E2E2E2E2E2E2E2E2E2E2E2E2E2E2E2E2E2E2
310
E2E2E2E2E2E2E2E2E2E2E2E2E2E2E2E2E2E2E2E2E2E2E2E2E2E2E2E2E2E2E2E2E2E2E2E2E2E2E2E2E2E2E2E2E2E2E2E2E2E2E2E2E2E2E2E2E2E2E2E2E2E2E2E2E2E2E2E2E2E2E2E2E2E2E2E2E2E2E2E2E2E2E2E2E2E2E2E2E2E2E2E2E2E2E2E2E2E2E2E2E2E2E2E2E2E2E2E2E2E2E2F5E2E2E2E2E2E2E2E2E2E2E2E2E2E2E2
310
E2E2E2E2E2E2E2E2E2E2E2E2E2E2E2E2E2E2E2E2E2E2E2E2E2E2E2E2E2E2E2E2E2E2E2E2E2E2E2E2E2E2E2E2E2E2E2E2E2E2E2E2E2E2E2E2E2E2E2E2E2E2E2E2E2E2E2E2E2E2E2E2E2E2E2E2E2E2E2E2E2E2E2E2E2E2E2E2E2E2E2E2E2E2E2E2E2E2E2E2E2E2E2E2E2E2E2E2E2E2E2E2E2E2E2E2E2E2E2E2E2E2E2E2E2E2E2
310
E2E2E2E2E2E2E2E2E2E2E2E2E2E2E2E2E2E2E2E2E2E2E2E2E2E2E2E2E2E2E2E2E2E2E2E2F5E2E2E2E2E2E2E2E2E2E2E2E2E2E2E2E2E2E2E2E2E2E2E2E2E2E2E2E2E2E2E2E2E2E2E2E2E2E2E2E2E2E2E2E2E2E2E2E2E2E2E2E2E2E2E2E2E2E2E2E2E2E2E2E2E2E2E2E2E2E2E2E2E2E2E2E2E2E2E2E2E2E2E2E2E2E2E2E2E2E2
310
E2E2E2E2E2E2E2E2E2E2E2E2E2E2E2E2E2E2E2E2E2E2E2E2E2E2E2E2E2E2E2E2E2E2E2E2E2E2E2E2E2E2E2E2E2E2E2E2E2E2E2E2E2E2E2E2E2E2E2E2E2E2E2E2E2E2E2E2E2E2E2E2E2E2E2E2E2E2E2E2E2E2E2E2E2E2E2F5F5E2E2E2E2E2E2E2E2E2E2E2E2E2E2E2E2E2E2E2E2E2E2E2E2E2E2E2E2E2E2E2E2E2E2E2E2E2E2
310
E2E2E2E2E2E2E2E2E2E2E2E2E2E2E2E2E2E2E2E2E2E2E2E2E2E2E2E2E2E2E2E2E2E2E2E2E2E2E2E2E2E2E2E2E2E2E2E2E2E2E2E2E2E2E2E2E2E2E2E2E2E2E2E2E2E2E2E2E2E2E2E2E2E2E2E2E2E2E2E2E2E2E2E2E2E2E2E2E2E2E2E2E2E2E2E2E2E2E2E2E2E2E2E2E2E2E2E2E2E2E2E2E2E2E2E2E2E2E2E2E2E2E2E2E2E2E2
310
E2E2E2E2E2E2E2E2E2E2E2E2F5E2E2E2E2E2E2E2E2E2E2E2E2E2E2E2E2E2E2E2E2E2E2E2E2E2E2E2E2E2E2E2E2E2E2E2E2E2E2E2E2E2E2E2E2E2E2E2E2E2E2E2E2E2E2E2E2E2E2E2E2E2E2E2E2E2E2E2E2E2E2E2E2E2E2E2E2E2E2E2E2E2E2E2E2E2E2E2E2E2E2E2E2E2E2E2E2E2E2E2E2E2E2E2E2E2E2E2E2E2E2E2E2E2E2
310
E2E2E2E2E2E2E2E2E2E2E2E2E2E2E2E2E2E2E2E2E2E2E2E2E2E2E2E2E2E2E2E2E2E2E2E2E2E2E2E2E2E2E2E2E2E2E2E2E2E2E2E2E2E2E2E2E2E2E2E2E2E2E2F5F5E2E2E2E2E2E2E2E2E2E2E2E2E2E2E2E2E2E2E2E2E2E2E2E2E2E2E2E2E2E2E2E2E2E2E2E2E2E2E2E2E2E2E2E2E2E2E2E2E2E2E2E2E2E2E2E2E2E2E2E2E2E2
310
E2E2E2E2E2E2E2E2E2E2E2E2E2E2E2E2E2E2E2E2E2E2E2E2E2E2E2E2E2E2E2E2E2E2E2E2E2E2E2E2E2E2E2E2E2E2E2E2E2E2E2E2E2E2E2E2E2E2E2E2E2E2E2E2E2E2E2E2E2E2E2E2E2E2E2E2E2E2E2E2E2E2E2E2E2E2E2E2E2E2E2E2E2E2E2E2E2E2E2E2E2E2E2E2E2E2E2E2E2E2E2E2E2E2F5F5E2E2E2E2E2E2E2E2E2E2E2
310
E2E2E2E2E2E2E2E2E2E2E2E2E2E2E2E2E2E2E2E2E2E2E2E2E2E2E2E2E2E2E2E2E2E2E2E2E2E2E2E2E2E2E2E2E2E2E2E2E2E2E2E2E2E2E2E2E2E2E2E2E2E2E2E2E2E2E2E2E2E2E2E2E2E2E2E2E2E2E2E2E2E2E2E2E2E2E2E2E2E2E2E2E2E2E2E2E2E2E2E2E2E2E2E2E2E2E2E2E2E2E2E2E2E2E2E2E2E2E2E2E2E2E2E2E2E2E2
310
E2E2E2E2E2E2E2E2E2E2E2E2E2E2E2E2E2E2E2E2E2E2E2E2E2E2E2E2E2E2E2E2E2E2E2E2E2E2E2F5E2E2E2E2E2E2E2E2E2E2E2E2E2E2E2E2E2E2E2E2E2E2E2E2E2E2E2E2E2E2E2E2E2E2E2E2E2E2E2E2E2E2E2E2E2E2E2E2E2E2E2E2E2E2E2E2E2E2E2E2E2E2E2E2E2E2E2E2E2E2E2E2E2E2E2E2E2E2E2E2E2E2E2E2E2E2E2
310
E2E2E2E2E2E2E2E2E2E2E2E2E2E2E2E2E2E2E2E2E2E2E2E2E2E2E2E2E2E2E2E2E2E2E2E2E2E2E2E2E2E2E2E2E2E2E2E2E2E2E2E2E2E2E2E2E2E2E2E2E2E2E2E2E2E2E2E2E2E2E2E2E2E2E2E2E2E2E2E2E2E2E2E2E2E2E2E2E2E2F5F5E2E2E2E2E2E2E2E2E2E2E2E2E2E2E2E2E2E2E2E2E2E2E2E2E2E2E2E2E2E2E2E2E2E2E2
310
E2E2E2E2E2E2E2E2E2E2E2E2E2E2E2E2E2E2E2E2E2E2E2E2E2E2E2E2E2E2E2E2E2E2E2E2E2E2E2E2E2E2E2E2E2E2E2E2E2E2E2E2E2E2E2E2E2E2E2E2E2E2E2E2E2E2E2E2E2E2E2E2E2E2E2E2E2E2E2E2E2E2E2E2E2E2E2E2E2E2E2E2E2E2E2E2E2E2E2E2E2E2E2E2E2E2E2E2E2E2E2E2E2E2E2E2E2E2E2E2E2E2E2E2E2E2E2
310
E2E2E2E2E2E2E2E2E2E2E2E2E2E2E2F5E2E2E2E2E2E2E2E2E2E2E2E2E2E2E2E2E2E2E2E2E2E2E2E2E2E2E2E2E2E2E2E2E2E2E2E2E2E2E2E2E2E2E2E2E2E2E2E2E2E2E2E2E2E2E2E2E2E2E2E2E2E2E2E2E2E2E2E2E2E2E2E2E2E2E2E2E2E2E2E2E2E2E2E2E2E2E2E2E2E2E2E2E2E2E2E2E2E2E2E2E2E2E2E2E2E2E2E2E2E2E2
310
E2E2E2E2E2E2E2E2E2E2E2E2E2E2E2E2E2E2E2E2E2E2E2E2E2E2E2E2E2E2E2E2E2E2E2E2E2E2E2E2E2E2E2E2E2E2E2E2E2E2E2E2E2E2E2E2E2E2E2E2E2E2E2E2E2E2F5F5E2E2E2E2E2E2E2E2E2E2E2E2E2E2E2E2E2E2E2E2E2E2E2E2E2E2E2E2E2E2E2E2E2E2E2E2E2E2E2E2E2E2E2E2E2E2E2E2E2E2E2E2E2E2E2E2E2E2E2
310
E2E2E2E2E2E2E2E2E2E2E2E2E2E2E2E2E2E2E2E2E2E2E2E2E2E2E2E2E2E2E2E2E2E2E2E2E2E2E2E2E2E2E2E2E2E2E2E2E2E2E2E2E2E2E2E2E2E2E2E2E2E2E2E2E2E2E2E2E2E2E2E2E2E2E2E2E2E2E2E2E2E2E2E2E2E2E2E2E2E2E2E2E2E2E2E2E2E2E2E2E2E2E2E2E2E2E2E2E2E2E2E2E2E2E2E2E2F5F5E2E2E2E2E2E2E2E2
310
E2E2E2E2E2E2E2E2E2E2E2E2E2E2E2E2E2E2E2E2E2E2E2E2E2E2E2E2E2E2E2E2E2E2E2E2E2E2E2E2E2E2E2E2E2E2E2E2E2E2E2E2E2E2E2E2E2E2E2E2E2E2E2E2E2E2E2E2E2E2E2E2E2E2E2E2E2E2E2E2E2E2E2E2E2E2E2E2E2E2E2E2E2E2E2E2E2E2E2E2E2E2E2E2E2E2E2E2E2E2E2E2E2E2E2E2E2E2E2E2E2E2E2E2E2E2E2
310
E2E2E2E2E2E2E2E2E2E2E2E2E2E2E2E2E2E2E2E2E2E2E2E2E2E2E2E2E2E2E2E2E2E2E2E2E2E2E2E2E2E2F5E2E2E2E2E2E2E2E2E2E2E2E2E2E2E2E2E2E2E2E2E2E2E2E2E2E2E2E2E2E2E2E2E2E2E2E2E2E2E2E2E2E2E2E2E2E2E2E2E2E2E2E2E2E2E2E2E2E2E2E2E2E2E2E2E2E2E2E2E2E2E2E2E2E2E2E2E2E2E2E2E2E2E2E2
310
E2E2E2E2E2E2E2E2E2E2E2E2E2E2E2E2E2E2E2E2E2E2E2E2E2E2E2E2E2E2E2E2E2E2E2E2E2E2E2E2E2E2E2E2E2E2E2E2E2E2E2E2E2E2E2E2E2E2E2E2E2E2E2E2E2E2E2E2E2E2E2E2E2E2E2E2E2E2E2E2E2E2E2E2E2E2E2E2E2E2E2E2E2F5F5E2E2E2E2E2E2E2E2E2E2E2E2E2E2E2E2E2E2E2E2E2E2E2E2E2E2E2E2E2E2E2E2
310
E2E2E2E2E2E2E2E2E2E2E2E2E2E2E2E2E2E2E2E2E2E2E2E2E2E2E2E2E2E2E2E2E2E2E2E2E2E2E2E2E2E2E2E2E2E2E2E2E2E2E2E2E2E2E2E2E2E2E2E2E2E2E2E2E2E2E2E2E2E2E2E2E2E2E2E2E2E2E2E2E2E2E2E2E2E2E2E2E2E2E2E2E2E2E2E2E2E2E2E2E2E2E2E2E2E2E2E2E2E2E2E2E2E2E2E2E2E2E2E2E2E2E2E2E2E2E2
310
E2E2E2E2E2E2E2E2E2E2E2E2E2E2E2E2E2E2F5E2E2E2E2E2E2E2E2E2E2E2E2E2E2E2E2E2E2E2E2E2E2E2E2E2E2E2E2E2E2E2E2E2E2E2E2E2E2E2E2E2E2E2E2E2E2E2E2E2E2E2E2E2E2E2E2E2E2E2E2E2E2E2E2E2E2E2E2E2E2E2E2E2E2E2E2E2E2E2E2E2E2E2E2E2E2E2E2E2E2E2E2E2E2E2E2E2E2E2E2E2E2E2E2E2E2E2E2
310
E2E2E2E2E2E2E2E2E2E2E2E2E2E2E2E2E2E2E2E2E2E2E2E2E2E2E2E2E2E2E2E2E2E2E2E2E2E2E2E2E2E2E2E2E2E2E2E2E2E2E2E2E2E2E2E2E2E2E2E2E2E2E2E2E2E2E2E2E2F5F5E2E2E2E2E2E2E2E2E2E2E2E2E2E2E2E2E2E2E2E2E2E2E2E2E2E2E2E2E2E2E2E2E2E2E2E2E2E2E2E2E2E2E2E2E2E2E2E2E2E2E2E2E2E2E2E2
310
E2E2E2E2E2E2E2E2E2E2E2E2E2E2E2E2E2E2E2E2E2E2E2E2E2E2E2E2E2E2E2E2E2E2E2E2E2E2E2E2E2E2E2E2E2E2E2E2E2E2E2E2E2E2E2E2E2E2E2E2E2E2E2E2E2E2E2E2E2E2E2E2E2E2E2E2E2E2E2E2E2E2E2E2E2E2E2E2E2E2E2E2E2E2E2E2E2E2E2E2E2E2E2E2E2E2E2E2E2E2E2E2E2E2E2E2E2E2E2E2E2F5E2E2E2E2E2
310
E2E2E2E2E2E2E2E2E2E2E2E2E2E2E2E2E2E2E2E2E2E2E2E2E2E2E2E2E2E2E2E2E2E2E2E2E2E2E2E2E2E2E2E2E2E2E2E2E2E2E2E2E2E2E2E2E2E2E2E2E2E2E2E2E2E2E2E2E2E2E2E2E2E2E2E2E2E2E2E2E2E2E2E2E2E2E2E2E2E2E2E2E2E2E2E2E2E2E2E2E2E2E2E2E2E2E2E2E2E2E2E2E2E2E2E2E2E2E2E2E2E2E2E2E2E2E2
310
E2E2E2E2E2E2E2E2E2E2E2E2E2E2E2E2E2E2E2E2E2E2E2E2E2E2E2E2E2E2E2E2E2E2E2E2E2E2E2E2E2E2E2E2E2F5F5E2E2E2E2E2E2E2E2E2E2E2E2E2E2E2E2E2E2E2E2E2E2E2E2E2E2E2E2E2E2E2E2E2E2E2E2E2E2E2E2E2E2E2E2E2E2E2E2E2E2E2E2E2E2E2E2E2E2E2E2E2E2E2E2E2E2E2E2E2E2E2E2E2E2E2E2E2E2E2E2
310
E2E2E2E2E2E2E2E2E2E2E2E2E2E2E2E2E2E2E2E2E2E2E2E2E2E2E2E2E2E2E2E2E2E2E2E2E2E2E2E2E2E2E2E2E2E2E2E2E2E2E2E2E2E2E2E2E2E2E2E2E2E2E2E2E2E2E2E2E2E2E2E2E2E2E2E2E2E2E2E2E2E2E2E2E2E2E2E2E2E2E2E2E2E2E2E2F5F5E2E2E2E2E2E2E2E2E2E2E2E2E2E2E2E2E2E2E2E2E2E2E2E2E2E2E2E2E2
310
E2E2E2E2E2E2E2E2E2E2E2E2E2E2E2E2E2E2E2E2E2E2E2E2E2E2E2E2E2E2E2E2E2E2E2E2E2E2E2E2E2E2E2E2E2E2E2E2E2E2E2E2E2E2E2E2E2E2E2E2E2E2E2E2E2E2E2E2E2E2E2E2E2E2E2E2E2E2E2E2E2E2E2E2E2E2E2E2E2E2E2E2E2E2E2E2E2E2E2E2E2E2E2E2E2E2E2E2E2E2E2E2E2E2E2E2E2E2E2E2E2E2E2E2E2E2E2
310
E2E2E2E2E2E2E2E2E2E2E2E2E2E2E2E2E2E2E2E2E2F5E2E2E2E2E2E2E2E2E2E2E2E2E2E2E2E2E2E2E2E2E2E2E2E2E2E2E2E2E2E2E2E2E2E2E2E2E2E2E2E2E2E2E2E2E2E2E2E2E2E2E2E2E2E2E2E2E2E2E2E2E2E2E2E2E2E2E2E2E2E2E2E2E2E2E2E2E2E2E2E2E2E2E2E2E2E2E2E2E2E2E2E2E2E2E2E2E2E2E2E2E2E2E2E2E2
310
E2E2E2E2E2E2E2E2E2E2E2E2E2E2E2E2E2E2E2E2E2E2E2E2E2E2E2E2E2E2E2E2E2E2E2E2E2E2E2E2E2E2E2E2E2E2E2E2E2E2E2E2E2E2E2E2E2E2E2E2E2E2E2E2E2E2E2E2E2E2E2E2F5F5E2E2E2E2E2E2E2E2E2E2E2E2E2E2E2E2E2E2E2E2E2E2E2E2E2E2E2E2E2E2E2E2E2E2E2E2E2E2E2E2E2E2E2E2E2E2E2E2E2E2E2E2E2
310
E2E2E2E2E2E2E2E2E2E2E2E2E2E2E2E2E2E2E2E2E2E2E2E2E2E2E2E2E2E2E2E2E2E2E2E2E2E2E2E2E2E2E2E2E2E2E2E2E2E2E2E2E2E2E2E2E2E2E2E2E2E2E2E2E2E2E2E2E2E2E2E2E2E2E2E2E2E2E2E2E2E2E2E2E2E2E2E2E2E2E2E2E2E2E2E2E2E2E2E2E2E2E2E2E2E2E2E2E2E2E2E2E2E2E2E2E2E2E2E2E2E2E2E2F5E2E2
310
E2E2E2E2E2E2E2E2E2E2E2E2E2E2E2E2E2E2E2E2E2E2E2E2E2E2E2E2E2E2E2E2E2E2E2E2E2E2E2E2E2E2E2E2E2E2E2E2E2E2E2E2E2E2E2E2E2E2E2E2E2E2E2E2E2E2E2E2E2E2E2E2E2E2E2E2E2E2E2E2E2E2E2E2E2E2E2E2E2E2E2E2E2E2E2E2E2E2E2E2E2E2E2E2E2E2E2E2E2E2E2E2E2E2E2E2E2E2E2E2E2E2E2E2E2E2E2
310
E2E2E2E2E2E2E2E2E2E2E2E2E2E2E2E2E2E2E2E2E2E2E2E2E2E2E2E2E2E2E2E2E2E2E2E2E2E2E2E2E2E2E2E2E2E2E2E2F5F5E2E2E2E2E2E2E2E2E2E2E2E2E2E2E2E2E2E2E2E2E2E2E2E2E2E2E2E2E2E2E2E2E2E2E2E2E2E2E2E2E2E2E2E2E2E2E2E2E2E2E2E2E2E2E2E2E2E2E2E2E2E2E2E2E2E2E2E2E2E2E2E2E2E2E2E2E2
310
E2E2E2E2E2E2E2E2E2E2E2E2E2E2E2E2E2E2E2E2E2E2E2E2E2E2E2E2E2E2E2E2E2E2E2E2E2E2E2E2E2E2E2E2E2E2E2E2E2E2E2E2E2E2E2E2E2E2E2E2E2E2E2E2E2E2E2E2E2E2E2E2E2E2E2E2E2E2E2E2E2E2E2E2E2E2E2E2E2E2E2E2E2E2E2E2E2E2E2E2F5E2E2E2E2E2E2E2E2E2E2E2E2E2E2E2E2E2E2E2E2E2E2E2E2E2E2
310
E2E2E2E2E2E2E2E2E2E2E2E2E2E2E2E2E2E2E2E2E2E2E2E2E2E2E2E2E2E2E2E2E2E2E2E2E2E2E2E2E2E2E2E2E2E2E2E2E2E2E2E2E2E2E2E2E2E2E2E2E2E2E2E2E2E2E2E2E2E2E2E2E2E2E2E2E2E2E2E2E2E2E2E2E2E2E2E2E2E2E2E2E2E2E2E2E2E2E2E2E2E2E2E2E2E2E2E2E2E2E2E2E2E2E2E2E2E2E2E2E2E2E2E2E2E2E2
310
E2E2E2E2E2E2E2E2E2E2E2E2E2E2E2E2E2E2E2E2E2E2E2E2F5F5E2E2E2E2E2E2E2E2E2E2E2E2E2E2E2E2E2E2E2E2E2E2E2E2E2E2E2E2E2E2E2E2E2E2E2E2E2E2E2E2E2E2E2E2E2E2E2E2E2E2E2E2E2E2E2E2E2E2E2E2E2E2E2E2E2E2E2E2E2E2E2E2E2E2E2E2E2E2E2E2E2E2E2E2E2E2E2E2E2E2E2E2E2E2E2E2E2E2E2E2E2
310
E2E2E2E2E2E2E2E2E2E2E2E2E2E2E2E2E2E2E2E2E2E2E2E2E2E2E2E2E2E2E2E2E2E2E2E2E2E2E2E2E2E2E2E2E2E2E2E2E2E2E2E2E2E2E2E2E2E2E2E2E2E2E2E2E2E2E2E2E2E2E2E2E2E2E2F5F5E2E2E2E2E2E2E2E2E2E2E2E2E2E2E2E2E2E2E2E2E2E2E2E2E2E2E2E2E2E2E2E2E2E2E2E2E2E2E2E2E2E2E2E2E2E2E2E2E2E2
310
E2E2E2E2E2E2E2E2E2E2E2E2E2E2E2E2E2E2E2E2E2E2E2E2E2E2E2E2E2E2E2E2E2E2E2E2E2E2E2E2E2E2E2E2E2E2E2E2E2E2E2E2E2E2E2E2E2E2E2E2E2E2E2E2E2E2E2E2E2E2E2E2E2E2E2E2E2E2E2E2E2E2E2E2E2E2E2E2E2E2E2E2E2E2E2E2E2E2E2E2E2E2E2E2E2E2E2E2E2E2E2E2E2E2E2E2E2E2E2E2E2E2E2E2E2E2E2
310
F5E2E2E2E2E2E2E2E2E2E2E2E2E2E2E2E2E2E2E2E2E2E2E2E2E2E2E2E2E2E2E2E2E2E2E2E2E2E2E2E2E2E2E2E2E2E2E2E2E2E2E2E2E2E2E2E2E2E2E2E2E2E2E2E2E2E2E2E2E2E2E2E2E2E2E2E2E2E2E2E2E2E2E2E2E2E2E2E2E2E2E2E2E2E2E2E2E2E2E2E2E2E2E2E2E2E2E2E2E2E2E2E2E2E2E2E2E2E2E2E2E2E2E2E2E2E2
310
E2E2E2E2E2E2E2E2E2E2E2E2E2E2E2E2E2E2E2E2E2E2E2E2E2E2E2E2E2E2E2E2E2E2E2E2E2E2E2E2E2E2E2E2E2E2E2E2E2E2E2F5F5E2E2E2E2E2E2E2E2E2E2E2E2E2E2E2E2E2E2E2E2E2E2E2E2E2E2E2E2E2E2E2E2E2E2E2E2E2E2E2E2E2E2E2E2E2E2E2E2E2E2E2E2E2E2E2E2E2E2E2E2E2E2E2E2E2E2E2E2E2E2E2E2E2E2
310
E2E2E2E2E2E2E2E2E2E2E2E2E2E2E2E2E2E2E2E2E2E2E2E2E2E2E2E2E2E2E2E2E2E2E2E2E2E2E2E2E2E2E2E2E2E2E2E2E2E2E2E2E2E2E2E2E2E2E2E2E2E2E2E2E2E2E2E2E2E2E2E2E2E2E2E2E2E2E2E2E2E2E2E2E2E2E2E2E2E2E2E2E2E2E2E2E2E2E2E2E2E2E2F5E2E2E2E2E2E2E2E2E2E2E2E2E2E2E2E2E2E2E2E2E2E2E2
310
E2E2E2E2E2E2E2E2E2E2E2E2E2E2E2E2E2E2E2E2E2E2E2E2E2E2E2E2E2E2E2E2E2E2E2E2E2E2E2E2E2E2E2E2E2E2E2E2E2E2E2E2E2E2E2E2E2E2E2E2E2E2E2E2E2E2E2E2E2E2E2E2E2E2E2E2E2E2E2E2E2E2E2E2E2E2E2E2E2E2E2E2E2E2E2E2E2E2E2E2E2E2E2E2E2E2E2E2E2E2E2E2E2E2E2E2E2E2E2E2E2E2E2E2E2E2E2
310
E2E2E2E2E2E2E2E2E2E2E2E2E2E2E2E2E2E2E2E2E2E2E2E2E2E2E2F5F5E2E2E2E2E2E2E2E2E2E2E2E2E2E2E2E2E2E2E2E2E2E2E2E2E2E2E2E2E2E2E2E2E2E2E2E2E2E2E2E2E2E2E2E2E2E2E2E2E2E2E2E2E2E2E2E2E2E2E2E2E2E2E2E2E2E2E2E2E2E2E2E2E2E2E2E2E2E2E2E2E2E2E2E2E2E2E2E2E2E2E2E2E2E2E2E2E2E2
310
E2E2E2E2E2E2E2E2E2E2E2E2E2E2E2E2E2E2E2E2E2E2E2E2E2E2E2E2E2E2E2E2E2E2E2E2E2E2E2E2E2E2E2E2E2E2E2E2E2E2E2E2E2E2E2E2E2E2E2E2E2E2E2E2E2E2E2E2E2E2E2E2E2E2E2E2E2E2F5F5E2E2E2E2E2E2E2E2E2E2E2E2E2E2E2E2E2E2E2E2E2E2E2E2E2E2E2E2E2E2E2E2E2E2E2E2E2E2E2E2E2E2E2E2E2E2E2
310
E2E2E2E2E2E2E2E2E2E2E2E2E2E2E2E2E2E2E2E2E2E2E2E2E2E2E2E2E2E2E2E2E2E2E2E2E2E2E2E2E2E2E2E2E2E2E2E2E2E2E2E2E2E2E2E2E2E2E2E2E2E2E2E2E2E2E2E2E2E2E2E2E2E2E2E2E2E2E2E2E2E2E2E2E2E2E2E2E2E2E2E2E2E2E2E2E2E2E2E2E2E2E2E2E2E2E2E2E2E2E2E2E2E2E2E2E2E2E2E2E2E2E2E2E2E2E2
310
E2E2E2F5E2E2E2E2E2E2E2E2E2E2E2E2E2E2E2E2E2E2E2E2E2E2E2E2E2E2E2E2E2E2E2E2E2E2E2E2E2E2E2E2E2E2E2E2E2E2E2E2E2E2E2E2E2E2E2E2E2E2E2E2E2E2E2E2E2E2E2E2E2E2E2E2E2E2E2E2E2E2E2E2E2E2E2E2E2E2E2E2E2E2E2E2E2E2E2E2E2E2E2E2E2E2E2E2E2E2E2E2E2E2E2E2E2E2E2E2E2E2E2E2E2E2E2
310
E2E2E2E2E2E2E2E2E2E2E2E2E2E2E2E2E2E2E2E2E2E2E2E2E2E2E2E2E2E2E2E2E2E2E2E2E2E2E2E2E2E2E2E2E2E2E2E2E2E2E2E2E2E2F5F5E2E2E2E2E2E2E2E2E2E2E2E2E2E2E2E2E2E2E2E2E2E2E2E2E2E2E2E2E2E2E2E2E2E2E2E2E2E2E2E2E2E2E2E2E2E2E2E2E2E2E2E2E2E2E2E2E2E2E2E2E2E2E2E2E2E2E2E2E2E2E2
310
E2E2E2E2E2E2E2E2E2E2E2E2E2E2E2E2E2E2E2E2E2E2E2E2E2E2E2E2E2E2E2E2E2E2E2E2E2E2E2E2E2E2E2E2E2E2E2E2E2E2E2E2E2E2E2E2E2E2E2E2E2E2E2E2E2E2E2E2E2E2E2E2E2E2E2E2E2E2E2E2E2E2E2E2E2E2E2E2E2E2E2E2E2E2E2E2E2E2E2E2E2E2E2E2E2F5F5E2E2E2E2E2E2E2E2E2E2E2E2E2E2E2E2E2E2E2E2
310
E2E2E2E2E2E2E2E2E2E2E2E2E2E2E2E2E2E2E2E2E2E2E2E2E2E2E2E2E2E2E2E2E2E2E2E2E2E2E2E2E2E2E2E2E2E2E2E2E2E2E2E2E2E2E2E2E2E2E2E2E2E2E2E2E2E2E2E2E2E2E2E2E2E2E2E2E2E2E2E2E2E2E2E2E2E2E2E2E2E2E2E2E2E2E2E2E2E2E2E2E2E2E2E2E2E2E2E2E2E2E2E2E2E2E2E2E2E2E2E2E2E2E2E2E2E2E2
310
E2E2E2E2E2E2E2E2E2E2E2E2E2E2E2E2E2E2E2E2E2E2E2E2E2E2E2E2E2F5F5E2E2E2E2E2E2E2E2E2E2E2E2E2E2E2E2E2E2E2E2E2E2E2E2E2E2E2E2E2E2E2E2E2E2E2E2E2E2E2E2E2E2E2E2E2E2E2E2E2E2E2E2E2E2E2E2E2E2E2E2E2E2E2E2E2E2E2E2E2E2E2E2E2E2E2E2E2E2E2E2E2E2E2E2E2E2E2E2E2E2E2E2E2E2E2E2
310
E2E2E2E2E2E2E2E2E2E2E2E2E2E2E2E2E2E2E2E2E2E2E2E2E2E2E2E2E2E2E2E2E2E2E2E2E2E2E2E2E2E2E2E2E2E2E2E2E2E2E2E2E2E2E2E2E2E2E2E2E2E2E2E2E2E2E2E2E2E2E2E2E2E2E2E2E2E2E2F5F5F5E2E2E2E2E2E2E2E2E2E2E2E2E2E2E2E2E2E2E2E2E2E2E2E2E2E2E2E2E2E2E2E2E2E2E2E2E2E2E2E2E2E2E2E2E2
310
E2E2E2E2E2E2E2E2E2E2E2E2E2E2E2E2E2E2E2E2E2E2E2E2E2E2E2E2E2E2E2E2E2E2E2E2E2E2E2E2E2E2E2E2E2E2E2E2E2E2E2E2E2E2E2E2E2E2E2E2E2E2E2E2E2E2E2E2E2E2E2E2E2E2E2E2E2E2E2E2E2E2E2E2E2E2E2E2E2E2E2E2E2E2E2E2E2E2E2E2E2E2E2E2E2E2E2E2E2E2E2E2E2E2E2E2E2E2E2E2E2E2E2E2E2E2E2
310
E2E2E2F5F5E2E2E2E2E2E2E2E2E2E2E2E2E2E2E2E2E2E2E2E2E2E2E2E2E2E2E2E2E2E2E2E2E2E2E2E2E2E2E2E2E2E2E2E2E2E2E2E2E2E2E2E2E2E2E2E2E2E2E2E2E2E2E2E2E2E2E2E2E2E2E2E2E2E2E2E2E2E2E2E2E2E2E2E2E2E2E2E2E2E2E2E2E2E2E2E2E2E2E2E2E2E2E2E2E2E2E2E2E2E2E2E2E2E2E2E2E2E2E2E2E2E2
310
E2E2E2E2E2E2E2E2E2E2E2E2E2E2E2E2E2E2E2E2E2E2E2E2E2E2E2E2E2E2E2E2E2E2E2E2E2E2E2E2E2E2E2E2E2E2E2E2E2E2E2E2E2E2F5F5E2E2E2E2E2E2E2E2E2E2E2E2E2E2E2E2E2E2E2E2E2E2E2E2E2E2E2E2E2E2E2E2E2E2E2E2E2E2E2E2E2E2E2E2E2E2E2E2E2E2E2E2E2E2E2E2E2E2E2E2E2E2E2E2E2E2E2E2E2E2E2
310
E2E2E2E2E2E2E2E2E2E2E2E2E2E2E2E2E2E2E2E2E2E2E2E2E2E2E2E2E2E2E2E2E2E2E2E2E2E2E2E2E2E2E2E2E2E2E2E2E2E2E2E2E2E2E2E2E2E2E2E2E2E2E2E2E2E2E2E2E2E2E2E2E2E2E2E2E2E2E2E2E2E2E2E2E2E2E2E2E2E2E2E2E2E2E2E2E2E2E2E2E2E2E2E2F5F5F5E2E2E2E2E2E2E2E2E2E2E2E2E2E2E2E2E2E2E2E2
310
E2E2E2E2E2E2E2E2E2E2E2E2E2E2E2E2E2E2E2E2E2E2E2E2E2E2E2E2E2E2E2E2E2E2E2E2E2E2E2E2E2E2E2E2E2E2E2E2E2E2E2E2E2E2E2E2E2E2E2E2E2E2E2E2E2E2E2E2E2E2E2E2E2E2E2E2E2E2E2E2E2E2E2E2E2E2E2E2E2E2E2E2E2E2E2E2E2E2E2E2E2E2E2E2E2E2E2E2E2E2E2E2E2E2E2E2E2E2E2E2E2E2E2E2E2E2E2
310
E2E2E2E2E2E2E2E2E2E2E2E2E2E2E2E2E2E2E2E2E2E2E2E2E2E2E2E2F5F5E2E2E2E2E2E2E2E2E2E2E2E2E2E2E2E2E2E2E2E2E2E2E2E2E2E2E2E2E2E2E2E2E2E2E2E2E2E2E2E2E2E2E2E2E2E2E2E2E2E2E2E2E2E2E2E2E2E2E2E2E2E2E2E2E2E2E2E2E2E2E2E2E2E2E2E2E2E2E2E2E2E2E2E2E2E2E2E2E2E2E2E2E2E2E2E2E2
310
E2E2E2E2E2E2E2E2E2E2E2E2E2E2E2E2E2E2E2E2E2E2E2E2E2E2E2E2E2E2E2E2E2E2E2E2E2E2E2E2E2E2E2E2E2E2E2E2E2E2E2E2E2E2E2E2E2E2E2E2E2E2E2E2E2E2E2E2E2E2E2E2E2E2E2E2E2E2F5F5F5E2E2E2E2E2E2E2E2E2E2E2E2E2E2E2E2E2E2E2E2E2E2E2E2E2E2E2E2E2E2E2E2E2E2E2E2E2E2E2E2E2E2E2E2E2E2
310
E2E2E2E2E2E2E2E2E2E2E2E2E2E2E2E2E2E2E2E2E2E2E2E2E2E2E2E2E2E2E2E2E2E2E2E2E2E2E2E2E2E2E2E2E2E2E2E2E2E2E2E2E2E2E2E2E2E2E2E2E2E2E2E2E2E2E2E2E2E2E2E2E2E2E2E2E2E2E2E2E2E2E2E2E2E2E2E2E2E2E2E2E2E2E2E2E2E2E2E2E2E2E2E2E2E2E2E2E2E2E2E2E2E2E2E2E2E2E2E2E2E2E2E2E2E2E2
310
E2E2F5F5E2E2E2E2E2E2E2E2E2E2E2E2E2E2E2E2E2E2E2E2E2E2E2E2E2E2E2E2E2E2E2E2E2E2E2E2E2E2E2E2E2E2E2E2E2E2E2E2E2E2E2E2E2E2E2E2E2E2E2E2E2E2E2E2E2E2E2E2E2E2E2E2E2E2E2E2E2E2E2E2E2E2E2E2E2E2E2E2E2E2E2E2E2E2E2E2E2E2E2E2E2E2E2E2E2E2E2E2E2E2E2E2E2E2E2E2E2E2E2E2E2E2E2
310
E2E2E2E2E2E2E2E2E2E2E2E2E2E2E2E2E2E2E2E2E2E2E2E2E2E2E2E2E2E2E2E2E2E2E2E2E2E2E2E2E2E2E2E2E2E2E2E2E2E2E2E2E2F5F5E2E2E2E2E2E2E2E2E2E2E2E2E2E2E2E2E2E2E2E2E2E2E2E2E2E2E2E2E2E2E2E2E2E2E2E2E2E2E2E2E2E2E2E2E2E2E2E2E2E2E2E2E2E2E2E2E2E2E2E2E2E2E2E2E2E2E2E2E2E2E2E2
310
E2E2E2E2E2E2E2E2E2E2E2E2E2E2E2E2E2E2E2E2E2E2E2E2E2E2E2E2E2E2E2E2E2E2E2E2E2E2E2E2E2E2E2E2E2E2E2E2E2E2E2E2E2E2E2E2E2E2E2E2E2E2E2E2E2E2E2E2E2E2E2E2E2E2E2E2E2E2E2E2E2E2E2E2E2E2E2E2E2E2E2E2E2E2E2E2E2E2E2E2E2E2E2F5F5F5E2E2E2E2E2E2E2E2E2E2E2E2E2E2E2E2E2E2E2E2E2
310
E2E2E2E2E2E2E2E2E2E2E2E2E2E2E2E2E2E2E2E2E2E2E2E2E2E2E2E2E2E2E2E2E2E2E2E2E2E2E2E2E2E2E2E2E2E2E2E2E2E2E2E2E2E2E2E2E2E2E2E2E2E2E2E2E2E2E2E2E2E2E2E2E2E2E2E2E2E2E2E2E2E2E2E2E2E2E2E2E2E2E2E2E2E2E2E2E2E2E2E2E2E2E2E2E2E2E2E2E2E2E2E2E2E2E2E2E2E2E2E2E2E2E2E2E2E2E2
310
E2E2E2E2E2E2E2E2E2E2E2E2E2E2E2E2E2E2E2E2E2E2E2E2E2E2E2F5F5E2E2E2E2E2E2E2E2E2E2E2E2E2E2E2E2E2E2E2E2E2E2E2E2E2E2E2E2E2E2E2E2E2E2E2E2E2E2E2E2E2E2E2E2E2E2E2E2E2E2E2E2E2E2E2E2E2E2E2E2E2E2E2E2E2E2E2E2E2E2E2E2E2E2E2E2E2E2E2E2E2E2E2E2E2E2E2E2E2E2E2E2E2E2E2E2E2E2
310
E2E2E2E2E2E2E2E2E2E2E2E2E2E2E2E2E2E2E2E2E2E2E2E2E2E2E2E2E2E2E2E2E2E2E2E2E2E2E2E2E2E2E2E2E2E2E2E2E2E2E2E2E2E2E2E2E2E2E2E2E2E2E2E2E2E2E2E2E2E2E2E2E2E2E2E2E2F5F5F5E2E2E2E2E2E2E2E2E2E2E2E2E2E2E2E2E2E2E2E2E2E2E2E2E2E2E2E2E2E2E2E2E2E2E2E2E2E2E2E2E2E2E2E2E2E2E2
310
E2E2E2E2E2E2E2E2E2E2E2E2E2E2E2E2E2E2E2E2E2E2E2E2E2E2E2E2E2E2E2E2E2E2E2E2E2E2E2E2E2E2E2E2E2E2E2E2E2E2E2E2E2E2E2E2E2E2E2E2E2E2E2E2E2E2E2E2E2E2E2E2E2E2E2E2E2E2E2E2E2E2E2E2E2E2E2E2E2E2E2E2E2E2E2E2E2E2E2E2E2E2E2E2E2E2E2E2E2E2E2E2E2E2E2E2E2E2E2E2E2E2E2E2E2E2E2
310
E2F5F5E2E2E2E2E2E2E2E2E2E2E2E2E2E2E2E2E2E2E2E2E2E2E2E2E2E2E2E2E2E2E2E2E2E2E2E2E2E2E2E2E2E2E2E2E2E2E2E2E2E2E2E2E2E2E2E2E2E2E2E2E2E2E2E2E2E2E2E2E2E2E2E2E2E2E2E2E2E2E2E2E2E2E2E2E2E2E2E2E2E2E2E2E2E2E2E2E2E2E2E2E2E2E2E2E2E2E2E2E2E2E2E2E2E2E2E2E2E2E2E2E2E2E2E2
310
E2E2E2E2E2E2E2E2E2E2E2E2E2E2E2E2E2E2E2E2E2E2E2E2E2E2E2E2E2E2E2E2E2E2E2E2E2E2E2E2E2E2E2E2E2E2E2E2E2E2E2E2F5F5E2E2E2E2E2E2E2E2E2E2E2E2E2E2E2E2E2E2E2E2E2E2E2E2E2E2E2E2E2E2E2E2E2E2E2E2E2E2E2E2E2E2E2E2E2E2E2E2E2E2E2E2E2E2E2E2E2E2E2E2E2E2E2E2E2E2E2E2E2E2E2E2E2
310
E2E2E2E2E2E2E2E2E2E2E2E2E2E2E2E2E2E2E2E2E2E2E2E2E2E2E2E2E2E2E2E2E2E2E2E2E2E2E2E2E2E2E2E2E2E2E2E2E2E2E2E2E2E2E2E2E2E2E2E2E2E2E2E2E2E2E2E2E2E2E2E2E2E2E2E2E2E2E2E2E2E2E2E2E2E2E2E2E2E2E2E2E2E2E2E2E2E2E2E2E2E2F5F5F5E2E2E2E2E2E2E2E2E2E2E2E2E2E2E2E2E2E2E2E2E2E2
310
E2E2E2E2E2E2E2E2E2E2E2E2E2E2E2E2E2E2E2E2E2E2E2E2E2E2E2E2E2E2E2E2E2E2E2E2E2E2E2E2E2E2E2E2E2E2E2E2E2E2E2E2E2E2E2E2E2E2E2E2E2E2E2E2E2E2E2E2E2E2E2E2E2E2E2E2E2E2E2E2E2E2E2E2E2E2E2E2E2E2E2E2E2E2E2E2E2E2E2E2E2E2E2E2E2E2E2E2E2E2E2E2E2E2E2E2E2E2E2E2E2E2E2E2E2E2E2
310
E2E2E2E2E2E2E2E2E2E2E2E2E2E2E2E2E2E2E2E2E2E2E2E2E2E2F5F5E2E2E2E2E2E2E2E2E2E2E2E2E2E2E2E2E2E2E2E2E2E2E2E2E2E2E2E2E2E2E2E2E2E2E2E2E2E2E2E2E2E2E2E2E2E2E2E2E2E2E2E2E2E2E2E2E2E2E2E2E2E2E2E2E2E2E2E2E2E2E2E2E2E2E2E2E2E2E2E2E2E2E2E2E2E2E2E2E2E2E2E2E2E2E2E2E2E2E2
310
E2E2E2E2E2E2E2E2E2E2E2E2E2E2E2E2E2E2E2E2E2E2E2E2E2E2E2E2E2E2E2E2E2E2E2E2E2E2E2E2E2E2E2E2E2E2E2E2E2E2E2E2E2E2E2E2E2E2E2E2E2E2E2E2E2E2E2E2E2E2E2E2E2E2E2E2F5F5F5E2E2E2E2E2E2E2E2E2E2E2E2E2E2E2E2E2E2E2E2E2E2E2E2E2E2E2E2E2E2E2E2E2E2E2E2E2E2E2E2E2E2E2E2E2E2E2E2
310
E2E2E2E2E2E2E2E2E2E2E2E2E2E2E2E2E2E2E2E2E2E2E2E2E2E2E2E2E2E2E2E2E2E2E2E2E2E2E2E2E2E2E2E2E2E2E2E2E2E2E2E2E2E2E2E2E2E2E2E2E2E2E2E2E2E2E2E2E2E2E2E2E2E2E2E2E2E2E2E2E2E2E2E2E2E2E2E2E2E2E2E2E2E2E2E2E2E2E2E2E2E2E2E2E2E2E2E2E2E2E2E2E2E2E2E2E2E2E2E2E2E2E2E2E2E2E2
310
F5F5E2E2E2E2E2E2E2E2E2E2E2E2E2E2E2E2E2E2E2E2E2E2E2E2E2E2E2E2E2E2E2E2E2E2E2E2E2E2E2E2E2E2E2E2E2E2E2E2E2E2E2E2E2E2E2E2E2E2E2E2E2E2E2E2E2E2E2E2E2E2E2E2E2E2E2E2E2E2E2E2E2E2E2E2E2E2E2E2E2E2E2E2E2E2E2E2E2E2E2E2E2E2E2E2E2E2E2E2E2E2E2E2E2E2E2E2E2E2E2E2E2E2E2E2E2
310
E2E2E2E2E2E2E2E2E2E2E2E2E2E2E2E2E2E2E2E2E2E2E2E2E2E2E2E2E2E2E2E2E2E2E2E2E2E2E2E2E2E2E2E2E2E2E2E2E2E2E2F5F5E2E2E2E2E2E2E2E2E2E2E2E2E2E2E2E2E2E2E2E2E2E2E2E2E2E2E2E2E2E2E2E2E2E2E2E2E2E2E2E2E2E2E2E2E2E2E2E2E2E2E2E2E2E2E2E2E2E2E2E2E2E2E2E2E2E2E2E2E2E2E2E2E2E2
310
E2E2E2E2E2E2E2E2E2E2E2E2E2E2E2E2E2E2E2E2E2E2E2E2E2E2E2E2E2E2E2E2E2E2E2E2E2E2E2E2E2E2E2E2E2E2E2E2E2E2E2E2E2E2E2E2E2E2E2E2E2E2E2E2E2E2E2E2E2E2E2E2E2E2E2E2E2E2E2E2E2E2E2E2E2E2E2E2E2E2E2E2E2E2E2E2E2E2E2E2E2F5F5F5E2E2E2E2E2E2E2E2E2E2E2E2E2E2E2E2E2E2E2E2E2E2E2
310
E2E2E2E2E2E2E2E2E2E2E2E2E2E2E2E2E2E2E2E2E2E2E2E2E2E2E2E2E2E2E2E2E2E2E2E2E2E2E2E2E2E2E2E2E2E2E2E2E2E2E2E2E2E2E2E2E2E2E2E2E2E2E2E2E2E2E2E2E2E2E2E2E2E2E2E2E2E2E2E2E2E2E2E2E2E2E2E2E2E2E2E2E2E2E2E2E2E2E2E2E2E2E2E2E2E2E2E2E2E2E2E2E2E2E2E2E2E2E2E2E2E2E2E2E2E2E2
310
E2E2E2E2E2E2E2E2E2E2E2E2E2E2E2E2E2E2E2E2E2E2E2E2E2F5F5E2E2E2E2E2E2E2E2E2E2E2E2E2E2E2E2E2E2E2E2E2E2E2E2E2E2E2E2E2E2E2E2E2E2E2E2E2E2E2E2E2E2E2E2E2E2E2E2E2E2E2E2E2E2E2E2E2E2E2E2E2E2E2E2E2E2E2E2E2E2E2E2E2E2E2E2E2E2E2E2E2E2E2E2E2E2E2E2E2E2E2E2E2E2E2E2E2E2E2E2
310
E2E2E2E2E2E2E2E2E2E2E2E2E2E2E2E2E2E2E2E2E2E2E2E2E2E2E2E2E2E2E2E2E2E2E2E2E2E2E2E2E2E2E2E2E2E2E2E2E2E2E2E2E2E2E2E2E2E2E2E2E2E2E2E2E2E2E2E2E2E2E2E2E2E2F5F5F5F5E2E2E2E2E2E2E2E2E2E2E2E2E2E2E2E2E2E2E2E2E2E2E2E2E2E2E2E2E2E2E2E2E2E2E2E2E2E2E2E2E2E2E2E2E2E2E2E2E2
310
E2E2E2E2E2E2E2E2E2E2E2E2E2E2E2E2E2E2E2E2E2E2E2E2E2E2E2E2E2E2E2E2E2E2E2E2E2E2E2E2E2E2E2E2E2E2E2E2E2E2E2E2E2E2E2E2E2E2E2E2E2E2E2E2E2E2E2E2E2E2E2E2E2E2E2E2E2E2E2E2E2E2E2E2E2E2E2E2E2E2E2E2E2E2E2E2E2E2E2E2E2E2E2E2E2E2E2E2E2E2E2E2E2E2E2E2E2E2E2E2E2E2E2F5F5F5F5
310
E2E2E2E2E2E2E2E2E2E2E2E2E2E2E2E2E2E2E2E2E2E2E2E2E2E2E2E2E2E2E2E2E2E2E2E2E2E2E2E2E2E2E2E2E2E2E2E2E2E2E2E2E2E2E2E2E2E2E2E2E2E2E2E2E2E2E2E2E2E2E2E2E2E2E2E2E2E2E2E2E2E2E2E2E2E2E2E2E2E2E2E2E2E2E2E2E2E2E2E2E2E2E2E2E2E2E2E2E2E2E2E2E2E2E2E2E2E2E2E2E2E2E2E2E2E2E2
310
E2E2E2E2E2E2E2E2E2E2E2E2E2E2E2E2E2E2E2E2E2E2E2E2E2E2E2E2E2E2E2E2E2E2E2E2E2E2E2E2E2E2E2E2E2F5F5F5F5E2E2E2E2E2E2E2E2E2E2E2E2E2E2E2E2E2E2E2E2E2E2E2E2E2E2E2E2E2E2E2E2E2E2E2E2E2E2E2E2E2E2E2E2E2E2E2E2E2E2E2E2E2E2E2E2E2E2E2E2E2E2E2E2E2E2E2E2E2E2E2E2E2E2E2E2E2E2
310
E2E2E2E2E2E2E2E2E2E2E2E2E2E2E2E2E2E2E2E2E2E2E2E2E2E2E2E2E2E2E2E2E2E2E2E2E2E2E2E2E2E2E2E2E2E2E2E2E2E2E2E2E2E2E2E2E2E2E2E2E2E2E2E2E2E2E2E2E2E2E2E2E2E2E2E2E2E2E2E2E2E2E2E2E2E2E2E2E2E2E2E2E2F5F5F5F5F5E2E2E2E2E2E2E2E2E2E2E2E2E2E2E2E2E2E2E2E2E2E2E2E2E2E2E2E2E2
310
E2E2E2E2E2E2E2E2E2E2E2E2E2E2E2E2E2E2E2E2E2E2E2E2E2E2E2E2E2E2E2E2E2E2E2E2E2E2E2E2E2E2E2E2E2E2E2E2E2E2E2E2E2E2E2E2E2E2E2E2E2E2E2E2E2E2E2E2E2E2E2E2E2E2E2E2E2E2E2E2E2E2E2E2E2E2E2E2E2E2E2E2E2E2E2E2E2E2E2E2E2E2E2E2E2E2E2E2E2E2E2E2E2E2E2E2E2E2E2E2E2E2E2E2E2E2E2
310
E2E2E2E2E2E2E2E2E2E2E2E2E2E2E2F5F5F5F5E2E2E2E2E2E2E2E2E2E2E2E2E2E2E2E2E2E2E2E2E2E2E2E2E2E2E2E2E2E2E2E2E2E2E2E2E2E2E2E2E2E2E2E2E2E2E2E2E2E2E2E2E2E2E2E2E2E2E2E2E2E2E2E2E2E2E2E2E2E2E2E2E2E2E2E2E2E2E2E2E2E2E2E2E2E2E2E2E2E2E2E2E2E2E2E2E2E2E2E2E2E2E2E2E2E2E2E2
310
E2E2E2E2E2E2E2E2E2E2E2E2E2E2E2E2E2E2E2E2E2E2E2E2E2E2E2E2E2E2E2E2E2E2E2E2E2E2E2E2E2E2E2E2E2E2E2E2E2E2E2E2E2E2E2E2E2E2E2E2E2E2E2E2F5F5F5F5E2E2E2E2E2E2E2E2E2E2E2E2E2E2E2E2E2E2E2E2E2E2E2E2E2E2E2E2E2E2E2E2E2E2E2E2E2E2E2E2E2E2E2E2E2E2E2E2E2E2E2E2E2E2E2E2E2E2E2
310
E2E2E2E2E2E2E2E2E2E2E2E2E2E2E2E2E2E2E2E2E2E2E2E2E2E2E2E2E2E2E2E2E2E2E2E2E2E2E2E2E2E2E2E2E2E2E2E2E2E2E2E2E2E2E2E2E2E2E2E2E2E2E2E2E2E2E2E2E2E2E2E2E2E2E2E2E2E2E2E2E2E2E2E2E2E2E2E2E2E2E2E2E2E2E2E2E2E2E2E2E2E2E2E2E2E2E2E2E2E2E2E2F5F5F5F5F5E2E2E2E2E2E2E2E2E2E2
310
E2E2E2E2E2E2E2E2E2E2E2E2E2E2E2E2E2E2E2E2E2E2E2E2E2E2E2E2E2E2E2E2E2E2E2E2E2E2E2E2E2E2E2E2E2E2E2E2E2E2E2E2E2E2E2E2E2E2E2E2E2E2E2E2E2E2E2E2E2E2E2E2E2E2E2E2E2E2E2E2E2E2E2E2E2E2E2E2E2E2E2E2E2E2E2E2E2E2E2E2E2E2E2E2E2E2E2E2E2E2E2E2E2E2E2E2E2E2E2E2E2E2E2E2E2E2E2
310
E2E2E2E2E2E2E2E2E2E2E2E2E2E2E2E2E2E2E2E2E2E2E2E2E2E2E2E2E2E2E2E2E2E2E2E2E2F5E2E2E2E2E2E2E2E2E2E2E2E2E2E2E2E2E2E2E2E2E2E2E2E2E2E2E2E2E2E2E2E2E2E2E2E2E2E2E2E2E2E2E2E2E2E2E2E2E2E2E2E2E2E2E2E2E2E2E2E2E2E2E2E2E2E2E2E2E2E2E2E2E2E2E2E2E2E2E2E2E2E2E2E2E2E2E2E2E2
310
E2E2E2E2E2E2E2E2E2E2E2E2E2E2E2E2E2E2E2E2E2E2E2E2E2E2E2E2E2E2E2E2E2E2E2E2E2E2E2E2E2E2E2E2E2E2E2E2E2E2E2E2E2E2E2E2E2E2E2E2E2E2E2E2E2E2E2E2E2E2E2E2E2E2E2E2E2E2E2E2E2E2E2E2E2E2E2E2E2E2E2E2E2E2E2E2E2E2E2E2E2E2E2E2E2E2E2E2E2E2E2E2E2E2E2E2E2E2E2E2E2E2E2E2E2E2E2
310
E2E2E2E2E2E2E2E2E2E2E2E2E2E2E2E2E2E2E2E2E2E2E2E2E2E2E2E2E2E2E2E2E2E2E2E2E2E2E2E2E2E2E2E2E2E2E2E2E2E2E2E2E2E2E2E2E2E2E2E2E2E2E2E2E2E2E2E2E2E2E2E2E2E2E2E2E2E2E2E2E2E2E2E2E2E2E2E2E2E2E2E2E2E2E2E2E2E2E2E2E2E2E2E2E2E2E2E2E2E2E2E2E2E2E2E2E2E2E2E2E2E2E2E2E2E2E2
310
E2E2E2E2E2E2E2E2E2E2E2E2E2E2E2E2E2E2E2E2E2E2E2E2E2E2E2E2E2E2E2E2E2E2E2E2E2E2E2E2E2E2E2E2E2E2E2E2E2E2E2E2E2E2E2E2E2E2E2E2E2E2E2E2E2E2E2E2E2E2E2E2E2E2E2E2E2E2E2E2E2E2E2E2E2E2E2E2E2E2E2E2E2E2E2E2E2E2E2E2E2E2E2E2E2E2E2E2E2E2E2E2E2E2E2E2E2E2E2E2E2E2E2E2E2E2E2
310
E2E2E2E2E2E2E2E2E2E2E2E2E2E2E2E2E2E2E2E2E2E2E2E2E2E2E2E2E2E2E2E2E2E2E2E2E2E2E2E2E2E2E2E2E2E2E2E2E2E2E2E2E2E2E2E2E2E2E2E2E2E2E2E2E2E2E2E2E2E2E2E2E2E2E2E2E2E2E2E2E2E2E2E2E2E2E2E2E2E2E2E2E2E2E2E2E2E2E2E2E2E2E2E2E2E2E2E2E2E2E2E2E2E2E2E2E2E2E2E2E2E2E2E2E2E2E2
310
E2E2E2E2E2E2E2E2E2E2E2E2E2E2E2E2E2E2E2E2E2E2E2E2E2E2E2E2E2E2E2E2E2E2E2E2E2E2E2E2E2E2E2E2E2E2E2E2E2E2E2E2E2E2E2E2E2E2E2E2E2E2E2E2E2E2E2E2E2E2E2E2E2E2E2E2E2E2E2E2E2E2E2E2E2E2E2E2E2E2E2E2E2E2E2E2E2E2E2E2E2E2E2E2E2E2E2E2E2E2E2E2E2E2E2E2E2E2E2E2E2E2E2E2E2E2E2
310
E2E2E2E2E2E2E2E2E2E2E2E2E2E2E2E2E2E2E2E2E2E2E2E2E2E2E2E2E2E2E2E2E2E2E2E2E2E2E2E2E2E2E2E2E2E2E2E2E2E2E2E2E2E2E2E2E2E2E2E2E2E2E2E2E2E2E2E2E2E2E2E2E2E2E2E2E2E2E2E2E2E2E2E2E2E2E2E2E2E2E2E2E2E2E2E2E2E2E2E2E2E2E2E2E2E2E2E2E2E2E2E2E2E2E2E2E2E2E2E2E2E2E2E2E2E2E2
310
E2E2E2E2E2E2E2E2E2E2E2E2E2E2E2E2E2E2E2E2E2E2E2E2E2E2E2E2E2E2E2E2E2E2E2E2E2E2E2E2E2E2E2E2E2E2E2E2E2E2E2E2E2E2E2E2E2E2E2E2E2E2E2E2E2E2E2E2E2E2E2E2E2E2E2E2E2E2E2E2E2E2E2E2E2E2E2E2E2E2E2E2E2E2E2E2E2E2E2E2E2E2E2E2E2E2E2E2E2E2E2E2E2E2E2E2E2E2E2E2E2E2E2E2E2E2E2
310
E2E2E2E2E2E2E2E2E2E2E2E2E2E2E2E2E2E2E2E2E2E2E2E2E2E2E2E2E2E2E2E2E2E2E2E2E2E2E2E2E2E2E2E2E2E2E2E2E2E2E2E2E2E2E2E2E2E2E2E2E2E2E2E2E2E2E2E2E2E2E2E2E2E2E2E2E2E2E2E2E2E2E2E2E2E2E2E2E2E2E2E2E2E2E2E2E2E2E2E2E2E2E2E2E2E2E2E2E2E2E2E2E2E2E2E2E2E2E2E2E2E2E2E2E2E2E2
310
E2E2E2E2E2E2E2E2E2E2E2E2E2E2E2E2E2E2E2E2E2E2E2E2E2E2E2E2E2E2E2E2E2E2E2E2E2E2E2E2E2E2E2E2E2E2E2E2E2E2E2E2E2E2E2E2E2E2E2E2E2E2E2E2E2E2E2E2E2E2E2E2E2E2E2E2E2E2E2E2E2E2E2E2E2E2E2E2E2E2E2E2E2E2E2E2E2E2E2E2E2E2E2E2E2E2E2E2E2E2E2E2E2E2E2E2E2E2E2E2E2E2E2E2E2E2E2
310
E2E2E2E2E2E2E2E2E2E2E2E2E2E2E2E2E2E2E2E2E2E2E2E2E2E2E2E2E2E2E2E2E2E2E2E2E2E2E2E2E2E2E2E2E2E2E2E2E2E2E2E2E2E2E2E2E2E2E2E2E2E2E2E2E2E2E2E2E2E2E2E2E2E2E2E2E2E2E2E2E2E2E2E2E2E2E2E2E2E2E2E2E2E2E2E2E2E2E2E2E2E2E2E2E2E2E2E2E2E2E2E2E2E2E2E2E2E2E2E2E2E2E2E2E2E2E2
310
E2E2E2E2E2E2E2E2E2E2E2E2E2E2E2E2E2E2E2E2E2E2E2E2E2E2E2E2E2E2E2E2E2E2E2E2E2E2E2E2E2E2E2E2E2E2E2E2E2E2E2E2E2E2E2E2E2E2E2E2E2E2E2E2E2E2E2E2E2E2E2E2E2E2E2E2E2E2E2E2E2E2E2E2E2E2E2E2E2E2E2E2E2E2E2E2E2E2E2E2E2E2E2E2E2E2E2E2E2E2E2E2E2E2E2E2E2E2E2E2E2E2E2E2E2E2E2
310
E2E2E2E2E2E2E2E2E2E2E2E2E2E2E2E2E2E2E2E2E2E2E2E2E2E2E2E2E2E2E2E2E2E2E2E2E2E2E2E2E2E2E2E2E2E2E2E2E2E2E2E2E2E2E2E2E2E2E2E2E2E2E2E2E2E2E2E2E2E2E2E2E2E2E2E2E2E2E2E2E2E2E2E2E2E2E2E2E2E2E2E2E2E2E2E2E2E2E2E2E2E2E2E2E2E2E2E2E2E2E2E2E2E2E2E2E2E2E2E2E2E2E2E2E2E2E2
310
E2E2E2E2E2E2E2E2E2E2E2E2E2E2E2E2E2E2E2E2E2E2E2E2E2E2E2E2E2E2E2E2E2E2E2E2E2E2E2E2E2E2E2E2E2E2E2E2E2E2E2E2E2E2E2E2E2E2E2E2E2E2E2E2E2E2E2E2E2E2E2E2E2E2E2E2E2E2E2E2E2E2E2E2E2E2E2E2E2E2E2E2E2E2E2E2E2E2E2E2E2E2E2E2E2E2E2E2E2E2E2E2E2E2E2E2E2E2E2E2E2E2E2E2E2E2E2
310
E2E2E2E2E2E2E2E2E2E2E2E2E2E2E2E2E2E2E2E2E2E2E2E2E2E2E2E2E2E2E2E2E2E2E2E2E2E2E2E2E2E2E2E2E2E2E2E2E2E2E2E2E2E2E2E2E2E2E2E2E2E2E2E2E2E2E2E2E2E2E2E2E2E2E2E2E2E2E2E2E2E2E2E2E2E2E2E2E2E2E2E2E2E2E2E2E2E2E2E2E2E2E2E2E2E2E2E2E2E2E2E2E2E2E2E2E2E2E2E2E2E2E2E2E2E2E2
310
E2E2E2E2E2E2E2E2E2E2E2E2E2E2E2E2E2E2E2E2E2E2E2E2E2E2E2E2E2E2E2E2E2E2E2E2E2E2E2E2E2E2E2E2E2E2E2E2E2E2E2E2E2E2E2E2E2E2E2E2E2E2E2E2E2E2E2E2E2E2E2E2E2E2E2E2E2E2E2E2E2E2E2E2E2E2E2E2E2E2E2E2E2E2E2E2E2E2E2E2E2E2E2E2E2E2E2E2E2E2E2E2E2E2E2E2E2E2E2E2E2E2E2E2E2E2E2
310
E2E2E2E2E2E2E2E2E2E2E2E2E2E2E2E2E2E2E2E2E2E2E2E2E2E2E2E2E2E2E2E2E2E2E2E2E2E2E2E2E2E2E2E2E2E2E2E2E2E2E2E2E2E2E2E2E2E2E2E2E2E2E2E2E2E2E2E2E2E2E2E2E2E2E2E2E2E2E2E2E2E2E2E2E2E2E2E2E2E2E2E2E2E2E2E2E2E2E2E2E2E2E2E2E2E2E2E2E2E2E2E2E2E2E2E2E2E2E2E2E2E2E2E2E2E2E2
310
E2E2E2E2E2E2E2E2E2E2E2E2E2E2E2E2E2E2E2E2E2E2E2E2E2E2E2E2E2E2E2E2E2E2E2E2E2E2
  0
XRECORD
  5
AB0
102
{ACAD_REACTORS
330
46
102
}
330
46
100
AcDbXrecord
280
     1
102
MATERIAL
148
0.0
149
0.0
149
0.0
 93
        0
 94
      127
282
     0
 72
     0
 77
     0
171
     0
175
     0
179
     0
273
     0
  0
XRECORD
  5
47
102
{ACAD_REACTORS
330
46
102
}
330
46
100
AcDbXrecord
280
     1
270
     1
271
     1
  0
XRECORD
  5
48
102
{ACAD_REACTORS
330
46
102
}
330
46
100
AcDbXrecord
280
     1
270
     1
271
     1
  0
XRECORD
  5
49
102
{ACAD_REACTORS
330
46
102
}
330
46
100
AcDbXrecord
280
     1
270
     1
271
     1
  0
XRECORD
  5
4A
102
{ACAD_REACTORS
330
46
102
}
330
46
100
AcDbXrecord
280
     1
270
     1
271
     1
  0
XRECORD
  5
4B
102
{ACAD_REACTORS
330
46
102
}
330
46
100
AcDbXrecord
280
     1
270
     1
271
     1
  0
XRECORD
  5
4C
102
{ACAD_REACTORS
330
46
102
}
330
46
100
AcDbXrecord
280
     1
270
     1
271
     1
  0
XRECORD
  5
AAF
102
{ACAD_REACTORS
330
3E
102
}
330
3E
100
AcDbXrecord
280
     1
102
MATERIAL
148
0.0
149
0.0
149
0.0
 93
        0
 94
      127
282
     0
 72
     0
 77
     0
171
     0
175
     0
179
     0
273
     0
  0
XRECORD
  5
3F
102
{ACAD_REACTORS
330
3E
102
}
330
3E
100
AcDbXrecord
280
     1
270
     1
271
     1
  0
XRECORD
  5
40
102
{ACAD_REACTORS
330
3E
102
}
330
3E
100
AcDbXrecord
280
     1
270
     1
271
     1
  0
XRECORD
  5
41
102
{ACAD_REACTORS
330
3E
102
}
330
3E
100
AcDbXrecord
280
     1
270
     1
271
     1
  0
XRECORD
  5
42
102
{ACAD_REACTORS
330
3E
102
}
330
3E
100
AcDbXrecord
280
     1
270
     1
271
     1
  0
XRECORD
  5
43
102
{ACAD_REACTORS
330
3E
102
}
330
3E
100
AcDbXrecord
280
     1
270
     1
271
     1
  0
XRECORD
  5
44
102
{ACAD_REACTORS
330
3E
102
}
330
3E
100
AcDbXrecord
280
     1
270
     1
271
     1
  0
XRECORD
  5
AA8
102
{ACAD_REACTORS
330
D
102
}
330
D
100
AcDbXrecord
280
     1
102
MATERIAL
148
0.0
149
0.0
149
0.0
 93
        0
 94
      127
282
     0
 72
     0
 77
     0
171
     0
175
     0
179
     0
273
     0
  0
XRECORD
  5
E
102
{ACAD_REACTORS
330
D
102
}
330
D
100
AcDbXrecord
280
     1
270
     1
271
     1
  0
XRECORD
  5
F
102
{ACAD_REACTORS
330
D
102
}
330
D
100
AcDbXrecord
280
     1
270
     1
271
     1
  0
XRECORD
  5
10
102
{ACAD_REACTORS
330
D
102
}
330
D
100
AcDbXrecord
280
     1
270
     1
271
     1
  0
XRECORD
  5
11
102
{ACAD_REACTORS
330
D
102
}
330
D
100
AcDbXrecord
280
     1
270
     1
271
     1
  0
XRECORD
  5
12
102
{ACAD_REACTORS
330
D
102
}
330
D
100
AcDbXrecord
280
     1
270
     1
271
     1
  0
XRECORD
  5
13
102
{ACAD_REACTORS
330
D
102
}
330
D
100
AcDbXrecord
280
     1
270
     1
271
     1
  0
CELLSTYLEMAP
  5
116C
102
{ACAD_REACTORS
330
A5B
102
}
330
A5B
100
AcDbCellStyleMap
 90
        3
300
CELLSTYLE
  1
TABLEFORMAT_BEGIN
 90
        5
170
     1
 91
        0
 92
    32768
 62
   257
 93
        1
300
CONTENTFORMAT
  1
CONTENTFORMAT_BEGIN
 90
        0
 91
        0
 92
        4
 93
        0
300

 40
0.0
140
1.0
 94
        5
 62
     0
340
23
144
6.0
309
CONTENTFORMAT_END
171
     1
301
MARGIN
  1
CELLMARGIN_BEGIN
 40
1.5
 40
1.5
 40
1.5
 40
1.5
 40
0.18
 40
0.18
309
CELLMARGIN_END
 94
        6
 95
        1
302
GRIDFORMAT
  1
GRIDFORMAT_BEGIN
 90
        0
 91
        1
 62
     0
 92
       -2
340
0
 93
        0
 40
0.045
309
GRIDFORMAT_END
 95
        2
302
GRIDFORMAT
  1
GRIDFORMAT_BEGIN
 90
        0
 91
        1
 62
     0
 92
       -2
340
0
 93
        0
 40
0.045
309
GRIDFORMAT_END
 95
        4
302
GRIDFORMAT
  1
GRIDFORMAT_BEGIN
 90
        0
 91
        1
 62
     0
 92
       -2
340
0
 93
        0
 40
0.045
309
GRIDFORMAT_END
 95
        8
302
GRIDFORMAT
  1
GRIDFORMAT_BEGIN
 90
        0
 91
        1
 62
     0
 92
       -2
340
0
 93
        0
 40
0.045
309
GRIDFORMAT_END
 95
       16
302
GRIDFORMAT
  1
GRIDFORMAT_BEGIN
 90
        0
 91
        1
 62
     0
 92
       -2
340
0
 93
        0
 40
0.045
309
GRIDFORMAT_END
 95
       32
302
GRIDFORMAT
  1
GRIDFORMAT_BEGIN
 90
        0
 91
        1
 62
     0
 92
       -2
340
0
 93
        0
 40
0.045
309
GRIDFORMAT_END
309
TABLEFORMAT_END
  1
CELLSTYLE_BEGIN
 90
        1
 91
        1
300
_TITLE
309
CELLSTYLE_END
300
CELLSTYLE
  1
TABLEFORMAT_BEGIN
 90
        5
170
     1
 91
        0
 92
        0
 62
   257
 93
        1
300
CONTENTFORMAT
  1
CONTENTFORMAT_BEGIN
 90
        0
 91
        0
 92
        4
 93
        0
300

 40
0.0
140
1.0
 94
        5
 62
     0
340
23
144
4.5
309
CONTENTFORMAT_END
171
     1
301
MARGIN
  1
CELLMARGIN_BEGIN
 40
1.5
 40
1.5
 40
1.5
 40
1.5
 40
0.18
 40
0.18
309
CELLMARGIN_END
 94
        6
 95
        1
302
GRIDFORMAT
  1
GRIDFORMAT_BEGIN
 90
        0
 91
        1
 62
     0
 92
       -2
340
0
 93
        0
 40
0.045
309
GRIDFORMAT_END
 95
        2
302
GRIDFORMAT
  1
GRIDFORMAT_BEGIN
 90
        0
 91
        1
 62
     0
 92
       -2
340
0
 93
        0
 40
0.045
309
GRIDFORMAT_END
 95
        4
302
GRIDFORMAT
  1
GRIDFORMAT_BEGIN
 90
        0
 91
        1
 62
     0
 92
       -2
340
0
 93
        0
 40
0.045
309
GRIDFORMAT_END
 95
        8
302
GRIDFORMAT
  1
GRIDFORMAT_BEGIN
 90
        0
 91
        1
 62
     0
 92
       -2
340
0
 93
        0
 40
0.045
309
GRIDFORMAT_END
 95
       16
302
GRIDFORMAT
  1
GRIDFORMAT_BEGIN
 90
        0
 91
        1
 62
     0
 92
       -2
340
0
 93
        0
 40
0.045
309
GRIDFORMAT_END
 95
       32
302
GRIDFORMAT
  1
GRIDFORMAT_BEGIN
 90
        0
 91
        1
 62
     0
 92
       -2
340
0
 93
        0
 40
0.045
309
GRIDFORMAT_END
309
TABLEFORMAT_END
  1
CELLSTYLE_BEGIN
 90
        2
 91
        1
300
_HEADER
309
CELLSTYLE_END
300
CELLSTYLE
  1
TABLEFORMAT_BEGIN
 90
        5
170
     1
 91
        0
 92
        0
 62
   257
 93
        1
300
CONTENTFORMAT
  1
CONTENTFORMAT_BEGIN
 90
        0
 91
        0
 92
        4
 93
        0
300

 40
0.0
140
1.0
 94
        2
 62
     0
340
23
144
4.5
309
CONTENTFORMAT_END
171
     1
301
MARGIN
  1
CELLMARGIN_BEGIN
 40
1.5
 40
1.5
 40
1.5
 40
1.5
 40
0.18
 40
0.18
309
CELLMARGIN_END
 94
        6
 95
        1
302
GRIDFORMAT
  1
GRIDFORMAT_BEGIN
 90
        0
 91
        1
 62
     0
 92
       -2
340
0
 93
        0
 40
0.045
309
GRIDFORMAT_END
 95
        2
302
GRIDFORMAT
  1
GRIDFORMAT_BEGIN
 90
        0
 91
        1
 62
     0
 92
       -2
340
0
 93
        0
 40
0.045
309
GRIDFORMAT_END
 95
        4
302
GRIDFORMAT
  1
GRIDFORMAT_BEGIN
 90
        0
 91
        1
 62
     0
 92
       -2
340
0
 93
        0
 40
0.045
309
GRIDFORMAT_END
 95
        8
302
GRIDFORMAT
  1
GRIDFORMAT_BEGIN
 90
        0
 91
        1
 62
     0
 92
       -2
340
0
 93
        0
 40
0.045
309
GRIDFORMAT_END
 95
       16
302
GRIDFORMAT
  1
GRIDFORMAT_BEGIN
 90
        0
 91
        1
 62
     0
 92
       -2
340
0
 93
        0
 40
0.045
309
GRIDFORMAT_END
 95
       32
302
GRIDFORMAT
  1
GRIDFORMAT_BEGIN
 90
        0
 91
        1
 62
     0
 92
       -2
340
0
 93
        0
 40
0.045
309
GRIDFORMAT_END
309
TABLEFORMAT_END
  1
CELLSTYLE_BEGIN
 90
        3
 91
        2
300
_DATA
309
CELLSTYLE_END
  0
XRECORD
  5
1175
102
{ACAD_REACTORS
330
A5B
102
}
330
A5B
100
AcDbXrecord
280
     1
102
ACAD_ROUNDTRIP_PRE2007_TABLESTYLE
 90
        4
 91
        0
  1

 92
        4
 93
        0
  2

 94
        4
 95
        0
  3

  0
ENDSEC
  0
EOF
