  0
SECTION
  2
HEADER
  9
$ACADVER
  1
AC1015
  9
$ACADMAINTVER
 70
    20
  9
$DWGCODEPAGE
  3
ANSI_932
  9
$INSBASE
 10
0.0
 20
0.0
 30
0.0
  9
$EXTMIN
 10
551.0516104117548
 20
628.0598611783671
 30
-0.0000000000000058
  9
$EXTMAX
 10
820.7628594530216
 20
857.489009835117
 30
0.0000000000000104
  9
$LIMMIN
 10
0.0
 20
0.0
  9
$LIMMAX
 10
420.0
 20
297.0
  9
$ORTHOMODE
 70
     1
  9
$REGENMODE
 70
     1
  9
$FILLMODE
 70
     1
  9
$QTEXTMODE
 70
     0
  9
$MIRRTEXT
 70
     0
  9
$LTSCALE
 40
1.0
  9
$ATTMODE
 70
     1
  9
$TEXTSIZE
 40
2.5
  9
$TRACEWID
 40
1.0
  9
$TEXTSTYLE
  7
Standard
  9
$CLAYER
  8
0
  9
$CELTYPE
  6
ByLayer
  9
$CECOLOR
 62
   256
  9
$CELTSCALE
 40
1.0
  9
$DISPSILH
 70
     0
  9
$DIMSCALE
 40
1.0
  9
$DIMASZ
 40
3.0
  9
$DIMEXO
 40
1.0
  9
$DIMDLI
 40
3.75
  9
$DIMRND
 40
0.0
  9
$DIMDLE
 40
0.0
  9
$DIMEXE
 40
1.25
  9
$DIMTP
 40
0.0
  9
$DIMTM
 40
0.0
  9
$DIMTXT
 40
2.5
  9
$DIMCEN
 40
2.5
  9
$DIMTSZ
 40
0.0
  9
$DIMTOL
 70
     0
  9
$DIMLIM
 70
     0
  9
$DIMTIH
 70
     0
  9
$DIMTOH
 70
     0
  9
$DIMSE1
 70
     0
  9
$DIMSE2
 70
     0
  9
$DIMTAD
 70
     1
  9
$DIMZIN
 70
     8
  9
$DIMBLK
  1
Open30
  9
$DIMASO
 70
     1
  9
$DIMSHO
 70
     1
  9
$DIMPOST
  1

  9
$DIMAPOST
  1

  9
$DIMALT
 70
     0
  9
$DIMALTD
 70
     3
  9
$DIMALTF
 40
0.03937007874016
  9
$DIMLFAC
 40
1.0
  9
$DIMTOFL
 70
     1
  9
$DIMTVP
 40
0.0
  9
$DIMTIX
 70
     0
  9
$DIMSOXD
 70
     0
  9
$DIMSAH
 70
     0
  9
$DIMBLK1
  1

  9
$DIMBLK2
  1

  9
$DIMSTYLE
  2
ISO-25
  9
$DIMCLRD
 70
     0
  9
$DIMCLRE
 70
     0
  9
$DIMCLRT
 70
     0
  9
$DIMTFAC
 40
1.0
  9
$DIMGAP
 40
0.625
  9
$DIMJUST
 70
     0
  9
$DIMSD1
 70
     0
  9
$DIMSD2
 70
     0
  9
$DIMTOLJ
 70
     0
  9
$DIMTZIN
 70
     8
  9
$DIMALTZ
 70
     0
  9
$DIMALTTZ
 70
     0
  9
$DIMUPT
 70
     0
  9
$DIMDEC
 70
     2
  9
$DIMTDEC
 70
     2
  9
$DIMALTU
 70
     2
  9
$DIMALTTD
 70
     3
  9
$DIMTXSTY
  7
Standard
  9
$DIMAUNIT
 70
     0
  9
$DIMADEC
 70
     0
  9
$DIMALTRND
 40
0.0
  9
$DIMAZIN
 70
     0
  9
$DIMDSEP
 70
    44
  9
$DIMATFIT
 70
     3
  9
$DIMFRAC
 70
     0
  9
$DIMLDRBLK
  1
Open30
  9
$DIMLUNIT
 70
     2
  9
$DIMLWD
 70
    -2
  9
$DIMLWE
 70
    -2
  9
$DIMTMOVE
 70
     0
  9
$LUNITS
 70
     2
  9
$LUPREC
 70
     2
  9
$SKETCHINC
 40
1.0
  9
$FILLETRAD
 40
1.0
  9
$AUNITS
 70
     0
  9
$AUPREC
 70
     0
  9
$MENU
  1
.
  9
$ELEVATION
 40
0.0
  9
$PELEVATION
 40
0.0
  9
$THICKNESS
 40
0.0
  9
$LIMCHECK
 70
     0
  9
$CHAMFERA
 40
0.0
  9
$CHAMFERB
 40
0.0
  9
$CHAMFERC
 40
0.0
  9
$CHAMFERD
 40
0.0
  9
$SKPOLY
 70
     0
  9
$TDCREATE
 40
2454350.421215451
  9
$TDUCREATE
 40
2454350.046215452
  9
$TDUPDATE
 40
2455533.727148091
  9
$TDUUPDATE
 40
2455533.352148091
  9
$TDINDWG
 40
0.6297775000
  9
$TDUSRTIMER
 40
0.6297760532
  9
$USRTIMER
 70
     1
  9
$ANGBASE
 50
0.0
  9
$ANGDIR
 70
     0
  9
$PDMODE
 70
     0
  9
$PDSIZE
 40
0.0
  9
$PLINEWID
 40
0.0
  9
$SPLFRAME
 70
     0
  9
$SPLINETYPE
 70
     6
  9
$SPLINESEGS
 70
     8
  9
$HANDSEED
  5
2800
  9
$SURFTAB1
 70
     6
  9
$SURFTAB2
 70
     6
  9
$SURFTYPE
 70
     6
  9
$SURFU
 70
     6
  9
$SURFV
 70
     6
  9
$UCSBASE
  2

  9
$UCSNAME
  2

  9
$UCSORG
 10
0.0
 20
0.0
 30
0.0
  9
$UCSXDIR
 10
1.0
 20
0.0
 30
0.0
  9
$UCSYDIR
 10
0.0
 20
1.0
 30
0.0
  9
$UCSORTHOREF
  2

  9
$UCSORTHOVIEW
 70
     0
  9
$UCSORGTOP
 10
0.0
 20
0.0
 30
0.0
  9
$UCSORGBOTTOM
 10
0.0
 20
0.0
 30
0.0
  9
$UCSORGLEFT
 10
0.0
 20
0.0
 30
0.0
  9
$UCSORGRIGHT
 10
0.0
 20
0.0
 30
0.0
  9
$UCSORGFRONT
 10
0.0
 20
0.0
 30
0.0
  9
$UCSORGBACK
 10
0.0
 20
0.0
 30
0.0
  9
$PUCSBASE
  2

  9
$PUCSNAME
  2

  9
$PUCSORG
 10
0.0
 20
0.0
 30
0.0
  9
$PUCSXDIR
 10
1.0
 20
0.0
 30
0.0
  9
$PUCSYDIR
 10
0.0
 20
1.0
 30
0.0
  9
$PUCSORTHOREF
  2

  9
$PUCSORTHOVIEW
 70
     0
  9
$PUCSORGTOP
 10
0.0
 20
0.0
 30
0.0
  9
$PUCSORGBOTTOM
 10
0.0
 20
0.0
 30
0.0
  9
$PUCSORGLEFT
 10
0.0
 20
0.0
 30
0.0
  9
$PUCSORGRIGHT
 10
0.0
 20
0.0
 30
0.0
  9
$PUCSORGFRONT
 10
0.0
 20
0.0
 30
0.0
  9
$PUCSORGBACK
 10
0.0
 20
0.0
 30
0.0
  9
$USERI1
 70
     0
  9
$USERI2
 70
     0
  9
$USERI3
 70
     0
  9
$USERI4
 70
     0
  9
$USERI5
 70
     0
  9
$USERR1
 40
0.0
  9
$USERR2
 40
0.0
  9
$USERR3
 40
0.0
  9
$USERR4
 40
0.0
  9
$USERR5
 40
0.0
  9
$WORLDVIEW
 70
     1
  9
$SHADEDGE
 70
     3
  9
$SHADEDIF
 70
    70
  9
$TILEMODE
 70
     1
  9
$MAXACTVP
 70
    64
  9
$PINSBASE
 10
0.0
 20
0.0
 30
0.0
  9
$PLIMCHECK
 70
     0
  9
$PEXTMIN
 10
25.69999999999999
 20
19.5
 30
0.0
  9
$PEXTMAX
 10
231.3
 20
175.5
 30
0.0
  9
$PLIMMIN
 10
-20.0
 20
-7.5
  9
$PLIMMAX
 10
277.0
 20
202.5
  9
$UNITMODE
 70
     0
  9
$VISRETAIN
 70
     1
  9
$PLINEGEN
 70
     0
  9
$PSLTSCALE
 70
     1
  9
$TREEDEPTH
 70
  3020
  9
$CMLSTYLE
  2
Standard
  9
$CMLJUST
 70
     0
  9
$CMLSCALE
 40
20.0
  9
$PROXYGRAPHICS
 70
     1
  9
$MEASUREMENT
 70
     1
  9
$CELWEIGHT
370
    -1
  9
$ENDCAPS
280
     0
  9
$JOINSTYLE
280
     0
  9
$LWDISPLAY
290
     0
  9
$INSUNITS
 70
     4
  9
$HYPERLINKBASE
  1

  9
$STYLESHEET
  1
KIHON1.CTB
  9
$XEDIT
290
     1
  9
$CEPSNTYPE
380
     0
  9
$PSTYLEMODE
290
     1
  9
$FINGERPRINTGUID
  2
{FF5731BB-EF2C-431A-BDE6-0D4A10A56B1E}
  9
$VERSIONGUID
  2
{B69E8336-7D7A-4BC1-A85B-36496BBED0F6}
  9
$EXTNAMES
290
     1
  9
$PSVPSCALE
 40
0.0
  9
$OLESTARTUP
290
     0
  0
ENDSEC
  0
SECTION
  2
CLASSES
  0
CLASS
  1
ACDBDICTIONARYWDFLT
  2
AcDbDictionaryWithDefault
  3
ObjectDBX Classes
 90
        0
280
     0
281
     0
  0
CLASS
  1
DICTIONARYVAR
  2
AcDbDictionaryVar
  3
ObjectDBX Classes
 90
        0
280
     0
281
     0
  0
CLASS
  1
TABLESTYLE
  2
AcDbTableStyle
  3
ObjectDBX Classes
 90
     4095
280
     0
281
     0
  0
CLASS
  1
SORTENTSTABLE
  2
AcDbSortentsTable
  3
ObjectDBX Classes
 90
        0
280
     0
281
     0
  0
CLASS
  1
DIMASSOC
  2
AcDbDimAssoc
  3
"AcDbDimAssoc|Product Desc:     AcDim ARX App For Dimension|Company:          Autodesk, Inc.|WEB Address:      www.autodesk.com"
 90
        0
280
     0
281
     0
  0
CLASS
  1
MATERIAL
  2
AcDbMaterial
  3
ObjectDBX Classes
 90
     1153
280
     0
281
     0
  0
CLASS
  1
VISUALSTYLE
  2
AcDbVisualStyle
  3
ObjectDBX Classes
 90
     4095
280
     0
281
     0
  0
CLASS
  1
SCALE
  2
AcDbScale
  3
ObjectDBX Classes
 90
     1153
280
     0
281
     0
  0
CLASS
  1
MLEADERSTYLE
  2
AcDbMLeaderStyle
  3
ACDB_MLEADERSTYLE_CLASS
 90
     4095
280
     0
281
     0
  0
CLASS
  1
AMGSETTINGSOBJ
  2
AmgSettingsObj
  3
"AcadM|Product Description: AutoCAD Mechanical|Company: Autodesk, Inc."
 90
     1024
280
     0
281
     0
  0
CLASS
  1
ACME_DOCUMENT
  2
AcMeDbDoc
  3
AcMeServices
 90
     1024
280
     0
281
     0
  0
CLASS
  1
ACMESCOPE
  2
AcMeScope
  3
AcMeServices
 90
     1024
280
     0
281
     0
  0
CLASS
  1
ACMECOMMANDHISTORY
  2
AcMeCommandHistory
  3
AcMeServices
 90
     1024
280
     0
281
     0
  0
CLASS
  1
ACIMSYSVARMAN
  2
AcImSysVarManager
  3
AcMeServices
 90
     1024
280
     0
281
     0
  0
CLASS
  1
ACIMREALSYSVAR
  2
AcImRealSysVar
  3
AcMeServices
 90
     1024
280
     0
281
     0
  0
CLASS
  1
ACIMINTSYSVAR
  2
AcImIntSysVar
  3
AcMeServices
 90
     1024
280
     0
281
     0
  0
CLASS
  1
ACMEDRAWINGMAN
  2
AcMeDrawingMan
  3
AcMeServices
 90
     1024
280
     0
281
     0
  0
CLASS
  1
ACMEVIEW
  2
AcMeView
  3
AcMeServices
 90
     1024
280
     0
281
     0
  0
CLASS
  1
ACDBENTITYCACHE
  2
AcMeEntityCache
  3
AcMeServices
 90
     1024
280
     0
281
     0
  0
CLASS
  1
GSMANAGER
  2
AcMeGSManager
  3
AcMeServices
 90
     1024
280
     0
281
     0
  0
CLASS
  1
AMDTINTERNALREACTOR
  2
AmdtInternalReactor
  3
AcMeServices
 90
     1024
280
     0
281
     0
  0
CLASS
  1
ACMESTATEMGR
  2
AcMeStateMgr
  3
AcMeServices
 90
     1024
280
     0
281
     0
  0
CLASS
  1
ACGREFMASTER
  2
AcGrefMaster
  3
AcAttribServices
 90
     1024
280
     0
281
     0
  0
CLASS
  1
AM_DRAWING_MGR
  2
AcDmDwgMgr
  3
AcMechDwgViewMgmt
 90
     1024
280
     0
281
     0
  0
CLASS
  1
AM_DWG_DOCUMENT
  2
AcDmDwgDocument
  3
AcMechDwgViewMgmt
 90
     1024
280
     0
281
     0
  0
CLASS
  1
AM_DWG_SHEET
  2
AcDmSheet
  3
AcMechDwgViewMgmt
 90
     1024
280
     0
281
     0
  0
CLASS
  1
AM_VIEWDIMPARMAP
  2
AcDmViewDimParMap
  3
AcMechDwgViewMgmt
 90
     1024
280
     0
281
     0
  0
CLASS
  1
AM_DWGMGR_NAME
  2
AcDmDwgMgrName
  3
AcMechDwgViewMgmt
 90
     1024
280
     0
281
     0
  0
CLASS
  1
ACME_DATABASE
  2
AcMeDbDatabase
  3
AcMeServices
 90
     1024
280
     0
281
     0
  0
CLASS
  1
ACRFINSADJUSTERMGR
  2
AcRfInsAdjusterMgr
  3
AcMeServices
 90
     1024
280
     0
281
     0
  0
CLASS
  1
ACGREFACADMASTER
  2
AcGrefacadMaster
  3
AcGrefServices
 90
     1024
280
     0
281
     0
  0
CLASS
  1
AMDTMENUSTATEMGR
  2
AmdtMenuStateMgr
  3
McadcomServices
 90
     1024
280
     0
281
     0
  0
CLASS
  1
AMDTMCOMMENUSTATE
  2
AmdtMcomMenuState
  3
McadcomServices
 90
     1024
280
     0
281
     0
  0
CLASS
  1
AMIMASTER
  2
AmiMaster
  3
AmiServices
 90
     1024
280
     0
281
     0
  0
CLASS
  1
ASAPP
  2
AcAsAppObject
  3
AutoSurfServices
 90
     1024
280
     0
281
     0
  0
CLASS
  1
IM_STATIC_MAN
  2
AcImStaticVarManager
  3
AcMeServices
 90
     1024
280
     0
281
     0
  0
CLASS
  1
ACIMSTRSYSVAR
  2
AcImStrSysVar
  3
AcMeServices
 90
     1024
280
     0
281
     0
  0
CLASS
  1
ACIMDBLSTATICVAR
  2
AcImDblStaticVar
  3
AcMeServices
 90
     1024
280
     0
281
     0
  0
CLASS
  1
ACIMSTRSTATICVAR
  2
AcImStrStaticVar
  3
AcMeServices
 90
     1024
280
     0
281
     0
  0
CLASS
  1
ACIMINTSTATICVAR
  2
AcImIntStaticVar
  3
AcMeServices
 90
     1024
280
     0
281
     0
  0
CLASS
  1
ACASGREFMASTER
  2
AcAsGrefMaster
  3
AutoSurfResolverServices
 90
     1024
280
     0
281
     0
  0
CLASS
  1
ACADGREFMODULE
  2
AcAdGrefModule
  3
AdGrefServices
 90
     1024
280
     0
281
     0
  0
CLASS
  1
AMDTMAPISURFMOUDULE
  2
AmdtMApiSurfModule
  3
MApiSurfServices
 90
    33792
280
     0
281
     0
  0
CLASS
  1
MAPIAMMOUDLE
  2
MApiAmModule
  3
MApiAmServices
 90
     1024
280
     0
281
     0
  0
CLASS
  1
AMDTADMENUSTATE
  2
AmdtAdMenuState
  3
DesignerServices
 90
     1024
280
     0
281
     0
  0
CLASS
  1
ADAPPL
  2
AcAdAppl
  3
DesignerServices
 90
     1024
280
     0
281
     0
  0
CLASS
  1
DEPMGR
  2
AcAdDepMgr
  3
DesignerServices
 90
     1024
280
     0
281
     0
  0
CLASS
  1
PARAMMGR
  2
AcAdParamMgr
  3
DesignerServices
 90
     1024
280
     0
281
     0
  0
CLASS
  1
PARAMSCOPE
  2
AcAdParamScope
  3
DesignerServices
 90
     1024
280
     0
281
     0
  0
CLASS
  1
NAMEDAPPL
  2
AcAdNamedAppl
  3
DesignerServices
 90
     1024
280
     0
281
     0
  0
CLASS
  1
AMDTDMMENUSTATE
  2
AmdtDmMenuState
  3
AcMechDwgViewMgmt
 90
     1024
280
     0
281
     0
  0
CLASS
  1
MAPIADMODULE
  2
MApiAdModule
  3
MApiAdServices
 90
     1024
280
     0
281
     0
  0
CLASS
  1
AMDTAMMENUSTATE
  2
AmdtAmMenuState
  3
DesignerAssemblies
 90
     1024
280
     0
281
     0
  0
CLASS
  1
ACAMPROJECT
  2
AcAmProject
  3
DesignerAssemblies
 90
     1024
280
     0
281
     0
  0
CLASS
  1
ACAMGRCOMPDEF
  2
AcAmGrCompDef
  3
DesignerAssemblies
 90
     1024
280
     0
281
     0
  0
CLASS
  1
ACCMCONTEXT
  2
AcCmContext
  3
DesignerAssemblies
 90
     1024
280
     0
281
     0
  0
CLASS
  1
ACAMCOMPDEF
  2
AcAmCompDef
  3
DesignerAssemblies
 90
     1024
280
     0
281
     0
  0
CLASS
  1
ACAMCOMPDEFMGR
  2
AcAmCompDefMgr
  3
DesignerAssemblies
 90
     1024
280
     0
281
     0
  0
CLASS
  1
AMCONTEXTMGR
  2
AcAmContextMgr
  3
DesignerAssemblies
 90
     1024
280
     0
281
     0
  0
CLASS
  1
ACAMCONTEXTMODELER
  2
AcAmContextModeler
  3
DesignerAssemblies
 90
     1024
280
     0
281
     0
  0
CLASS
  1
ACMDATADICTIONARY
  2
AcmDataDictionary
  3
"AcmSymBB|Product Description: AutoCAD Mechanical|Company: Autodesk, Inc."
 90
     1024
280
     0
281
     0
  0
CLASS
  1
ACMDATAENTRYBLOCK
  2
AcmDataEntryBlock
  3
AcmSymBB|Product Description: AutoCAD Mechanical|Company: Autodesk, Inc.
 90
     1024
280
     0
281
     0
  0
CLASS
  1
ACRFATTGENMGR
  2
AcRfAttGeneralMgr
  3
AcAttribServices
 90
     1024
280
     0
281
     0
  0
CLASS
  1
ACRFOBJATTMGR
  2
AcRfObjAttGroupMgr
  3
AcAttribServices
 90
     1024
280
     0
281
     0
  0
CLASS
  1
ACRFMCADAPIATTHOLDER
  2
AcRfMCADAPIAttHolder
  3
AcAttribServices
 90
     1024
280
     0
281
     0
  0
CLASS
  1
AMDTSYSATTR
  2
AmdtSystemAttribute
  3
AcAttribServices
 90
     1024
280
     0
281
     0
  0
CLASS
  1
CATALOGSTATE
  2
AcAmCatalogState
  3
DesignerAssemblies
 90
     1024
280
     0
281
     0
  0
CLASS
  1
ACAMGRCOMPDEFSET
  2
AcAmGrCompDefSet
  3
DesignerAssemblies
 90
     1024
280
     0
281
     0
  0
CLASS
  1
AMDTBROWSERDBTAB
  2
AmdtBrowserDbTab
  3
McadcomServices
 90
     1024
280
     0
281
     0
  0
CLASS
  1
CBROWSERAPPOBJECT
  2
CBrowserAppObject
  3
McadcomServices
 90
     1024
280
     0
281
     0
  0
CLASS
  1
DM_PLACEHOLDER
  2
AcDmSelsetPlaceholder
  3
AcMechDwgViewMgmt
 90
     1024
280
     0
281
     0
  0
CLASS
  1
ACMSTANDARDISO
  2
AcmStandardISO
  3
"Amdt_StdImp|Product Description: AutoCAD Mechanical|Company: Autodesk, Inc."
 90
     1024
280
     0
281
     0
  0
CLASS
  1
AMGOBJPROPCFG
  2
AmgObjPropCfg
  3
"AmgLay|Product Description: AutoCAD Mechanical|Company: Autodesk, Inc."
 90
     1025
280
     0
281
     0
  0
CLASS
  1
AMDTEDGESTANDARDISO13715
  2
AmdtEdgeStdISO13715
  3
"Amdt_StdImp|Product Description: AutoCAD Mechanical|Company: Autodesk, Inc."
 90
     1024
280
     0
281
     0
  0
CLASS
  1
ACMSURFSTANDARDISO2002
  2
AcmSurfTextStdISO2002
  3
"Amdt_StdImp|Product Description: AutoCAD Mechanical|Company: Autodesk, Inc."
 90
     1024
280
     0
281
     0
  0
CLASS
  1
ACMFCFSTANDARDISO
  2
AcmFCFStdISO
  3
"Amdt_StdImp|Product Description: AutoCAD Mechanical|Company: Autodesk, Inc."
 90
     1024
280
     0
281
     0
  0
CLASS
  1
ACMWELDSTANDARDISO
  2
AcmWeldingStdISO
  3
"Amdt_StdImp|Product Description: AutoCAD Mechanical|Company: Autodesk, Inc."
 90
     1024
280
     0
281
     0
  0
CLASS
  1
ACMIDSTANDARDISO
  2
AcmIdStdISO
  3
"Amdt_StdImp|Product Description: AutoCAD Mechanical|Company: Autodesk, Inc."
 90
     1024
280
     0
281
     0
  0
CLASS
  1
ACMDATUMSTANDARDISO
  2
AcmDatumStdISO
  3
"Amdt_StdImp|Product Description: AutoCAD Mechanical|Company: Autodesk, Inc."
 90
     1024
280
     0
281
     0
  0
CLASS
  1
ACMBOMSTANDARDISO
  2
AcmBOMStdISO
  3
"Amdt_StdImp|Product Description: AutoCAD Mechanical|Company: Autodesk, Inc."
 90
     1024
280
     0
281
     0
  0
CLASS
  1
ACMDETAILSTANDARDISO
  2
AmdtDetailSymStdISO
  3
"Amdt_StdImp|Product Description: AutoCAD Mechanical|Company: Autodesk, Inc."
 90
     1024
280
     0
281
     0
  0
CLASS
  1
ACMSECTIONSTANDARDISO2001
  2
AmdtSectionSymStdISO2001
  3
"Amdt_StdImp|Product Description: AutoCAD Mechanical|Company: Autodesk, Inc."
 90
     1024
280
     0
281
     0
  0
CLASS
  1
ACMCENTERLINESTANDARDISO
  2
AmdtCenterLineStdISO
  3
"Amdt_StdImp|Product Description: AutoCAD Mechanical|Company: Autodesk, Inc."
 90
     1024
280
     0
281
     0
  0
CLASS
  1
ACMTHREADLINESTANDARDISO
  2
AmdtThreadLineStdISO
  3
"Amdt_StdImp|Product Description: AutoCAD Mechanical|Company: Autodesk, Inc."
 90
     1024
280
     0
281
     0
  0
CLASS
  1
ACMNOTESTANDARDISO
  2
AmdtNoteStdISO
  3
"Amdt_StdImp|Product Description: AutoCAD Mechanical|Company: Autodesk, Inc."
 90
     1024
280
     0
281
     0
  0
CLASS
  1
ACMTAPERSTANDARDISO
  2
AcmTaperStdISO
  3
"Amdt_StdImp|Product Description: AutoCAD Mechanical|Company: Autodesk, Inc."
 90
     1024
280
     0
281
     0
  0
CLASS
  1
ACMANOOTATIONVIEWSTANDARDISO
  2
AmdtAnViewStdISO
  3
"Amdt_StdImp|Product Description: AutoCAD Mechanical|Company: Autodesk, Inc."
 90
     1024
280
     0
281
     0
  0
CLASS
  1
AMDTNOTETEMPLATEDB
  2
AmdtNoteTemplateDB
  3
AcmSymBB|Product Description: AutoCAD Mechanical|Company: Autodesk, Inc.
 90
     1024
280
     0
281
     0
  0
CLASS
  1
ACAMGLAYSTD
  2
AcAmgLayStd
  3
"AmgLay|Product Description: AutoCAD Mechanical|Company: Autodesk, Inc."
 90
     1024
280
     0
281
     0
  0
CLASS
  1
ACAMGDIMSTD
  2
AcAmgDimStd
  3
"AmgDim|Product Description: AutoCAD Mechanical|Company: Autodesk, Inc."
 90
     1024
280
     0
281
     0
  0
CLASS
  1
ACAMGHOLECHARTSTDISO
  2
AcAmgHoleChartStdISO
  3
AmgDim|Product Description: AutoCAD Mechanical|Company: Autodesk, Inc.
 90
     1024
280
     0
281
     0
  0
CLASS
  1
ACAMGTITLESTD
  2
AcAmgTitleStd
  3
"AmgTitle|Product Description: AutoCAD Mechanical|Company: Autodesk, Inc."
 90
     4095
280
     0
281
     0
  0
CLASS
  1
ACAMGFILTERDAT
  2
AcAmgFilterDat
  3
"AcadM|Product Description: AutoCAD Mechanical|Company: Autodesk, Inc."
 90
     1024
280
     0
281
     0
  0
CLASS
  1
LAYER_INDEX
  2
AcDbLayerIndex
  3
ObjectDBX Classes
 90
        0
280
     0
281
     0
  0
CLASS
  1
IDBUFFER
  2
AcDbIdBuffer
  3
ObjectDBX Classes
 90
        0
280
     0
281
     0
  0
CLASS
  1
CELLSTYLEMAP
  2
AcDbCellStyleMap
  3
ObjectDBX Classes
 90
     1152
280
     0
281
     0
  0
CLASS
  1
ACDBPLACEHOLDER
  2
AcDbPlaceHolder
  3
ObjectDBX Classes
 90
        0
280
     0
281
     0
  0
CLASS
  1
LAYOUT
  2
AcDbLayout
  3
ObjectDBX Classes
 90
        0
280
     0
281
     0
  0
ENDSEC
  0
SECTION
  2
TABLES
  0
TABLE
  2
VPORT
  5
8
330
0
100
AcDbSymbolTable
 70
     1
  0
VPORT
  5
2073
330
8
100
AcDbSymbolTableRecord
100
AcDbViewportTableRecord
  2
*Active
 70
     0
 10
0.0
 20
0.0
 11
1.0
 21
1.0
 12
-21.12974633386398
 22
8.45114503155537
 13
0.0
 23
0.0
 14
10.0
 24
10.0
 15
10.0
 25
10.0
 16
0.0
 26
0.0
 36
1.0
 17
707.0369812662522
 27
734.3232904751866
 37
0.0
 40
381.8675079134126
 41
0.7131336405529955
 42
50.0
 43
0.0
 44
0.0
 50
0.0
 51
0.0
 71
     0
 72
  1000
 73
     1
 74
     3
 75
     0
 76
     0
 77
     0
 78
     0
281
     0
 65
     0
110
0.0
120
0.0
130
0.0
111
1.0
121
0.0
131
0.0
112
0.0
122
1.0
132
0.0
 79
     0
146
0.0
  0
ENDTAB
  0
TABLE
  2
LTYPE
  5
5
330
0
100
AcDbSymbolTable
 70
    58
  0
LTYPE
  5
14
330
5
100
AcDbSymbolTableRecord
100
AcDbLinetypeTableRecord
  2
ByBlock
 70
     0
  3

 72
    65
 73
     0
 40
0.0
  0
LTYPE
  5
15
330
5
100
AcDbSymbolTableRecord
100
AcDbLinetypeTableRecord
  2
ByLayer
 70
     0
  3

 72
    65
 73
     0
 40
0.0
  0
LTYPE
  5
16
330
5
100
AcDbSymbolTableRecord
100
AcDbLinetypeTableRecord
  2
Continuous
 70
     0
  3
Solid line
 72
    65
 73
     0
 40
0.0
  0
LTYPE
  5
10B1
330
5
100
AcDbSymbolTableRecord
100
AcDbLinetypeTableRecord
  2
HIDDEN
 70
     0
  3
Hidden __ __ __ __ __ __ __ __ __ __ __ __ __ _
 72
    65
 73
     2
 40
0.375
 49
0.25
 74
     0
 49
-0.125
 74
     0
  0
LTYPE
  5
10B2
330
5
100
AcDbSymbolTableRecord
100
AcDbLinetypeTableRecord
  2
PHANTOM2
 70
     0
  3
Phantom (.5x) ___ _ _ ___ _ _ ___ _ _ ___ _ _
 72
    65
 73
     6
 40
1.25
 49
0.625
 74
     0
 49
-0.125
 74
     0
 49
0.125
 74
     0
 49
-0.125
 74
     0
 49
0.125
 74
     0
 49
-0.125
 74
     0
  0
LTYPE
  5
10B3
330
5
100
AcDbSymbolTableRecord
100
AcDbLinetypeTableRecord
  2
CENTER
 70
     0
  3
Center ____ _ ____ _ ____ _ ____ _ ____ _ ____
 72
    65
 73
     4
 40
2.0
 49
1.25
 74
     0
 49
-0.25
 74
     0
 49
0.25
 74
     0
 49
-0.25
 74
     0
  0
LTYPE
  5
10B4
330
5
100
AcDbSymbolTableRecord
100
AcDbLinetypeTableRecord
  2
ASULTYPE
 70
     0
  3
実線
 72
    65
 73
     2
 40
3.0
 49
2.5
 74
     0
 49
0.5
 74
     0
  0
LTYPE
  5
10B5
330
5
100
AcDbSymbolTableRecord
100
AcDbLinetypeTableRecord
  2
ASVLTYPE
 70
     0
  3
__ __ __ __ __ __ __ __ __ __ __ __ __ __ __ __ __ __ __ __ __
 72
    65
 73
     2
 40
0.75
 49
0.5
 74
     0
 49
-0.25
 74
     0
  0
LTYPE
  5
10B6
330
5
100
AcDbSymbolTableRecord
100
AcDbLinetypeTableRecord
  2
ACAD_ISO02W100
 70
     0
  3
ISO dash __ __ __ __ __ __ __ __ __ __ __ __ __
 72
    65
 73
     2
 40
15.0
 49
12.0
 74
     0
 49
-3.0
 74
     0
  0
LTYPE
  5
10B7
330
5
100
AcDbSymbolTableRecord
100
AcDbLinetypeTableRecord
  2
ACAD_ISO03W100
 70
     0
  3
ISO dash space __    __    __    __    __    __
 72
    65
 73
     2
 40
30.0
 49
12.0
 74
     0
 49
-18.0
 74
     0
  0
LTYPE
  5
10B8
330
5
100
AcDbSymbolTableRecord
100
AcDbLinetypeTableRecord
  2
ACAD_ISO04W100
 70
     0
  3
ISO long-dash dot ____ . ____ . ____ . ____ . _
 72
    65
 73
     4
 40
30.5
 49
24.0
 74
     0
 49
-3.0
 74
     0
 49
0.5
 74
     0
 49
-3.0
 74
     0
  0
LTYPE
  5
10B9
330
5
100
AcDbSymbolTableRecord
100
AcDbLinetypeTableRecord
  2
ACAD_ISO05W100
 70
     0
  3
ISO long-dash double-dot ____ .. ____ .. ____ .
 72
    65
 73
     6
 40
34.0
 49
24.0
 74
     0
 49
-3.0
 74
     0
 49
0.5
 74
     0
 49
-3.0
 74
     0
 49
0.5
 74
     0
 49
-3.0
 74
     0
  0
LTYPE
  5
10BA
330
5
100
AcDbSymbolTableRecord
100
AcDbLinetypeTableRecord
  2
ACAD_ISO06W100
 70
     0
  3
ISO long-dash triple-dot ____ ... ____ ... ____
 72
    65
 73
     8
 40
37.5
 49
24.0
 74
     0
 49
-3.0
 74
     0
 49
0.5
 74
     0
 49
-3.0
 74
     0
 49
0.5
 74
     0
 49
-3.0
 74
     0
 49
0.5
 74
     0
 49
-3.0
 74
     0
  0
LTYPE
  5
10BB
330
5
100
AcDbSymbolTableRecord
100
AcDbLinetypeTableRecord
  2
ACAD_ISO07W100
 70
     0
  3
ISO dot . . . . . . . . . . . . . . . . . . . .
 72
    65
 73
     2
 40
3.5
 49
0.5
 74
     0
 49
-3.0
 74
     0
  0
LTYPE
  5
10BC
330
5
100
AcDbSymbolTableRecord
100
AcDbLinetypeTableRecord
  2
ACAD_ISO08W100
 70
     0
  3
ISO long-dash short-dash ____ __ ____ __ ____ _
 72
    65
 73
     4
 40
36.0
 49
24.0
 74
     0
 49
-3.0
 74
     0
 49
6.0
 74
     0
 49
-3.0
 74
     0
  0
LTYPE
  5
10BD
330
5
100
AcDbSymbolTableRecord
100
AcDbLinetypeTableRecord
  2
ACAD_ISO09W100
 70
     0
  3
ISO long-dash double-short-dash ____ __ __ ____
 72
    65
 73
     6
 40
45.0
 49
24.0
 74
     0
 49
-3.0
 74
     0
 49
6.0
 74
     0
 49
-3.0
 74
     0
 49
6.0
 74
     0
 49
-3.0
 74
     0
  0
LTYPE
  5
10BE
330
5
100
AcDbSymbolTableRecord
100
AcDbLinetypeTableRecord
  2
ACAD_ISO10W100
 70
     0
  3
ISO dash dot __ . __ . __ . __ . __ . __ . __ .
 72
    65
 73
     4
 40
18.5
 49
12.0
 74
     0
 49
-3.0
 74
     0
 49
0.5
 74
     0
 49
-3.0
 74
     0
  0
LTYPE
  5
10BF
330
5
100
AcDbSymbolTableRecord
100
AcDbLinetypeTableRecord
  2
ACAD_ISO11W100
 70
     0
  3
ISO double-dash dot __ __ . __ __ . __ __ . __ 
 72
    65
 73
     6
 40
33.5
 49
12.0
 74
     0
 49
-3.0
 74
     0
 49
12.0
 74
     0
 49
-3.0
 74
     0
 49
0.5
 74
     0
 49
-3.0
 74
     0
  0
LTYPE
  5
10C0
330
5
100
AcDbSymbolTableRecord
100
AcDbLinetypeTableRecord
  2
ACAD_ISO12W100
 70
     0
  3
ISO dash double-dot __ . . __ . . __ . . __ . .
 72
    65
 73
     6
 40
22.0
 49
12.0
 74
     0
 49
-3.0
 74
     0
 49
0.5
 74
     0
 49
-3.0
 74
     0
 49
0.5
 74
     0
 49
-3.0
 74
     0
  0
LTYPE
  5
10C1
330
5
100
AcDbSymbolTableRecord
100
AcDbLinetypeTableRecord
  2
ACAD_ISO13W100
 70
     0
  3
ISO double-dash double-dot __ __ . . __ __ . . 
 72
    65
 73
     8
 40
37.0
 49
12.0
 74
     0
 49
-3.0
 74
     0
 49
12.0
 74
     0
 49
-3.0
 74
     0
 49
0.5
 74
     0
 49
-3.0
 74
     0
 49
0.5
 74
     0
 49
-3.0
 74
     0
  0
LTYPE
  5
10C2
330
5
100
AcDbSymbolTableRecord
100
AcDbLinetypeTableRecord
  2
ACAD_ISO14W100
 70
     0
  3
ISO dash triple-dot __ . . . __ . . . __ . . . 
 72
    65
 73
     8
 40
25.5
 49
12.0
 74
     0
 49
-3.0
 74
     0
 49
0.5
 74
     0
 49
-3.0
 74
     0
 49
0.5
 74
     0
 49
-3.0
 74
     0
 49
0.5
 74
     0
 49
-3.0
 74
     0
  0
LTYPE
  5
10C3
330
5
100
AcDbSymbolTableRecord
100
AcDbLinetypeTableRecord
  2
ACAD_ISO15W100
 70
     0
  3
ISO double-dash triple-dot __ __ . . . __ __ . 
 72
    65
 73
    10
 40
40.49999999999999
 49
12.0
 74
     0
 49
-3.0
 74
     0
 49
12.0
 74
     0
 49
-3.0
 74
     0
 49
0.5
 74
     0
 49
-3.0
 74
     0
 49
0.5
 74
     0
 49
-3.0
 74
     0
 49
0.5
 74
     0
 49
-3.0
 74
     0
  0
LTYPE
  5
10C4
330
5
100
AcDbSymbolTableRecord
100
AcDbLinetypeTableRecord
  2
BATTING
 70
     0
  3
Batting SSSSSSSSSSSSSSSSSSSSSSSSSSSSSSSSSSSSSSS
 72
    65
 73
     4
 40
0.4001000000000002
 49
0.0001
 74
     0
 49
-0.1
 74
     4
 75
   134
340
10F4
 46
0.1
 50
0.0
 44
-0.1
 45
0.0
 49
-0.2
 74
     4
 75
   134
340
10F4
 46
0.1
 50
180.0
 44
0.1
 45
0.0
 49
-0.1
 74
     0
  0
LTYPE
  5
10C5
330
5
100
AcDbSymbolTableRecord
100
AcDbLinetypeTableRecord
  2
BORDER
 70
     0
  3
Border __ __ . __ __ . __ __ . __ __ . __ __ .
 72
    65
 73
     6
 40
1.75
 49
0.5
 74
     0
 49
-0.25
 74
     0
 49
0.5
 74
     0
 49
-0.25
 74
     0
 49
0.0
 74
     0
 49
-0.25
 74
     0
  0
LTYPE
  5
10C6
330
5
100
AcDbSymbolTableRecord
100
AcDbLinetypeTableRecord
  2
BORDER2
 70
     0
  3
Border (.5x) __.__.__.__.__.__.__.__.__.__.__.
 72
    65
 73
     6
 40
0.875
 49
0.25
 74
     0
 49
-0.125
 74
     0
 49
0.25
 74
     0
 49
-0.125
 74
     0
 49
0.0
 74
     0
 49
-0.125
 74
     0
  0
LTYPE
  5
10C7
330
5
100
AcDbSymbolTableRecord
100
AcDbLinetypeTableRecord
  2
BORDERX2
 70
     0
  3
Border (2x) ____  ____  .  ____  ____  .  ___
 72
    65
 73
     6
 40
3.5
 49
1.0
 74
     0
 49
-0.5
 74
     0
 49
1.0
 74
     0
 49
-0.5
 74
     0
 49
0.0
 74
     0
 49
-0.5
 74
     0
  0
LTYPE
  5
10C8
330
5
100
AcDbSymbolTableRecord
100
AcDbLinetypeTableRecord
  2
CENTER2
 70
     0
  3
Center (.5x) ___ _ ___ _ ___ _ ___ _ ___ _ ___
 72
    65
 73
     4
 40
1.125
 49
0.75
 74
     0
 49
-0.125
 74
     0
 49
0.125
 74
     0
 49
-0.125
 74
     0
  0
LTYPE
  5
10C9
330
5
100
AcDbSymbolTableRecord
100
AcDbLinetypeTableRecord
  2
CENTERX2
 70
     0
  3
Center (2x) ________  __  ________  __  _____
 72
    65
 73
     4
 40
4.0
 49
2.5
 74
     0
 49
-0.5
 74
     0
 49
0.5
 74
     0
 49
-0.5
 74
     0
  0
LTYPE
  5
10CA
330
5
100
AcDbSymbolTableRecord
100
AcDbLinetypeTableRecord
  2
DASHDOT
 70
     0
  3
Dash dot __ . __ . __ . __ . __ . __ . __ . __
 72
    65
 73
     4
 40
1.0
 49
0.5
 74
     0
 49
-0.25
 74
     0
 49
0.0
 74
     0
 49
-0.25
 74
     0
  0
LTYPE
  5
10CB
330
5
100
AcDbSymbolTableRecord
100
AcDbLinetypeTableRecord
  2
DASHDOT2
 70
     0
  3
Dash dot (.5x) _._._._._._._._._._._._._._._.
 72
    65
 73
     4
 40
0.5
 49
0.25
 74
     0
 49
-0.125
 74
     0
 49
0.0
 74
     0
 49
-0.125
 74
     0
  0
LTYPE
  5
10CC
330
5
100
AcDbSymbolTableRecord
100
AcDbLinetypeTableRecord
  2
DASHDOTX2
 70
     0
  3
Dash dot (2x) ____  .  ____  .  ____  .  ___
 72
    65
 73
     4
 40
2.0
 49
1.0
 74
     0
 49
-0.5
 74
     0
 49
0.0
 74
     0
 49
-0.5
 74
     0
  0
LTYPE
  5
10CD
330
5
100
AcDbSymbolTableRecord
100
AcDbLinetypeTableRecord
  2
DASHED
 70
     0
  3
Dashed __ __ __ __ __ __ __ __ __ __ __ __ __ _
 72
    65
 73
     2
 40
0.75
 49
0.5
 74
     0
 49
-0.25
 74
     0
  0
LTYPE
  5
10CE
330
5
100
AcDbSymbolTableRecord
100
AcDbLinetypeTableRecord
  2
DASHED2
 70
     0
  3
Dashed (.5x) _ _ _ _ _ _ _ _ _ _ _ _ _ _ _ _ _
 72
    65
 73
     2
 40
0.375
 49
0.25
 74
     0
 49
-0.125
 74
     0
  0
LTYPE
  5
10CF
330
5
100
AcDbSymbolTableRecord
100
AcDbLinetypeTableRecord
  2
DASHEDX2
 70
     0
  3
Dashed (2x) ____  ____  ____  ____  ____  ___
 72
    65
 73
     2
 40
1.5
 49
1.0
 74
     0
 49
-0.5
 74
     0
  0
LTYPE
  5
10D0
330
5
100
AcDbSymbolTableRecord
100
AcDbLinetypeTableRecord
  2
DIVIDE
 70
     0
  3
Divide ____ . . ____ . . ____ . . ____ . . ____
 72
    65
 73
     6
 40
1.25
 49
0.5
 74
     0
 49
-0.25
 74
     0
 49
0.0
 74
     0
 49
-0.25
 74
     0
 49
0.0
 74
     0
 49
-0.25
 74
     0
  0
LTYPE
  5
10D1
330
5
100
AcDbSymbolTableRecord
100
AcDbLinetypeTableRecord
  2
DIVIDE2
 70
     0
  3
Divide (.5x) __..__..__..__..__..__..__..__.._
 72
    65
 73
     6
 40
0.625
 49
0.25
 74
     0
 49
-0.125
 74
     0
 49
0.0
 74
     0
 49
-0.125
 74
     0
 49
0.0
 74
     0
 49
-0.125
 74
     0
  0
LTYPE
  5
10D2
330
5
100
AcDbSymbolTableRecord
100
AcDbLinetypeTableRecord
  2
DIVIDEX2
 70
     0
  3
Divide (2x) ________  .  .  ________  .  .  _
 72
    65
 73
     6
 40
2.5
 49
1.0
 74
     0
 49
-0.5
 74
     0
 49
0.0
 74
     0
 49
-0.5
 74
     0
 49
0.0
 74
     0
 49
-0.5
 74
     0
  0
LTYPE
  5
10D3
330
5
100
AcDbSymbolTableRecord
100
AcDbLinetypeTableRecord
  2
DOT
 70
     0
  3
Dot . . . . . . . . . . . . . . . . . . . . . .
 72
    65
 73
     2
 40
0.25
 49
0.0
 74
     0
 49
-0.25
 74
     0
  0
LTYPE
  5
10D4
330
5
100
AcDbSymbolTableRecord
100
AcDbLinetypeTableRecord
  2
DOT2
 70
     0
  3
Dot (.5x) .....................................
 72
    65
 73
     2
 40
0.125
 49
0.0
 74
     0
 49
-0.125
 74
     0
  0
LTYPE
  5
10D5
330
5
100
AcDbSymbolTableRecord
100
AcDbLinetypeTableRecord
  2
DOTX2
 70
     0
  3
Dot (2x) .  .  .  .  .  .  .  .  .  .  .  .  . 
 72
    65
 73
     2
 40
0.5
 49
0.0
 74
     0
 49
-0.5
 74
     0
  0
LTYPE
  5
10D6
330
5
100
AcDbSymbolTableRecord
100
AcDbLinetypeTableRecord
  2
FENCELINE1
 70
     0
  3
Fenceline circle ----0-----0----0-----0----0---
 72
    65
 73
     4
 40
1.45
 49
0.25
 74
     0
 49
-0.1
 74
     4
 75
   133
340
10F4
 46
0.1
 50
0.0
 44
-0.1
 45
0.0
 49
-0.1
 74
     0
 49
1.0
 74
     0
  0
LTYPE
  5
10D7
330
5
100
AcDbSymbolTableRecord
100
AcDbLinetypeTableRecord
  2
FENCELINE2
 70
     0
  3
Fenceline square ----[]-----[]----[]-----[]----
 72
    65
 73
     4
 40
1.45
 49
0.25
 74
     0
 49
-0.1
 74
     4
 75
   132
340
10F4
 46
0.1
 50
0.0
 44
-0.1
 45
0.0
 49
-0.1
 74
     0
 49
1.0
 74
     0
  0
LTYPE
  5
10D8
330
5
100
AcDbSymbolTableRecord
100
AcDbLinetypeTableRecord
  2
GAS_LINE
 70
     0
  3
Gas line ----GAS----GAS----GAS----GAS----GAS---
 72
    65
 73
     3
 40
0.95
 49
0.5
 74
     0
 49
-0.2
 74
     2
 75
     0
340
11
 46
0.1
 50
0.0
 44
-0.1
 45
-0.05
  9
GAS
 49
-0.25
 74
     0
  0
LTYPE
  5
10D9
330
5
100
AcDbSymbolTableRecord
100
AcDbLinetypeTableRecord
  2
HIDDEN2
 70
     0
  3
Hidden (.5x) _ _ _ _ _ _ _ _ _ _ _ _ _ _ _ _ _
 72
    65
 73
     2
 40
0.1875
 49
0.125
 74
     0
 49
-0.0625
 74
     0
  0
LTYPE
  5
10DA
330
5
100
AcDbSymbolTableRecord
100
AcDbLinetypeTableRecord
  2
HIDDENX2
 70
     0
  3
Hidden (2x) ____ ____ ____ ____ ____ ____ ____
 72
    65
 73
     2
 40
0.75
 49
0.5
 74
     0
 49
-0.25
 74
     0
  0
LTYPE
  5
10DB
330
5
100
AcDbSymbolTableRecord
100
AcDbLinetypeTableRecord
  2
HOT_WATER_SUPPLY
 70
     0
  3
Hot water supply ---- HW ---- HW ---- HW ----
 72
    65
 73
     3
 40
0.9
 49
0.5
 74
     0
 49
-0.2
 74
     2
 75
     0
340
11
 46
0.1
 50
0.0
 44
-0.1
 45
-0.05
  9
HW
 49
-0.2
 74
     0
  0
LTYPE
  5
10DC
330
5
100
AcDbSymbolTableRecord
100
AcDbLinetypeTableRecord
  2
PHANTOM
 70
     0
  3
Phantom ______  __  __  ______  __  __  ______
 72
    65
 73
     6
 40
2.5
 49
1.25
 74
     0
 49
-0.25
 74
     0
 49
0.25
 74
     0
 49
-0.25
 74
     0
 49
0.25
 74
     0
 49
-0.25
 74
     0
  0
LTYPE
  5
10DD
330
5
100
AcDbSymbolTableRecord
100
AcDbLinetypeTableRecord
  2
PHANTOMX2
 70
     0
  3
Phantom (2x) ____________    ____    ____   _
 72
    65
 73
     6
 40
5.0
 49
2.5
 74
     0
 49
-0.5
 74
     0
 49
0.5
 74
     0
 49
-0.5
 74
     0
 49
0.5
 74
     0
 49
-0.5
 74
     0
  0
LTYPE
  5
10DE
330
5
100
AcDbSymbolTableRecord
100
AcDbLinetypeTableRecord
  2
TRACKS
 70
     0
  3
Tracks -|-|-|-|-|-|-|-|-|-|-|-|-|-|-|-|-|-|-|-|
 72
    65
 73
     2
 40
0.3
 49
0.15
 74
     4
 75
   130
340
10F4
 46
0.25
 50
0.0
 44
0.0
 45
0.0
 49
0.15
 74
     0
  0
LTYPE
  5
10DF
330
5
100
AcDbSymbolTableRecord
100
AcDbLinetypeTableRecord
  2
ZIGZAG
 70
     0
  3
Zig zag /\/\/\/\/\/\/\/\/\/\/\/\/\/\/\/\/\/\/\/
 72
    65
 73
     4
 40
0.8001000000000001
 49
0.0001
 74
     0
 49
-0.2
 74
     4
 75
   131
340
10F4
 46
0.2
 50
0.0
 44
-0.2
 45
0.0
 49
-0.4
 74
     4
 75
   131
340
10F4
 46
0.2
 50
180.0
 44
0.2
 45
0.0
 49
-0.2
 74
     0
  0
LTYPE
  5
21A7
330
5
100
AcDbSymbolTableRecord
100
AcDbLinetypeTableRecord
  2
ACISOWELD
 70
     0
  3
_ _ _ _ _
 72
    65
 73
     2
 40
2.0
 49
2.0
 74
     0
 49
-1.0
 74
     0
  0
LTYPE
  5
21A8
330
5
100
AcDbSymbolTableRecord
100
AcDbLinetypeTableRecord
  2
ACISOTGB
 70
     0
  3
__ . . __ . .
 72
    65
 73
     6
 40
9.0
 49
4.0
 74
     0
 49
-1.0
 74
     0
 49
1.0
 74
     0
 49
-1.0
 74
     0
 49
1.0
 74
     0
 49
-1.0
 74
     0
  0
LTYPE
  5
21A9
330
5
100
AcDbSymbolTableRecord
100
AcDbLinetypeTableRecord
  2
ACISOTGL
 70
     0
  3
_ _ _ _ _
 72
    65
 73
     2
 40
3.0
 49
2.0
 74
     0
 49
-1.0
 74
     0
  0
LTYPE
  5
273B
330
5
100
AcDbSymbolTableRecord
100
AcDbLinetypeTableRecord
  2
AM_ISO02W050
 70
     0
  3
__ __ __ __ __ __ __ __ __ __ __ __ __ __ __
 72
    65
 73
     2
 40
7.5
 49
6.0
 74
     0
 49
-1.5
 74
     0
  0
LTYPE
  5
273C
330
5
100
AcDbSymbolTableRecord
100
AcDbLinetypeTableRecord
  2
AM_ISO08W050
 70
     0
  3
____ . ____ . ____ . ____ . ____ . ____ . ____
 72
    65
 73
     4
 40
18.0
 49
12.0
 74
     0
 49
-1.5
 74
     0
 49
3.0
 74
     0
 49
-1.5
 74
     0
  0
LTYPE
  5
273D
330
5
100
AcDbSymbolTableRecord
100
AcDbLinetypeTableRecord
  2
AM_ISO09W050
 70
     0
  3
_____ . . _____ . . _____ . . ____ .. ____
 72
    65
 73
     6
 40
22.5
 49
12.0
 74
     0
 49
-1.5
 74
     0
 49
3.0
 74
     0
 49
-1.5
 74
     0
 49
3.0
 74
     0
 49
-1.5
 74
     0
  0
LTYPE
  5
273E
330
5
100
AcDbSymbolTableRecord
100
AcDbLinetypeTableRecord
  2
Amconstr
 70
     0
  3
_______________________
 72
    65
 73
     2
 40
9999.0
 49
9999.0
 74
     0
 49
0.0
 74
     0
  0
LTYPE
  5
273F
330
5
100
AcDbSymbolTableRecord
100
AcDbLinetypeTableRecord
  2
AM_ISO08W050x2
 70
     0
  3
__ . __ . __ . __ . __ . __
 72
    65
 73
     4
 40
9.0
 49
6.0
 74
     0
 49
-0.75
 74
     0
 49
1.5
 74
     0
 49
-0.75
 74
     0
  0
LTYPE
  5
2740
330
5
100
AcDbSymbolTableRecord
100
AcDbLinetypeTableRecord
  2
AM_ISO02W050x2
 70
     0
  3
 _ _ _ _ _ _ _ _ _ _ _ _
 72
    65
 73
     2
 40
3.75
 49
3.0
 74
     0
 49
-0.75
 74
     0
  0
LTYPE
  5
2741
330
5
100
AcDbSymbolTableRecord
100
AcDbLinetypeTableRecord
  2
Amzigzag
 70
     0
  3
/\/-/\/-/\/-/\/-/\/-/\/
 72
    65
 73
     2
 40
11.0001
 49
0.0001
 74
     4
 75
   135
340
10F4
 46
0.04
 50
0.0
 44
0.0
 45
0.0
 49
-11.0
 74
     0
  0
ENDTAB
  0
TABLE
  2
LAYER
  5
2
102
{ACAD_XDICTIONARY
360
10FA
102
}
330
0
100
AcDbSymbolTable
 70
    21
  0
LAYER
  5
10
102
{ACAD_XDICTIONARY
360
21CB
102
}
330
2
100
AcDbSymbolTableRecord
100
AcDbLayerTableRecord
  2
0
 70
     0
 62
     7
  6
Continuous
370
    -3
390
F
  0
LAYER
  5
877
330
2
100
AcDbSymbolTableRecord
100
AcDbLayerTableRecord
  2
Defpoints
 70
     0
 62
     7
  6
Continuous
290
     0
370
    -3
390
F
  0
LAYER
  5
10E0
102
{ACAD_XDICTIONARY
360
21CD
102
}
330
2
100
AcDbSymbolTableRecord
100
AcDbLayerTableRecord
  2
AM_TR
 70
     0
 62
     7
  6
Continuous
370
    -3
390
F
  0
LAYER
  5
10E1
102
{ACAD_XDICTIONARY
360
21CF
102
}
330
2
100
AcDbSymbolTableRecord
100
AcDbLayerTableRecord
  2
AM_BM
 70
     0
 62
     7
  6
Continuous
370
    -3
390
F
  0
LAYER
  5
10E2
102
{ACAD_XDICTIONARY
360
21D1
102
}
330
2
100
AcDbSymbolTableRecord
100
AcDbLayerTableRecord
  2
AM_BL
 70
     0
 62
     7
  6
Continuous
370
    -3
390
F
  0
LAYER
  5
10E3
102
{ACAD_XDICTIONARY
360
21D3
102
}
330
2
100
AcDbSymbolTableRecord
100
AcDbLayerTableRecord
  2
AM_VIEWS
 70
     0
 62
     7
  6
Continuous
370
    -3
390
F
  0
LAYER
  5
10E4
102
{ACAD_XDICTIONARY
360
21D5
102
}
330
2
100
AcDbSymbolTableRecord
100
AcDbLayerTableRecord
  2
AM_PARDIM
 70
     0
 62
     3
  6
Continuous
370
    -3
390
F
  0
LAYER
  5
10E5
102
{ACAD_XDICTIONARY
360
21D7
102
}
330
2
100
AcDbSymbolTableRecord
100
AcDbLayerTableRecord
  2
AM_REFDIM
 70
     0
 62
     4
  6
Continuous
370
    -3
390
F
  0
LAYER
  5
10E6
102
{ACAD_XDICTIONARY
360
21D9
102
}
330
2
100
AcDbSymbolTableRecord
100
AcDbLayerTableRecord
  2
AM_VIS
 70
     0
 62
     7
  6
Continuous
370
    -3
390
F
  0
LAYER
  5
10E7
102
{ACAD_XDICTIONARY
360
21DB
102
}
330
2
100
AcDbSymbolTableRecord
100
AcDbLayerTableRecord
  2
AM_HID
 70
     0
 62
     7
  6
HIDDEN
370
    -3
390
F
  0
LAYER
  5
10E8
102
{ACAD_XDICTIONARY
360
21DD
102
}
330
2
100
AcDbSymbolTableRecord
100
AcDbLayerTableRecord
  2
ZUMENWAKU
 70
     0
 62
     3
  6
Continuous
370
    -3
390
F
  0
LAYER
  5
10E9
102
{ACAD_XDICTIONARY
360
21DF
102
}
330
2
100
AcDbSymbolTableRecord
100
AcDbLayerTableRecord
  2
CENTER
 70
     0
 62
     1
  6
CENTERX2
370
    -3
390
F
  0
LAYER
  5
10EA
102
{ACAD_XDICTIONARY
360
21E1
102
}
330
2
100
AcDbSymbolTableRecord
100
AcDbLayerTableRecord
  2
GAIKEI
 70
     0
 62
     4
  6
Continuous
370
    -3
390
F
  0
LAYER
  5
10EB
102
{ACAD_XDICTIONARY
360
21E3
102
}
330
2
100
AcDbSymbolTableRecord
100
AcDbLayerTableRecord
  2
SUNPOU
 70
     0
 62
     9
  6
Continuous
370
    -3
390
F
  0
LAYER
  5
10EC
102
{ACAD_XDICTIONARY
360
21E5
102
}
330
2
100
AcDbSymbolTableRecord
100
AcDbLayerTableRecord
  2
KAKURE
 70
     0
 62
     2
  6
DASHEDX2
370
    -3
390
F
  0
LAYER
  5
10ED
102
{ACAD_XDICTIONARY
360
21E7
102
}
330
2
100
AcDbSymbolTableRecord
100
AcDbLayerTableRecord
  2
HIHYOUJI
 70
     0
 62
     7
  6
DASHEDX2
370
    -3
390
F
  0
LAYER
  5
10EE
102
{ACAD_XDICTIONARY
360
21E9
102
}
330
2
100
AcDbSymbolTableRecord
100
AcDbLayerTableRecord
  2
通常線
 70
     0
 62
     7
  6
Continuous
370
    -3
390
F
  0
LAYER
  5
10EF
102
{ACAD_XDICTIONARY
360
21EB
102
}
330
2
100
AcDbSymbolTableRecord
100
AcDbLayerTableRecord
  2
寸法線
 70
     0
 62
     4
  6
Continuous
370
    -3
390
F
  0
LAYER
  5
10F0
102
{ACAD_XDICTIONARY
360
21ED
102
}
330
2
100
AcDbSymbolTableRecord
100
AcDbLayerTableRecord
  2
外形線
 70
     0
 62
     7
  6
Continuous
370
    -3
390
F
  0
LAYER
  5
10F1
102
{ACAD_XDICTIONARY
360
21EF
102
}
330
2
100
AcDbSymbolTableRecord
100
AcDbLayerTableRecord
  2
中心線2
 70
     0
 62
     1
  6
CENTER2
370
    -3
390
F
  0
LAYER
  5
10F2
102
{ACAD_XDICTIONARY
360
21F1
102
}
330
2
100
AcDbSymbolTableRecord
100
AcDbLayerTableRecord
  2
補助線
 70
     0
 62
     3
  6
Continuous
370
     0
390
F
  0
ENDTAB
  0
TABLE
  2
STYLE
  5
3
330
0
100
AcDbSymbolTable
 70
     5
  0
STYLE
  5
11
330
3
100
AcDbSymbolTableRecord
100
AcDbTextStyleTableRecord
  2
Standard
 70
     0
 40
0.0
 41
1.0
 50
0.0
 71
     0
 42
2.5
  3
romans.shx
  4
extfont.shx
  0
STYLE
  5
10F3
330
3
100
AcDbSymbolTableRecord
100
AcDbTextStyleTableRecord
  2
MSG
 70
     0
 40
0.0
 41
1.0
 50
0.0
 71
     0
 42
2.5
  3
MS Gothic.ttf
  4

1001
ACAD
1000
MS Gothic
1071
    32817
  0
STYLE
  5
10F4
330
3
100
AcDbSymbolTableRecord
100
AcDbTextStyleTableRecord
  2

 70
     1
 40
0.0
 41
1.0
 50
0.0
 71
     0
 42
2.5
  3
ltypeshp.shx
  4

  0
STYLE
  5
2197
330
3
100
AcDbSymbolTableRecord
100
AcDbTextStyleTableRecord
  2
ACISOTS
 70
     0
 40
1.0
 41
1.0
 50
0.0
 71
     0
 42
2.5
  3
isocp.shx
  4
extfont.shx
  0
STYLE
  5
21A6
330
3
100
AcDbSymbolTableRecord
100
AcDbTextStyleTableRecord
  2
ACISOGDT
 70
     0
 40
0.0
 41
1.0
 50
0.0
 71
     0
 42
2.5
  3
amgdt.shx
  4

  0
ENDTAB
  0
TABLE
  2
VIEW
  5
6
330
0
100
AcDbSymbolTable
 70
     0
  0
ENDTAB
  0
TABLE
  2
UCS
  5
7
330
0
100
AcDbSymbolTable
 70
     0
  0
ENDTAB
  0
TABLE
  2
APPID
  5
9
330
0
100
AcDbSymbolTable
 70
    27
  0
APPID
  5
12
330
9
100
AcDbSymbolTableRecord
100
AcDbRegAppTableRecord
  2
ACAD
 70
     0
  0
APPID
  5
9E
330
9
100
AcDbSymbolTableRecord
100
AcDbRegAppTableRecord
  2
ACAD_PSEXT
 70
     0
  0
APPID
  5
10A
330
9
100
AcDbSymbolTableRecord
100
AcDbRegAppTableRecord
  2
ACAD_EXEMPT_FROM_CAD_STANDARDS
 70
     0
  0
APPID
  5
2C6
330
9
100
AcDbSymbolTableRecord
100
AcDbRegAppTableRecord
  2
ACAD_DSTYLE_DIMTEXT_FILL
 70
     0
  0
APPID
  5
2C7
330
9
100
AcDbSymbolTableRecord
100
AcDbRegAppTableRecord
  2
ACAD_DSTYLE_DIMEXT_LENGTH
 70
     0
  0
APPID
  5
2C8
330
9
100
AcDbSymbolTableRecord
100
AcDbRegAppTableRecord
  2
ACAD_DSTYLE_DIMEXT_ENABLED
 70
     0
  0
APPID
  5
2C9
330
9
100
AcDbSymbolTableRecord
100
AcDbRegAppTableRecord
  2
ACAD_DSTYLE_DIM_LINETYPE
 70
     0
  0
APPID
  5
2CA
330
9
100
AcDbSymbolTableRecord
100
AcDbRegAppTableRecord
  2
ACAD_DSTYLE_DIM_EXT1_LINETYPE
 70
     0
  0
APPID
  5
2CB
330
9
100
AcDbSymbolTableRecord
100
AcDbRegAppTableRecord
  2
ACAD_DSTYLE_DIM_EXT2_LINETYPE
 70
     0
  0
APPID
  5
387
330
9
100
AcDbSymbolTableRecord
100
AcDbRegAppTableRecord
  2
ACAD_DSTYLE_DIMJOGGED_JOGANGLE_SYMBOL
 70
     0
  0
APPID
  5
841
330
9
100
AcDbSymbolTableRecord
100
AcDbRegAppTableRecord
  2
ACAD_DSTYLE_DIMARC_LENGTH_SYMBOL
 70
     0
  0
APPID
  5
10F6
330
9
100
AcDbSymbolTableRecord
100
AcDbRegAppTableRecord
  2
MCAD_NO_VIS
 70
     0
  0
APPID
  5
10F7
330
9
100
AcDbSymbolTableRecord
100
AcDbRegAppTableRecord
  2
AD_DRAW
 70
     0
  0
APPID
  5
10F8
330
9
100
AcDbSymbolTableRecord
100
AcDbRegAppTableRecord
  2
DESIGNERASSEMBLIES
 70
     0
  0
APPID
  5
10F9
330
9
100
AcDbSymbolTableRecord
100
AcDbRegAppTableRecord
  2
ASURF_PCURVE_APPNAME
 70
     0
  0
APPID
  5
20C9
330
9
100
AcDbSymbolTableRecord
100
AcDbRegAppTableRecord
  2
ACAD_MLEADERVER
 70
     0
  0
APPID
  5
20CF
330
9
100
AcDbSymbolTableRecord
100
AcDbRegAppTableRecord
  2
GENIUS_GENDIM_13
 70
     0
  0
APPID
  5
20D0
330
9
100
AcDbSymbolTableRecord
100
AcDbRegAppTableRecord
  2
GENIUS_GENDTOL_13
 70
     0
  0
APPID
  5
20D1
330
9
100
AcDbSymbolTableRecord
100
AcDbRegAppTableRecord
  2
GENIUS_GE3DTOL_13
 70
     0
  0
APPID
  5
20D4
330
9
100
AcDbSymbolTableRecord
100
AcDbRegAppTableRecord
  2
ACAD_TEMP_GRAPHIC
 70
     0
  0
APPID
  5
2105
330
9
100
AcDbSymbolTableRecord
100
AcDbRegAppTableRecord
  2
ACATTRIBSERVICES
 70
     0
  0
APPID
  5
2153
330
9
100
AcDbSymbolTableRecord
100
AcDbRegAppTableRecord
  2
AMG_3D2D_5.0
 70
     0
  0
APPID
  5
218E
330
9
100
AcDbSymbolTableRecord
100
AcDbRegAppTableRecord
  2
ACADM_DIM_EDIT
 70
     0
  0
APPID
  5
218F
330
9
100
AcDbSymbolTableRecord
100
AcDbRegAppTableRecord
  2
AMDT_DM_ADJ
 70
     0
  0
APPID
  5
21C1
330
9
100
AcDbSymbolTableRecord
100
AcDbRegAppTableRecord
  2
GENIUS_GENSCREG_15
 70
     0
  0
APPID
  5
21C2
330
9
100
AcDbSymbolTableRecord
100
AcDbRegAppTableRecord
  2
GENIUS_GENOBJ-N-SDF_13
 70
     0
  0
APPID
  5
21C3
330
9
100
AcDbSymbolTableRecord
100
AcDbRegAppTableRecord
  2
GENIUS_GENODEF_13
 70
     0
  0
ENDTAB
  0
TABLE
  2
DIMSTYLE
  5
A
330
0
100
AcDbSymbolTable
 70
     9
100
AcDbDimStyleTable
 71
     1
340
27
  0
DIMSTYLE
105
27
102
{ACAD_REACTORS
330
88F
330
8B0
330
8DB
330
1D15
330
1D2D
330
245F
102
}
330
A
100
AcDbSymbolTableRecord
100
AcDbDimStyleTableRecord
  2
ISO-25
 70
     0
 41
3.0
 42
1.0
 43
3.75
 44
1.25
 73
     0
 74
     0
 77
     1
 78
     8
140
2.5
141
2.5
143
0.03937007874016
147
0.625
171
     3
172
     1
271
     2
272
     2
274
     3
278
    44
283
     0
284
     8
340
11
341
5F8
342
5F8
1001
ACAD_DSTYLE_DIMEXT_LENGTH
1070
   378
1040
1.25
1001
ACAD_DSTYLE_DIMJOGGED_JOGANGLE_SYMBOL
1070
   384
1040
1.570796326794896
  0
DIMSTYLE
105
10F5
330
A
100
AcDbSymbolTableRecord
100
AcDbDimStyleTableRecord
  2
STANDARD
 70
     0
340
11
  0
DIMSTYLE
105
21B4
330
A
100
AcDbSymbolTableRecord
100
AcDbDimStyleTableRecord
  2
AM_ISO
 70
     0
  4
"
 41
2.5
 42
1.0
 43
10.0
 44
1.0
 47
0.1
 48
0.1
 73
     0
 74
     0
 77
     1
 78
     8
 79
     2
140
3.5
141
0.0
143
0.0393701
146
0.71
147
1.5
172
     1
176
   256
177
   256
178
     2
271
     2
272
     3
274
     4
283
     0
284
     8
340
11
371
    -1
372
    -1
1001
ACAD_DSTYLE_DIMARC_LENGTH_SYMBOL
1070
   379
1070
     1
  0
DIMSTYLE
105
21B5
330
A
100
AcDbSymbolTableRecord
100
AcDbDimStyleTableRecord
  2
AM_ISO$3
 70
     0
  4
"
 41
2.5
 42
1.0
 43
10.0
 44
1.0
 47
0.1
 48
0.1
 73
     0
 77
     1
 78
     8
 79
     2
140
3.5
141
0.0
143
0.0393701
146
0.71
147
1.5
176
   256
177
   256
178
     2
271
     2
272
     3
274
     4
283
     0
284
     8
288
     1
289
     0
340
11
371
    -1
372
    -1
1001
ACAD_DSTYLE_DIMARC_LENGTH_SYMBOL
1070
   379
1070
     1
  0
DIMSTYLE
105
21B6
330
A
100
AcDbSymbolTableRecord
100
AcDbDimStyleTableRecord
  2
AM_ISO$4
 70
     0
  4
"
 41
2.5
 42
1.0
 43
10.0
 44
1.0
 47
0.1
 48
0.1
 73
     0
 77
     1
 78
     8
 79
     2
140
3.5
141
0.0
143
0.0393701
146
0.71
147
1.5
176
   256
177
   256
178
     2
271
     2
272
     3
274
     4
283
     0
284
     8
288
     1
289
     0
340
11
371
    -1
372
    -1
1001
ACAD_DSTYLE_DIMARC_LENGTH_SYMBOL
1070
   379
1070
     1
  0
DIMSTYLE
105
21B7
330
A
100
AcDbSymbolTableRecord
100
AcDbDimStyleTableRecord
  2
AM_ISO$6
 70
     0
  4
"
 41
2.5
 42
1.0
 43
10.0
 44
1.0
 47
0.1
 48
0.1
 73
     0
 74
     0
 78
     8
 79
     2
140
3.5
141
0.0
143
0.0393701
146
0.71
147
1.5
172
     1
176
   256
177
   256
178
     2
271
     2
272
     3
274
     4
283
     0
284
     8
340
11
371
    -1
372
    -1
1001
ACAD_DSTYLE_DIMARC_LENGTH_SYMBOL
1070
   379
1070
     1
  0
DIMSTYLE
105
21B8
330
A
100
AcDbSymbolTableRecord
100
AcDbDimStyleTableRecord
  2
AM_ISO$7
 70
     0
  4
"
 41
2.5
 42
1.0
 43
10.0
 44
1.0
 47
0.1
 48
0.1
 73
     0
 74
     0
 77
     1
 78
     8
 79
     2
140
5.0
141
0.0
143
0.0393701
146
0.71
147
1.5
172
     1
176
   256
177
   256
178
     2
271
     2
272
     3
274
     4
283
     0
284
     8
340
11
371
    -1
372
    -1
1001
ACAD_DSTYLE_DIMARC_LENGTH_SYMBOL
1070
   379
1070
     1
  0
DIMSTYLE
105
21B9
330
A
100
AcDbSymbolTableRecord
100
AcDbDimStyleTableRecord
  2
AM_ISO$SF
 70
     0
  4
"
 41
2.5
 42
1.0
 43
10.0
 44
1.0
 47
0.1
 48
0.1
 73
     0
 74
     0
 75
     1
 76
     1
 77
     1
 78
     8
 79
     2
140
3.5
141
0.0
143
0.0393701
146
0.71
147
1.5
172
     1
176
   256
177
   256
178
     2
271
     2
272
     3
274
     4
283
     0
284
     8
340
11
371
    -1
372
    -1
1001
ACAD_DSTYLE_DIMARC_LENGTH_SYMBOL
1070
   379
1070
     1
  0
DIMSTYLE
105
21BE
330
A
100
AcDbSymbolTableRecord
100
AcDbDimStyleTableRecord
  2
AM_ISO$SH
 70
     0
  4
"
 41
2.5
 42
1.0
 43
10.0
 44
1.0
 47
0.1
 48
0.1
 73
     0
 74
     0
 75
     1
 76
     1
 77
     1
 78
     8
 79
     2
140
3.5
141
0.0
143
0.0393701
144
2.0
146
0.71
147
1.5
172
     1
173
     1
176
   256
177
   256
178
     2
271
     2
272
     3
274
     4
283
     0
284
     8
340
11
343
21BA
371
    -1
372
    -1
1001
ACAD_DSTYLE_DIMARC_LENGTH_SYMBOL
1070
   379
1070
     1
  0
ENDTAB
  0
TABLE
  2
BLOCK_RECORD
  5
1
330
0
100
AcDbSymbolTable
 70
    16
  0
BLOCK_RECORD
  5
1F
102
{ACAD_XDICTIONARY
360
15F
102
}
330
1
100
AcDbSymbolTableRecord
100
AcDbBlockTableRecord
  2
*Model_Space
340
22
  0
BLOCK_RECORD
  5
2062
330
1
100
AcDbSymbolTableRecord
100
AcDbBlockTableRecord
  2
*Paper_Space
340
2063
  0
BLOCK_RECORD
  5
5F8
330
1
100
AcDbSymbolTableRecord
100
AcDbBlockTableRecord
  2
_Open30
340
0
102
{BLKREFS
331
1F99
331
1F9A
331
2402
331
2403
331
244F
331
2450
331
2784
331
2785
331
278D
331
278E
331
2796
331
2797
331
279F
331
27A0
331
27A8
331
27A9
331
27B1
331
27B2
102
}
  0
BLOCK_RECORD
  5
890
330
1
100
AcDbSymbolTableRecord
100
AcDbBlockTableRecord
  2
*D1
340
0
  0
BLOCK_RECORD
  5
8B1
330
1
100
AcDbSymbolTableRecord
100
AcDbBlockTableRecord
  2
*D2
340
0
  0
BLOCK_RECORD
  5
8DC
330
1
100
AcDbSymbolTableRecord
100
AcDbBlockTableRecord
  2
*D3
340
0
  0
BLOCK_RECORD
  5
93D
330
1
100
AcDbSymbolTableRecord
100
AcDbBlockTableRecord
  2
*D4
340
0
  0
BLOCK_RECORD
  5
D78
102
{ACAD_XDICTIONARY
360
D92
102
}
330
1
100
AcDbSymbolTableRecord
100
AcDbBlockTableRecord
  2
A$C22641174
340
0
1001
ACAD
1000
DesignCenter Data
1002
{
1070
     1
1070
     4
1002
}
  0
BLOCK_RECORD
  5
10FC
102
{ACAD_XDICTIONARY
360
1170
102
}
330
1
100
AcDbSymbolTableRecord
100
AcDbBlockTableRecord
  2
枠A4品名
340
0
  0
BLOCK_RECORD
  5
1D16
330
1
100
AcDbSymbolTableRecord
100
AcDbBlockTableRecord
  2
*D7
340
0
  0
BLOCK_RECORD
  5
1D2E
330
1
100
AcDbSymbolTableRecord
100
AcDbBlockTableRecord
  2
*D8
340
0
  0
BLOCK_RECORD
  5
21BA
330
1
100
AcDbSymbolTableRecord
100
AcDbBlockTableRecord
  2
GENAXEH
340
0
  0
BLOCK_RECORD
  5
23FD
330
1
100
AcDbSymbolTableRecord
100
AcDbBlockTableRecord
  2
*D10
340
0
  0
BLOCK_RECORD
  5
2449
330
1
100
AcDbSymbolTableRecord
100
AcDbBlockTableRecord
  2
*D11
340
0
  0
BLOCK_RECORD
  5
2473
330
1
100
AcDbSymbolTableRecord
100
AcDbBlockTableRecord
  2
*D12
340
0
  0
ENDTAB
  0
ENDSEC
  0
SECTION
  2
BLOCKS
  0
BLOCK
  5
20
330
1F
100
AcDbEntity
  8
0
100
AcDbBlockBegin
  2
*Model_Space
 70
     0
 10
0.0
 20
0.0
 30
0.0
  3
*Model_Space
  1

  0
ENDBLK
  5
21
330
1F
100
AcDbEntity
  8
0
100
AcDbBlockEnd
  0
BLOCK
  5
2064
330
2062
100
AcDbEntity
 67
     1
  8
0
100
AcDbBlockBegin
  2
*Paper_Space
 70
     0
 10
0.0
 20
0.0
 30
0.0
  3
*Paper_Space
  1

  0
ENDBLK
  5
2065
330
2062
100
AcDbEntity
 67
     1
  8
0
100
AcDbBlockEnd
  0
BLOCK
  5
5FC
330
5F8
100
AcDbEntity
  8
0
100
AcDbBlockBegin
  2
_Open30
 70
     0
 10
0.0
 20
0.0
 30
0.0
  3
_Open30
  1

  0
LINE
  5
5F9
330
5F8
100
AcDbEntity
  8
0
  6
ByBlock
 62
     0
370
    -2
100
AcDbLine
 10
-1.0
 20
0.26794919
 30
0.0
 11
0.0
 21
0.0
 31
0.0
  0
LINE
  5
5FA
330
5F8
100
AcDbEntity
  8
0
  6
ByBlock
 62
     0
370
    -2
100
AcDbLine
 10
0.0
 20
0.0
 30
0.0
 11
-1.0
 21
-0.26794919
 31
0.0
  0
LINE
  5
5FB
330
5F8
100
AcDbEntity
  8
0
  6
ByBlock
 62
     0
370
    -2
100
AcDbLine
 10
0.0
 20
0.0
 30
0.0
 11
-1.0
 21
0.0
 31
0.0
  0
ENDBLK
  5
5FD
330
5F8
100
AcDbEntity
  8
0
100
AcDbBlockEnd
  0
BLOCK
  5
89A
330
890
100
AcDbEntity
  8
0
100
AcDbBlockBegin
  2
*D1
 70
     1
 10
0.0
 20
0.0
 30
0.0
  3
*D1
  1

  0
LINE
  5
27AE
330
890
100
AcDbEntity
  8
0
 62
     0
370
    -2
100
AcDbLine
 10
820.7091819606766
 20
661.9638135508172
 30
0.0
 11
820.7091819606766
 21
651.3894412231425
 31
0.0
  0
LINE
  5
27AF
330
890
100
AcDbEntity
  8
0
 62
     0
370
    -2
100
AcDbLine
 10
780.7091819606767
 20
661.9638135508172
 30
0.0
 11
780.7091819606767
 21
651.3894412231425
 31
0.0
  0
LINE
  5
27B0
330
890
100
AcDbEntity
  8
0
 62
     0
370
    -2
100
AcDbLine
 10
817.7091819606765
 20
652.6394412231425
 30
0.0
 11
783.7091819606767
 21
652.6394412231425
 31
0.0
  0
INSERT
  5
27B1
330
890
100
AcDbEntity
  8
0
 62
     0
370
    -2
100
AcDbBlockReference
  2
_Open30
 10
820.7091819606766
 20
652.6394412231425
 30
0.0
 41
3.0
 42
3.0
 43
3.0
  0
INSERT
  5
27B2
330
890
100
AcDbEntity
  8
0
 62
     0
370
    -2
100
AcDbBlockReference
  2
_Open30
 10
780.7091819606767
 20
652.6394412231425
 30
0.0
 41
3.0
 42
3.0
 43
3.0
 50
180.0
  0
MTEXT
  5
27B3
330
890
100
AcDbEntity
  8
0
 62
     0
100
AcDbMText
 10
800.7091819606767
 20
655.3894412231425
 30
0.0
 40
3.5
 41
0.0
 71
     5
 72
     1
  1
40
 73
     1
 44
1.0
1001
ACAD
1000
MTEXTBEGIN
1070
    73
1070
     1
1070
    44
1040
1.0
1070
    74
1070
     0
1000
MTEXTEND
  0
POINT
  5
27B4
330
890
100
AcDbEntity
  8
Defpoints
 62
     0
100
AcDbPoint
 10
820.7091819606766
 20
664.9638135508172
 30
0.0
  0
POINT
  5
27B5
330
890
100
AcDbEntity
  8
Defpoints
 62
     0
100
AcDbPoint
 10
780.7091819606767
 20
664.9638135508172
 30
0.0
  0
POINT
  5
27B6
330
890
100
AcDbEntity
  8
Defpoints
 62
     0
100
AcDbPoint
 10
780.7091819606767
 20
652.6394412231425
 30
0.0
  0
ENDBLK
  5
89B
330
890
100
AcDbEntity
  8
0
100
AcDbBlockEnd
  0
BLOCK
  5
8BB
330
8B1
100
AcDbEntity
  8
0
100
AcDbBlockBegin
  2
*D2
 70
     1
 10
0.0
 20
0.0
 30
0.0
  3
*D2
  1

  0
LINE
  5
279C
330
8B1
100
AcDbEntity
  8
0
 62
     0
370
    -2
100
AcDbLine
 10
628.0018920871242
 20
661.9638135508177
 30
0.0
 11
628.0018920871242
 21
640.4373705455127
 31
0.0
  0
LINE
  5
279D
330
8B1
100
AcDbEntity
  8
0
 62
     0
370
    -2
100
AcDbLine
 10
748.0018920871241
 20
661.9638135508172
 30
0.0
 11
748.0018920871241
 21
640.4373705455127
 31
0.0
  0
LINE
  5
279E
330
8B1
100
AcDbEntity
  8
0
 62
     0
370
    -2
100
AcDbLine
 10
631.0018920871242
 20
641.6873705455127
 30
0.0
 11
745.0018920871241
 21
641.6873705455127
 31
0.0
  0
INSERT
  5
279F
330
8B1
100
AcDbEntity
  8
0
 62
     0
370
    -2
100
AcDbBlockReference
  2
_Open30
 10
628.0018920871242
 20
641.6873705455127
 30
0.0
 41
3.0
 42
3.0
 43
3.0
 50
180.0
  0
INSERT
  5
27A0
330
8B1
100
AcDbEntity
  8
0
 62
     0
370
    -2
100
AcDbBlockReference
  2
_Open30
 10
748.0018920871241
 20
641.6873705455127
 30
0.0
 41
3.0
 42
3.0
 43
3.0
  0
MTEXT
  5
27A1
330
8B1
100
AcDbEntity
  8
0
 62
     0
100
AcDbMText
 10
688.0018920871241
 20
644.4373705455127
 30
0.0
 40
3.5
 41
0.0
 71
     5
 72
     1
  1
120
 73
     1
 44
1.0
1001
ACAD
1000
MTEXTBEGIN
1070
    73
1070
     1
1070
    44
1040
1.0
1070
    74
1070
     0
1000
MTEXTEND
  0
POINT
  5
27A2
330
8B1
100
AcDbEntity
  8
Defpoints
 62
     0
100
AcDbPoint
 10
628.0018920871242
 20
664.9638135508176
 30
0.0
  0
POINT
  5
27A3
330
8B1
100
AcDbEntity
  8
Defpoints
 62
     0
100
AcDbPoint
 10
748.0018920871241
 20
664.9638135508172
 30
0.0
  0
POINT
  5
27A4
330
8B1
100
AcDbEntity
  8
Defpoints
 62
     0
100
AcDbPoint
 10
748.0018920871241
 20
641.6873705455127
 30
0.0
  0
ENDBLK
  5
8BC
330
8B1
100
AcDbEntity
  8
0
100
AcDbBlockEnd
  0
BLOCK
  5
8E6
330
8DC
100
AcDbEntity
  8
0
100
AcDbBlockBegin
  2
*D3
 70
     1
 10
0.0
 20
0.0
 30
0.0
  3
*D3
  1

  0
LINE
  5
278A
330
8DC
100
AcDbEntity
  8
0
 62
     0
370
    -2
100
AcDbLine
 10
624.9424796256743
 20
664.9638135508176
 30
0.0
 11
603.1785419727718
 21
664.9638135508176
 31
0.0
  0
LINE
  5
278B
330
8DC
100
AcDbEntity
  8
0
 62
     0
370
    -2
100
AcDbLine
 10
624.9424796256743
 20
764.9638135508175
 30
0.0
 11
603.1785419727718
 21
764.9638135508175
 31
0.0
  0
LINE
  5
278C
330
8DC
100
AcDbEntity
  8
0
 62
     0
370
    -2
100
AcDbLine
 10
604.4285419727718
 20
667.9638135508176
 30
0.0
 11
604.4285419727718
 21
761.9638135508175
 31
0.0
  0
INSERT
  5
278D
330
8DC
100
AcDbEntity
  8
0
 62
     0
370
    -2
100
AcDbBlockReference
  2
_Open30
 10
604.4285419727718
 20
664.9638135508176
 30
0.0
 41
3.0
 42
3.0
 43
3.0
 50
270.0
  0
INSERT
  5
278E
330
8DC
100
AcDbEntity
  8
0
 62
     0
370
    -2
100
AcDbBlockReference
  2
_Open30
 10
604.4285419727718
 20
764.9638135508175
 30
0.0
 41
3.0
 42
3.0
 43
3.0
 50
90.0
  0
MTEXT
  5
278F
330
8DC
100
AcDbEntity
  8
0
 62
     0
100
AcDbMText
 10
601.6785419727717
 20
714.9638135508175
 30
0.0
 40
3.5
 41
0.0
 71
     5
 72
     1
  1
100
 11
0.0000000000000001
 21
1.0
 31
0.0
 73
     1
 44
1.0
1001
ACAD
1000
MTEXTBEGIN
1070
    73
1070
     1
1070
    44
1040
1.0
1070
    74
1070
     0
1000
MTEXTEND
  0
POINT
  5
2790
330
8DC
100
AcDbEntity
  8
Defpoints
 62
     0
100
AcDbPoint
 10
627.9424796256742
 20
664.9638135508176
 30
0.0
  0
POINT
  5
2791
330
8DC
100
AcDbEntity
  8
Defpoints
 62
     0
100
AcDbPoint
 10
627.9424796256742
 20
764.9638135508175
 30
0.0
  0
POINT
  5
2792
330
8DC
100
AcDbEntity
  8
Defpoints
 62
     0
100
AcDbPoint
 10
604.4285419727718
 20
764.9638135508175
 30
0.0
  0
ENDBLK
  5
8E7
330
8DC
100
AcDbEntity
  8
0
100
AcDbBlockEnd
  0
BLOCK
  5
947
330
93D
100
AcDbEntity
  8
0
100
AcDbBlockBegin
  2
*D4
 70
     1
 10
0.0
 20
0.0
 30
0.0
  3
*D4
  1

  0
LINE
  5
1F96
330
93D
100
AcDbEntity
  8
0
 62
     0
370
    -2
100
AcDbLine
 10
652.0018920871242
 20
792.9638135508175
 30
0.0
 11
652.0018920871242
 21
796.9884790449205
 31
0.0
  0
LINE
  5
1F97
330
93D
100
AcDbEntity
  8
0
 62
     0
370
    -2
100
AcDbLine
 10
724.0018920871241
 20
792.9638135508175
 30
0.0
 11
724.0018920871241
 21
796.9884790449205
 31
0.0
  0
LINE
  5
1F98
330
93D
100
AcDbEntity
  8
0
 62
     0
370
    -2
100
AcDbLine
 10
655.0018920871242
 20
795.7384790449204
 30
0.0
 11
721.0018920871241
 21
795.7384790449204
 31
0.0
  0
INSERT
  5
1F99
330
93D
100
AcDbEntity
  8
0
 62
     0
370
    -2
100
AcDbBlockReference
  2
_Open30
 10
652.0018920871242
 20
795.7384790449204
 30
0.0
 41
3.0
 42
3.0
 43
3.0
 50
180.0
  0
INSERT
  5
1F9A
330
93D
100
AcDbEntity
  8
0
 62
     0
370
    -2
100
AcDbBlockReference
  2
_Open30
 10
724.0018920871241
 20
795.7384790449204
 30
0.0
 41
3.0
 42
3.0
 43
3.0
  0
MTEXT
  5
1F9B
330
93D
100
AcDbEntity
  8
0
 62
     0
100
AcDbMText
 10
688.0018920871241
 20
798.4884790449201
 30
0.0
 40
3.5
 41
0.0
 71
     5
 72
     1
  1
72
 73
     1
 44
1.0
1001
ACAD
1000
MTEXTBEGIN
1070
    73
1070
     1
1070
    44
1040
1.0
1070
    74
1070
     0
1000
MTEXTEND
  0
POINT
  5
1F9C
330
93D
100
AcDbEntity
  8
Defpoints
 62
     0
100
AcDbPoint
 10
652.0018920871242
 20
789.9638135508175
 30
0.0
  0
POINT
  5
1F9D
330
93D
100
AcDbEntity
  8
Defpoints
 62
     0
100
AcDbPoint
 10
724.0018920871241
 20
789.9638135508175
 30
0.0
  0
POINT
  5
1F9E
330
93D
100
AcDbEntity
  8
Defpoints
 62
     0
100
AcDbPoint
 10
724.0018920871241
 20
795.7384790449204
 30
0.0
  0
ENDBLK
  5
948
330
93D
100
AcDbEntity
  8
0
100
AcDbBlockEnd
  0
BLOCK
  5
D94
330
D78
100
AcDbEntity
  8
0
100
AcDbBlockBegin
  2
A$C22641174
 70
     0
 10
0.0
 20
0.0
 30
0.0
  3
A$C22641174
  1

  0
LINE
  5
D79
330
D78
100
AcDbEntity
  8
0
100
AcDbLine
 10
0.0
 20
0.0
 30
0.0
 11
0.0
 21
-12.0
 31
0.0
  0
LINE
  5
D7A
330
D78
100
AcDbEntity
  8
0
100
AcDbLine
 10
0.0
 20
-12.0
 30
0.0
 11
5.0
 21
-12.0
 31
0.0
  0
LINE
  5
D7B
330
D78
100
AcDbEntity
  8
0
100
AcDbLine
 10
5.0
 20
-12.0
 30
0.0
 11
5.0
 21
0.0
 31
0.0
  0
LINE
  5
D7C
330
D78
100
AcDbEntity
  8
0
100
AcDbLine
 10
5.0
 20
0.0
 30
0.0
 11
0.0
 21
0.0
 31
0.0
  0
LINE
  5
D7D
330
D78
100
AcDbEntity
  8
0
100
AcDbLine
 10
0.0
 20
0.0
 30
0.0
 11
0.0
 21
-1.5
 31
0.0
  0
LINE
  5
D7E
330
D78
100
AcDbEntity
  8
0
100
AcDbLine
 10
1.0
 20
-1.5
 30
0.0
 11
3.0
 21
-1.5
 31
0.0
  0
LINE
  5
D7F
330
D78
100
AcDbEntity
  8
0
100
AcDbLine
 10
3.0
 20
-1.5
 30
0.0
 11
3.0
 21
-3.5
 31
0.0
  0
LINE
  5
D80
330
D78
100
AcDbEntity
  8
0
100
AcDbLine
 10
3.0
 20
-3.5
 30
0.0
 11
1.0
 21
-3.5
 31
0.0
  0
LINE
  5
D81
330
D78
100
AcDbEntity
  8
0
100
AcDbLine
 10
1.0
 20
-3.5
 30
0.0
 11
1.0
 21
-1.5
 31
0.0
  0
LINE
  5
D82
330
D78
100
AcDbEntity
  8
0
100
AcDbLine
 10
0.0
 20
-12.0
 30
0.0
 11
0.5
 21
-12.0
 31
0.0
  0
LINE
  5
D83
330
D78
100
AcDbEntity
  8
0
100
AcDbLine
 10
0.5
 20
-12.0
 30
0.0
 11
0.5
 21
-9.0
 31
0.0
  0
LINE
  5
D84
330
D78
100
AcDbEntity
  8
0
100
AcDbLine
 10
0.5
 20
-9.0
 30
0.0
 11
2.5
 21
-9.0
 31
0.0
  0
LINE
  5
D85
330
D78
100
AcDbEntity
  8
0
100
AcDbLine
 10
3.5
 20
-10.0
 30
0.0
 11
3.5
 21
-12.0
 31
0.0
  0
LINE
  5
D86
330
D78
100
AcDbEntity
  8
0
100
AcDbLine
 10
2.5
 20
-9.0
 30
0.0
 11
2.5
 21
-10.0
 31
0.0
  0
LINE
  5
D87
330
D78
100
AcDbEntity
  8
0
100
AcDbLine
 10
2.5
 20
-10.0
 30
0.0
 11
3.5
 21
-10.0
 31
0.0
  0
LINE
  5
D88
330
D78
100
AcDbEntity
  8
0
100
AcDbLine
 10
1.0
 20
-3.899999999999976
 30
0.0
 11
3.100000000000021
 21
-3.899999999999976
 31
0.0
  0
LINE
  5
D89
330
D78
100
AcDbEntity
  8
0
100
AcDbLine
 10
4.100000000000021
 20
-3.899999999999976
 30
0.0
 11
4.100000000000021
 21
-6.899999999999977
 31
0.0
  0
LINE
  5
D8A
330
D78
100
AcDbEntity
  8
0
100
AcDbLine
 10
3.100000000000021
 20
-6.899999999999977
 30
0.0
 11
1.0
 21
-6.899999999999977
 31
0.0
  0
LINE
  5
D8B
330
D78
100
AcDbEntity
  8
0
100
AcDbLine
 10
1.0
 20
-6.899999999999977
 30
0.0
 11
1.0
 21
-3.899999999999976
 31
0.0
  0
LINE
  5
D8C
330
D78
100
AcDbEntity
  8
0
100
AcDbLine
 10
4.100000000000021
 20
-3.899999999999976
 30
0.0
 11
4.100000000000021
 21
-3.399999999999976
 31
0.0
  0
LINE
  5
D8D
330
D78
100
AcDbEntity
  8
0
100
AcDbLine
 10
4.100000000000021
 20
-3.399999999999976
 30
0.0
 11
3.100000000000021
 21
-3.399999999999976
 31
0.0
  0
LINE
  5
D8E
330
D78
100
AcDbEntity
  8
0
100
AcDbLine
 10
3.100000000000021
 20
-3.399999999999976
 30
0.0
 11
3.100000000000021
 21
-3.899999999999976
 31
0.0
  0
LINE
  5
D8F
330
D78
100
AcDbEntity
  8
0
100
AcDbLine
 10
4.100000000000021
 20
-6.899999999999977
 30
0.0
 11
4.100000000000021
 21
-7.399999999999977
 31
0.0
  0
LINE
  5
D90
330
D78
100
AcDbEntity
  8
0
100
AcDbLine
 10
4.100000000000021
 20
-7.399999999999977
 30
0.0
 11
3.100000000000021
 21
-7.399999999999977
 31
0.0
  0
LINE
  5
D91
330
D78
100
AcDbEntity
  8
0
100
AcDbLine
 10
3.100000000000021
 20
-7.399999999999977
 30
0.0
 11
3.100000000000021
 21
-6.899999999999977
 31
0.0
  0
ENDBLK
  5
D95
330
D78
100
AcDbEntity
  8
0
100
AcDbBlockEnd
  0
BLOCK
  5
1171
330
10FC
100
AcDbEntity
  8
0
100
AcDbBlockBegin
  2
枠A4品名
 70
     0
 10
0.0
 20
0.0
 30
0.0
  3
枠A4品名
  1

  0
LWPOLYLINE
  5
10FD
330
10FC
100
AcDbEntity
  8
ZUMENWAKU
100
AcDbPolyline
 90
        4
 70
     1
 43
0.5
 10
8.0
 20
9.0
 10
290.0
 20
9.0
 10
290.0
 20
192.0
 10
8.0
 20
192.0
  0
LWPOLYLINE
  5
10FE
330
10FC
100
AcDbEntity
  8
ZUMENWAKU
100
AcDbPolyline
 90
        3
 70
     0
 43
0.5
 10
8.0
 20
9.0
 10
8.0
 20
40.0
 10
290.0
 20
40.0
  0
LWPOLYLINE
  5
10FF
330
10FC
100
AcDbEntity
  8
ZUMENWAKU
100
AcDbPolyline
 90
        3
 70
     0
 43
0.5
 10
8.0
 20
40.0
 10
124.0
 20
40.0
 10
124.0
 20
9.0
  0
LINE
  5
1100
330
10FC
100
AcDbEntity
  8
ZUMENWAKU
100
AcDbLine
 10
14.0
 20
9.0
 30
0.0
 11
14.0
 21
40.0
 31
0.0
  0
LWPOLYLINE
  5
1101
330
10FC
100
AcDbEntity
  8
ZUMENWAKU
100
AcDbPolyline
 90
        3
 70
     0
 43
0.5
 10
124.0
 20
40.0
 10
140.5
 20
40.0
 10
140.5
 20
9.0
  0
LINE
  5
1102
330
10FC
100
AcDbEntity
  8
0
100
AcDbLine
 10
135.0
 20
34.0
 30
0.0
 11
135.0
 21
9.0
 31
0.0
  0
LINE
  5
1103
330
10FC
100
AcDbEntity
  8
0
100
AcDbLine
 10
160.5
 20
9.0
 30
0.0
 11
160.5
 21
40.0
 31
0.0
  0
LINE
  5
1104
330
10FC
100
AcDbEntity
  8
0
100
AcDbLine
 10
175.5
 20
9.0
 30
0.0
 11
175.5
 21
29.0
 31
0.0
  0
LINE
  5
1105
330
10FC
100
AcDbEntity
  8
0
100
AcDbLine
 10
200.5
 20
9.0
 30
0.0
 11
200.5
 21
29.0
 31
0.0
  0
LINE
  5
1106
330
10FC
100
AcDbEntity
  8
0
100
AcDbLine
 10
230.5
 20
9.0
 30
0.0
 11
230.5
 21
40.0
 31
0.0
  0
LINE
  5
1107
330
10FC
100
AcDbEntity
  8
0
100
AcDbLine
 10
230.5
 20
9.0
 30
0.0
 11
230.5
 21
14.0
 31
0.0
  0
LINE
  5
1108
330
10FC
100
AcDbEntity
  8
0
100
AcDbLine
 10
200.5
 20
14.0
 30
0.0
 11
160.5
 21
14.0
 31
0.0
  0
LINE
  5
1109
330
10FC
100
AcDbEntity
  8
0
100
AcDbLine
 10
200.5
 20
19.0
 30
0.0
 11
124.0
 21
19.0
 31
0.0
  0
LINE
  5
110A
330
10FC
100
AcDbEntity
  8
0
100
AcDbLine
 10
230.5
 20
24.0
 30
0.0
 11
124.0
 21
24.0
 31
0.0
  0
LINE
  5
110B
330
10FC
100
AcDbEntity
  8
0
100
AcDbLine
 10
230.5
 20
29.0
 30
0.0
 11
124.0
 21
29.0
 31
0.0
  0
LINE
  5
110C
330
10FC
100
AcDbEntity
  8
0
100
AcDbLine
 10
140.5
 20
34.0
 30
0.0
 11
124.0
 21
34.0
 31
0.0
  0
LINE
  5
110D
330
10FC
100
AcDbEntity
  8
0
100
AcDbLine
 10
140.5
 20
14.0
 30
0.0
 11
124.0
 21
14.0
 31
0.0
  0
LINE
  5
110E
330
10FC
100
AcDbEntity
  8
0
100
AcDbLine
 10
290.0
 20
21.0
 30
0.0
 11
230.5
 21
21.0
 31
0.0
  0
LINE
  5
110F
330
10FC
100
AcDbEntity
  8
0
100
AcDbLine
 10
290.0
 20
34.0
 30
0.0
 11
230.5
 21
34.0
 31
0.0
  0
LINE
  5
1110
330
10FC
100
AcDbEntity
  8
0
100
AcDbLine
 10
284.0
 20
9.0
 30
0.0
 11
284.0
 21
21.0
 31
0.0
  0
TEXT
  5
1111
330
10FC
100
AcDbEntity
  8
0
100
AcDbText
 10
232.0
 20
31.5
 30
0.0
 40
2.0
  1
TITLE
100
AcDbText
  0
TEXT
  5
1112
330
10FC
100
AcDbEntity
  8
0
100
AcDbText
 10
232.0
 20
18.5
 30
0.0
 40
2.0
  1
DWG.No.
100
AcDbText
  0
TEXT
  5
1113
330
10FC
100
AcDbEntity
  8
0
100
AcDbText
 10
209.1918845455416
 20
26.5
 30
0.0
 40
2.0
  1
検      認
100
AcDbText
  0
TEXT
  5
1114
330
10FC
100
AcDbEntity
  8
0
100
AcDbText
 10
162.0
 20
26.5
 30
0.0
 40
2.0
  1
 作成日付
100
AcDbText
  0
TEXT
  5
1115
330
10FC
100
AcDbEntity
  8
0
100
AcDbText
 10
163.5
 20
21.5
 30
0.0
 40
2.0
  1
作   成
100
AcDbText
  0
TEXT
  5
1116
330
10FC
100
AcDbEntity
  8
0
100
AcDbText
 10
163.5
 20
16.5
 30
0.0
 40
2.0
  1
照   査
100
AcDbText
  0
TEXT
  5
1117
330
10FC
100
AcDbEntity
  8
0
100
AcDbText
 10
163.5
 20
11.5
 30
0.0
 40
2.0
  1
設   計
100
AcDbText
  0
TEXT
  5
1118
330
10FC
100
AcDbEntity
  8
0
100
AcDbText
 10
142.0
 20
20.5
 30
0.0
 40
2.0
  1
尺度   SCALE
100
AcDbText
  0
TEXT
  5
1119
330
10FC
100
AcDbEntity
  8
0
100
AcDbText
 10
125.0
 20
36.0
 30
0.0
 40
2.0
  1
出図先(     )
 41
0.95
100
AcDbText
  0
TEXT
  5
111A
330
10FC
100
AcDbEntity
  8
0
100
AcDbText
 10
125.0
 20
30.5
 30
0.0
 40
2.0
  1
控
100
AcDbText
  0
TEXT
  5
111B
330
10FC
100
AcDbEntity
  8
0
100
AcDbText
 10
163.5
 20
24.5
 30
0.0
 40
1.5
  1
 DATE
100
AcDbText
  0
TEXT
  5
111C
330
10FC
100
AcDbEntity
  8
0
100
AcDbText
 10
163.5
 20
19.5
 30
0.0
 40
1.5
  1
DRAWN
100
AcDbText
  0
TEXT
  5
111D
330
10FC
100
AcDbEntity
  8
0
100
AcDbText
 10
162.5
 20
14.5
 30
0.0
 40
1.5
  1
CHECKED
100
AcDbText
  0
TEXT
  5
111E
330
10FC
100
AcDbEntity
  8
0
100
AcDbText
 10
162.0
 20
9.5
 30
0.0
 40
1.5
  1
DESIGNED
100
AcDbText
  0
TEXT
  5
111F
330
10FC
100
AcDbEntity
  8
0
100
AcDbText
 10
142.0
 20
25.5
 30
0.0
 40
1.5
  1
DIM.IN
100
AcDbText
  0
TEXT
  5
1120
330
10FC
100
AcDbEntity
  8
0
100
AcDbText
 10
209.1918845455416
 20
24.5
 30
0.0
 40
1.5
  1
APPROVED
100
AcDbText
  0
TEXT
  5
1121
330
10FC
100
AcDbEntity
  8
0
100
AcDbText
 10
146.0
 20
11.0
 30
0.0
 40
1.5
  1
  NTS
100
AcDbText
  0
TEXT
  5
1122
330
10FC
100
AcDbEntity
  8
0
100
AcDbText
 10
148.5
 20
14.5
 30
0.0
 40
3.0
  1
:
100
AcDbText
  0
TEXT
  5
1123
330
10FC
100
AcDbEntity
  8
0
100
AcDbText
 10
164.5
 20
32.5
 30
0.0
 40
3.5
  1
三菱電機システムサービス株式会社
 41
0.75
  7
MSG
100
AcDbText
  0
TEXT
  5
1124
330
10FC
100
AcDbEntity
  8
0
100
AcDbText
 10
12.5
 20
11.0
 30
0.0
 40
2.5
  1
改    定
 50
90.0
100
AcDbText
  0
TEXT
  5
1125
330
10FC
100
AcDbEntity
  8
0
100
AcDbText
 10
12.5
 20
26.0
 30
0.0
 40
2.0
  1
CHANGE
 50
90.0
100
AcDbText
  0
LINE
  5
1126
330
10FC
100
AcDbEntity
  8
0
100
AcDbLine
 10
290.0
 20
40.0
 30
0.0
 11
294.0
 21
40.0
 31
0.0
  0
LINE
  5
1127
330
10FC
100
AcDbEntity
  8
0
100
AcDbLine
 10
290.0
 20
78.0
 30
0.0
 11
294.0
 21
78.0
 31
0.0
  0
LINE
  5
1128
330
10FC
100
AcDbEntity
  8
0
100
AcDbLine
 10
290.0
 20
116.0
 30
0.0
 11
294.0
 21
116.0
 31
0.0
  0
LINE
  5
1129
330
10FC
100
AcDbEntity
  8
0
100
AcDbLine
 10
290.0
 20
154.0
 30
0.0
 11
294.0
 21
154.0
 31
0.0
  0
LINE
  5
112A
330
10FC
100
AcDbEntity
  8
0
100
AcDbLine
 10
8.0
 20
40.0
 30
0.0
 11
4.0
 21
40.0
 31
0.0
  0
LINE
  5
112B
330
10FC
100
AcDbEntity
  8
0
100
AcDbLine
 10
8.0
 20
78.0
 30
0.0
 11
4.0
 21
78.0
 31
0.0
  0
LINE
  5
112C
330
10FC
100
AcDbEntity
  8
0
100
AcDbLine
 10
8.0
 20
116.0
 30
0.0
 11
4.0
 21
116.0
 31
0.0
  0
LINE
  5
112D
330
10FC
100
AcDbEntity
  8
0
100
AcDbLine
 10
8.0
 20
154.0
 30
0.0
 11
4.0
 21
154.0
 31
0.0
  0
LINE
  5
112E
330
10FC
100
AcDbEntity
  8
ZUMENWAKU
100
AcDbLine
 10
8.0
 20
192.0
 30
0.0
 11
64.5
 21
192.0
 31
0.0
  0
LINE
  5
112F
330
10FC
100
AcDbEntity
  8
0
100
AcDbLine
 10
64.5
 20
192.0
 30
0.0
 11
64.5
 21
196.0
 31
0.0
  0
LINE
  5
1130
330
10FC
100
AcDbEntity
  8
0
100
AcDbLine
 10
121.0
 20
192.0
 30
0.0
 11
121.0
 21
196.0
 31
0.0
  0
LINE
  5
1131
330
10FC
100
AcDbEntity
  8
0
100
AcDbLine
 10
177.5
 20
192.0
 30
0.0
 11
177.5
 21
196.0
 31
0.0
  0
LINE
  5
1132
330
10FC
100
AcDbEntity
  8
0
100
AcDbLine
 10
234.0
 20
192.0
 30
0.0
 11
234.0
 21
196.0
 31
0.0
  0
LINE
  5
1133
330
10FC
100
AcDbEntity
  8
0
100
AcDbLine
 10
64.5
 20
9.0
 30
0.0
 11
64.5
 21
5.0
 31
0.0
  0
LINE
  5
1134
330
10FC
100
AcDbEntity
  8
0
100
AcDbLine
 10
121.0
 20
9.0
 30
0.0
 11
121.0
 21
5.0
 31
0.0
  0
LINE
  5
1135
330
10FC
100
AcDbEntity
  8
0
100
AcDbLine
 10
177.5
 20
9.0
 30
0.0
 11
177.5
 21
5.0
 31
0.0
  0
LINE
  5
1136
330
10FC
100
AcDbEntity
  8
0
100
AcDbLine
 10
234.0
 20
9.0
 30
0.0
 11
234.0
 21
5.0
 31
0.0
  0
TEXT
  5
1137
330
10FC
100
AcDbEntity
  8
0
100
AcDbText
 10
36.0
 20
192.5
 30
0.0
 40
2.5
  1
1
  7
MSG
100
AcDbText
  0
TEXT
  5
1138
330
10FC
100
AcDbEntity
  8
0
100
AcDbText
 10
92.5
 20
192.5
 30
0.0
 40
2.5
  1
2
  7
MSG
100
AcDbText
  0
TEXT
  5
1139
330
10FC
100
AcDbEntity
  8
0
100
AcDbText
 10
149.0
 20
192.5
 30
0.0
 40
2.5
  1
3
  7
MSG
100
AcDbText
  0
TEXT
  5
113A
330
10FC
100
AcDbEntity
  8
0
100
AcDbText
 10
205.5
 20
192.5
 30
0.0
 40
2.5
  1
4
  7
MSG
100
AcDbText
  0
TEXT
  5
113B
330
10FC
100
AcDbEntity
  8
0
100
AcDbText
 10
262.0
 20
192.5
 30
0.0
 40
2.5
  1
5
  7
MSG
100
AcDbText
  0
TEXT
  5
113C
330
10FC
100
AcDbEntity
  8
0
100
AcDbText
 10
36.0
 20
6.0
 30
0.0
 40
2.5
  1
1
  7
MSG
100
AcDbText
  0
TEXT
  5
113D
330
10FC
100
AcDbEntity
  8
0
100
AcDbText
 10
92.5
 20
6.0
 30
0.0
 40
2.5
  1
2
  7
MSG
100
AcDbText
  0
TEXT
  5
113E
330
10FC
100
AcDbEntity
  8
0
100
AcDbText
 10
149.0
 20
6.0
 30
0.0
 40
2.5
  1
3
  7
MSG
100
AcDbText
  0
TEXT
  5
113F
330
10FC
100
AcDbEntity
  8
0
100
AcDbText
 10
205.5
 20
6.0
 30
0.0
 40
2.5
  1
4
  7
MSG
100
AcDbText
  0
TEXT
  5
1140
330
10FC
100
AcDbEntity
  8
0
100
AcDbText
 10
262.0
 20
6.0
 30
0.0
 40
2.5
  1
5
  7
MSG
100
AcDbText
  0
TEXT
  5
1141
330
10FC
100
AcDbEntity
  8
0
100
AcDbText
 10
290.5
 20
172.0
 30
0.0
 40
2.5
  1
A
  7
MSG
100
AcDbText
  0
TEXT
  5
1142
330
10FC
100
AcDbEntity
  8
0
100
AcDbText
 10
290.5
 20
134.0
 30
0.0
 40
2.5
  1
B
  7
MSG
100
AcDbText
  0
TEXT
  5
1143
330
10FC
100
AcDbEntity
  8
0
100
AcDbText
 10
290.5
 20
96.0
 30
0.0
 40
2.5
  1
C
  7
MSG
100
AcDbText
  0
TEXT
  5
1144
330
10FC
100
AcDbEntity
  8
0
100
AcDbText
 10
290.5
 20
58.0
 30
0.0
 40
2.5
  1
D
  7
MSG
100
AcDbText
  0
TEXT
  5
1145
330
10FC
100
AcDbEntity
  8
0
100
AcDbText
 10
5.0
 20
58.0
 30
0.0
 40
2.5
  1
D
  7
MSG
100
AcDbText
  0
TEXT
  5
1146
330
10FC
100
AcDbEntity
  8
0
100
AcDbText
 10
5.0
 20
96.0
 30
0.0
 40
2.5
  1
C
  7
MSG
100
AcDbText
  0
TEXT
  5
1147
330
10FC
100
AcDbEntity
  8
0
100
AcDbText
 10
5.0
 20
134.0
 30
0.0
 40
2.5
  1
B
  7
MSG
100
AcDbText
  0
TEXT
  5
1148
330
10FC
100
AcDbEntity
  8
0
100
AcDbText
 10
5.0
 20
172.0
 30
0.0
 40
2.5
  1
A
  7
MSG
100
AcDbText
  0
LWPOLYLINE
  5
1149
330
10FC
100
AcDbEntity
  8
ZUMENWAKU
100
AcDbPolyline
 90
        2
 70
     0
 43
0.2
 10
8.0
 20
100.5
 10
4.0
 20
100.5
  0
LWPOLYLINE
  5
114A
330
10FC
100
AcDbEntity
  8
0
100
AcDbPolyline
 90
        2
 70
     0
 43
0.2
 10
149.0
 20
9.0
 10
149.0
 20
2.5
  0
LWPOLYLINE
  5
114B
330
10FC
100
AcDbEntity
  8
0
100
AcDbPolyline
 90
        2
 70
     0
 43
0.2
 10
149.0373092383328
 20
192.0348838619283
 10
149.0373092383328
 20
199.0
  0
LWPOLYLINE
  5
114C
330
10FC
100
AcDbEntity
  8
ZUMENWAKU
100
AcDbPolyline
 90
        2
 70
     0
 43
0.2
 10
290.0776605601444
 20
100.2906975129531
 10
294.0
 20
100.2906975129531
  0
LINE
  5
114D
330
10FC
100
AcDbEntity
  8
0
100
AcDbLine
 10
270.0
 20
192.0
 30
0.0
 11
270.0
 21
150.0
 31
0.0
  0
LINE
  5
114E
330
10FC
100
AcDbEntity
  8
0
100
AcDbLine
 10
255.0
 20
192.0
 30
0.0
 11
255.0
 21
150.0
 31
0.0
  0
LINE
  5
114F
330
10FC
100
AcDbEntity
  8
0
100
AcDbLine
 10
220.0
 20
192.0
 30
0.0
 11
220.0
 21
150.0
 31
0.0
  0
LINE
  5
1150
330
10FC
100
AcDbEntity
  8
0
100
AcDbLine
 10
195.0
 20
192.0
 30
0.0
 11
195.0
 21
150.0
 31
0.0
  0
LINE
  5
1151
330
10FC
100
AcDbEntity
  8
0
100
AcDbLine
 10
155.0
 20
192.0
 30
0.0
 11
155.0
 21
150.0
 31
0.0
  0
LINE
  5
1152
330
10FC
100
AcDbEntity
  8
0
100
AcDbLine
 10
145.0
 20
192.0
 30
0.0
 11
145.0
 21
150.0
 31
0.0
  0
LINE
  5
1153
330
10FC
100
AcDbEntity
  8
0
100
AcDbLine
 10
145.0
 20
150.0
 30
0.0
 11
290.0
 21
150.0
 31
0.0
  0
LINE
  5
1154
330
10FC
100
AcDbEntity
  8
0
100
AcDbLine
 10
145.0
 20
155.0
 30
0.0
 11
290.0
 21
155.0
 31
0.0
  0
LINE
  5
1155
330
10FC
100
AcDbEntity
  8
0
100
AcDbLine
 10
145.0
 20
160.0
 30
0.0
 11
290.0
 21
160.0
 31
0.0
  0
LINE
  5
1156
330
10FC
100
AcDbEntity
  8
0
100
AcDbLine
 10
145.0
 20
165.0
 30
0.0
 11
290.0
 21
165.0
 31
0.0
  0
LINE
  5
1157
330
10FC
100
AcDbEntity
  8
0
100
AcDbLine
 10
145.0
 20
170.0
 30
0.0
 11
290.0
 21
170.0
 31
0.0
  0
LINE
  5
1158
330
10FC
100
AcDbEntity
  8
0
100
AcDbLine
 10
145.0
 20
175.0
 30
0.0
 11
290.0
 21
175.0
 31
0.0
  0
LINE
  5
1159
330
10FC
100
AcDbEntity
  8
0
100
AcDbLine
 10
145.0
 20
180.0
 30
0.0
 11
290.0
 21
180.0
 31
0.0
  0
LINE
  5
115A
330
10FC
100
AcDbEntity
  8
0
100
AcDbLine
 10
145.0
 20
185.0
 30
0.0
 11
290.0
 21
185.0
 31
0.0
  0
TEXT
  5
115B
330
10FC
100
AcDbEntity
  8
0
100
AcDbText
 10
147.0
 20
187.0
 30
0.0
 40
2.5
  1
品 番
100
AcDbText
  0
TEXT
  5
115C
330
10FC
100
AcDbEntity
  8
0
100
AcDbText
 10
164.0
 20
187.0
 30
0.0
 40
2.5
  1
  品      名
100
AcDbText
  0
TEXT
  5
115D
330
10FC
100
AcDbEntity
  8
0
100
AcDbText
 10
196.0
 20
188.5
 30
0.0
 40
2.5
  1
 部品番号又ハ
100
AcDbText
  0
TEXT
  5
115E
330
10FC
100
AcDbEntity
  8
0
100
AcDbText
 10
196.0
 20
185.5
 30
0.0
 40
2.5
  1
 図面番号
100
AcDbText
  0
TEXT
  5
115F
330
10FC
100
AcDbEntity
  8
0
100
AcDbText
 10
224.0
 20
187.0
 30
0.0
 40
2.5
  1
  材料  ・  寸法
100
AcDbText
  0
TEXT
  5
1160
330
10FC
100
AcDbEntity
  8
0
100
AcDbText
 10
255.5
 20
188.5
 30
0.0
 40
2.5
  1
所要数
100
AcDbText
  0
TEXT
  5
1161
330
10FC
100
AcDbEntity
  8
0
100
AcDbText
 10
267.0
 20
185.5
 30
0.0
 40
2.5
  1
個
100
AcDbText
  0
TEXT
  5
1162
330
10FC
100
AcDbEntity
  8
0
100
AcDbText
 10
272.0
 20
187.0
 30
0.0
 40
2.5
  1
  備   考
100
AcDbText
  0
LINE
  5
1163
330
10FC
100
AcDbEntity
  8
0
100
AcDbLine
 10
267.8830458108059
 20
190.6857904266631
 30
0.0
 11
262.5218263304639
 21
185.8644607774656
 31
0.0
  0
MTEXT
  5
1164
330
10FC
100
AcDbEntity
  8
0
100
AcDbMText
 10
153.0
 20
26.0
 30
0.0
 40
1.5
 41
5.5
 71
     4
 72
     5
  1
mm
 73
     1
 44
1.0
1001
ACAD
1000
MTEXTBEGIN
1070
    73
1070
     1
1070
    44
1040
1.0
1070
    74
1070
     0
1000
MTEXTEND
  0
CIRCLE
  5
1165
330
10FC
100
AcDbEntity
  8
0
100
AcDbCircle
 10
146.0
 20
34.0
 30
0.0
 40
2.0
  0
CIRCLE
  5
1166
330
10FC
100
AcDbEntity
  8
0
100
AcDbCircle
 10
146.0
 20
34.0
 30
0.0
 40
3.0
  0
LINE
  5
1167
330
10FC
100
AcDbEntity
  8
0
100
AcDbLine
 10
150.5
 20
36.0
 30
0.0
 11
150.5
 21
32.0
 31
0.0
  0
LINE
  5
1168
330
10FC
100
AcDbEntity
  8
0
100
AcDbLine
 10
158.5
 20
37.0
 30
0.0
 11
158.5
 21
31.0
 31
0.0
  0
LINE
  5
1169
330
10FC
100
AcDbEntity
  8
0
100
AcDbLine
 10
150.5
 20
36.0
 30
0.0
 11
158.5
 21
37.0
 31
0.0
  0
LINE
  5
116A
330
10FC
100
AcDbEntity
  8
0
100
AcDbLine
 10
158.5
 20
31.0
 30
0.0
 11
150.5
 21
32.0
 31
0.0
  0
LINE
  5
116B
330
10FC
100
AcDbEntity
  8
CENTER
100
AcDbLine
 10
146.0
 20
34.0
 30
0.0
 11
159.5
 21
34.0
 31
0.0
  0
LINE
  5
116C
330
10FC
100
AcDbEntity
  8
CENTER
100
AcDbLine
 10
146.0
 20
34.0
 30
0.0
 11
142.0
 21
34.0
 31
0.0
  0
LINE
  5
116D
330
10FC
100
AcDbEntity
  8
CENTER
100
AcDbLine
 10
146.0
 20
34.0
 30
0.0
 11
146.0
 21
38.5
 31
0.0
  0
LINE
  5
116E
330
10FC
100
AcDbEntity
  8
CENTER
100
AcDbLine
 10
146.0
 20
34.0
 30
0.0
 11
146.0
 21
30.0
 31
0.0
  0
TEXT
  5
116F
330
10FC
100
AcDbEntity
  8
0
100
AcDbText
 10
148.5
 20
181.5
 30
0.0
 40
2.5
  1

100
AcDbText
  0
ENDBLK
  5
1172
330
10FC
100
AcDbEntity
  8
0
100
AcDbBlockEnd
  0
BLOCK
  5
1D20
330
1D16
100
AcDbEntity
  8
0
100
AcDbBlockBegin
  2
*D7
 70
     1
 10
0.0
 20
0.0
 30
0.0
  3
*D7
  1

  0
LINE
  5
2781
330
1D16
100
AcDbEntity
  8
0
 62
     0
370
    -2
100
AcDbLine
 10
625.0018920871242
 20
669.9638135508172
 30
0.0
 11
613.6973304984478
 21
669.9638135508172
 31
0.0
  0
LINE
  5
2782
330
1D16
100
AcDbEntity
  8
0
 62
     0
370
    -2
100
AcDbLine
 10
625.0018920871242
 20
759.9638135508175
 30
0.0
 11
613.6973304984478
 21
759.9638135508175
 31
0.0
  0
LINE
  5
2783
330
1D16
100
AcDbEntity
  8
0
 62
     0
370
    -2
100
AcDbLine
 10
614.9473304984478
 20
672.9638135508172
 30
0.0
 11
614.9473304984478
 21
756.9638135508175
 31
0.0
  0
INSERT
  5
2784
330
1D16
100
AcDbEntity
  8
0
 62
     0
370
    -2
100
AcDbBlockReference
  2
_Open30
 10
614.9473304984478
 20
669.9638135508172
 30
0.0
 41
3.0
 42
3.0
 43
3.0
 50
270.0
  0
INSERT
  5
2785
330
1D16
100
AcDbEntity
  8
0
 62
     0
370
    -2
100
AcDbBlockReference
  2
_Open30
 10
614.9473304984478
 20
759.9638135508175
 30
0.0
 41
3.0
 42
3.0
 43
3.0
 50
90.0
  0
MTEXT
  5
2786
330
1D16
100
AcDbEntity
  8
0
 62
     0
100
AcDbMText
 10
612.1973304984477
 20
714.9638135508175
 30
0.0
 40
3.5
 41
0.0
 71
     5
 72
     1
  1
90
 11
0.0000000000000001
 21
1.0
 31
0.0
 73
     1
 44
1.0
1001
ACAD
1000
MTEXTBEGIN
1070
    73
1070
     1
1070
    44
1040
1.0
1070
    74
1070
     0
1000
MTEXTEND
  0
POINT
  5
2787
330
1D16
100
AcDbEntity
  8
Defpoints
 62
     0
100
AcDbPoint
 10
628.0018920871242
 20
669.9638135508172
 30
0.0
  0
POINT
  5
2788
330
1D16
100
AcDbEntity
  8
Defpoints
 62
     0
100
AcDbPoint
 10
628.0018920871242
 20
759.9638135508175
 30
0.0
  0
POINT
  5
2789
330
1D16
100
AcDbEntity
  8
Defpoints
 62
     0
100
AcDbPoint
 10
614.9473304984478
 20
759.9638135508175
 30
0.0
  0
ENDBLK
  5
1D21
330
1D16
100
AcDbEntity
  8
0
100
AcDbBlockEnd
  0
BLOCK
  5
1D38
330
1D2E
100
AcDbEntity
  8
0
100
AcDbBlockBegin
  2
*D8
 70
     1
 10
0.0
 20
0.0
 30
0.0
  3
*D8
  1

  0
LINE
  5
2793
330
1D2E
100
AcDbEntity
  8
0
 62
     0
370
    -2
100
AcDbLine
 10
633.0018920871244
 20
661.9638135508177
 30
0.0
 11
633.0018920871244
 21
650.8936827926272
 31
0.0
  0
LINE
  5
2794
330
1D2E
100
AcDbEntity
  8
0
 62
     0
370
    -2
100
AcDbLine
 10
743.0018920871246
 20
661.9638135508172
 30
0.0
 11
743.0018920871246
 21
650.8936827926272
 31
0.0
  0
LINE
  5
2795
330
1D2E
100
AcDbEntity
  8
0
 62
     0
370
    -2
100
AcDbLine
 10
636.0018920871243
 20
652.1436827926272
 30
0.0
 11
740.0018920871246
 21
652.1436827926272
 31
0.0
  0
INSERT
  5
2796
330
1D2E
100
AcDbEntity
  8
0
 62
     0
370
    -2
100
AcDbBlockReference
  2
_Open30
 10
633.0018920871244
 20
652.1436827926272
 30
0.0
 41
3.0
 42
3.0
 43
3.0
 50
180.0
  0
INSERT
  5
2797
330
1D2E
100
AcDbEntity
  8
0
 62
     0
370
    -2
100
AcDbBlockReference
  2
_Open30
 10
743.0018920871246
 20
652.1436827926272
 30
0.0
 41
3.0
 42
3.0
 43
3.0
  0
MTEXT
  5
2798
330
1D2E
100
AcDbEntity
  8
0
 62
     0
100
AcDbMText
 10
688.0018920871244
 20
654.8936827926272
 30
0.0
 40
3.5
 41
0.0
 71
     5
 72
     1
  1
110
 73
     1
 44
1.0
1001
ACAD
1000
MTEXTBEGIN
1070
    73
1070
     1
1070
    44
1040
1.0
1070
    74
1070
     0
1000
MTEXTEND
  0
POINT
  5
2799
330
1D2E
100
AcDbEntity
  8
Defpoints
 62
     0
100
AcDbPoint
 10
633.0018920871244
 20
664.9638135508176
 30
0.0
  0
POINT
  5
279A
330
1D2E
100
AcDbEntity
  8
Defpoints
 62
     0
100
AcDbPoint
 10
743.0018920871246
 20
664.9638135508172
 30
0.0
  0
POINT
  5
279B
330
1D2E
100
AcDbEntity
  8
Defpoints
 62
     0
100
AcDbPoint
 10
743.0018920871246
 20
652.1436827926272
 30
0.0
  0
ENDBLK
  5
1D39
330
1D2E
100
AcDbEntity
  8
0
100
AcDbBlockEnd
  0
BLOCK
  5
21BC
330
21BA
100
AcDbEntity
  8
0
100
AcDbBlockBegin
  2
GENAXEH
 70
     0
 10
0.0
 20
0.0
 30
0.0
  3
GENAXEH
  1

  0
LINE
  5
21BB
330
21BA
100
AcDbEntity
  8
0
100
AcDbLine
 10
-1.0
 20
0.0
 30
0.0
 11
1.0
 21
0.0
 31
0.0
  0
ENDBLK
  5
21BD
330
21BA
100
AcDbEntity
  8
0
100
AcDbBlockEnd
  0
BLOCK
  5
23FE
330
23FD
100
AcDbEntity
  8
0
100
AcDbBlockBegin
  2
*D10
 70
     1
 10
0.0
 20
0.0
 30
0.0
  3
*D10
  1

  0
LINE
  5
23FF
330
23FD
100
AcDbEntity
  8
0
 62
     0
370
    -2
100
AcDbLine
 10
177.1910609856098
 20
259.514287134056
 30
0.0
 11
146.028404389348
 21
259.514287134056
 31
0.0
  0
LINE
  5
2400
330
23FD
100
AcDbEntity
  8
0
 62
     0
370
    -2
100
AcDbLine
 10
156.1896988470671
 20
184.614287134056
 30
0.0
 11
146.028404389348
 21
184.614287134056
 31
0.0
  0
LINE
  5
2401
330
23FD
100
AcDbEntity
  8
0
 62
     0
370
    -2
100
AcDbLine
 10
147.2784043893481
 20
256.5142871340559
 30
0.0
 11
147.2784043893481
 21
187.614287134056
 31
0.0
  0
INSERT
  5
2402
330
23FD
100
AcDbEntity
  8
0
 62
     0
370
    -2
100
AcDbBlockReference
  2
_Open30
 10
147.2784043893481
 20
259.514287134056
 30
0.0
 41
3.0
 42
3.0
 43
3.0
 50
90.0
  0
INSERT
  5
2403
330
23FD
100
AcDbEntity
  8
0
 62
     0
370
    -2
100
AcDbBlockReference
  2
_Open30
 10
147.2784043893481
 20
184.614287134056
 30
0.0
 41
3.0
 42
3.0
 43
3.0
 50
270.0
  0
MTEXT
  5
2404
330
23FD
100
AcDbEntity
  8
0
 62
     0
100
AcDbMText
 10
144.5284043893481
 20
222.064287134056
 30
0.0
 40
3.5
 41
0.0
 71
     5
 72
     1
  1
75
 11
0.0000000000000001
 21
1.0
 31
0.0
 73
     1
 44
1.0
1001
ACAD
1000
MTEXTBEGIN
1070
    73
1070
     1
1070
    44
1040
1.0
1070
    74
1070
     0
1000
MTEXTEND
  0
POINT
  5
2405
330
23FD
100
AcDbEntity
  8
Defpoints
 62
     0
100
AcDbPoint
 10
180.1910609856098
 20
259.514287134056
 30
0.0
  0
POINT
  5
2406
330
23FD
100
AcDbEntity
  8
Defpoints
 62
     0
100
AcDbPoint
 10
159.1896988470671
 20
184.614287134056
 30
0.0
  0
POINT
  5
2407
330
23FD
100
AcDbEntity
  8
Defpoints
 62
     0
100
AcDbPoint
 10
147.2784043893481
 20
184.614287134056
 30
0.0
  0
ENDBLK
  5
2408
330
23FD
100
AcDbEntity
  8
0
100
AcDbBlockEnd
  0
BLOCK
  5
244A
330
2449
100
AcDbEntity
  8
0
100
AcDbBlockBegin
  2
*D11
 70
     1
 10
0.0
 20
0.0
 30
0.0
  3
*D11
  1

  0
LINE
  5
244C
330
2449
100
AcDbEntity
  8
0
 62
     0
370
    -2
100
AcDbLine
 10
755.777867022549
 20
893.3681668293642
 30
0.0
 11
722.6152104262873
 21
893.3681668293642
 31
0.0
  0
LINE
  5
244D
330
2449
100
AcDbEntity
  8
0
 62
     0
370
    -2
100
AcDbLine
 10
734.7765048840065
 20
818.4681668293645
 30
0.0
 11
722.6152104262873
 21
818.4681668293645
 31
0.0
  0
LINE
  5
244E
330
2449
100
AcDbEntity
  8
0
 62
     0
370
    -2
100
AcDbLine
 10
723.8652104262873
 20
890.3681668293645
 30
0.0
 11
723.8652104262873
 21
821.4681668293643
 31
0.0
  0
INSERT
  5
244F
330
2449
100
AcDbEntity
  8
0
 62
     0
370
    -2
100
AcDbBlockReference
  2
_Open30
 10
723.8652104262873
 20
893.3681668293642
 30
0.0
 41
3.0
 42
3.0
 43
3.0
 50
90.0
  0
INSERT
  5
2450
330
2449
100
AcDbEntity
  8
0
 62
     0
370
    -2
100
AcDbBlockReference
  2
_Open30
 10
723.8652104262873
 20
818.4681668293645
 30
0.0
 41
3.0
 42
3.0
 43
3.0
 50
270.0
  0
MTEXT
  5
2451
330
2449
100
AcDbEntity
  8
0
 62
     0
100
AcDbMText
 10
721.9902104262872
 20
855.9181668293645
 30
0.0
 40
2.5
 41
0.0
 71
     5
 72
     1
  1
75
 11
0.0000000000000001
 21
1.0
 31
0.0
 73
     1
 44
1.0
1001
ACAD
1000
MTEXTBEGIN
1070
    73
1070
     1
1070
    44
1040
1.0
1070
    74
1070
     0
1000
MTEXTEND
  0
POINT
  5
2452
330
2449
100
AcDbEntity
  8
Defpoints
 62
     0
100
AcDbPoint
 10
756.7778670225491
 20
893.3681668293642
 30
0.0
  0
POINT
  5
2453
330
2449
100
AcDbEntity
  8
Defpoints
 62
     0
100
AcDbPoint
 10
735.7765048840064
 20
818.4681668293645
 30
0.0
  0
POINT
  5
2454
330
2449
100
AcDbEntity
  8
Defpoints
 62
     0
100
AcDbPoint
 10
723.8652104262873
 20
818.4681668293645
 30
0.0
  0
ENDBLK
  5
244B
330
2449
100
AcDbEntity
  8
0
100
AcDbBlockEnd
  0
BLOCK
  5
2474
330
2473
100
AcDbEntity
  8
0
100
AcDbBlockBegin
  2
*D12
 70
     1
 10
0.0
 20
0.0
 30
0.0
  3
*D12
  1

  0
LINE
  5
27A5
330
2473
100
AcDbEntity
  8
0
 62
     0
370
    -2
100
AcDbLine
 10
651.0032542256667
 20
839.8638135508175
 30
0.0
 11
630.573970411873
 21
839.8638135508175
 31
0.0
  0
LINE
  5
27A6
330
2473
100
AcDbEntity
  8
0
 62
     0
370
    -2
100
AcDbLine
 10
632.0018920871242
 20
764.9638135508175
 30
0.0
 11
633.0739704118728
 21
764.9638135508175
 31
0.0
  0
LINE
  5
27A7
330
2473
100
AcDbEntity
  8
0
 62
     0
370
    -2
100
AcDbLine
 10
631.823970411873
 20
836.8638135508176
 30
0.0
 11
631.8239704118728
 21
767.9638135508175
 31
0.0
  0
INSERT
  5
27A8
330
2473
100
AcDbEntity
  8
0
 62
     0
370
    -2
100
AcDbBlockReference
  2
_Open30
 10
631.823970411873
 20
839.8638135508175
 30
0.0
 41
3.0
 42
3.0
 43
3.0
 50
90.0
  0
INSERT
  5
27A9
330
2473
100
AcDbEntity
  8
0
 62
     0
370
    -2
100
AcDbBlockReference
  2
_Open30
 10
631.8239704118728
 20
764.9638135508175
 30
0.0
 41
3.0
 42
3.0
 43
3.0
 50
270.0
  0
MTEXT
  5
27AA
330
2473
100
AcDbEntity
  8
0
 62
     0
100
AcDbMText
 10
629.4489704118728
 20
802.4138135508176
 30
0.0
 40
3.5
 41
0.0
 71
     5
 72
     1
  1
75
 11
0.0000000000000001
 21
1.0
 31
0.0
 73
     1
 44
1.0
1001
ACAD
1000
MTEXTBEGIN
1070
    73
1070
     1
1070
    44
1040
1.0
1070
    74
1070
     0
1000
MTEXTEND
  0
POINT
  5
27AB
330
2473
100
AcDbEntity
  8
Defpoints
 62
     0
100
AcDbPoint
 10
652.0032542256667
 20
839.8638135508175
 30
0.0
  0
POINT
  5
27AC
330
2473
100
AcDbEntity
  8
Defpoints
 62
     0
100
AcDbPoint
 10
631.0018920871242
 20
764.9638135508175
 30
0.0
  0
POINT
  5
27AD
330
2473
100
AcDbEntity
  8
Defpoints
 62
     0
100
AcDbPoint
 10
631.8239704118728
 20
764.9638135508175
 30
0.0
  0
ENDBLK
  5
2475
330
2473
100
AcDbEntity
  8
0
100
AcDbBlockEnd
  0
ENDSEC
  0
SECTION
  2
ENTITIES
  0
LINE
  5
111
330
1F
100
AcDbEntity
  8
0
100
AcDbLine
 10
631.0018920871242
 20
664.9638135508176
 30
0.0
 11
735.0018920871241
 21
664.9638135508176
 31
0.0
  0
LINE
  5
112
330
1F
100
AcDbEntity
  8
0
100
AcDbLine
 10
748.0018920871241
 20
677.9638135508172
 30
0.0
 11
748.0018920871241
 21
751.9638135508174
 31
0.0
  0
LINE
  5
115
330
1F
100
AcDbEntity
  8
0
100
AcDbLine
 10
628.0018920871245
 20
751.9638135508175
 30
0.0
 11
628.0018920871242
 21
702.9638135508175
 31
0.0
  0
LINE
  5
116
330
1F
100
AcDbEntity
  8
0
100
AcDbLine
 10
641.0018920871244
 20
702.9638135508175
 30
0.0
 11
735.0018920871246
 21
702.9638135508177
 31
0.0
  0
LINE
  5
11C
330
1F
100
AcDbEntity
  8
0
100
AcDbLine
 10
631.0018920871242
 20
754.9638135508176
 30
0.0
 11
633.0018920871244
 21
754.9638135508176
 31
0.0
  0
LINE
  5
11D
330
1F
100
AcDbEntity
  8
0
100
AcDbLine
 10
638.0018920871243
 20
759.9638135508175
 30
0.0
 11
638.0018920871243
 21
761.9638135508174
 31
0.0
  0
LINE
  5
11F
330
1F
100
AcDbEntity
  8
0
100
AcDbLine
 10
738.0018920871241
 20
761.9638135508175
 30
0.0
 11
738.0018920871241
 21
759.9638135508175
 31
0.0
  0
LINE
  5
120
330
1F
100
AcDbEntity
  8
0
100
AcDbLine
 10
743.0018920871241
 20
754.9638135508176
 30
0.0
 11
745.0018920871241
 21
754.9638135508176
 31
0.0
  0
LINE
  5
122
330
1F
100
AcDbEntity
  8
0
100
AcDbLine
 10
631.0018920871242
 20
674.9638135508177
 30
0.0
 11
633.0018920871244
 21
674.9638135508172
 31
0.0
  0
LINE
  5
123
330
1F
100
AcDbEntity
  8
0
100
AcDbLine
 10
638.0018920871243
 20
669.9638135508172
 30
0.0
 11
638.0018920871243
 21
667.9638135508175
 31
0.0
  0
LINE
  5
125
330
1F
100
AcDbEntity
  8
0
100
AcDbLine
 10
738.0018920871241
 20
667.9638135508176
 30
0.0
 11
738.0018920871241
 21
669.9638135508172
 31
0.0
  0
LINE
  5
126
330
1F
100
AcDbEntity
  8
0
100
AcDbLine
 10
743.0018920871246
 20
674.9638135508177
 30
0.0
 11
745.0018920871241
 21
674.9638135508177
 31
0.0
  0
LINE
  5
128
330
1F
100
AcDbEntity
  8
0
100
AcDbLine
 10
780.7091819606767
 20
667.9638135508175
 30
0.0
 11
780.7091819606767
 21
761.9638135508175
 31
0.0
  0
LINE
  5
129
330
1F
100
AcDbEntity
  8
0
100
AcDbLine
 10
783.7091819606767
 20
764.9638135508175
 30
0.0
 11
820.7091819606766
 21
764.9638135508175
 31
0.0
  0
LINE
  5
12A
330
1F
100
AcDbEntity
  8
0
100
AcDbLine
 10
820.7091819606766
 20
764.9638135508175
 30
0.0
 11
820.7091819606766
 21
664.9638135508172
 31
0.0
  0
LINE
  5
12B
330
1F
100
AcDbEntity
  8
0
100
AcDbLine
 10
820.7091819606766
 20
664.9638135508172
 30
0.0
 11
783.7091819606767
 21
664.9638135508172
 31
0.0
  0
LINE
  5
12C
330
1F
100
AcDbEntity
  8
0
100
AcDbLine
 10
820.7091819606766
 20
664.9638135508172
 30
0.0
 11
812.7091819606766
 21
664.9638135508172
 31
0.0
  0
LINE
  5
12D
330
1F
100
AcDbEntity
  8
0
100
AcDbLine
 10
812.7091819606766
 20
664.9638135508172
 30
0.0
 11
812.7091819606766
 21
764.9638135508175
 31
0.0
  0
LINE
  5
12E
330
1F
100
AcDbEntity
  8
0
100
AcDbLine
 10
820.7091819606766
 20
764.9638135508175
 30
0.0
 11
815.7091819606767
 21
764.9638135508175
 31
0.0
  0
LINE
  5
12F
330
1F
100
AcDbEntity
  8
0
100
AcDbLine
 10
815.7091819606767
 20
764.9638135508175
 30
0.0
 11
815.7091819606767
 21
754.9638135508176
 31
0.0
  0
LINE
  5
130
330
1F
100
AcDbEntity
  8
0
100
AcDbLine
 10
815.7091819606767
 20
754.9638135508176
 30
0.0
 11
780.7091819606767
 21
754.9638135508176
 31
0.0
  0
LINE
  5
131
102
{ACAD_REACTORS
330
8A6
102
}
330
1F
100
AcDbEntity
  8
0
100
AcDbLine
 10
820.7091819606766
 20
664.9638135508172
 30
0.0
 11
815.7091819606767
 21
664.9638135508172
 31
0.0
  0
LINE
  5
132
330
1F
100
AcDbEntity
  8
0
100
AcDbLine
 10
815.7091819606767
 20
664.9638135508172
 30
0.0
 11
815.7091819606767
 21
674.9638135508177
 31
0.0
  0
LINE
  5
133
330
1F
100
AcDbEntity
  8
0
100
AcDbLine
 10
815.7091819606767
 20
674.9638135508177
 30
0.0
 11
780.7091819606767
 21
674.9638135508177
 31
0.0
  0
LINE
  5
134
330
1F
100
AcDbEntity
  8
0
100
AcDbLine
 10
641.0018920871245
 20
664.9638135508172
 30
0.0
 11
652.5018920871242
 21
664.9638135508172
 31
0.0
  0
LINE
  5
135
330
1F
100
AcDbEntity
  8
0
100
AcDbLine
 10
652.5018920871242
 20
664.9638135508172
 30
0.0
 11
652.5018920871242
 21
690.4638135508175
 31
0.0
  0
LINE
  5
136
330
1F
100
AcDbEntity
  8
0
100
AcDbLine
 10
652.5018920871242
 20
690.4638135508175
 30
0.0
 11
723.5018920871241
 21
690.4638135508175
 31
0.0
  0
LINE
  5
137
330
1F
100
AcDbEntity
  8
0
100
AcDbLine
 10
723.5018920871241
 20
690.4638135508175
 30
0.0
 11
723.5018920871241
 21
678.4638135508172
 31
0.0
  0
LINE
  5
138
330
1F
100
AcDbEntity
  8
0
100
AcDbLine
 10
723.5018920871241
 20
678.4638135508172
 30
0.0
 11
652.5018920871242
 21
678.4638135508172
 31
0.0
  0
LINE
  5
13A
330
1F
100
AcDbEntity
  8
0
100
AcDbLine
 10
723.5018920871241
 20
678.4638135508172
 30
0.0
 11
723.5018920871241
 21
664.9638135508172
 31
0.0
  0
LINE
  5
13B
330
1F
100
AcDbEntity
  8
0
100
AcDbLine
 10
723.5018920871241
 20
664.9638135508172
 30
0.0
 11
723.5018920871241
 21
666.9638135508177
 31
0.0
  0
LINE
  5
13D
330
1F
100
AcDbEntity
  8
0
100
AcDbLine
 10
652.5018920871242
 20
666.9638135508177
 30
0.0
 11
652.5018920871242
 21
667.4638135508176
 31
0.0
  0
LINE
  5
141
330
1F
100
AcDbEntity
  8
0
100
AcDbLine
 10
652.0018920871242
 20
764.9638135508175
 30
0.0
 11
646.0018920871242
 21
764.9638135508175
 31
0.0
  0
LINE
  5
146
330
1F
100
AcDbEntity
  8
0
100
AcDbLine
 10
641.0018920871244
 20
764.9638135508174
 30
0.0
 11
664.5018920871242
 21
764.9638135508175
 31
0.0
  0
LINE
  5
147
330
1F
100
AcDbEntity
  8
0
100
AcDbLine
 10
664.5018920871242
 20
764.9638135508175
 30
0.0
 11
664.5018920871242
 21
767.4638135508176
 31
0.0
  0
LINE
  5
148
330
1F
100
AcDbEntity
  8
0
100
AcDbLine
 10
664.5018920871242
 20
767.4638135508176
 30
0.0
 11
677.0018920871242
 21
767.4638135508176
 31
0.0
  0
LINE
  5
149
330
1F
100
AcDbEntity
  8
0
100
AcDbLine
 10
677.0018920871242
 20
767.4638135508176
 30
0.0
 11
677.0018920871242
 21
764.9638135508175
 31
0.0
  0
LINE
  5
14A
330
1F
100
AcDbEntity
  8
0
100
AcDbLine
 10
677.0018920871242
 20
764.9638135508175
 30
0.0
 11
699.0018920871241
 21
764.9638135508175
 31
0.0
  0
LINE
  5
14B
330
1F
100
AcDbEntity
  8
0
100
AcDbLine
 10
699.0018920871241
 20
764.9638135508175
 30
0.0
 11
699.0018920871241
 21
767.4638135508176
 31
0.0
  0
LINE
  5
14C
330
1F
100
AcDbEntity
  8
0
100
AcDbLine
 10
699.0018920871241
 20
767.4638135508176
 30
0.0
 11
711.5018920871241
 21
767.4638135508176
 31
0.0
  0
LINE
  5
14D
330
1F
100
AcDbEntity
  8
0
100
AcDbLine
 10
711.5018920871241
 20
767.4638135508176
 30
0.0
 11
711.5018920871241
 21
764.9638135508175
 31
0.0
  0
LINE
  5
14E
330
1F
100
AcDbEntity
  8
0
100
AcDbLine
 10
735.0018920871241
 20
764.9638135508175
 30
0.0
 11
724.0018920871241
 21
764.9638135508175
 31
0.0
  0
LINE
  5
151
330
1F
100
AcDbEntity
  8
0
100
AcDbLine
 10
724.0018920871241
 20
764.9638135508175
 30
0.0
 11
730.0018920871241
 21
764.9638135508175
 31
0.0
  0
ARC
  5
164
330
1F
100
AcDbEntity
  8
0
100
AcDbCircle
 10
641.0018920871244
 20
761.9638135508174
 30
0.0
 40
3.0
100
AcDbArc
 50
90.0
 51
180.0
  0
ARC
  5
165
330
1F
100
AcDbEntity
  8
0
100
AcDbCircle
 10
631.0018920871242
 20
751.9638135508175
 30
0.0
 40
3.0
100
AcDbArc
 50
90.0
 51
180.0
  0
ARC
  5
166
330
1F
100
AcDbEntity
  8
0
100
AcDbCircle
 10
631.0018920871242
 20
677.9638135508172
 30
0.0
 40
3.0
100
AcDbArc
 50
180.0
 51
270.0
  0
ARC
  5
167
330
1F
100
AcDbEntity
  8
0
100
AcDbCircle
 10
641.0018920871245
 20
667.9638135508175
 30
0.0
 40
3.0
100
AcDbArc
 50
180.0
 51
270.0
  0
ARC
  5
168
330
1F
100
AcDbEntity
  8
0
100
AcDbCircle
 10
745.0018920871241
 20
677.9638135508172
 30
0.0
 40
3.0
100
AcDbArc
 50
270.0
 51
0.0
  0
ARC
  5
169
330
1F
100
AcDbEntity
  8
0
100
AcDbCircle
 10
735.0018920871241
 20
667.9638135508176
 30
0.0
 40
3.0
100
AcDbArc
 50
270.0
 51
0.0
  0
ARC
  5
16A
330
1F
100
AcDbEntity
  8
0
100
AcDbCircle
 10
745.0018920871241
 20
751.9638135508174
 30
0.0
 40
3.0
100
AcDbArc
 50
359.9999999999998
 51
90.0
  0
ARC
  5
16B
330
1F
100
AcDbEntity
  8
0
100
AcDbCircle
 10
735.0018920871241
 20
761.9638135508175
 30
0.0
 40
3.0
100
AcDbArc
 50
0.0
 51
90.0
  0
LINE
  5
16C
330
1F
100
AcDbEntity
  8
0
100
AcDbLine
 10
748.0018920871241
 20
751.9638135508174
 30
0.0
 11
748.0018920871241
 21
761.9638135508175
 31
0.0
  0
LINE
  5
16D
330
1F
100
AcDbEntity
  8
0
100
AcDbLine
 10
628.0018920871242
 20
667.9638135508176
 30
0.0
 11
628.0018920871242
 21
677.9638135508172
 31
0.0
  0
LINE
  5
16F
330
1F
100
AcDbEntity
  8
0
100
AcDbLine
 10
745.0018920871244
 20
664.9638135508172
 30
0.0
 11
735.0018920871241
 21
664.9638135508176
 31
0.0
  0
LINE
  5
171
330
1F
100
AcDbEntity
  8
0
100
AcDbLine
 10
628.0018920871242
 20
761.9638135508175
 30
0.0
 11
628.0018920871242
 21
759.9638135508175
 31
0.0
  0
LINE
  5
173
330
1F
100
AcDbEntity
  8
0
100
AcDbLine
 10
631.0018920871242
 20
764.9638135508175
 30
0.0
 11
633.0018920871244
 21
764.9638135508175
 31
0.0
  0
LINE
  5
175
330
1F
100
AcDbEntity
  8
0
100
AcDbLine
 10
745.0018920871244
 20
764.9638135508175
 30
0.0
 11
743.0018920871241
 21
764.9638135508175
 31
0.0
  0
LINE
  5
177
330
1F
100
AcDbEntity
  8
0
100
AcDbLine
 10
748.0018920871241
 20
667.9638135508175
 30
0.0
 11
748.0018920871241
 21
669.9638135508172
 31
0.0
  0
ARC
  5
17D
330
1F
100
AcDbEntity
  8
0
100
AcDbCircle
 10
633.0018920871244
 20
759.9638135508175
 30
0.0
 40
5.0
100
AcDbArc
 50
270.0
 51
0.0
  0
ARC
  5
17F
330
1F
100
AcDbEntity
  8
0
100
AcDbCircle
 10
743.0018920871241
 20
759.9638135508175
 30
0.0
 40
5.0
100
AcDbArc
 50
180.0
 51
269.9999999999991
  0
ARC
  5
180
330
1F
100
AcDbEntity
  8
0
100
AcDbCircle
 10
633.0018920871244
 20
669.9638135508172
 30
0.0
 40
5.0
100
AcDbArc
 50
0.000000000000916
 51
90.0
  0
ARC
  5
181
330
1F
100
AcDbEntity
  8
0
100
AcDbCircle
 10
743.0018920871246
 20
669.9638135508177
 30
0.0
 40
5.0
100
AcDbArc
 50
90.0
 51
180.0000000000009
  0
ARC
  5
182
330
1F
100
AcDbEntity
  8
0
100
AcDbCircle
 10
631.0018920871242
 20
761.9638135508175
 30
0.0
 40
3.0
100
AcDbArc
 50
90.0
 51
180.0
  0
ARC
  5
183
330
1F
100
AcDbEntity
  8
0
100
AcDbCircle
 10
783.7091819606767
 20
761.9638135508175
 30
0.0
 40
3.0
100
AcDbArc
 50
90.0
 51
180.0
  0
ARC
  5
184
330
1F
100
AcDbEntity
  8
0
100
AcDbCircle
 10
783.7091819606767
 20
667.9638135508175
 30
0.0
 40
3.0
100
AcDbArc
 50
180.0
 51
270.0
  0
ARC
  5
185
330
1F
100
AcDbEntity
  8
0
100
AcDbCircle
 10
745.0018920871244
 20
761.9638135508175
 30
0.0
 40
3.0
100
AcDbArc
 50
359.999999999999
 51
90.0
  0
ARC
  5
186
330
1F
100
AcDbEntity
  8
0
100
AcDbCircle
 10
631.0018920871242
 20
667.9638135508176
 30
0.0
 40
3.0
100
AcDbArc
 50
180.0
 51
270.0000000000001
  0
ARC
  5
187
330
1F
100
AcDbEntity
  8
0
100
AcDbCircle
 10
745.0018920871244
 20
667.9638135508175
 30
0.0
 40
3.0
100
AcDbArc
 50
269.9999999999995
 51
0.0
  0
LINE
  5
188
330
1F
100
AcDbEntity
  8
0
100
AcDbLine
 10
743.0018920871241
 20
764.9638135508175
 30
0.0
 11
664.5018920871242
 21
764.9638135508175
 31
0.0
  0
LINE
  5
189
330
1F
100
AcDbEntity
  8
0
100
AcDbLine
 10
633.0018920871244
 20
764.9638135508175
 30
0.0
 11
646.0018920871242
 21
764.9638135508174
 31
0.0
  0
LINE
  5
18A
330
1F
100
AcDbEntity
  8
0
100
AcDbLine
 10
628.0018920871242
 20
759.9638135508175
 30
0.0
 11
628.0018920871242
 21
699.7876403980171
 31
0.0
  0
LINE
  5
18B
330
1F
100
AcDbEntity
  8
0
100
AcDbLine
 10
628.0018920871242
 20
699.7876403980171
 30
0.0
 11
628.0018920871242
 21
677.9638135508172
 31
0.0
  0
LINE
  5
18C
330
1F
100
AcDbEntity
  8
0
100
AcDbLine
 10
748.0018920871241
 20
669.9638135508172
 30
0.0
 11
748.0018920871241
 21
677.9638135508172
 31
0.0
  0
LINE
  5
18E
330
1F
100
AcDbEntity
  8
0
100
AcDbLine
 10
641.0018920871244
 20
747.9638135508175
 30
0.0
 11
653.0018920871242
 21
747.9638135508175
 31
0.0
  0
LINE
  5
190
330
1F
100
AcDbEntity
  8
0
100
AcDbLine
 10
653.0018920871242
 20
734.9638135508175
 30
0.0
 11
685.0018920871242
 21
734.9638135508175
 31
0.0
  0
LINE
  5
191
330
1F
100
AcDbEntity
  8
0
100
AcDbLine
 10
685.0018920871242
 20
734.9638135508175
 30
0.0
 11
685.0018920871242
 21
722.9638135508175
 31
0.0
  0
LINE
  5
192
330
1F
100
AcDbEntity
  8
0
100
AcDbLine
 10
685.0018920871242
 20
722.9638135508175
 30
0.0
 11
653.0018920871242
 21
722.9638135508175
 31
0.0
  0
LINE
  5
193
330
1F
100
AcDbEntity
  8
0
100
AcDbLine
 10
653.0018920871242
 20
722.9638135508175
 30
0.0
 11
653.0018920871242
 21
734.9638135508175
 31
0.0
  0
LINE
  5
194
330
1F
100
AcDbEntity
  8
0
100
AcDbLine
 10
640.0018920871242
 20
703.9638135508176
 30
0.0
 11
640.0018920871242
 21
713.9638135508175
 31
0.0
  0
LINE
  5
1A0
330
1F
100
AcDbEntity
  8
0
100
AcDbLine
 10
735.0018920871241
 20
747.9638135508175
 30
0.0
 11
702.0018920871241
 21
747.9638135508175
 31
0.0
  0
CIRCLE
  5
1A8
330
1F
100
AcDbEntity
  8
0
100
AcDbCircle
 10
651.5018920871242
 20
713.9638135508175
 30
0.0
 40
5.0
  0
CIRCLE
  5
1A9
330
1F
100
AcDbEntity
  8
0
100
AcDbCircle
 10
663.5018920871242
 20
713.9638135508175
 30
0.0
 40
5.0
  0
CIRCLE
  5
1AA
330
1F
100
AcDbEntity
  8
0
100
AcDbCircle
 10
675.5018920871243
 20
713.9638135508175
 30
0.0
 40
5.0
  0
CIRCLE
  5
1AB
330
1F
100
AcDbEntity
  8
0
100
AcDbCircle
 10
687.5018920871241
 20
713.9638135508175
 30
0.0
 40
5.0
  0
CIRCLE
  5
1AC
330
1F
100
AcDbEntity
  8
0
100
AcDbCircle
 10
702.0018920871241
 20
739.9638135508175
 30
0.0
 40
1.0
  0
CIRCLE
  5
1AD
330
1F
100
AcDbEntity
  8
0
100
AcDbCircle
 10
710.0018920871241
 20
739.9638135508175
 30
0.0
 40
1.0
  0
CIRCLE
  5
1AE
330
1F
100
AcDbEntity
  8
0
100
AcDbCircle
 10
718.0018920871241
 20
739.9638135508175
 30
0.0
 40
1.0
  0
LINE
  5
1B0
330
1F
100
AcDbEntity
  8
0
100
AcDbLine
 10
736.0018920871245
 20
703.9638135508176
 30
0.0
 11
736.0018920871241
 21
729.9638135508176
 31
0.0
  0
LINE
  5
1B5
330
1F
100
AcDbEntity
  8
0
100
AcDbLine
 10
736.0018920871241
 20
711.9638135508175
 30
0.0
 11
736.0018920871241
 21
715.9638135508175
 31
0.0
  0
LINE
  5
1B7
330
1F
100
AcDbEntity
  8
0
100
AcDbLine
 10
700.0018920871241
 20
729.9638135508176
 30
0.0
 11
700.0018920871241
 21
725.9638135508176
 31
0.0
  0
LINE
  5
1B9
330
1F
100
AcDbEntity
  8
0
100
AcDbLine
 10
700.0018920871241
 20
729.9638135508176
 30
0.0
 11
701.5018920871241
 21
729.9638135508176
 31
0.0
  0
LINE
  5
1BA
330
1F
100
AcDbEntity
  8
0
100
AcDbLine
 10
701.5018920871241
 20
729.9638135508176
 30
0.0
 11
701.5018920871241
 21
725.9638135508176
 31
0.0
  0
LINE
  5
1BC
330
1F
100
AcDbEntity
  8
0
100
AcDbLine
 10
702.5018920871241
 20
725.9638135508176
 30
0.0
 11
702.5018920871241
 21
729.9638135508176
 31
0.0
  0
LINE
  5
1BD
330
1F
100
AcDbEntity
  8
0
100
AcDbLine
 10
702.5018920871241
 20
729.9638135508176
 30
0.0
 11
704.0018920871244
 21
729.9638135508176
 31
0.0
  0
LINE
  5
1BE
330
1F
100
AcDbEntity
  8
0
100
AcDbLine
 10
704.0018920871244
 20
729.9638135508176
 30
0.0
 11
704.0018920871244
 21
725.9638135508176
 31
0.0
  0
LINE
  5
1C0
330
1F
100
AcDbEntity
  8
0
100
AcDbLine
 10
705.0018920871241
 20
725.9638135508176
 30
0.0
 11
705.0018920871241
 21
729.9638135508176
 31
0.0
  0
LINE
  5
1C1
330
1F
100
AcDbEntity
  8
0
100
AcDbLine
 10
705.0018920871241
 20
729.9638135508176
 30
0.0
 11
706.5018920871241
 21
729.9638135508176
 31
0.0
  0
LINE
  5
1C2
330
1F
100
AcDbEntity
  8
0
100
AcDbLine
 10
706.5018920871241
 20
729.9638135508176
 30
0.0
 11
706.5018920871241
 21
725.9638135508176
 31
0.0
  0
LINE
  5
1C4
330
1F
100
AcDbEntity
  8
0
100
AcDbLine
 10
707.5018920871244
 20
725.9638135508176
 30
0.0
 11
707.5018920871244
 21
729.9638135508176
 31
0.0
  0
LINE
  5
1C5
330
1F
100
AcDbEntity
  8
0
100
AcDbLine
 10
707.5018920871244
 20
729.9638135508176
 30
0.0
 11
709.0018920871241
 21
729.9638135508176
 31
0.0
  0
LINE
  5
1C6
330
1F
100
AcDbEntity
  8
0
100
AcDbLine
 10
709.0018920871241
 20
729.9638135508176
 30
0.0
 11
709.0018920871241
 21
725.9638135508176
 31
0.0
  0
LINE
  5
1CA
330
1F
100
AcDbEntity
  8
0
100
AcDbLine
 10
710.0018920871241
 20
725.9638135508176
 30
0.0
 11
710.0018920871241
 21
729.9638135508176
 31
0.0
  0
LINE
  5
1CB
330
1F
100
AcDbEntity
  8
0
100
AcDbLine
 10
710.0018920871241
 20
729.9638135508176
 30
0.0
 11
711.5018920871241
 21
729.9638135508176
 31
0.0
  0
LINE
  5
1CC
330
1F
100
AcDbEntity
  8
0
100
AcDbLine
 10
711.5018920871241
 20
729.9638135508176
 30
0.0
 11
711.5018920871241
 21
725.9638135508176
 31
0.0
  0
LINE
  5
1CE
330
1F
100
AcDbEntity
  8
0
100
AcDbLine
 10
712.5018920871241
 20
725.9638135508176
 30
0.0
 11
712.5018920871241
 21
729.9638135508176
 31
0.0
  0
LINE
  5
1CF
330
1F
100
AcDbEntity
  8
0
100
AcDbLine
 10
712.5018920871241
 20
729.9638135508176
 30
0.0
 11
714.0018920871241
 21
729.9638135508176
 31
0.0
  0
LINE
  5
1D0
330
1F
100
AcDbEntity
  8
0
100
AcDbLine
 10
714.0018920871241
 20
729.9638135508176
 30
0.0
 11
714.0018920871241
 21
725.9638135508176
 31
0.0
  0
LINE
  5
1D2
330
1F
100
AcDbEntity
  8
0
100
AcDbLine
 10
715.0018920871241
 20
725.9638135508176
 30
0.0
 11
715.0018920871241
 21
729.9638135508176
 31
0.0
  0
LINE
  5
1D3
330
1F
100
AcDbEntity
  8
0
100
AcDbLine
 10
715.0018920871241
 20
729.9638135508176
 30
0.0
 11
716.5018920871244
 21
729.9638135508176
 31
0.0
  0
LINE
  5
1D4
330
1F
100
AcDbEntity
  8
0
100
AcDbLine
 10
716.5018920871244
 20
729.9638135508176
 30
0.0
 11
716.5018920871244
 21
725.9638135508176
 31
0.0
  0
LINE
  5
1D6
330
1F
100
AcDbEntity
  8
0
100
AcDbLine
 10
717.5018920871241
 20
725.9638135508176
 30
0.0
 11
717.5018920871241
 21
729.9638135508176
 31
0.0
  0
LINE
  5
1D7
330
1F
100
AcDbEntity
  8
0
100
AcDbLine
 10
717.5018920871241
 20
729.9638135508176
 30
0.0
 11
719.0018920871241
 21
729.9638135508176
 31
0.0
  0
LINE
  5
1D8
330
1F
100
AcDbEntity
  8
0
100
AcDbLine
 10
719.0018920871241
 20
729.9638135508176
 30
0.0
 11
719.0018920871241
 21
725.9638135508176
 31
0.0
  0
LINE
  5
1D9
330
1F
100
AcDbEntity
  8
0
100
AcDbLine
 10
700.0018920871241
 20
715.9638135508175
 30
0.0
 11
701.5018920871241
 21
715.9638135508175
 31
0.0
  0
LINE
  5
1DA
330
1F
100
AcDbEntity
  8
0
100
AcDbLine
 10
701.5018920871241
 20
715.9638135508175
 30
0.0
 11
701.5018920871241
 21
711.9638135508175
 31
0.0
  0
LINE
  5
1DC
330
1F
100
AcDbEntity
  8
0
100
AcDbLine
 10
702.5018920871241
 20
711.9638135508175
 30
0.0
 11
702.5018920871241
 21
715.9638135508175
 31
0.0
  0
LINE
  5
1DD
330
1F
100
AcDbEntity
  8
0
100
AcDbLine
 10
702.5018920871241
 20
715.9638135508175
 30
0.0
 11
704.0018920871244
 21
715.9638135508175
 31
0.0
  0
LINE
  5
1DE
330
1F
100
AcDbEntity
  8
0
100
AcDbLine
 10
704.0018920871244
 20
715.9638135508175
 30
0.0
 11
704.0018920871244
 21
711.9638135508175
 31
0.0
  0
LINE
  5
1E0
330
1F
100
AcDbEntity
  8
0
100
AcDbLine
 10
705.0018920871241
 20
711.9638135508175
 30
0.0
 11
705.0018920871241
 21
715.9638135508175
 31
0.0
  0
LINE
  5
1E1
330
1F
100
AcDbEntity
  8
0
100
AcDbLine
 10
705.0018920871241
 20
715.9638135508175
 30
0.0
 11
706.5018920871241
 21
715.9638135508175
 31
0.0
  0
LINE
  5
1E2
330
1F
100
AcDbEntity
  8
0
100
AcDbLine
 10
706.5018920871241
 20
715.9638135508175
 30
0.0
 11
706.5018920871241
 21
711.9638135508175
 31
0.0
  0
LINE
  5
1E4
330
1F
100
AcDbEntity
  8
0
100
AcDbLine
 10
707.5018920871244
 20
711.9638135508175
 30
0.0
 11
707.5018920871244
 21
715.9638135508175
 31
0.0
  0
LINE
  5
1E5
330
1F
100
AcDbEntity
  8
0
100
AcDbLine
 10
707.5018920871244
 20
715.9638135508175
 30
0.0
 11
709.0018920871241
 21
715.9638135508175
 31
0.0
  0
LINE
  5
1E6
330
1F
100
AcDbEntity
  8
0
100
AcDbLine
 10
709.0018920871241
 20
715.9638135508175
 30
0.0
 11
709.0018920871241
 21
711.9638135508175
 31
0.0
  0
LINE
  5
1E7
330
1F
100
AcDbEntity
  8
0
100
AcDbLine
 10
709.0018920871241
 20
711.9638135508175
 30
0.0
 11
709.0018920871241
 21
712.9638135508176
 31
0.0
  0
LINE
  5
1E9
330
1F
100
AcDbEntity
  8
0
100
AcDbLine
 10
710.0018920871241
 20
711.9638135508175
 30
0.0
 11
710.0018920871241
 21
715.9638135508175
 31
0.0
  0
LINE
  5
1EA
330
1F
100
AcDbEntity
  8
0
100
AcDbLine
 10
710.0018920871241
 20
715.9638135508175
 30
0.0
 11
711.5018920871241
 21
715.9638135508175
 31
0.0
  0
LINE
  5
1EB
330
1F
100
AcDbEntity
  8
0
100
AcDbLine
 10
711.5018920871241
 20
715.9638135508175
 30
0.0
 11
711.5018920871241
 21
711.9638135508175
 31
0.0
  0
LINE
  5
1EF
330
1F
100
AcDbEntity
  8
0
100
AcDbLine
 10
712.5018920871241
 20
711.9638135508175
 30
0.0
 11
712.5018920871241
 21
715.9638135508175
 31
0.0
  0
LINE
  5
1F0
330
1F
100
AcDbEntity
  8
0
100
AcDbLine
 10
712.5018920871241
 20
715.9638135508175
 30
0.0
 11
714.0018920871241
 21
715.9638135508175
 31
0.0
  0
LINE
  5
1F1
330
1F
100
AcDbEntity
  8
0
100
AcDbLine
 10
714.0018920871241
 20
715.9638135508175
 30
0.0
 11
714.0018920871241
 21
711.9638135508175
 31
0.0
  0
LINE
  5
1F3
330
1F
100
AcDbEntity
  8
0
100
AcDbLine
 10
715.0018920871241
 20
711.9638135508175
 30
0.0
 11
715.0018920871241
 21
715.9638135508175
 31
0.0
  0
LINE
  5
1F4
330
1F
100
AcDbEntity
  8
0
100
AcDbLine
 10
715.0018920871241
 20
715.9638135508175
 30
0.0
 11
716.5018920871244
 21
715.9638135508175
 31
0.0
  0
LINE
  5
1F5
330
1F
100
AcDbEntity
  8
0
100
AcDbLine
 10
716.5018920871244
 20
715.9638135508175
 30
0.0
 11
716.5018920871244
 21
711.9638135508175
 31
0.0
  0
LINE
  5
1F7
330
1F
100
AcDbEntity
  8
0
100
AcDbLine
 10
717.5018920871241
 20
711.9638135508175
 30
0.0
 11
717.5018920871241
 21
715.9638135508175
 31
0.0
  0
LINE
  5
1F8
330
1F
100
AcDbEntity
  8
0
100
AcDbLine
 10
717.5018920871241
 20
715.9638135508175
 30
0.0
 11
717.5018920871241
 21
714.4638135508175
 31
0.0
  0
LINE
  5
1FA
330
1F
100
AcDbEntity
  8
0
100
AcDbLine
 10
717.5018920871241
 20
715.9638135508175
 30
0.0
 11
719.0018920871241
 21
715.9638135508175
 31
0.0
  0
LINE
  5
1FB
330
1F
100
AcDbEntity
  8
0
100
AcDbLine
 10
719.0018920871241
 20
715.9638135508175
 30
0.0
 11
719.0018920871241
 21
711.9638135508175
 31
0.0
  0
LINE
  5
1FC
330
1F
100
AcDbEntity
  8
0
100
AcDbLine
 10
719.0018920871241
 20
725.9638135508176
 30
0.0
 11
717.5018920871241
 21
725.9638135508176
 31
0.0
  0
LINE
  5
1FD
330
1F
100
AcDbEntity
  8
0
100
AcDbLine
 10
716.5018920871244
 20
725.9638135508176
 30
0.0
 11
715.0018920871241
 21
725.9638135508176
 31
0.0
  0
LINE
  5
1FE
330
1F
100
AcDbEntity
  8
0
100
AcDbLine
 10
714.0018920871241
 20
725.9638135508176
 30
0.0
 11
712.5018920871241
 21
725.9638135508176
 31
0.0
  0
LINE
  5
1FF
330
1F
100
AcDbEntity
  8
0
100
AcDbLine
 10
711.5018920871241
 20
725.9638135508176
 30
0.0
 11
710.0018920871241
 21
725.9638135508176
 31
0.0
  0
LINE
  5
200
330
1F
100
AcDbEntity
  8
0
100
AcDbLine
 10
709.0018920871241
 20
725.9638135508176
 30
0.0
 11
707.5018920871244
 21
725.9638135508176
 31
0.0
  0
LINE
  5
201
330
1F
100
AcDbEntity
  8
0
100
AcDbLine
 10
706.5018920871241
 20
725.9638135508176
 30
0.0
 11
705.0018920871241
 21
725.9638135508176
 31
0.0
  0
LINE
  5
202
330
1F
100
AcDbEntity
  8
0
100
AcDbLine
 10
704.0018920871244
 20
725.9638135508176
 30
0.0
 11
702.5018920871241
 21
725.9638135508176
 31
0.0
  0
LINE
  5
203
330
1F
100
AcDbEntity
  8
0
100
AcDbLine
 10
701.5018920871241
 20
725.9638135508176
 30
0.0
 11
700.0018920871241
 21
725.9638135508176
 31
0.0
  0
LINE
  5
204
330
1F
100
AcDbEntity
  8
0
100
AcDbLine
 10
719.0018920871241
 20
711.9638135508175
 30
0.0
 11
717.5018920871241
 21
711.9638135508175
 31
0.0
  0
LINE
  5
205
330
1F
100
AcDbEntity
  8
0
100
AcDbLine
 10
716.5018920871244
 20
711.9638135508175
 30
0.0
 11
715.0018920871241
 21
711.9638135508175
 31
0.0
  0
LINE
  5
206
330
1F
100
AcDbEntity
  8
0
100
AcDbLine
 10
714.0018920871241
 20
711.9638135508175
 30
0.0
 11
712.5018920871241
 21
711.9638135508175
 31
0.0
  0
LINE
  5
207
330
1F
100
AcDbEntity
  8
0
100
AcDbLine
 10
711.5018920871241
 20
711.9638135508175
 30
0.0
 11
710.0018920871241
 21
711.9638135508175
 31
0.0
  0
LINE
  5
208
330
1F
100
AcDbEntity
  8
0
100
AcDbLine
 10
709.0018920871241
 20
711.9638135508175
 30
0.0
 11
707.5018920871244
 21
711.9638135508175
 31
0.0
  0
LINE
  5
209
330
1F
100
AcDbEntity
  8
0
100
AcDbLine
 10
706.5018920871241
 20
711.9638135508175
 30
0.0
 11
705.0018920871241
 21
711.9638135508175
 31
0.0
  0
LINE
  5
20A
330
1F
100
AcDbEntity
  8
0
100
AcDbLine
 10
704.0018920871244
 20
711.9638135508175
 30
0.0
 11
702.5018920871241
 21
711.9638135508175
 31
0.0
  0
LINE
  5
20B
330
1F
100
AcDbEntity
  8
0
100
AcDbLine
 10
700.0018920871241
 20
715.9638135508175
 30
0.0
 11
700.0018920871241
 21
711.9638135508175
 31
0.0
  0
LINE
  5
20C
330
1F
100
AcDbEntity
  8
0
100
AcDbLine
 10
700.0018920871241
 20
711.9638135508175
 30
0.0
 11
701.5018920871241
 21
711.9638135508175
 31
0.0
  0
MTEXT
  5
20D
330
1F
100
AcDbEntity
  8
0
100
AcDbMText
 10
703.0287521620212
 20
732.0454760746746
 30
0.0
 40
1.5
 41
2.261608134212107
 71
     1
 72
     5
  1
1
 73
     1
 44
1.0
1001
ACAD
1000
MTEXTBEGIN
1070
    73
1070
     1
1070
    44
1040
1.0
1070
    74
1070
     0
1000
MTEXTEND
  0
MTEXT
  5
216
330
1F
100
AcDbEntity
  8
0
100
AcDbMText
 10
700.3365306953792
 20
718.1959092555683
 30
0.0
 40
1.5
 41
2.261608134212107
 71
     1
 72
     5
  1
0
 73
     1
 44
1.0
1001
ACAD
1000
MTEXTBEGIN
1070
    73
1070
     1
1070
    44
1040
1.0
1070
    74
1070
     0
1000
MTEXTEND
  0
MTEXT
  5
21E
330
1F
100
AcDbEntity
  8
0
100
AcDbMText
 10
717.6882982759773
 20
717.9820849310158
 30
0.0
 40
1.5
 41
2.261608134212107
 71
     1
 72
     5
  1
7
 73
     1
 44
1.0
1001
ACAD
1000
MTEXTBEGIN
1070
    73
1070
     1
1070
    44
1040
1.0
1070
    74
1070
     0
1000
MTEXTEND
  0
MTEXT
  5
226
330
1F
100
AcDbEntity
  8
0
100
AcDbMText
 10
715.2266745471067
 20
718.0054142191311
 30
0.0
 40
1.5
 41
2.261608134212107
 71
     1
 72
     5
  1
6
 73
     1
 44
1.0
1001
ACAD
1000
MTEXTBEGIN
1070
    73
1070
     1
1070
    44
1040
1.0
1070
    74
1070
     0
1000
MTEXTEND
  0
MTEXT
  5
22E
330
1F
100
AcDbEntity
  8
0
100
AcDbMText
 10
712.770383841279
 20
718.0167399040492
 30
0.0
 40
1.5
 41
2.261608134212107
 71
     1
 72
     5
  1
5
 73
     1
 44
1.0
1001
ACAD
1000
MTEXTBEGIN
1070
    73
1070
     1
1070
    44
1040
1.0
1070
    74
1070
     0
1000
MTEXTEND
  0
MTEXT
  5
236
330
1F
100
AcDbEntity
  8
0
100
AcDbMText
 10
710.1241235653406
 20
718.0727034975871
 30
0.0
 40
1.5
 41
2.261608134212107
 71
     1
 72
     5
  1
4
 73
     1
 44
1.0
1001
ACAD
1000
MTEXTBEGIN
1070
    73
1070
     1
1070
    44
1040
1.0
1070
    74
1070
     0
1000
MTEXTEND
  0
MTEXT
  5
23E
330
1F
100
AcDbEntity
  8
0
100
AcDbMText
 10
707.7284818575817
 20
718.1226679069705
 30
0.0
 40
1.5
 41
2.261608134212107
 71
     1
 72
     5
  1
3
 73
     1
 44
1.0
1001
ACAD
1000
MTEXTBEGIN
1070
    73
1070
     1
1070
    44
1040
1.0
1070
    74
1070
     0
1000
MTEXTEND
  0
MTEXT
  5
246
330
1F
100
AcDbEntity
  8
0
100
AcDbMText
 10
705.306191791964
 20
718.0733761809761
 30
0.0
 40
1.5
 41
2.261608134212107
 71
     1
 72
     5
  1
2
 73
     1
 44
1.0
1001
ACAD
1000
MTEXTBEGIN
1070
    73
1070
     1
1070
    44
1040
1.0
1070
    74
1070
     0
1000
MTEXTEND
  0
MTEXT
  5
24E
330
1F
100
AcDbEntity
  8
0
100
AcDbMText
 10
702.978547175292
 20
718.1233405903598
 30
0.0
 40
1.5
 41
2.261608134212107
 71
     1
 72
     5
  1
1
 73
     1
 44
1.0
1001
ACAD
1000
MTEXTBEGIN
1070
    73
1070
     1
1070
    44
1040
1.0
1070
    74
1070
     0
1000
MTEXTEND
  0
MTEXT
  5
256
330
1F
100
AcDbEntity
  8
0
100
AcDbMText
 10
705.3522996093825
 20
732.0651644966654
 30
0.0
 40
1.5
 41
2.261608134212107
 71
     1
 72
     5
  1
2
 73
     1
 44
1.0
1001
ACAD
1000
MTEXTBEGIN
1070
    73
1070
     1
1070
    44
1040
1.0
1070
    74
1070
     0
1000
MTEXTEND
  0
MTEXT
  5
25E
330
1F
100
AcDbEntity
  8
0
100
AcDbMText
 10
707.7338651526379
 20
732.0371813911743
 30
0.0
 40
1.5
 41
2.261608134212107
 71
     1
 72
     5
  1
3
 73
     1
 44
1.0
1001
ACAD
1000
MTEXTBEGIN
1070
    73
1070
     1
1070
    44
1040
1.0
1070
    74
1070
     0
1000
MTEXTEND
  0
MTEXT
  5
266
330
1F
100
AcDbEntity
  8
0
100
AcDbMText
 10
710.2334191176405
 20
732.0325249563539
 30
0.0
 40
1.5
 41
2.261608134212107
 71
     1
 72
     5
  1
4
 73
     1
 44
1.0
1001
ACAD
1000
MTEXTBEGIN
1070
    73
1070
     1
1070
    44
1040
1.0
1070
    74
1070
     0
1000
MTEXTEND
  0
MTEXT
  5
26E
330
1F
100
AcDbEntity
  8
0
100
AcDbMText
 10
712.733643376192
 20
732.0378514571181
 30
0.0
 40
1.5
 41
2.261608134212107
 71
     1
 72
     5
  1
5
 73
     1
 44
1.0
1001
ACAD
1000
MTEXTBEGIN
1070
    73
1070
     1
1070
    44
1040
1.0
1070
    74
1070
     0
1000
MTEXTEND
  0
MTEXT
  5
276
330
1F
100
AcDbEntity
  8
0
100
AcDbMText
 10
715.2671937920703
 20
732.042505274494
 30
0.0
 40
1.5
 41
2.261608134212107
 71
     1
 72
     5
  1
6
 73
     1
 44
1.0
1001
ACAD
1000
MTEXTBEGIN
1070
    73
1070
     1
1070
    44
1040
1.0
1070
    74
1070
     0
1000
MTEXTEND
  0
MTEXT
  5
27E
330
1F
100
AcDbEntity
  8
0
100
AcDbMText
 10
717.6887591027906
 20
732.0045444683072
 30
0.0
 40
1.5
 41
2.261608134212107
 71
     1
 72
     5
  1
7
 73
     1
 44
1.0
1001
ACAD
1000
MTEXTBEGIN
1070
    73
1070
     1
1070
    44
1040
1.0
1070
    74
1070
     0
1000
MTEXTEND
  0
MTEXT
  5
286
330
1F
100
AcDbEntity
  8
0
100
AcDbMText
 10
700.3822782300147
 20
732.0791809151396
 30
0.0
 40
1.5
 41
2.261608134212107
 71
     1
 72
     5
  1
0
 73
     1
 44
1.0
1001
ACAD
1000
MTEXTBEGIN
1070
    73
1070
     1
1070
    44
1040
1.0
1070
    74
1070
     0
1000
MTEXTEND
  0
MTEXT
  5
29A
330
1F
100
AcDbEntity
  8
0
100
AcDbMText
 10
698.2470204295577
 20
743.8215185956288
 30
0.0
 40
1.5
 41
12.33914904626999
 71
     1
 72
     5
  1
POWER
 73
     1
 44
1.0
1001
ACAD
1000
MTEXTBEGIN
1070
    73
1070
     1
1070
    44
1040
1.0
1070
    74
1070
     0
1000
MTEXTEND
  0
MTEXT
  5
29B
330
1F
100
AcDbEntity
  8
0
100
AcDbMText
 10
708.8124135536917
 20
743.8215185956288
 30
0.0
 40
1.5
 41
10.79675332081842
 71
     1
 72
     5
  1
TX
 73
     1
 44
1.0
1001
ACAD
1000
MTEXTBEGIN
1070
    73
1070
     1
1070
    44
1040
1.0
1070
    74
1070
     0
1000
MTEXTEND
  0
MTEXT
  5
29C
330
1F
100
AcDbEntity
  8
0
100
AcDbMText
 10
716.9099827336411
 20
743.6673589319748
 30
0.0
 40
1.5
 41
7.711970248585203
 71
     1
 72
     5
  1
RX
 73
     1
 44
1.0
1001
ACAD
1000
MTEXTBEGIN
1070
    73
1070
     1
1070
    44
1040
1.0
1070
    74
1070
     0
1000
MTEXTEND
  0
MTEXT
  5
29D
330
1F
100
AcDbEntity
  8
0
100
AcDbMText
 10
647.8107824270765
 20
716.6027698902594
 30
0.0
 40
2.0
 41
7.480610051900837
 71
     1
 72
     5
  1
MODE\PBACK
 73
     1
 44
1.0
1001
ACAD
1000
MTEXTBEGIN
1070
    73
1070
     1
1070
    44
1040
1.0
1070
    74
1070
     0
1000
MTEXTEND
  0
LINE
  5
29F
330
1F
100
AcDbEntity
  8
0
100
AcDbLine
 10
647.5116681207155
 20
713.9913972696886
 30
0.0
 11
655.5321158386577
 21
713.9913972696886
 31
0.0
  0
MTEXT
  5
2A5
330
1F
100
AcDbEntity
  8
0
100
AcDbMText
 10
723.8507509301663
 20
728.6366778669036
 30
0.0
 40
1.5
 41
13.49594584035731
 71
     1
 72
     5
  1
INPUT
 73
     1
 44
1.0
1001
ACAD
1000
MTEXTBEGIN
1070
    73
1070
     1
1070
    44
1040
1.0
1070
    74
1070
     0
1000
MTEXTEND
  0
MTEXT
  5
2A6
330
1F
100
AcDbEntity
  8
0
100
AcDbMText
 10
723.1566745294476
 20
714.6080411591922
 30
0.0
 40
1.5
 41
11.56795118354421
 71
     1
 72
     5
  1
OUTPUT
 73
     1
 44
1.0
1001
ACAD
1000
MTEXTBEGIN
1070
    73
1070
     1
1070
    44
1040
1.0
1070
    74
1070
     0
1000
MTEXTEND
  0
MTEXT
  5
2A9
330
1F
100
AcDbEntity
  8
0
100
AcDbMText
 10
645.7226043696827
 20
743.6663721551747
 30
0.0
 40
3.0
 41
34.8530357583586
 71
     1
 72
     5
  1
{\Q12;SWL30-XY08-E}
 73
     1
 44
1.0
1001
ACAD
1000
MTEXTBEGIN
1070
    73
1070
     1
1070
    44
1040
1.0
1070
    74
1070
     0
1000
MTEXTEND
  0
MTEXT
  5
2B5
330
1F
100
AcDbEntity
  8
0
100
AcDbMText
 10
696.3634201522818
 20
728.7372296376037
 30
0.0
 40
1.5
 41
3.996989750737157
 71
     1
 72
     5
  1
X
 73
     1
 44
1.0
1001
ACAD
1000
MTEXTBEGIN
1070
    73
1070
     1
1070
    44
1040
1.0
1070
    74
1070
     0
1000
MTEXTEND
  0
MTEXT
  5
2B6
330
1F
100
AcDbEntity
  8
0
100
AcDbMText
 10
696.2660725824705
 20
714.6418323753453
 30
0.0
 40
1.5
 41
3.846156945148321
 71
     1
 72
     5
  1
Y
 73
     1
 44
1.0
1001
ACAD
1000
MTEXTBEGIN
1070
    73
1070
     1
1070
    44
1040
1.0
1070
    74
1070
     0
1000
MTEXTEND
  0
ARC
  5
2BD
330
1F
100
AcDbEntity
  8
0
100
AcDbCircle
 10
641.0018920871244
 20
746.9638135508176
 30
0.0
 40
1.000000000000113
100
AcDbArc
 50
89.99999999999348
 51
179.9999999999935
  0
ARC
  5
2BE
330
1F
100
AcDbEntity
  8
0
100
AcDbCircle
 10
641.0018920871244
 20
703.9638135508176
 30
0.0
 40
1.0
100
AcDbArc
 50
180.0
 51
270.0
  0
ARC
  5
2BF
330
1F
100
AcDbEntity
  8
0
100
AcDbCircle
 10
735.0018920871241
 20
703.9638135508176
 30
0.0
 40
0.9999999999997726
100
AcDbArc
 50
270.0000000000065
 51
0.0000000000130276
  0
ARC
  5
2C0
330
1F
100
AcDbEntity
  8
0
100
AcDbCircle
 10
735.0018920871241
 20
746.9638135508176
 30
0.0
 40
1.0
100
AcDbArc
 50
0.0
 51
90.0
  0
LINE
  5
2C1
330
1F
100
AcDbEntity
  8
0
100
AcDbLine
 10
653.0018920871242
 20
747.9638135508175
 30
0.0
 11
702.0018920871241
 21
747.9638135508175
 31
0.0
  0
LINE
  5
2C2
330
1F
100
AcDbEntity
  8
0
100
AcDbLine
 10
736.0018920871241
 20
729.9638135508176
 30
0.0
 11
736.0018920871241
 21
746.9638135508176
 31
0.0
  0
LINE
  5
2C5
330
1F
100
AcDbEntity
  8
0
100
AcDbLine
 10
640.0018920871242
 20
713.9638135508175
 30
0.0
 11
640.0018920871242
 21
746.9638135508176
 31
0.0
  0
DIMENSION
  5
88F
102
{ACAD_XDICTIONARY
360
89C
102
}
102
{ACAD_REACTORS
330
8A6
102
}
330
1F
100
AcDbEntity
  8
0
100
AcDbDimension
  2
*D1
 10
780.7091819606767
 20
652.6394412231425
 30
0.0
 11
800.7091819606767
 21
652.6394412231425
 31
0.0
 70
   160
 71
     5
 42
39.99999999999989
  3
ISO-25
100
AcDbAlignedDimension
 13
820.7091819606766
 23
664.9638135508172
 33
0.0
 14
780.7091819606767
 24
664.9638135508172
 34
0.0
100
AcDbRotatedDimension
1001
ACAD
1000
DSTYLE
1002
{
1070
    41
1040
3.0
1070
    42
1040
3.0
1070
   147
1040
1.0
1070
   140
1040
3.5
1002
}
  0
DIMENSION
  5
8B0
330
1F
100
AcDbEntity
  8
0
100
AcDbDimension
  2
*D2
 10
748.0018920871241
 20
641.6873705455127
 30
0.0
 11
688.0018920871241
 21
641.6873705455127
 31
0.0
 70
   160
 71
     5
 42
119.9999999999999
  3
ISO-25
100
AcDbAlignedDimension
 13
628.0018920871242
 23
664.9638135508176
 33
0.0
 14
748.0018920871241
 24
664.9638135508172
 34
0.0
100
AcDbRotatedDimension
1001
ACAD
1000
DSTYLE
1002
{
1070
    41
1040
3.0
1070
    42
1040
3.0
1070
   147
1040
1.0
1070
   140
1040
3.5
1002
}
  0
DIMENSION
  5
8DB
330
1F
100
AcDbEntity
  8
0
100
AcDbDimension
  2
*D3
 10
604.4285419727718
 20
764.9638135508175
 30
0.0
 11
604.4285419727717
 21
714.9638135508175
 31
0.0
 70
   160
 71
     5
 42
99.99999999999989
  3
ISO-25
100
AcDbAlignedDimension
 13
627.9424796256742
 23
664.9638135508176
 33
0.0
 14
627.9424796256742
 24
764.9638135508175
 34
0.0
 50
90.0
100
AcDbRotatedDimension
1001
ACAD
1000
DSTYLE
1002
{
1070
    41
1040
3.0
1070
    42
1040
3.0
1070
   147
1040
1.0
1070
   140
1040
3.5
1002
}
  0
LINE
  5
A9E
330
1F
100
AcDbEntity
  8
0
100
AcDbLine
 10
652.5018920871242
 20
690.4638135508175
 30
0.0
 11
654.5018920871243
 21
690.4638135508175
 31
0.0
  0
LINE
  5
AC0
330
1F
100
AcDbEntity
  8
0
100
AcDbLine
 10
654.5018920871243
 20
678.4638135508172
 30
0.0
 11
659.5018920871242
 21
678.4638135508172
 31
0.0
  0
LINE
  5
AC2
330
1F
100
AcDbEntity
  8
0
100
AcDbLine
 10
659.5018920871242
 20
690.4638135508175
 30
0.0
 11
654.5018920871243
 21
690.4638135508175
 31
0.0
  0
LINE
  5
AC4
330
1F
100
AcDbEntity
  8
0
100
AcDbLine
 10
655.5018920871242
 20
688.9638135508175
 30
0.0
 11
657.5018920871244
 21
688.9638135508175
 31
0.0
  0
LINE
  5
AC5
330
1F
100
AcDbEntity
  8
0
100
AcDbLine
 10
657.5018920871244
 20
688.9638135508175
 30
0.0
 11
657.5018920871244
 21
686.9638135508172
 31
0.0
  0
LINE
  5
AC6
330
1F
100
AcDbEntity
  8
0
100
AcDbLine
 10
657.5018920871244
 20
686.9638135508172
 30
0.0
 11
655.5018920871242
 21
686.9638135508172
 31
0.0
  0
LINE
  5
AC7
330
1F
100
AcDbEntity
  8
0
100
AcDbLine
 10
655.5018920871242
 20
686.9638135508172
 30
0.0
 11
655.5018920871242
 21
688.9638135508175
 31
0.0
  0
LINE
  5
AC8
330
1F
100
AcDbEntity
  8
0
100
AcDbLine
 10
654.5018920871243
 20
678.4638135508172
 30
0.0
 11
655.0018920871242
 21
678.4638135508172
 31
0.0
  0
LINE
  5
AC9
330
1F
100
AcDbEntity
  8
0
100
AcDbLine
 10
655.0018920871242
 20
678.4638135508172
 30
0.0
 11
655.0018920871242
 21
681.4638135508172
 31
0.0
  0
LINE
  5
ACA
330
1F
100
AcDbEntity
  8
0
100
AcDbLine
 10
655.0018920871242
 20
681.4638135508172
 30
0.0
 11
657.0018920871242
 21
681.4638135508172
 31
0.0
  0
LINE
  5
ACB
330
1F
100
AcDbEntity
  8
0
100
AcDbLine
 10
658.0018920871244
 20
680.4638135508175
 30
0.0
 11
658.0018920871244
 21
678.4638135508172
 31
0.0
  0
LINE
  5
ACC
330
1F
100
AcDbEntity
  8
0
100
AcDbLine
 10
657.0018920871242
 20
681.4638135508172
 30
0.0
 11
657.0018920871242
 21
680.4638135508175
 31
0.0
  0
LINE
  5
ACD
330
1F
100
AcDbEntity
  8
0
100
AcDbLine
 10
657.0018920871242
 20
680.4638135508175
 30
0.0
 11
658.0018920871244
 21
680.4638135508175
 31
0.0
  0
LINE
  5
ACE
330
1F
100
AcDbEntity
  8
0
100
AcDbLine
 10
655.5018920871242
 20
686.5638135508175
 30
0.0
 11
657.6018920871242
 21
686.5638135508175
 31
0.0
  0
LINE
  5
ACF
330
1F
100
AcDbEntity
  8
0
100
AcDbLine
 10
658.6018920871244
 20
686.5638135508175
 30
0.0
 11
658.6018920871244
 21
683.5638135508176
 31
0.0
  0
LINE
  5
AD0
330
1F
100
AcDbEntity
  8
0
100
AcDbLine
 10
657.6018920871242
 20
683.5638135508176
 30
0.0
 11
655.5018920871242
 21
683.5638135508176
 31
0.0
  0
LINE
  5
AD1
330
1F
100
AcDbEntity
  8
0
100
AcDbLine
 10
655.5018920871242
 20
683.5638135508176
 30
0.0
 11
655.5018920871242
 21
686.5638135508175
 31
0.0
  0
LINE
  5
AD2
330
1F
100
AcDbEntity
  8
0
100
AcDbLine
 10
658.6018920871244
 20
686.5638135508175
 30
0.0
 11
658.6018920871244
 21
687.0638135508174
 31
0.0
  0
LINE
  5
AD3
330
1F
100
AcDbEntity
  8
0
100
AcDbLine
 10
658.6018920871244
 20
687.0638135508174
 30
0.0
 11
657.6018920871242
 21
687.0638135508174
 31
0.0
  0
LINE
  5
AD4
330
1F
100
AcDbEntity
  8
0
100
AcDbLine
 10
657.6018920871242
 20
687.0638135508174
 30
0.0
 11
657.6018920871242
 21
686.5638135508175
 31
0.0
  0
LINE
  5
AD5
330
1F
100
AcDbEntity
  8
0
100
AcDbLine
 10
658.6018920871244
 20
683.5638135508176
 30
0.0
 11
658.6018920871244
 21
683.0638135508174
 31
0.0
  0
LINE
  5
AD6
330
1F
100
AcDbEntity
  8
0
100
AcDbLine
 10
658.6018920871244
 20
683.0638135508174
 30
0.0
 11
657.6018920871242
 21
683.0638135508174
 31
0.0
  0
LINE
  5
AD7
330
1F
100
AcDbEntity
  8
0
100
AcDbLine
 10
657.6018920871242
 20
683.0638135508174
 30
0.0
 11
657.6018920871242
 21
683.5638135508176
 31
0.0
  0
LINE
  5
AF8
330
1F
100
AcDbEntity
  8
0
100
AcDbLine
 10
659.5018920871242
 20
678.4638135508172
 30
0.0
 11
664.5018920871242
 21
678.4638135508172
 31
0.0
  0
LINE
  5
AFA
330
1F
100
AcDbEntity
  8
0
100
AcDbLine
 10
664.5018920871242
 20
690.4638135508175
 30
0.0
 11
659.5018920871242
 21
690.4638135508175
 31
0.0
  0
LINE
  5
AFC
330
1F
100
AcDbEntity
  8
0
100
AcDbLine
 10
660.5018920871242
 20
688.9638135508175
 30
0.0
 11
662.5018920871242
 21
688.9638135508175
 31
0.0
  0
LINE
  5
AFD
330
1F
100
AcDbEntity
  8
0
100
AcDbLine
 10
662.5018920871242
 20
688.9638135508175
 30
0.0
 11
662.5018920871242
 21
686.9638135508172
 31
0.0
  0
LINE
  5
AFE
330
1F
100
AcDbEntity
  8
0
100
AcDbLine
 10
662.5018920871242
 20
686.9638135508172
 30
0.0
 11
660.5018920871242
 21
686.9638135508172
 31
0.0
  0
LINE
  5
AFF
330
1F
100
AcDbEntity
  8
0
100
AcDbLine
 10
660.5018920871242
 20
686.9638135508172
 30
0.0
 11
660.5018920871242
 21
688.9638135508175
 31
0.0
  0
LINE
  5
B00
330
1F
100
AcDbEntity
  8
0
100
AcDbLine
 10
659.5018920871242
 20
678.4638135508172
 30
0.0
 11
660.0018920871242
 21
678.4638135508172
 31
0.0
  0
LINE
  5
B01
330
1F
100
AcDbEntity
  8
0
100
AcDbLine
 10
660.0018920871242
 20
678.4638135508172
 30
0.0
 11
660.0018920871242
 21
681.4638135508172
 31
0.0
  0
LINE
  5
B02
330
1F
100
AcDbEntity
  8
0
100
AcDbLine
 10
660.0018920871242
 20
681.4638135508172
 30
0.0
 11
662.0018920871244
 21
681.4638135508172
 31
0.0
  0
LINE
  5
B03
330
1F
100
AcDbEntity
  8
0
100
AcDbLine
 10
663.0018920871243
 20
680.4638135508175
 30
0.0
 11
663.0018920871243
 21
678.4638135508172
 31
0.0
  0
LINE
  5
B04
330
1F
100
AcDbEntity
  8
0
100
AcDbLine
 10
662.0018920871244
 20
681.4638135508172
 30
0.0
 11
662.0018920871244
 21
680.4638135508175
 31
0.0
  0
LINE
  5
B05
330
1F
100
AcDbEntity
  8
0
100
AcDbLine
 10
662.0018920871244
 20
680.4638135508175
 30
0.0
 11
663.0018920871243
 21
680.4638135508175
 31
0.0
  0
LINE
  5
B06
330
1F
100
AcDbEntity
  8
0
100
AcDbLine
 10
660.5018920871242
 20
686.5638135508175
 30
0.0
 11
662.6018920871244
 21
686.5638135508175
 31
0.0
  0
LINE
  5
B07
330
1F
100
AcDbEntity
  8
0
100
AcDbLine
 10
663.6018920871244
 20
686.5638135508175
 30
0.0
 11
663.6018920871244
 21
683.5638135508176
 31
0.0
  0
LINE
  5
B08
330
1F
100
AcDbEntity
  8
0
100
AcDbLine
 10
662.6018920871244
 20
683.5638135508176
 30
0.0
 11
660.5018920871242
 21
683.5638135508176
 31
0.0
  0
LINE
  5
B09
330
1F
100
AcDbEntity
  8
0
100
AcDbLine
 10
660.5018920871242
 20
683.5638135508176
 30
0.0
 11
660.5018920871242
 21
686.5638135508175
 31
0.0
  0
LINE
  5
B0A
330
1F
100
AcDbEntity
  8
0
100
AcDbLine
 10
663.6018920871244
 20
686.5638135508175
 30
0.0
 11
663.6018920871244
 21
687.0638135508174
 31
0.0
  0
LINE
  5
B0B
330
1F
100
AcDbEntity
  8
0
100
AcDbLine
 10
663.6018920871244
 20
687.0638135508174
 30
0.0
 11
662.6018920871244
 21
687.0638135508174
 31
0.0
  0
LINE
  5
B0C
330
1F
100
AcDbEntity
  8
0
100
AcDbLine
 10
662.6018920871244
 20
687.0638135508174
 30
0.0
 11
662.6018920871244
 21
686.5638135508175
 31
0.0
  0
LINE
  5
B0D
330
1F
100
AcDbEntity
  8
0
100
AcDbLine
 10
663.6018920871244
 20
683.5638135508176
 30
0.0
 11
663.6018920871244
 21
683.0638135508174
 31
0.0
  0
LINE
  5
B0E
330
1F
100
AcDbEntity
  8
0
100
AcDbLine
 10
663.6018920871244
 20
683.0638135508174
 30
0.0
 11
662.6018920871244
 21
683.0638135508174
 31
0.0
  0
LINE
  5
B0F
330
1F
100
AcDbEntity
  8
0
100
AcDbLine
 10
662.6018920871244
 20
683.0638135508174
 30
0.0
 11
662.6018920871244
 21
683.5638135508176
 31
0.0
  0
LINE
  5
B30
330
1F
100
AcDbEntity
  8
0
100
AcDbLine
 10
664.5018920871242
 20
678.4638135508172
 30
0.0
 11
669.5018920871242
 21
678.4638135508172
 31
0.0
  0
LINE
  5
B32
330
1F
100
AcDbEntity
  8
0
100
AcDbLine
 10
669.5018920871242
 20
690.4638135508175
 30
0.0
 11
664.5018920871242
 21
690.4638135508175
 31
0.0
  0
LINE
  5
B34
330
1F
100
AcDbEntity
  8
0
100
AcDbLine
 10
665.5018920871242
 20
688.9638135508175
 30
0.0
 11
667.5018920871242
 21
688.9638135508175
 31
0.0
  0
LINE
  5
B35
330
1F
100
AcDbEntity
  8
0
100
AcDbLine
 10
667.5018920871242
 20
688.9638135508175
 30
0.0
 11
667.5018920871242
 21
686.9638135508172
 31
0.0
  0
LINE
  5
B36
330
1F
100
AcDbEntity
  8
0
100
AcDbLine
 10
667.5018920871242
 20
686.9638135508172
 30
0.0
 11
665.5018920871242
 21
686.9638135508172
 31
0.0
  0
LINE
  5
B37
330
1F
100
AcDbEntity
  8
0
100
AcDbLine
 10
665.5018920871242
 20
686.9638135508172
 30
0.0
 11
665.5018920871242
 21
688.9638135508175
 31
0.0
  0
LINE
  5
B38
330
1F
100
AcDbEntity
  8
0
100
AcDbLine
 10
664.5018920871242
 20
678.4638135508172
 30
0.0
 11
665.0018920871242
 21
678.4638135508172
 31
0.0
  0
LINE
  5
B39
330
1F
100
AcDbEntity
  8
0
100
AcDbLine
 10
665.0018920871242
 20
678.4638135508172
 30
0.0
 11
665.0018920871242
 21
681.4638135508172
 31
0.0
  0
LINE
  5
B3A
330
1F
100
AcDbEntity
  8
0
100
AcDbLine
 10
665.0018920871242
 20
681.4638135508172
 30
0.0
 11
667.0018920871243
 21
681.4638135508172
 31
0.0
  0
LINE
  5
B3B
330
1F
100
AcDbEntity
  8
0
100
AcDbLine
 10
668.0018920871242
 20
680.4638135508175
 30
0.0
 11
668.0018920871242
 21
678.4638135508172
 31
0.0
  0
LINE
  5
B3C
330
1F
100
AcDbEntity
  8
0
100
AcDbLine
 10
667.0018920871243
 20
681.4638135508172
 30
0.0
 11
667.0018920871243
 21
680.4638135508175
 31
0.0
  0
LINE
  5
B3D
330
1F
100
AcDbEntity
  8
0
100
AcDbLine
 10
667.0018920871243
 20
680.4638135508175
 30
0.0
 11
668.0018920871242
 21
680.4638135508175
 31
0.0
  0
LINE
  5
B3E
330
1F
100
AcDbEntity
  8
0
100
AcDbLine
 10
665.5018920871242
 20
686.5638135508175
 30
0.0
 11
667.6018920871244
 21
686.5638135508175
 31
0.0
  0
LINE
  5
B3F
330
1F
100
AcDbEntity
  8
0
100
AcDbLine
 10
668.6018920871243
 20
686.5638135508175
 30
0.0
 11
668.6018920871243
 21
683.5638135508176
 31
0.0
  0
LINE
  5
B40
330
1F
100
AcDbEntity
  8
0
100
AcDbLine
 10
667.6018920871244
 20
683.5638135508176
 30
0.0
 11
665.5018920871242
 21
683.5638135508176
 31
0.0
  0
LINE
  5
B41
330
1F
100
AcDbEntity
  8
0
100
AcDbLine
 10
665.5018920871242
 20
683.5638135508176
 30
0.0
 11
665.5018920871242
 21
686.5638135508175
 31
0.0
  0
LINE
  5
B42
330
1F
100
AcDbEntity
  8
0
100
AcDbLine
 10
668.6018920871243
 20
686.5638135508175
 30
0.0
 11
668.6018920871243
 21
687.0638135508174
 31
0.0
  0
LINE
  5
B43
330
1F
100
AcDbEntity
  8
0
100
AcDbLine
 10
668.6018920871243
 20
687.0638135508174
 30
0.0
 11
667.6018920871244
 21
687.0638135508174
 31
0.0
  0
LINE
  5
B44
330
1F
100
AcDbEntity
  8
0
100
AcDbLine
 10
667.6018920871244
 20
687.0638135508174
 30
0.0
 11
667.6018920871244
 21
686.5638135508175
 31
0.0
  0
LINE
  5
B45
330
1F
100
AcDbEntity
  8
0
100
AcDbLine
 10
668.6018920871243
 20
683.5638135508176
 30
0.0
 11
668.6018920871243
 21
683.0638135508174
 31
0.0
  0
LINE
  5
B46
330
1F
100
AcDbEntity
  8
0
100
AcDbLine
 10
668.6018920871243
 20
683.0638135508174
 30
0.0
 11
667.6018920871244
 21
683.0638135508174
 31
0.0
  0
LINE
  5
B47
330
1F
100
AcDbEntity
  8
0
100
AcDbLine
 10
667.6018920871244
 20
683.0638135508174
 30
0.0
 11
667.6018920871244
 21
683.5638135508176
 31
0.0
  0
LINE
  5
B68
330
1F
100
AcDbEntity
  8
0
100
AcDbLine
 10
669.5018920871242
 20
678.4638135508172
 30
0.0
 11
674.5018920871244
 21
678.4638135508172
 31
0.0
  0
LINE
  5
B6A
330
1F
100
AcDbEntity
  8
0
100
AcDbLine
 10
674.5018920871244
 20
690.4638135508175
 30
0.0
 11
669.5018920871242
 21
690.4638135508175
 31
0.0
  0
LINE
  5
B6C
330
1F
100
AcDbEntity
  8
0
100
AcDbLine
 10
670.5018920871244
 20
688.9638135508175
 30
0.0
 11
672.5018920871242
 21
688.9638135508175
 31
0.0
  0
LINE
  5
B6D
330
1F
100
AcDbEntity
  8
0
100
AcDbLine
 10
672.5018920871242
 20
688.9638135508175
 30
0.0
 11
672.5018920871242
 21
686.9638135508172
 31
0.0
  0
LINE
  5
B6E
330
1F
100
AcDbEntity
  8
0
100
AcDbLine
 10
672.5018920871242
 20
686.9638135508172
 30
0.0
 11
670.5018920871244
 21
686.9638135508172
 31
0.0
  0
LINE
  5
B6F
330
1F
100
AcDbEntity
  8
0
100
AcDbLine
 10
670.5018920871244
 20
686.9638135508172
 30
0.0
 11
670.5018920871244
 21
688.9638135508175
 31
0.0
  0
LINE
  5
B70
330
1F
100
AcDbEntity
  8
0
100
AcDbLine
 10
669.5018920871242
 20
678.4638135508172
 30
0.0
 11
670.0018920871244
 21
678.4638135508172
 31
0.0
  0
LINE
  5
B71
330
1F
100
AcDbEntity
  8
0
100
AcDbLine
 10
670.0018920871244
 20
678.4638135508172
 30
0.0
 11
670.0018920871244
 21
681.4638135508172
 31
0.0
  0
LINE
  5
B72
330
1F
100
AcDbEntity
  8
0
100
AcDbLine
 10
670.0018920871244
 20
681.4638135508172
 30
0.0
 11
672.0018920871242
 21
681.4638135508172
 31
0.0
  0
LINE
  5
B73
330
1F
100
AcDbEntity
  8
0
100
AcDbLine
 10
673.0018920871242
 20
680.4638135508175
 30
0.0
 11
673.0018920871242
 21
678.4638135508172
 31
0.0
  0
LINE
  5
B74
330
1F
100
AcDbEntity
  8
0
100
AcDbLine
 10
672.0018920871242
 20
681.4638135508172
 30
0.0
 11
672.0018920871242
 21
680.4638135508175
 31
0.0
  0
LINE
  5
B75
330
1F
100
AcDbEntity
  8
0
100
AcDbLine
 10
672.0018920871242
 20
680.4638135508175
 30
0.0
 11
673.0018920871242
 21
680.4638135508175
 31
0.0
  0
LINE
  5
B76
330
1F
100
AcDbEntity
  8
0
100
AcDbLine
 10
670.5018920871244
 20
686.5638135508175
 30
0.0
 11
672.6018920871243
 21
686.5638135508175
 31
0.0
  0
LINE
  5
B77
330
1F
100
AcDbEntity
  8
0
100
AcDbLine
 10
673.6018920871242
 20
686.5638135508175
 30
0.0
 11
673.6018920871242
 21
683.5638135508176
 31
0.0
  0
LINE
  5
B78
330
1F
100
AcDbEntity
  8
0
100
AcDbLine
 10
672.6018920871243
 20
683.5638135508176
 30
0.0
 11
670.5018920871244
 21
683.5638135508176
 31
0.0
  0
LINE
  5
B79
330
1F
100
AcDbEntity
  8
0
100
AcDbLine
 10
670.5018920871244
 20
683.5638135508176
 30
0.0
 11
670.5018920871244
 21
686.5638135508175
 31
0.0
  0
LINE
  5
B7A
330
1F
100
AcDbEntity
  8
0
100
AcDbLine
 10
673.6018920871242
 20
686.5638135508175
 30
0.0
 11
673.6018920871242
 21
687.0638135508174
 31
0.0
  0
LINE
  5
B7B
330
1F
100
AcDbEntity
  8
0
100
AcDbLine
 10
673.6018920871242
 20
687.0638135508174
 30
0.0
 11
672.6018920871243
 21
687.0638135508174
 31
0.0
  0
LINE
  5
B7C
330
1F
100
AcDbEntity
  8
0
100
AcDbLine
 10
672.6018920871243
 20
687.0638135508174
 30
0.0
 11
672.6018920871243
 21
686.5638135508175
 31
0.0
  0
LINE
  5
B7D
330
1F
100
AcDbEntity
  8
0
100
AcDbLine
 10
673.6018920871242
 20
683.5638135508176
 30
0.0
 11
673.6018920871242
 21
683.0638135508174
 31
0.0
  0
LINE
  5
B7E
330
1F
100
AcDbEntity
  8
0
100
AcDbLine
 10
673.6018920871242
 20
683.0638135508174
 30
0.0
 11
672.6018920871243
 21
683.0638135508174
 31
0.0
  0
LINE
  5
B7F
330
1F
100
AcDbEntity
  8
0
100
AcDbLine
 10
672.6018920871243
 20
683.0638135508174
 30
0.0
 11
672.6018920871243
 21
683.5638135508176
 31
0.0
  0
LINE
  5
BA0
330
1F
100
AcDbEntity
  8
0
100
AcDbLine
 10
674.5018920871244
 20
678.4638135508172
 30
0.0
 11
679.5018920871243
 21
678.4638135508172
 31
0.0
  0
LINE
  5
BA2
330
1F
100
AcDbEntity
  8
0
100
AcDbLine
 10
679.5018920871243
 20
690.4638135508175
 30
0.0
 11
674.5018920871244
 21
690.4638135508175
 31
0.0
  0
LINE
  5
BA4
330
1F
100
AcDbEntity
  8
0
100
AcDbLine
 10
675.5018920871243
 20
688.9638135508175
 30
0.0
 11
677.5018920871242
 21
688.9638135508175
 31
0.0
  0
LINE
  5
BA5
330
1F
100
AcDbEntity
  8
0
100
AcDbLine
 10
677.5018920871242
 20
688.9638135508175
 30
0.0
 11
677.5018920871242
 21
686.9638135508172
 31
0.0
  0
LINE
  5
BA6
330
1F
100
AcDbEntity
  8
0
100
AcDbLine
 10
677.5018920871242
 20
686.9638135508172
 30
0.0
 11
675.5018920871243
 21
686.9638135508172
 31
0.0
  0
LINE
  5
BA7
330
1F
100
AcDbEntity
  8
0
100
AcDbLine
 10
675.5018920871243
 20
686.9638135508172
 30
0.0
 11
675.5018920871243
 21
688.9638135508175
 31
0.0
  0
LINE
  5
BA8
330
1F
100
AcDbEntity
  8
0
100
AcDbLine
 10
674.5018920871244
 20
678.4638135508172
 30
0.0
 11
675.0018920871242
 21
678.4638135508172
 31
0.0
  0
LINE
  5
BA9
330
1F
100
AcDbEntity
  8
0
100
AcDbLine
 10
675.0018920871242
 20
678.4638135508172
 30
0.0
 11
675.0018920871242
 21
681.4638135508172
 31
0.0
  0
LINE
  5
BAA
330
1F
100
AcDbEntity
  8
0
100
AcDbLine
 10
675.0018920871242
 20
681.4638135508172
 30
0.0
 11
677.0018920871242
 21
681.4638135508172
 31
0.0
  0
LINE
  5
BAB
330
1F
100
AcDbEntity
  8
0
100
AcDbLine
 10
678.0018920871242
 20
680.4638135508175
 30
0.0
 11
678.0018920871242
 21
678.4638135508172
 31
0.0
  0
LINE
  5
BAC
330
1F
100
AcDbEntity
  8
0
100
AcDbLine
 10
677.0018920871242
 20
681.4638135508172
 30
0.0
 11
677.0018920871242
 21
680.4638135508175
 31
0.0
  0
LINE
  5
BAD
330
1F
100
AcDbEntity
  8
0
100
AcDbLine
 10
677.0018920871242
 20
680.4638135508175
 30
0.0
 11
678.0018920871242
 21
680.4638135508175
 31
0.0
  0
LINE
  5
BAE
330
1F
100
AcDbEntity
  8
0
100
AcDbLine
 10
675.5018920871243
 20
686.5638135508175
 30
0.0
 11
677.6018920871242
 21
686.5638135508175
 31
0.0
  0
LINE
  5
BAF
330
1F
100
AcDbEntity
  8
0
100
AcDbLine
 10
678.6018920871242
 20
686.5638135508175
 30
0.0
 11
678.6018920871242
 21
683.5638135508176
 31
0.0
  0
LINE
  5
BB0
330
1F
100
AcDbEntity
  8
0
100
AcDbLine
 10
677.6018920871242
 20
683.5638135508176
 30
0.0
 11
675.5018920871243
 21
683.5638135508176
 31
0.0
  0
LINE
  5
BB1
330
1F
100
AcDbEntity
  8
0
100
AcDbLine
 10
675.5018920871243
 20
683.5638135508176
 30
0.0
 11
675.5018920871243
 21
686.5638135508175
 31
0.0
  0
LINE
  5
BB2
330
1F
100
AcDbEntity
  8
0
100
AcDbLine
 10
678.6018920871242
 20
686.5638135508175
 30
0.0
 11
678.6018920871242
 21
687.0638135508174
 31
0.0
  0
LINE
  5
BB3
330
1F
100
AcDbEntity
  8
0
100
AcDbLine
 10
678.6018920871242
 20
687.0638135508174
 30
0.0
 11
677.6018920871242
 21
687.0638135508174
 31
0.0
  0
LINE
  5
BB4
330
1F
100
AcDbEntity
  8
0
100
AcDbLine
 10
677.6018920871242
 20
687.0638135508174
 30
0.0
 11
677.6018920871242
 21
686.5638135508175
 31
0.0
  0
LINE
  5
BB5
330
1F
100
AcDbEntity
  8
0
100
AcDbLine
 10
678.6018920871242
 20
683.5638135508176
 30
0.0
 11
678.6018920871242
 21
683.0638135508174
 31
0.0
  0
LINE
  5
BB6
330
1F
100
AcDbEntity
  8
0
100
AcDbLine
 10
678.6018920871242
 20
683.0638135508174
 30
0.0
 11
677.6018920871242
 21
683.0638135508174
 31
0.0
  0
LINE
  5
BB7
330
1F
100
AcDbEntity
  8
0
100
AcDbLine
 10
677.6018920871242
 20
683.0638135508174
 30
0.0
 11
677.6018920871242
 21
683.5638135508176
 31
0.0
  0
LINE
  5
BD8
330
1F
100
AcDbEntity
  8
0
100
AcDbLine
 10
679.5018920871243
 20
678.4638135508172
 30
0.0
 11
684.5018920871242
 21
678.4638135508172
 31
0.0
  0
LINE
  5
BDA
330
1F
100
AcDbEntity
  8
0
100
AcDbLine
 10
684.5018920871242
 20
690.4638135508175
 30
0.0
 11
679.5018920871243
 21
690.4638135508175
 31
0.0
  0
LINE
  5
BDC
330
1F
100
AcDbEntity
  8
0
100
AcDbLine
 10
680.5018920871242
 20
688.9638135508175
 30
0.0
 11
682.5018920871244
 21
688.9638135508175
 31
0.0
  0
LINE
  5
BDD
330
1F
100
AcDbEntity
  8
0
100
AcDbLine
 10
682.5018920871244
 20
688.9638135508175
 30
0.0
 11
682.5018920871244
 21
686.9638135508172
 31
0.0
  0
LINE
  5
BDE
330
1F
100
AcDbEntity
  8
0
100
AcDbLine
 10
682.5018920871244
 20
686.9638135508172
 30
0.0
 11
680.5018920871242
 21
686.9638135508172
 31
0.0
  0
LINE
  5
BDF
330
1F
100
AcDbEntity
  8
0
100
AcDbLine
 10
680.5018920871242
 20
686.9638135508172
 30
0.0
 11
680.5018920871242
 21
688.9638135508175
 31
0.0
  0
LINE
  5
BE0
330
1F
100
AcDbEntity
  8
0
100
AcDbLine
 10
679.5018920871243
 20
678.4638135508172
 30
0.0
 11
680.0018920871242
 21
678.4638135508172
 31
0.0
  0
LINE
  5
BE1
330
1F
100
AcDbEntity
  8
0
100
AcDbLine
 10
680.0018920871242
 20
678.4638135508172
 30
0.0
 11
680.0018920871242
 21
681.4638135508172
 31
0.0
  0
LINE
  5
BE2
330
1F
100
AcDbEntity
  8
0
100
AcDbLine
 10
680.0018920871242
 20
681.4638135508172
 30
0.0
 11
682.0018920871242
 21
681.4638135508172
 31
0.0
  0
LINE
  5
BE3
330
1F
100
AcDbEntity
  8
0
100
AcDbLine
 10
683.0018920871244
 20
680.4638135508175
 30
0.0
 11
683.0018920871244
 21
678.4638135508172
 31
0.0
  0
LINE
  5
BE4
330
1F
100
AcDbEntity
  8
0
100
AcDbLine
 10
682.0018920871242
 20
681.4638135508172
 30
0.0
 11
682.0018920871242
 21
680.4638135508175
 31
0.0
  0
LINE
  5
BE5
330
1F
100
AcDbEntity
  8
0
100
AcDbLine
 10
682.0018920871242
 20
680.4638135508175
 30
0.0
 11
683.0018920871244
 21
680.4638135508175
 31
0.0
  0
LINE
  5
BE6
330
1F
100
AcDbEntity
  8
0
100
AcDbLine
 10
680.5018920871242
 20
686.5638135508175
 30
0.0
 11
682.6018920871242
 21
686.5638135508175
 31
0.0
  0
LINE
  5
BE7
330
1F
100
AcDbEntity
  8
0
100
AcDbLine
 10
683.6018920871244
 20
686.5638135508175
 30
0.0
 11
683.6018920871244
 21
683.5638135508176
 31
0.0
  0
LINE
  5
BE8
330
1F
100
AcDbEntity
  8
0
100
AcDbLine
 10
682.6018920871242
 20
683.5638135508176
 30
0.0
 11
680.5018920871242
 21
683.5638135508176
 31
0.0
  0
LINE
  5
BE9
330
1F
100
AcDbEntity
  8
0
100
AcDbLine
 10
680.5018920871242
 20
683.5638135508176
 30
0.0
 11
680.5018920871242
 21
686.5638135508175
 31
0.0
  0
LINE
  5
BEA
330
1F
100
AcDbEntity
  8
0
100
AcDbLine
 10
683.6018920871244
 20
686.5638135508175
 30
0.0
 11
683.6018920871244
 21
687.0638135508174
 31
0.0
  0
LINE
  5
BEB
330
1F
100
AcDbEntity
  8
0
100
AcDbLine
 10
683.6018920871244
 20
687.0638135508174
 30
0.0
 11
682.6018920871242
 21
687.0638135508174
 31
0.0
  0
LINE
  5
BEC
330
1F
100
AcDbEntity
  8
0
100
AcDbLine
 10
682.6018920871242
 20
687.0638135508174
 30
0.0
 11
682.6018920871242
 21
686.5638135508175
 31
0.0
  0
LINE
  5
BED
330
1F
100
AcDbEntity
  8
0
100
AcDbLine
 10
683.6018920871244
 20
683.5638135508176
 30
0.0
 11
683.6018920871244
 21
683.0638135508174
 31
0.0
  0
LINE
  5
BEE
330
1F
100
AcDbEntity
  8
0
100
AcDbLine
 10
683.6018920871244
 20
683.0638135508174
 30
0.0
 11
682.6018920871242
 21
683.0638135508174
 31
0.0
  0
LINE
  5
BEF
330
1F
100
AcDbEntity
  8
0
100
AcDbLine
 10
682.6018920871242
 20
683.0638135508174
 30
0.0
 11
682.6018920871242
 21
683.5638135508176
 31
0.0
  0
LINE
  5
C10
330
1F
100
AcDbEntity
  8
0
100
AcDbLine
 10
684.5018920871242
 20
678.4638135508172
 30
0.0
 11
689.5018920871241
 21
678.4638135508172
 31
0.0
  0
LINE
  5
C12
330
1F
100
AcDbEntity
  8
0
100
AcDbLine
 10
689.5018920871241
 20
690.4638135508175
 30
0.0
 11
684.5018920871242
 21
690.4638135508175
 31
0.0
  0
LINE
  5
C14
330
1F
100
AcDbEntity
  8
0
100
AcDbLine
 10
685.5018920871242
 20
688.9638135508175
 30
0.0
 11
687.5018920871241
 21
688.9638135508175
 31
0.0
  0
LINE
  5
C15
330
1F
100
AcDbEntity
  8
0
100
AcDbLine
 10
687.5018920871241
 20
688.9638135508175
 30
0.0
 11
687.5018920871241
 21
686.9638135508172
 31
0.0
  0
LINE
  5
C16
330
1F
100
AcDbEntity
  8
0
100
AcDbLine
 10
687.5018920871241
 20
686.9638135508172
 30
0.0
 11
685.5018920871242
 21
686.9638135508172
 31
0.0
  0
LINE
  5
C17
330
1F
100
AcDbEntity
  8
0
100
AcDbLine
 10
685.5018920871242
 20
686.9638135508172
 30
0.0
 11
685.5018920871242
 21
688.9638135508175
 31
0.0
  0
LINE
  5
C18
330
1F
100
AcDbEntity
  8
0
100
AcDbLine
 10
684.5018920871242
 20
678.4638135508172
 30
0.0
 11
685.0018920871242
 21
678.4638135508172
 31
0.0
  0
LINE
  5
C19
330
1F
100
AcDbEntity
  8
0
100
AcDbLine
 10
685.0018920871242
 20
678.4638135508172
 30
0.0
 11
685.0018920871242
 21
681.4638135508172
 31
0.0
  0
LINE
  5
C1A
330
1F
100
AcDbEntity
  8
0
100
AcDbLine
 10
685.0018920871242
 20
681.4638135508172
 30
0.0
 11
687.0018920871244
 21
681.4638135508172
 31
0.0
  0
LINE
  5
C1B
330
1F
100
AcDbEntity
  8
0
100
AcDbLine
 10
688.0018920871241
 20
680.4638135508175
 30
0.0
 11
688.0018920871241
 21
678.4638135508172
 31
0.0
  0
LINE
  5
C1C
330
1F
100
AcDbEntity
  8
0
100
AcDbLine
 10
687.0018920871244
 20
681.4638135508172
 30
0.0
 11
687.0018920871244
 21
680.4638135508175
 31
0.0
  0
LINE
  5
C1D
330
1F
100
AcDbEntity
  8
0
100
AcDbLine
 10
687.0018920871244
 20
680.4638135508175
 30
0.0
 11
688.0018920871241
 21
680.4638135508175
 31
0.0
  0
LINE
  5
C1E
330
1F
100
AcDbEntity
  8
0
100
AcDbLine
 10
685.5018920871242
 20
686.5638135508175
 30
0.0
 11
687.6018920871244
 21
686.5638135508175
 31
0.0
  0
LINE
  5
C1F
330
1F
100
AcDbEntity
  8
0
100
AcDbLine
 10
688.6018920871244
 20
686.5638135508175
 30
0.0
 11
688.6018920871244
 21
683.5638135508176
 31
0.0
  0
LINE
  5
C20
330
1F
100
AcDbEntity
  8
0
100
AcDbLine
 10
687.6018920871244
 20
683.5638135508176
 30
0.0
 11
685.5018920871242
 21
683.5638135508176
 31
0.0
  0
LINE
  5
C21
330
1F
100
AcDbEntity
  8
0
100
AcDbLine
 10
685.5018920871242
 20
683.5638135508176
 30
0.0
 11
685.5018920871242
 21
686.5638135508175
 31
0.0
  0
LINE
  5
C22
330
1F
100
AcDbEntity
  8
0
100
AcDbLine
 10
688.6018920871244
 20
686.5638135508175
 30
0.0
 11
688.6018920871244
 21
687.0638135508174
 31
0.0
  0
LINE
  5
C23
330
1F
100
AcDbEntity
  8
0
100
AcDbLine
 10
688.6018920871244
 20
687.0638135508174
 30
0.0
 11
687.6018920871244
 21
687.0638135508174
 31
0.0
  0
LINE
  5
C24
330
1F
100
AcDbEntity
  8
0
100
AcDbLine
 10
687.6018920871244
 20
687.0638135508174
 30
0.0
 11
687.6018920871244
 21
686.5638135508175
 31
0.0
  0
LINE
  5
C25
330
1F
100
AcDbEntity
  8
0
100
AcDbLine
 10
688.6018920871244
 20
683.5638135508176
 30
0.0
 11
688.6018920871244
 21
683.0638135508174
 31
0.0
  0
LINE
  5
C26
330
1F
100
AcDbEntity
  8
0
100
AcDbLine
 10
688.6018920871244
 20
683.0638135508174
 30
0.0
 11
687.6018920871244
 21
683.0638135508174
 31
0.0
  0
LINE
  5
C27
330
1F
100
AcDbEntity
  8
0
100
AcDbLine
 10
687.6018920871244
 20
683.0638135508174
 30
0.0
 11
687.6018920871244
 21
683.5638135508176
 31
0.0
  0
LINE
  5
C48
330
1F
100
AcDbEntity
  8
0
100
AcDbLine
 10
689.5018920871241
 20
678.4638135508172
 30
0.0
 11
694.5018920871241
 21
678.4638135508172
 31
0.0
  0
LINE
  5
C4A
330
1F
100
AcDbEntity
  8
0
100
AcDbLine
 10
694.5018920871241
 20
690.4638135508175
 30
0.0
 11
689.5018920871241
 21
690.4638135508175
 31
0.0
  0
LINE
  5
C4C
330
1F
100
AcDbEntity
  8
0
100
AcDbLine
 10
690.5018920871241
 20
688.9638135508175
 30
0.0
 11
692.5018920871241
 21
688.9638135508175
 31
0.0
  0
LINE
  5
C4D
330
1F
100
AcDbEntity
  8
0
100
AcDbLine
 10
692.5018920871241
 20
688.9638135508175
 30
0.0
 11
692.5018920871241
 21
686.9638135508172
 31
0.0
  0
LINE
  5
C4E
330
1F
100
AcDbEntity
  8
0
100
AcDbLine
 10
692.5018920871241
 20
686.9638135508172
 30
0.0
 11
690.5018920871241
 21
686.9638135508172
 31
0.0
  0
LINE
  5
C4F
330
1F
100
AcDbEntity
  8
0
100
AcDbLine
 10
690.5018920871241
 20
686.9638135508172
 30
0.0
 11
690.5018920871241
 21
688.9638135508175
 31
0.0
  0
LINE
  5
C50
330
1F
100
AcDbEntity
  8
0
100
AcDbLine
 10
689.5018920871241
 20
678.4638135508172
 30
0.0
 11
690.0018920871241
 21
678.4638135508172
 31
0.0
  0
LINE
  5
C51
330
1F
100
AcDbEntity
  8
0
100
AcDbLine
 10
690.0018920871241
 20
678.4638135508172
 30
0.0
 11
690.0018920871241
 21
681.4638135508172
 31
0.0
  0
LINE
  5
C52
330
1F
100
AcDbEntity
  8
0
100
AcDbLine
 10
690.0018920871241
 20
681.4638135508172
 30
0.0
 11
692.0018920871241
 21
681.4638135508172
 31
0.0
  0
LINE
  5
C53
330
1F
100
AcDbEntity
  8
0
100
AcDbLine
 10
693.0018920871241
 20
680.4638135508175
 30
0.0
 11
693.0018920871241
 21
678.4638135508172
 31
0.0
  0
LINE
  5
C54
330
1F
100
AcDbEntity
  8
0
100
AcDbLine
 10
692.0018920871241
 20
681.4638135508172
 30
0.0
 11
692.0018920871241
 21
680.4638135508175
 31
0.0
  0
LINE
  5
C55
330
1F
100
AcDbEntity
  8
0
100
AcDbLine
 10
692.0018920871241
 20
680.4638135508175
 30
0.0
 11
693.0018920871241
 21
680.4638135508175
 31
0.0
  0
LINE
  5
C56
330
1F
100
AcDbEntity
  8
0
100
AcDbLine
 10
690.5018920871241
 20
686.5638135508175
 30
0.0
 11
692.6018920871244
 21
686.5638135508175
 31
0.0
  0
LINE
  5
C57
330
1F
100
AcDbEntity
  8
0
100
AcDbLine
 10
693.6018920871241
 20
686.5638135508175
 30
0.0
 11
693.6018920871241
 21
683.5638135508176
 31
0.0
  0
LINE
  5
C58
330
1F
100
AcDbEntity
  8
0
100
AcDbLine
 10
692.6018920871244
 20
683.5638135508176
 30
0.0
 11
690.5018920871241
 21
683.5638135508176
 31
0.0
  0
LINE
  5
C59
330
1F
100
AcDbEntity
  8
0
100
AcDbLine
 10
690.5018920871241
 20
683.5638135508176
 30
0.0
 11
690.5018920871241
 21
686.5638135508175
 31
0.0
  0
LINE
  5
C5A
330
1F
100
AcDbEntity
  8
0
100
AcDbLine
 10
693.6018920871241
 20
686.5638135508175
 30
0.0
 11
693.6018920871241
 21
687.0638135508174
 31
0.0
  0
LINE
  5
C5B
330
1F
100
AcDbEntity
  8
0
100
AcDbLine
 10
693.6018920871241
 20
687.0638135508174
 30
0.0
 11
692.6018920871244
 21
687.0638135508174
 31
0.0
  0
LINE
  5
C5C
330
1F
100
AcDbEntity
  8
0
100
AcDbLine
 10
692.6018920871244
 20
687.0638135508174
 30
0.0
 11
692.6018920871244
 21
686.5638135508175
 31
0.0
  0
LINE
  5
C5D
330
1F
100
AcDbEntity
  8
0
100
AcDbLine
 10
693.6018920871241
 20
683.5638135508176
 30
0.0
 11
693.6018920871241
 21
683.0638135508174
 31
0.0
  0
LINE
  5
C5E
330
1F
100
AcDbEntity
  8
0
100
AcDbLine
 10
693.6018920871241
 20
683.0638135508174
 30
0.0
 11
692.6018920871244
 21
683.0638135508174
 31
0.0
  0
LINE
  5
C5F
330
1F
100
AcDbEntity
  8
0
100
AcDbLine
 10
692.6018920871244
 20
683.0638135508174
 30
0.0
 11
692.6018920871244
 21
683.5638135508176
 31
0.0
  0
LINE
  5
C80
330
1F
100
AcDbEntity
  8
0
100
AcDbLine
 10
694.5018920871241
 20
678.4638135508172
 30
0.0
 11
699.5018920871244
 21
678.4638135508172
 31
0.0
  0
LINE
  5
C82
330
1F
100
AcDbEntity
  8
0
100
AcDbLine
 10
699.5018920871244
 20
690.4638135508175
 30
0.0
 11
694.5018920871241
 21
690.4638135508175
 31
0.0
  0
LINE
  5
C84
330
1F
100
AcDbEntity
  8
0
100
AcDbLine
 10
695.5018920871244
 20
688.9638135508175
 30
0.0
 11
697.5018920871241
 21
688.9638135508175
 31
0.0
  0
LINE
  5
C85
330
1F
100
AcDbEntity
  8
0
100
AcDbLine
 10
697.5018920871241
 20
688.9638135508175
 30
0.0
 11
697.5018920871241
 21
686.9638135508172
 31
0.0
  0
LINE
  5
C86
330
1F
100
AcDbEntity
  8
0
100
AcDbLine
 10
697.5018920871241
 20
686.9638135508172
 30
0.0
 11
695.5018920871244
 21
686.9638135508172
 31
0.0
  0
LINE
  5
C87
330
1F
100
AcDbEntity
  8
0
100
AcDbLine
 10
695.5018920871244
 20
686.9638135508172
 30
0.0
 11
695.5018920871244
 21
688.9638135508175
 31
0.0
  0
LINE
  5
C88
330
1F
100
AcDbEntity
  8
0
100
AcDbLine
 10
694.5018920871241
 20
678.4638135508172
 30
0.0
 11
695.0018920871244
 21
678.4638135508172
 31
0.0
  0
LINE
  5
C89
330
1F
100
AcDbEntity
  8
0
100
AcDbLine
 10
695.0018920871244
 20
678.4638135508172
 30
0.0
 11
695.0018920871244
 21
681.4638135508172
 31
0.0
  0
LINE
  5
C8A
330
1F
100
AcDbEntity
  8
0
100
AcDbLine
 10
695.0018920871244
 20
681.4638135508172
 30
0.0
 11
697.0018920871241
 21
681.4638135508172
 31
0.0
  0
LINE
  5
C8B
330
1F
100
AcDbEntity
  8
0
100
AcDbLine
 10
698.0018920871241
 20
680.4638135508175
 30
0.0
 11
698.0018920871241
 21
678.4638135508172
 31
0.0
  0
LINE
  5
C8C
330
1F
100
AcDbEntity
  8
0
100
AcDbLine
 10
697.0018920871241
 20
681.4638135508172
 30
0.0
 11
697.0018920871241
 21
680.4638135508175
 31
0.0
  0
LINE
  5
C8D
330
1F
100
AcDbEntity
  8
0
100
AcDbLine
 10
697.0018920871241
 20
680.4638135508175
 30
0.0
 11
698.0018920871241
 21
680.4638135508175
 31
0.0
  0
LINE
  5
C8E
330
1F
100
AcDbEntity
  8
0
100
AcDbLine
 10
695.5018920871244
 20
686.5638135508175
 30
0.0
 11
697.6018920871241
 21
686.5638135508175
 31
0.0
  0
LINE
  5
C8F
330
1F
100
AcDbEntity
  8
0
100
AcDbLine
 10
698.6018920871241
 20
686.5638135508175
 30
0.0
 11
698.6018920871241
 21
683.5638135508176
 31
0.0
  0
LINE
  5
C90
330
1F
100
AcDbEntity
  8
0
100
AcDbLine
 10
697.6018920871241
 20
683.5638135508176
 30
0.0
 11
695.5018920871244
 21
683.5638135508176
 31
0.0
  0
LINE
  5
C91
330
1F
100
AcDbEntity
  8
0
100
AcDbLine
 10
695.5018920871244
 20
683.5638135508176
 30
0.0
 11
695.5018920871244
 21
686.5638135508175
 31
0.0
  0
LINE
  5
C92
330
1F
100
AcDbEntity
  8
0
100
AcDbLine
 10
698.6018920871241
 20
686.5638135508175
 30
0.0
 11
698.6018920871241
 21
687.0638135508174
 31
0.0
  0
LINE
  5
C93
330
1F
100
AcDbEntity
  8
0
100
AcDbLine
 10
698.6018920871241
 20
687.0638135508174
 30
0.0
 11
697.6018920871241
 21
687.0638135508174
 31
0.0
  0
LINE
  5
C94
330
1F
100
AcDbEntity
  8
0
100
AcDbLine
 10
697.6018920871241
 20
687.0638135508174
 30
0.0
 11
697.6018920871241
 21
686.5638135508175
 31
0.0
  0
LINE
  5
C95
330
1F
100
AcDbEntity
  8
0
100
AcDbLine
 10
698.6018920871241
 20
683.5638135508176
 30
0.0
 11
698.6018920871241
 21
683.0638135508174
 31
0.0
  0
LINE
  5
C96
330
1F
100
AcDbEntity
  8
0
100
AcDbLine
 10
698.6018920871241
 20
683.0638135508174
 30
0.0
 11
697.6018920871241
 21
683.0638135508174
 31
0.0
  0
LINE
  5
C97
330
1F
100
AcDbEntity
  8
0
100
AcDbLine
 10
697.6018920871241
 20
683.0638135508174
 30
0.0
 11
697.6018920871241
 21
683.5638135508176
 31
0.0
  0
LINE
  5
CB8
330
1F
100
AcDbEntity
  8
0
100
AcDbLine
 10
699.5018920871244
 20
678.4638135508172
 30
0.0
 11
704.5018920871241
 21
678.4638135508172
 31
0.0
  0
LINE
  5
CBA
330
1F
100
AcDbEntity
  8
0
100
AcDbLine
 10
704.5018920871241
 20
690.4638135508175
 30
0.0
 11
699.5018920871244
 21
690.4638135508175
 31
0.0
  0
LINE
  5
CBC
330
1F
100
AcDbEntity
  8
0
100
AcDbLine
 10
700.5018920871241
 20
688.9638135508175
 30
0.0
 11
702.5018920871241
 21
688.9638135508175
 31
0.0
  0
LINE
  5
CBD
330
1F
100
AcDbEntity
  8
0
100
AcDbLine
 10
702.5018920871241
 20
688.9638135508175
 30
0.0
 11
702.5018920871241
 21
686.9638135508172
 31
0.0
  0
LINE
  5
CBE
330
1F
100
AcDbEntity
  8
0
100
AcDbLine
 10
702.5018920871241
 20
686.9638135508172
 30
0.0
 11
700.5018920871241
 21
686.9638135508172
 31
0.0
  0
LINE
  5
CBF
330
1F
100
AcDbEntity
  8
0
100
AcDbLine
 10
700.5018920871241
 20
686.9638135508172
 30
0.0
 11
700.5018920871241
 21
688.9638135508175
 31
0.0
  0
LINE
  5
CC0
330
1F
100
AcDbEntity
  8
0
100
AcDbLine
 10
699.5018920871244
 20
678.4638135508172
 30
0.0
 11
700.0018920871241
 21
678.4638135508172
 31
0.0
  0
LINE
  5
CC1
330
1F
100
AcDbEntity
  8
0
100
AcDbLine
 10
700.0018920871241
 20
678.4638135508172
 30
0.0
 11
700.0018920871241
 21
681.4638135508172
 31
0.0
  0
LINE
  5
CC2
330
1F
100
AcDbEntity
  8
0
100
AcDbLine
 10
700.0018920871241
 20
681.4638135508172
 30
0.0
 11
702.0018920871241
 21
681.4638135508172
 31
0.0
  0
LINE
  5
CC3
330
1F
100
AcDbEntity
  8
0
100
AcDbLine
 10
703.0018920871241
 20
680.4638135508175
 30
0.0
 11
703.0018920871241
 21
678.4638135508172
 31
0.0
  0
LINE
  5
CC4
330
1F
100
AcDbEntity
  8
0
100
AcDbLine
 10
702.0018920871241
 20
681.4638135508172
 30
0.0
 11
702.0018920871241
 21
680.4638135508175
 31
0.0
  0
LINE
  5
CC5
330
1F
100
AcDbEntity
  8
0
100
AcDbLine
 10
702.0018920871241
 20
680.4638135508175
 30
0.0
 11
703.0018920871241
 21
680.4638135508175
 31
0.0
  0
LINE
  5
CC6
330
1F
100
AcDbEntity
  8
0
100
AcDbLine
 10
700.5018920871241
 20
686.5638135508175
 30
0.0
 11
702.6018920871242
 21
686.5638135508175
 31
0.0
  0
LINE
  5
CC7
330
1F
100
AcDbEntity
  8
0
100
AcDbLine
 10
703.6018920871241
 20
686.5638135508175
 30
0.0
 11
703.6018920871241
 21
683.5638135508176
 31
0.0
  0
LINE
  5
CC8
330
1F
100
AcDbEntity
  8
0
100
AcDbLine
 10
702.6018920871242
 20
683.5638135508176
 30
0.0
 11
700.5018920871241
 21
683.5638135508176
 31
0.0
  0
LINE
  5
CC9
330
1F
100
AcDbEntity
  8
0
100
AcDbLine
 10
700.5018920871241
 20
683.5638135508176
 30
0.0
 11
700.5018920871241
 21
686.5638135508175
 31
0.0
  0
LINE
  5
CCA
330
1F
100
AcDbEntity
  8
0
100
AcDbLine
 10
703.6018920871241
 20
686.5638135508175
 30
0.0
 11
703.6018920871241
 21
687.0638135508174
 31
0.0
  0
LINE
  5
CCB
330
1F
100
AcDbEntity
  8
0
100
AcDbLine
 10
703.6018920871241
 20
687.0638135508174
 30
0.0
 11
702.6018920871242
 21
687.0638135508174
 31
0.0
  0
LINE
  5
CCC
330
1F
100
AcDbEntity
  8
0
100
AcDbLine
 10
702.6018920871242
 20
687.0638135508174
 30
0.0
 11
702.6018920871242
 21
686.5638135508175
 31
0.0
  0
LINE
  5
CCD
330
1F
100
AcDbEntity
  8
0
100
AcDbLine
 10
703.6018920871241
 20
683.5638135508176
 30
0.0
 11
703.6018920871241
 21
683.0638135508174
 31
0.0
  0
LINE
  5
CCE
330
1F
100
AcDbEntity
  8
0
100
AcDbLine
 10
703.6018920871241
 20
683.0638135508174
 30
0.0
 11
702.6018920871242
 21
683.0638135508174
 31
0.0
  0
LINE
  5
CCF
330
1F
100
AcDbEntity
  8
0
100
AcDbLine
 10
702.6018920871242
 20
683.0638135508174
 30
0.0
 11
702.6018920871242
 21
683.5638135508176
 31
0.0
  0
LINE
  5
CF0
330
1F
100
AcDbEntity
  8
0
100
AcDbLine
 10
704.5018920871241
 20
678.4638135508172
 30
0.0
 11
709.5018920871241
 21
678.4638135508172
 31
0.0
  0
LINE
  5
CF2
330
1F
100
AcDbEntity
  8
0
100
AcDbLine
 10
709.5018920871241
 20
690.4638135508175
 30
0.0
 11
704.5018920871241
 21
690.4638135508175
 31
0.0
  0
LINE
  5
CF4
330
1F
100
AcDbEntity
  8
0
100
AcDbLine
 10
705.5018920871241
 20
688.9638135508175
 30
0.0
 11
707.5018920871244
 21
688.9638135508175
 31
0.0
  0
LINE
  5
CF5
330
1F
100
AcDbEntity
  8
0
100
AcDbLine
 10
707.5018920871244
 20
688.9638135508175
 30
0.0
 11
707.5018920871244
 21
686.9638135508172
 31
0.0
  0
LINE
  5
CF6
330
1F
100
AcDbEntity
  8
0
100
AcDbLine
 10
707.5018920871244
 20
686.9638135508172
 30
0.0
 11
705.5018920871241
 21
686.9638135508172
 31
0.0
  0
LINE
  5
CF7
330
1F
100
AcDbEntity
  8
0
100
AcDbLine
 10
705.5018920871241
 20
686.9638135508172
 30
0.0
 11
705.5018920871241
 21
688.9638135508175
 31
0.0
  0
LINE
  5
CF8
330
1F
100
AcDbEntity
  8
0
100
AcDbLine
 10
704.5018920871241
 20
678.4638135508172
 30
0.0
 11
705.0018920871241
 21
678.4638135508172
 31
0.0
  0
LINE
  5
CF9
330
1F
100
AcDbEntity
  8
0
100
AcDbLine
 10
705.0018920871241
 20
678.4638135508172
 30
0.0
 11
705.0018920871241
 21
681.4638135508172
 31
0.0
  0
LINE
  5
CFA
330
1F
100
AcDbEntity
  8
0
100
AcDbLine
 10
705.0018920871241
 20
681.4638135508172
 30
0.0
 11
707.0018920871241
 21
681.4638135508172
 31
0.0
  0
LINE
  5
CFB
330
1F
100
AcDbEntity
  8
0
100
AcDbLine
 10
708.0018920871244
 20
680.4638135508175
 30
0.0
 11
708.0018920871244
 21
678.4638135508172
 31
0.0
  0
LINE
  5
CFC
330
1F
100
AcDbEntity
  8
0
100
AcDbLine
 10
707.0018920871241
 20
681.4638135508172
 30
0.0
 11
707.0018920871241
 21
680.4638135508175
 31
0.0
  0
LINE
  5
CFD
330
1F
100
AcDbEntity
  8
0
100
AcDbLine
 10
707.0018920871241
 20
680.4638135508175
 30
0.0
 11
708.0018920871244
 21
680.4638135508175
 31
0.0
  0
LINE
  5
CFE
330
1F
100
AcDbEntity
  8
0
100
AcDbLine
 10
705.5018920871241
 20
686.5638135508175
 30
0.0
 11
707.6018920871241
 21
686.5638135508175
 31
0.0
  0
LINE
  5
CFF
330
1F
100
AcDbEntity
  8
0
100
AcDbLine
 10
708.6018920871244
 20
686.5638135508175
 30
0.0
 11
708.6018920871244
 21
683.5638135508176
 31
0.0
  0
LINE
  5
D00
330
1F
100
AcDbEntity
  8
0
100
AcDbLine
 10
707.6018920871241
 20
683.5638135508176
 30
0.0
 11
705.5018920871241
 21
683.5638135508176
 31
0.0
  0
LINE
  5
D01
330
1F
100
AcDbEntity
  8
0
100
AcDbLine
 10
705.5018920871241
 20
683.5638135508176
 30
0.0
 11
705.5018920871241
 21
686.5638135508175
 31
0.0
  0
LINE
  5
D02
330
1F
100
AcDbEntity
  8
0
100
AcDbLine
 10
708.6018920871244
 20
686.5638135508175
 30
0.0
 11
708.6018920871244
 21
687.0638135508174
 31
0.0
  0
LINE
  5
D03
330
1F
100
AcDbEntity
  8
0
100
AcDbLine
 10
708.6018920871244
 20
687.0638135508174
 30
0.0
 11
707.6018920871241
 21
687.0638135508174
 31
0.0
  0
LINE
  5
D04
330
1F
100
AcDbEntity
  8
0
100
AcDbLine
 10
707.6018920871241
 20
687.0638135508174
 30
0.0
 11
707.6018920871241
 21
686.5638135508175
 31
0.0
  0
LINE
  5
D05
330
1F
100
AcDbEntity
  8
0
100
AcDbLine
 10
708.6018920871244
 20
683.5638135508176
 30
0.0
 11
708.6018920871244
 21
683.0638135508174
 31
0.0
  0
LINE
  5
D06
330
1F
100
AcDbEntity
  8
0
100
AcDbLine
 10
708.6018920871244
 20
683.0638135508174
 30
0.0
 11
707.6018920871241
 21
683.0638135508174
 31
0.0
  0
LINE
  5
D07
330
1F
100
AcDbEntity
  8
0
100
AcDbLine
 10
707.6018920871241
 20
683.0638135508174
 30
0.0
 11
707.6018920871241
 21
683.5638135508176
 31
0.0
  0
LINE
  5
D28
330
1F
100
AcDbEntity
  8
0
100
AcDbLine
 10
709.5018920871241
 20
678.4638135508172
 30
0.0
 11
714.5018920871241
 21
678.4638135508172
 31
0.0
  0
LINE
  5
D2A
330
1F
100
AcDbEntity
  8
0
100
AcDbLine
 10
714.5018920871241
 20
690.4638135508175
 30
0.0
 11
709.5018920871241
 21
690.4638135508175
 31
0.0
  0
LINE
  5
D2C
330
1F
100
AcDbEntity
  8
0
100
AcDbLine
 10
710.5018920871241
 20
688.9638135508175
 30
0.0
 11
712.5018920871241
 21
688.9638135508175
 31
0.0
  0
LINE
  5
D2D
330
1F
100
AcDbEntity
  8
0
100
AcDbLine
 10
712.5018920871241
 20
688.9638135508175
 30
0.0
 11
712.5018920871241
 21
686.9638135508172
 31
0.0
  0
LINE
  5
D2E
330
1F
100
AcDbEntity
  8
0
100
AcDbLine
 10
712.5018920871241
 20
686.9638135508172
 30
0.0
 11
710.5018920871241
 21
686.9638135508172
 31
0.0
  0
LINE
  5
D2F
330
1F
100
AcDbEntity
  8
0
100
AcDbLine
 10
710.5018920871241
 20
686.9638135508172
 30
0.0
 11
710.5018920871241
 21
688.9638135508175
 31
0.0
  0
LINE
  5
D30
330
1F
100
AcDbEntity
  8
0
100
AcDbLine
 10
709.5018920871241
 20
678.4638135508172
 30
0.0
 11
710.0018920871241
 21
678.4638135508172
 31
0.0
  0
LINE
  5
D31
330
1F
100
AcDbEntity
  8
0
100
AcDbLine
 10
710.0018920871241
 20
678.4638135508172
 30
0.0
 11
710.0018920871241
 21
681.4638135508172
 31
0.0
  0
LINE
  5
D32
330
1F
100
AcDbEntity
  8
0
100
AcDbLine
 10
710.0018920871241
 20
681.4638135508172
 30
0.0
 11
712.0018920871244
 21
681.4638135508172
 31
0.0
  0
LINE
  5
D33
330
1F
100
AcDbEntity
  8
0
100
AcDbLine
 10
713.0018920871241
 20
680.4638135508175
 30
0.0
 11
713.0018920871241
 21
678.4638135508172
 31
0.0
  0
LINE
  5
D34
330
1F
100
AcDbEntity
  8
0
100
AcDbLine
 10
712.0018920871244
 20
681.4638135508172
 30
0.0
 11
712.0018920871244
 21
680.4638135508175
 31
0.0
  0
LINE
  5
D35
330
1F
100
AcDbEntity
  8
0
100
AcDbLine
 10
712.0018920871244
 20
680.4638135508175
 30
0.0
 11
713.0018920871241
 21
680.4638135508175
 31
0.0
  0
LINE
  5
D36
330
1F
100
AcDbEntity
  8
0
100
AcDbLine
 10
710.5018920871241
 20
686.5638135508175
 30
0.0
 11
712.6018920871244
 21
686.5638135508175
 31
0.0
  0
LINE
  5
D37
330
1F
100
AcDbEntity
  8
0
100
AcDbLine
 10
713.6018920871244
 20
686.5638135508175
 30
0.0
 11
713.6018920871244
 21
683.5638135508176
 31
0.0
  0
LINE
  5
D38
330
1F
100
AcDbEntity
  8
0
100
AcDbLine
 10
712.6018920871244
 20
683.5638135508176
 30
0.0
 11
710.5018920871241
 21
683.5638135508176
 31
0.0
  0
LINE
  5
D39
330
1F
100
AcDbEntity
  8
0
100
AcDbLine
 10
710.5018920871241
 20
683.5638135508176
 30
0.0
 11
710.5018920871241
 21
686.5638135508175
 31
0.0
  0
LINE
  5
D3A
330
1F
100
AcDbEntity
  8
0
100
AcDbLine
 10
713.6018920871244
 20
686.5638135508175
 30
0.0
 11
713.6018920871244
 21
687.0638135508174
 31
0.0
  0
LINE
  5
D3B
330
1F
100
AcDbEntity
  8
0
100
AcDbLine
 10
713.6018920871244
 20
687.0638135508174
 30
0.0
 11
712.6018920871244
 21
687.0638135508174
 31
0.0
  0
LINE
  5
D3C
330
1F
100
AcDbEntity
  8
0
100
AcDbLine
 10
712.6018920871244
 20
687.0638135508174
 30
0.0
 11
712.6018920871244
 21
686.5638135508175
 31
0.0
  0
LINE
  5
D3D
330
1F
100
AcDbEntity
  8
0
100
AcDbLine
 10
713.6018920871244
 20
683.5638135508176
 30
0.0
 11
713.6018920871244
 21
683.0638135508174
 31
0.0
  0
LINE
  5
D3E
330
1F
100
AcDbEntity
  8
0
100
AcDbLine
 10
713.6018920871244
 20
683.0638135508174
 30
0.0
 11
712.6018920871244
 21
683.0638135508174
 31
0.0
  0
LINE
  5
D3F
330
1F
100
AcDbEntity
  8
0
100
AcDbLine
 10
712.6018920871244
 20
683.0638135508174
 30
0.0
 11
712.6018920871244
 21
683.5638135508176
 31
0.0
  0
LINE
  5
D60
330
1F
100
AcDbEntity
  8
0
100
AcDbLine
 10
714.5018920871241
 20
678.4638135508172
 30
0.0
 11
719.5018920871241
 21
678.4638135508172
 31
0.0
  0
LINE
  5
D62
330
1F
100
AcDbEntity
  8
0
100
AcDbLine
 10
719.5018920871241
 20
690.4638135508175
 30
0.0
 11
714.5018920871241
 21
690.4638135508175
 31
0.0
  0
LINE
  5
D64
330
1F
100
AcDbEntity
  8
0
100
AcDbLine
 10
715.5018920871241
 20
688.9638135508175
 30
0.0
 11
717.5018920871241
 21
688.9638135508175
 31
0.0
  0
LINE
  5
D65
330
1F
100
AcDbEntity
  8
0
100
AcDbLine
 10
717.5018920871241
 20
688.9638135508175
 30
0.0
 11
717.5018920871241
 21
686.9638135508172
 31
0.0
  0
LINE
  5
D66
330
1F
100
AcDbEntity
  8
0
100
AcDbLine
 10
717.5018920871241
 20
686.9638135508172
 30
0.0
 11
715.5018920871241
 21
686.9638135508172
 31
0.0
  0
LINE
  5
D67
330
1F
100
AcDbEntity
  8
0
100
AcDbLine
 10
715.5018920871241
 20
686.9638135508172
 30
0.0
 11
715.5018920871241
 21
688.9638135508175
 31
0.0
  0
LINE
  5
D68
330
1F
100
AcDbEntity
  8
0
100
AcDbLine
 10
714.5018920871241
 20
678.4638135508172
 30
0.0
 11
715.0018920871241
 21
678.4638135508172
 31
0.0
  0
LINE
  5
D6A
330
1F
100
AcDbEntity
  8
0
100
AcDbLine
 10
715.0018920871241
 20
681.4638135508172
 30
0.0
 11
717.0018920871241
 21
681.4638135508172
 31
0.0
  0
LINE
  5
D6B
330
1F
100
AcDbEntity
  8
0
100
AcDbLine
 10
718.0018920871241
 20
680.4638135508175
 30
0.0
 11
718.0018920871241
 21
678.4638135508172
 31
0.0
  0
LINE
  5
D6C
330
1F
100
AcDbEntity
  8
0
100
AcDbLine
 10
717.0018920871241
 20
681.4638135508172
 30
0.0
 11
717.0018920871241
 21
680.4638135508175
 31
0.0
  0
LINE
  5
D6D
330
1F
100
AcDbEntity
  8
0
100
AcDbLine
 10
717.0018920871241
 20
680.4638135508175
 30
0.0
 11
718.0018920871241
 21
680.4638135508175
 31
0.0
  0
LINE
  5
D6E
330
1F
100
AcDbEntity
  8
0
100
AcDbLine
 10
715.5018920871241
 20
686.5638135508175
 30
0.0
 11
717.6018920871244
 21
686.5638135508175
 31
0.0
  0
LINE
  5
D6F
330
1F
100
AcDbEntity
  8
0
100
AcDbLine
 10
718.6018920871241
 20
686.5638135508175
 30
0.0
 11
718.6018920871241
 21
683.5638135508176
 31
0.0
  0
LINE
  5
D70
330
1F
100
AcDbEntity
  8
0
100
AcDbLine
 10
717.6018920871244
 20
683.5638135508176
 30
0.0
 11
715.5018920871241
 21
683.5638135508176
 31
0.0
  0
LINE
  5
D71
330
1F
100
AcDbEntity
  8
0
100
AcDbLine
 10
715.5018920871241
 20
683.5638135508176
 30
0.0
 11
715.5018920871241
 21
686.5638135508175
 31
0.0
  0
LINE
  5
D72
330
1F
100
AcDbEntity
  8
0
100
AcDbLine
 10
718.6018920871241
 20
686.5638135508175
 30
0.0
 11
718.6018920871241
 21
687.0638135508174
 31
0.0
  0
LINE
  5
D73
330
1F
100
AcDbEntity
  8
0
100
AcDbLine
 10
718.6018920871241
 20
687.0638135508174
 30
0.0
 11
717.6018920871244
 21
687.0638135508174
 31
0.0
  0
LINE
  5
D74
330
1F
100
AcDbEntity
  8
0
100
AcDbLine
 10
717.6018920871244
 20
687.0638135508174
 30
0.0
 11
717.6018920871244
 21
686.5638135508175
 31
0.0
  0
LINE
  5
D75
330
1F
100
AcDbEntity
  8
0
100
AcDbLine
 10
718.6018920871241
 20
683.5638135508176
 30
0.0
 11
718.6018920871241
 21
683.0638135508174
 31
0.0
  0
LINE
  5
D76
330
1F
100
AcDbEntity
  8
0
100
AcDbLine
 10
718.6018920871241
 20
683.0638135508174
 30
0.0
 11
717.6018920871244
 21
683.0638135508174
 31
0.0
  0
LINE
  5
D77
330
1F
100
AcDbEntity
  8
0
100
AcDbLine
 10
717.6018920871244
 20
683.0638135508174
 30
0.0
 11
717.6018920871244
 21
683.5638135508176
 31
0.0
  0
LINE
  5
DCF
330
1F
100
AcDbEntity
  8
0
100
AcDbLine
 10
718.5018920871241
 20
666.4638135508177
 30
0.0
 11
723.5018920871241
 21
666.4638135508177
 31
0.0
  0
LINE
  5
DD0
330
1F
100
AcDbEntity
  8
0
100
AcDbLine
 10
723.5018920871241
 20
666.4638135508177
 30
0.0
 11
723.5018920871241
 21
678.4638135508172
 31
0.0
  0
LINE
  5
DD1
330
1F
100
AcDbEntity
  8
0
100
AcDbLine
 10
723.5018920871241
 20
678.4638135508172
 30
0.0
 11
718.5018920871241
 21
678.4638135508172
 31
0.0
  0
LINE
  5
DD3
330
1F
100
AcDbEntity
  8
0
100
AcDbLine
 10
718.0018920871241
 20
676.9638135508174
 30
0.0
 11
720.0018920871244
 21
676.9638135508174
 31
0.0
  0
LINE
  5
DD4
330
1F
100
AcDbEntity
  8
0
100
AcDbLine
 10
720.0018920871244
 20
676.9638135508174
 30
0.0
 11
720.0018920871244
 21
674.9638135508177
 31
0.0
  0
LINE
  5
DD5
330
1F
100
AcDbEntity
  8
0
100
AcDbLine
 10
720.0018920871244
 20
674.9638135508177
 30
0.0
 11
718.0018920871241
 21
674.9638135508177
 31
0.0
  0
LINE
  5
DD6
330
1F
100
AcDbEntity
  8
0
100
AcDbLine
 10
718.0018920871241
 20
674.9638135508177
 30
0.0
 11
718.0018920871241
 21
676.9638135508174
 31
0.0
  0
LINE
  5
DD7
330
1F
100
AcDbEntity
  8
0
100
AcDbLine
 10
717.0018920871241
 20
666.4638135508177
 30
0.0
 11
717.5018920871241
 21
666.4638135508177
 31
0.0
  0
LINE
  5
DD8
330
1F
100
AcDbEntity
  8
0
100
AcDbLine
 10
717.5018920871241
 20
666.4638135508177
 30
0.0
 11
717.5018920871241
 21
669.4638135508172
 31
0.0
  0
LINE
  5
DD9
330
1F
100
AcDbEntity
  8
0
100
AcDbLine
 10
717.5018920871241
 20
669.4638135508172
 30
0.0
 11
719.5018920871241
 21
669.4638135508172
 31
0.0
  0
LINE
  5
DDA
330
1F
100
AcDbEntity
  8
0
100
AcDbLine
 10
720.5018920871244
 20
668.4638135508172
 30
0.0
 11
720.5018920871244
 21
666.4638135508177
 31
0.0
  0
LINE
  5
DDB
330
1F
100
AcDbEntity
  8
0
100
AcDbLine
 10
719.5018920871241
 20
669.4638135508172
 30
0.0
 11
719.5018920871241
 21
668.4638135508172
 31
0.0
  0
LINE
  5
DDC
330
1F
100
AcDbEntity
  8
0
100
AcDbLine
 10
719.5018920871241
 20
668.4638135508172
 30
0.0
 11
720.5018920871244
 21
668.4638135508172
 31
0.0
  0
LINE
  5
DDD
330
1F
100
AcDbEntity
  8
0
100
AcDbLine
 10
718.0018920871241
 20
674.5638135508174
 30
0.0
 11
720.1018920871241
 21
674.5638135508174
 31
0.0
  0
LINE
  5
DDE
330
1F
100
AcDbEntity
  8
0
100
AcDbLine
 10
721.1018920871244
 20
674.5638135508174
 30
0.0
 11
721.1018920871244
 21
671.5638135508176
 31
0.0
  0
LINE
  5
DDF
330
1F
100
AcDbEntity
  8
0
100
AcDbLine
 10
720.1018920871241
 20
671.5638135508176
 30
0.0
 11
718.0018920871241
 21
671.5638135508176
 31
0.0
  0
LINE
  5
DE0
330
1F
100
AcDbEntity
  8
0
100
AcDbLine
 10
718.0018920871241
 20
671.5638135508176
 30
0.0
 11
718.0018920871241
 21
674.5638135508174
 31
0.0
  0
LINE
  5
DE1
330
1F
100
AcDbEntity
  8
0
100
AcDbLine
 10
721.1018920871244
 20
674.5638135508174
 30
0.0
 11
721.1018920871244
 21
675.0638135508173
 31
0.0
  0
LINE
  5
DE2
330
1F
100
AcDbEntity
  8
0
100
AcDbLine
 10
721.1018920871244
 20
675.0638135508173
 30
0.0
 11
720.1018920871241
 21
675.0638135508173
 31
0.0
  0
LINE
  5
DE3
330
1F
100
AcDbEntity
  8
0
100
AcDbLine
 10
720.1018920871241
 20
675.0638135508173
 30
0.0
 11
720.1018920871241
 21
674.5638135508174
 31
0.0
  0
LINE
  5
DE4
330
1F
100
AcDbEntity
  8
0
100
AcDbLine
 10
721.1018920871244
 20
671.5638135508176
 30
0.0
 11
721.1018920871244
 21
671.0638135508176
 31
0.0
  0
LINE
  5
DE5
330
1F
100
AcDbEntity
  8
0
100
AcDbLine
 10
721.1018920871244
 20
671.0638135508176
 30
0.0
 11
720.1018920871241
 21
671.0638135508176
 31
0.0
  0
LINE
  5
DE6
330
1F
100
AcDbEntity
  8
0
100
AcDbLine
 10
720.1018920871241
 20
671.0638135508176
 30
0.0
 11
720.1018920871241
 21
671.5638135508176
 31
0.0
  0
LINE
  5
E07
330
1F
100
AcDbEntity
  8
0
100
AcDbLine
 10
712.0018920871244
 20
666.4638135508177
 30
0.0
 11
717.0018920871241
 21
666.4638135508177
 31
0.0
  0
LINE
  5
E09
330
1F
100
AcDbEntity
  8
0
100
AcDbLine
 10
718.5018920871241
 20
678.4638135508172
 30
0.0
 11
713.5018920871241
 21
678.4638135508172
 31
0.0
  0
LINE
  5
E0B
330
1F
100
AcDbEntity
  8
0
100
AcDbLine
 10
713.0018920871241
 20
676.9638135508174
 30
0.0
 11
715.0018920871241
 21
676.9638135508174
 31
0.0
  0
LINE
  5
E0C
330
1F
100
AcDbEntity
  8
0
100
AcDbLine
 10
715.0018920871241
 20
676.9638135508174
 30
0.0
 11
715.0018920871241
 21
674.9638135508177
 31
0.0
  0
LINE
  5
E0D
330
1F
100
AcDbEntity
  8
0
100
AcDbLine
 10
715.0018920871241
 20
674.9638135508177
 30
0.0
 11
713.0018920871241
 21
674.9638135508177
 31
0.0
  0
LINE
  5
E0E
330
1F
100
AcDbEntity
  8
0
100
AcDbLine
 10
713.0018920871241
 20
674.9638135508177
 30
0.0
 11
713.0018920871241
 21
676.9638135508174
 31
0.0
  0
LINE
  5
E0F
330
1F
100
AcDbEntity
  8
0
100
AcDbLine
 10
712.0018920871244
 20
666.4638135508177
 30
0.0
 11
712.5018920871241
 21
666.4638135508177
 31
0.0
  0
LINE
  5
E10
330
1F
100
AcDbEntity
  8
0
100
AcDbLine
 10
712.5018920871241
 20
666.4638135508177
 30
0.0
 11
712.5018920871241
 21
669.4638135508172
 31
0.0
  0
LINE
  5
E11
330
1F
100
AcDbEntity
  8
0
100
AcDbLine
 10
712.5018920871241
 20
669.4638135508172
 30
0.0
 11
714.5018920871241
 21
669.4638135508172
 31
0.0
  0
LINE
  5
E12
330
1F
100
AcDbEntity
  8
0
100
AcDbLine
 10
715.5018920871241
 20
668.4638135508172
 30
0.0
 11
715.5018920871241
 21
666.4638135508177
 31
0.0
  0
LINE
  5
E13
330
1F
100
AcDbEntity
  8
0
100
AcDbLine
 10
714.5018920871241
 20
669.4638135508172
 30
0.0
 11
714.5018920871241
 21
668.4638135508172
 31
0.0
  0
LINE
  5
E14
330
1F
100
AcDbEntity
  8
0
100
AcDbLine
 10
714.5018920871241
 20
668.4638135508172
 30
0.0
 11
715.5018920871241
 21
668.4638135508172
 31
0.0
  0
LINE
  5
E15
330
1F
100
AcDbEntity
  8
0
100
AcDbLine
 10
713.0018920871241
 20
674.5638135508174
 30
0.0
 11
715.1018920871242
 21
674.5638135508174
 31
0.0
  0
LINE
  5
E16
330
1F
100
AcDbEntity
  8
0
100
AcDbLine
 10
716.1018920871241
 20
674.5638135508174
 30
0.0
 11
716.1018920871241
 21
671.5638135508176
 31
0.0
  0
LINE
  5
E17
330
1F
100
AcDbEntity
  8
0
100
AcDbLine
 10
715.1018920871242
 20
671.5638135508176
 30
0.0
 11
713.0018920871241
 21
671.5638135508176
 31
0.0
  0
LINE
  5
E18
330
1F
100
AcDbEntity
  8
0
100
AcDbLine
 10
713.0018920871241
 20
671.5638135508176
 30
0.0
 11
713.0018920871241
 21
674.5638135508174
 31
0.0
  0
LINE
  5
E19
330
1F
100
AcDbEntity
  8
0
100
AcDbLine
 10
716.1018920871241
 20
674.5638135508174
 30
0.0
 11
716.1018920871241
 21
675.0638135508173
 31
0.0
  0
LINE
  5
E1A
330
1F
100
AcDbEntity
  8
0
100
AcDbLine
 10
716.1018920871241
 20
675.0638135508173
 30
0.0
 11
715.1018920871242
 21
675.0638135508173
 31
0.0
  0
LINE
  5
E1B
330
1F
100
AcDbEntity
  8
0
100
AcDbLine
 10
715.1018920871242
 20
675.0638135508173
 30
0.0
 11
715.1018920871242
 21
674.5638135508174
 31
0.0
  0
LINE
  5
E1C
330
1F
100
AcDbEntity
  8
0
100
AcDbLine
 10
716.1018920871241
 20
671.5638135508176
 30
0.0
 11
716.1018920871241
 21
671.0638135508176
 31
0.0
  0
LINE
  5
E1D
330
1F
100
AcDbEntity
  8
0
100
AcDbLine
 10
716.1018920871241
 20
671.0638135508176
 30
0.0
 11
715.1018920871242
 21
671.0638135508176
 31
0.0
  0
LINE
  5
E1E
330
1F
100
AcDbEntity
  8
0
100
AcDbLine
 10
715.1018920871242
 20
671.0638135508176
 30
0.0
 11
715.1018920871242
 21
671.5638135508176
 31
0.0
  0
LINE
  5
E3F
330
1F
100
AcDbEntity
  8
0
100
AcDbLine
 10
707.0018920871241
 20
666.4638135508177
 30
0.0
 11
712.0018920871244
 21
666.4638135508177
 31
0.0
  0
LINE
  5
E41
330
1F
100
AcDbEntity
  8
0
100
AcDbLine
 10
713.5018920871241
 20
678.4638135508172
 30
0.0
 11
708.5018920871241
 21
678.4638135508172
 31
0.0
  0
LINE
  5
E43
330
1F
100
AcDbEntity
  8
0
100
AcDbLine
 10
708.0018920871244
 20
676.9638135508174
 30
0.0
 11
710.0018920871241
 21
676.9638135508174
 31
0.0
  0
LINE
  5
E44
330
1F
100
AcDbEntity
  8
0
100
AcDbLine
 10
710.0018920871241
 20
676.9638135508174
 30
0.0
 11
710.0018920871241
 21
674.9638135508177
 31
0.0
  0
LINE
  5
E45
330
1F
100
AcDbEntity
  8
0
100
AcDbLine
 10
710.0018920871241
 20
674.9638135508177
 30
0.0
 11
708.0018920871244
 21
674.9638135508177
 31
0.0
  0
LINE
  5
E46
330
1F
100
AcDbEntity
  8
0
100
AcDbLine
 10
708.0018920871244
 20
674.9638135508177
 30
0.0
 11
708.0018920871244
 21
676.9638135508174
 31
0.0
  0
LINE
  5
E47
330
1F
100
AcDbEntity
  8
0
100
AcDbLine
 10
707.0018920871241
 20
666.4638135508177
 30
0.0
 11
707.5018920871244
 21
666.4638135508177
 31
0.0
  0
LINE
  5
E48
330
1F
100
AcDbEntity
  8
0
100
AcDbLine
 10
707.5018920871244
 20
666.4638135508177
 30
0.0
 11
707.5018920871244
 21
669.4638135508172
 31
0.0
  0
LINE
  5
E49
330
1F
100
AcDbEntity
  8
0
100
AcDbLine
 10
707.5018920871244
 20
669.4638135508172
 30
0.0
 11
709.5018920871241
 21
669.4638135508172
 31
0.0
  0
LINE
  5
E4A
330
1F
100
AcDbEntity
  8
0
100
AcDbLine
 10
710.5018920871241
 20
668.4638135508172
 30
0.0
 11
710.5018920871241
 21
666.4638135508177
 31
0.0
  0
LINE
  5
E4B
330
1F
100
AcDbEntity
  8
0
100
AcDbLine
 10
709.5018920871241
 20
669.4638135508172
 30
0.0
 11
709.5018920871241
 21
668.4638135508172
 31
0.0
  0
LINE
  5
E4C
330
1F
100
AcDbEntity
  8
0
100
AcDbLine
 10
709.5018920871241
 20
668.4638135508172
 30
0.0
 11
710.5018920871241
 21
668.4638135508172
 31
0.0
  0
LINE
  5
E4D
330
1F
100
AcDbEntity
  8
0
100
AcDbLine
 10
708.0018920871244
 20
674.5638135508174
 30
0.0
 11
710.1018920871241
 21
674.5638135508174
 31
0.0
  0
LINE
  5
E4E
330
1F
100
AcDbEntity
  8
0
100
AcDbLine
 10
711.1018920871241
 20
674.5638135508174
 30
0.0
 11
711.1018920871241
 21
671.5638135508176
 31
0.0
  0
LINE
  5
E4F
330
1F
100
AcDbEntity
  8
0
100
AcDbLine
 10
710.1018920871241
 20
671.5638135508176
 30
0.0
 11
708.0018920871244
 21
671.5638135508176
 31
0.0
  0
LINE
  5
E50
330
1F
100
AcDbEntity
  8
0
100
AcDbLine
 10
708.0018920871244
 20
671.5638135508176
 30
0.0
 11
708.0018920871244
 21
674.5638135508174
 31
0.0
  0
LINE
  5
E51
330
1F
100
AcDbEntity
  8
0
100
AcDbLine
 10
711.1018920871241
 20
674.5638135508174
 30
0.0
 11
711.1018920871241
 21
675.0638135508173
 31
0.0
  0
LINE
  5
E52
330
1F
100
AcDbEntity
  8
0
100
AcDbLine
 10
711.1018920871241
 20
675.0638135508173
 30
0.0
 11
710.1018920871241
 21
675.0638135508173
 31
0.0
  0
LINE
  5
E53
330
1F
100
AcDbEntity
  8
0
100
AcDbLine
 10
710.1018920871241
 20
675.0638135508173
 30
0.0
 11
710.1018920871241
 21
674.5638135508174
 31
0.0
  0
LINE
  5
E54
330
1F
100
AcDbEntity
  8
0
100
AcDbLine
 10
711.1018920871241
 20
671.5638135508176
 30
0.0
 11
711.1018920871241
 21
671.0638135508176
 31
0.0
  0
LINE
  5
E55
330
1F
100
AcDbEntity
  8
0
100
AcDbLine
 10
711.1018920871241
 20
671.0638135508176
 30
0.0
 11
710.1018920871241
 21
671.0638135508176
 31
0.0
  0
LINE
  5
E56
330
1F
100
AcDbEntity
  8
0
100
AcDbLine
 10
710.1018920871241
 20
671.0638135508176
 30
0.0
 11
710.1018920871241
 21
671.5638135508176
 31
0.0
  0
LINE
  5
E77
330
1F
100
AcDbEntity
  8
0
100
AcDbLine
 10
702.0018920871241
 20
666.4638135508177
 30
0.0
 11
707.0018920871241
 21
666.4638135508177
 31
0.0
  0
LINE
  5
E79
330
1F
100
AcDbEntity
  8
0
100
AcDbLine
 10
708.5018920871241
 20
678.4638135508172
 30
0.0
 11
703.5018920871244
 21
678.4638135508172
 31
0.0
  0
LINE
  5
E7B
330
1F
100
AcDbEntity
  8
0
100
AcDbLine
 10
703.0018920871241
 20
676.9638135508174
 30
0.0
 11
705.0018920871241
 21
676.9638135508174
 31
0.0
  0
LINE
  5
E7C
330
1F
100
AcDbEntity
  8
0
100
AcDbLine
 10
705.0018920871241
 20
676.9638135508174
 30
0.0
 11
705.0018920871241
 21
674.9638135508177
 31
0.0
  0
LINE
  5
E7D
330
1F
100
AcDbEntity
  8
0
100
AcDbLine
 10
705.0018920871241
 20
674.9638135508177
 30
0.0
 11
703.0018920871241
 21
674.9638135508177
 31
0.0
  0
LINE
  5
E7E
330
1F
100
AcDbEntity
  8
0
100
AcDbLine
 10
703.0018920871241
 20
674.9638135508177
 30
0.0
 11
703.0018920871241
 21
676.9638135508174
 31
0.0
  0
LINE
  5
E7F
330
1F
100
AcDbEntity
  8
0
100
AcDbLine
 10
702.0018920871241
 20
666.4638135508177
 30
0.0
 11
702.5018920871241
 21
666.4638135508177
 31
0.0
  0
LINE
  5
E80
330
1F
100
AcDbEntity
  8
0
100
AcDbLine
 10
702.5018920871241
 20
666.4638135508177
 30
0.0
 11
702.5018920871241
 21
669.4638135508172
 31
0.0
  0
LINE
  5
E81
330
1F
100
AcDbEntity
  8
0
100
AcDbLine
 10
702.5018920871241
 20
669.4638135508172
 30
0.0
 11
704.5018920871241
 21
669.4638135508172
 31
0.0
  0
LINE
  5
E82
330
1F
100
AcDbEntity
  8
0
100
AcDbLine
 10
705.5018920871241
 20
668.4638135508172
 30
0.0
 11
705.5018920871241
 21
666.4638135508177
 31
0.0
  0
LINE
  5
E83
330
1F
100
AcDbEntity
  8
0
100
AcDbLine
 10
704.5018920871241
 20
669.4638135508172
 30
0.0
 11
704.5018920871241
 21
668.4638135508172
 31
0.0
  0
LINE
  5
E84
330
1F
100
AcDbEntity
  8
0
100
AcDbLine
 10
704.5018920871241
 20
668.4638135508172
 30
0.0
 11
705.5018920871241
 21
668.4638135508172
 31
0.0
  0
LINE
  5
E85
330
1F
100
AcDbEntity
  8
0
100
AcDbLine
 10
703.0018920871241
 20
674.5638135508174
 30
0.0
 11
705.1018920871244
 21
674.5638135508174
 31
0.0
  0
LINE
  5
E86
330
1F
100
AcDbEntity
  8
0
100
AcDbLine
 10
706.1018920871241
 20
674.5638135508174
 30
0.0
 11
706.1018920871241
 21
671.5638135508176
 31
0.0
  0
LINE
  5
E87
330
1F
100
AcDbEntity
  8
0
100
AcDbLine
 10
705.1018920871244
 20
671.5638135508176
 30
0.0
 11
703.0018920871241
 21
671.5638135508176
 31
0.0
  0
LINE
  5
E88
330
1F
100
AcDbEntity
  8
0
100
AcDbLine
 10
703.0018920871241
 20
671.5638135508176
 30
0.0
 11
703.0018920871241
 21
674.5638135508174
 31
0.0
  0
LINE
  5
E89
330
1F
100
AcDbEntity
  8
0
100
AcDbLine
 10
706.1018920871241
 20
674.5638135508174
 30
0.0
 11
706.1018920871241
 21
675.0638135508173
 31
0.0
  0
LINE
  5
E8A
330
1F
100
AcDbEntity
  8
0
100
AcDbLine
 10
706.1018920871241
 20
675.0638135508173
 30
0.0
 11
705.1018920871244
 21
675.0638135508173
 31
0.0
  0
LINE
  5
E8B
330
1F
100
AcDbEntity
  8
0
100
AcDbLine
 10
705.1018920871244
 20
675.0638135508173
 30
0.0
 11
705.1018920871244
 21
674.5638135508174
 31
0.0
  0
LINE
  5
E8C
330
1F
100
AcDbEntity
  8
0
100
AcDbLine
 10
706.1018920871241
 20
671.5638135508176
 30
0.0
 11
706.1018920871241
 21
671.0638135508176
 31
0.0
  0
LINE
  5
E8D
330
1F
100
AcDbEntity
  8
0
100
AcDbLine
 10
706.1018920871241
 20
671.0638135508176
 30
0.0
 11
705.1018920871244
 21
671.0638135508176
 31
0.0
  0
LINE
  5
E8E
330
1F
100
AcDbEntity
  8
0
100
AcDbLine
 10
705.1018920871244
 20
671.0638135508176
 30
0.0
 11
705.1018920871244
 21
671.5638135508176
 31
0.0
  0
LINE
  5
EAF
330
1F
100
AcDbEntity
  8
0
100
AcDbLine
 10
697.0018920871241
 20
666.4638135508177
 30
0.0
 11
702.0018920871241
 21
666.4638135508177
 31
0.0
  0
LINE
  5
EB1
330
1F
100
AcDbEntity
  8
0
100
AcDbLine
 10
703.5018920871244
 20
678.4638135508172
 30
0.0
 11
698.5018920871241
 21
678.4638135508172
 31
0.0
  0
LINE
  5
EB3
330
1F
100
AcDbEntity
  8
0
100
AcDbLine
 10
698.0018920871241
 20
676.9638135508174
 30
0.0
 11
700.0018920871241
 21
676.9638135508174
 31
0.0
  0
LINE
  5
EB4
330
1F
100
AcDbEntity
  8
0
100
AcDbLine
 10
700.0018920871241
 20
676.9638135508174
 30
0.0
 11
700.0018920871241
 21
674.9638135508177
 31
0.0
  0
LINE
  5
EB5
330
1F
100
AcDbEntity
  8
0
100
AcDbLine
 10
700.0018920871241
 20
674.9638135508177
 30
0.0
 11
698.0018920871241
 21
674.9638135508177
 31
0.0
  0
LINE
  5
EB6
330
1F
100
AcDbEntity
  8
0
100
AcDbLine
 10
698.0018920871241
 20
674.9638135508177
 30
0.0
 11
698.0018920871241
 21
676.9638135508174
 31
0.0
  0
LINE
  5
EB7
330
1F
100
AcDbEntity
  8
0
100
AcDbLine
 10
697.0018920871241
 20
666.4638135508177
 30
0.0
 11
697.5018920871241
 21
666.4638135508177
 31
0.0
  0
LINE
  5
EB8
330
1F
100
AcDbEntity
  8
0
100
AcDbLine
 10
697.5018920871241
 20
666.4638135508177
 30
0.0
 11
697.5018920871241
 21
669.4638135508172
 31
0.0
  0
LINE
  5
EB9
330
1F
100
AcDbEntity
  8
0
100
AcDbLine
 10
697.5018920871241
 20
669.4638135508172
 30
0.0
 11
699.5018920871244
 21
669.4638135508172
 31
0.0
  0
LINE
  5
EBA
330
1F
100
AcDbEntity
  8
0
100
AcDbLine
 10
700.5018920871241
 20
668.4638135508172
 30
0.0
 11
700.5018920871241
 21
666.4638135508177
 31
0.0
  0
LINE
  5
EBB
330
1F
100
AcDbEntity
  8
0
100
AcDbLine
 10
699.5018920871244
 20
669.4638135508172
 30
0.0
 11
699.5018920871244
 21
668.4638135508172
 31
0.0
  0
LINE
  5
EBC
330
1F
100
AcDbEntity
  8
0
100
AcDbLine
 10
699.5018920871244
 20
668.4638135508172
 30
0.0
 11
700.5018920871241
 21
668.4638135508172
 31
0.0
  0
LINE
  5
EBD
330
1F
100
AcDbEntity
  8
0
100
AcDbLine
 10
698.0018920871241
 20
674.5638135508174
 30
0.0
 11
700.1018920871244
 21
674.5638135508174
 31
0.0
  0
LINE
  5
EBE
330
1F
100
AcDbEntity
  8
0
100
AcDbLine
 10
701.1018920871244
 20
674.5638135508174
 30
0.0
 11
701.1018920871244
 21
671.5638135508176
 31
0.0
  0
LINE
  5
EBF
330
1F
100
AcDbEntity
  8
0
100
AcDbLine
 10
700.1018920871244
 20
671.5638135508176
 30
0.0
 11
698.0018920871241
 21
671.5638135508176
 31
0.0
  0
LINE
  5
EC0
330
1F
100
AcDbEntity
  8
0
100
AcDbLine
 10
698.0018920871241
 20
671.5638135508176
 30
0.0
 11
698.0018920871241
 21
674.5638135508174
 31
0.0
  0
LINE
  5
EC1
330
1F
100
AcDbEntity
  8
0
100
AcDbLine
 10
701.1018920871244
 20
674.5638135508174
 30
0.0
 11
701.1018920871244
 21
675.0638135508173
 31
0.0
  0
LINE
  5
EC2
330
1F
100
AcDbEntity
  8
0
100
AcDbLine
 10
701.1018920871244
 20
675.0638135508173
 30
0.0
 11
700.1018920871244
 21
675.0638135508173
 31
0.0
  0
LINE
  5
EC3
330
1F
100
AcDbEntity
  8
0
100
AcDbLine
 10
700.1018920871244
 20
675.0638135508173
 30
0.0
 11
700.1018920871244
 21
674.5638135508174
 31
0.0
  0
LINE
  5
EC4
330
1F
100
AcDbEntity
  8
0
100
AcDbLine
 10
701.1018920871244
 20
671.5638135508176
 30
0.0
 11
701.1018920871244
 21
671.0638135508176
 31
0.0
  0
LINE
  5
EC5
330
1F
100
AcDbEntity
  8
0
100
AcDbLine
 10
701.1018920871244
 20
671.0638135508176
 30
0.0
 11
700.1018920871244
 21
671.0638135508176
 31
0.0
  0
LINE
  5
EC6
330
1F
100
AcDbEntity
  8
0
100
AcDbLine
 10
700.1018920871244
 20
671.0638135508176
 30
0.0
 11
700.1018920871244
 21
671.5638135508176
 31
0.0
  0
LINE
  5
EE7
330
1F
100
AcDbEntity
  8
0
100
AcDbLine
 10
692.0018920871241
 20
666.4638135508177
 30
0.0
 11
697.0018920871241
 21
666.4638135508177
 31
0.0
  0
LINE
  5
EE9
330
1F
100
AcDbEntity
  8
0
100
AcDbLine
 10
698.5018920871241
 20
678.4638135508172
 30
0.0
 11
693.5018920871241
 21
678.4638135508172
 31
0.0
  0
LINE
  5
EEB
330
1F
100
AcDbEntity
  8
0
100
AcDbLine
 10
693.0018920871241
 20
676.9638135508174
 30
0.0
 11
695.0018920871244
 21
676.9638135508174
 31
0.0
  0
LINE
  5
EEC
330
1F
100
AcDbEntity
  8
0
100
AcDbLine
 10
695.0018920871244
 20
676.9638135508174
 30
0.0
 11
695.0018920871244
 21
674.9638135508177
 31
0.0
  0
LINE
  5
EED
330
1F
100
AcDbEntity
  8
0
100
AcDbLine
 10
695.0018920871244
 20
674.9638135508177
 30
0.0
 11
693.0018920871241
 21
674.9638135508177
 31
0.0
  0
LINE
  5
EEE
330
1F
100
AcDbEntity
  8
0
100
AcDbLine
 10
693.0018920871241
 20
674.9638135508177
 30
0.0
 11
693.0018920871241
 21
676.9638135508174
 31
0.0
  0
LINE
  5
EEF
330
1F
100
AcDbEntity
  8
0
100
AcDbLine
 10
692.0018920871241
 20
666.4638135508177
 30
0.0
 11
692.5018920871241
 21
666.4638135508177
 31
0.0
  0
LINE
  5
EF0
330
1F
100
AcDbEntity
  8
0
100
AcDbLine
 10
692.5018920871241
 20
666.4638135508177
 30
0.0
 11
692.5018920871241
 21
669.4638135508172
 31
0.0
  0
LINE
  5
EF1
330
1F
100
AcDbEntity
  8
0
100
AcDbLine
 10
692.5018920871241
 20
669.4638135508172
 30
0.0
 11
694.5018920871241
 21
669.4638135508172
 31
0.0
  0
LINE
  5
EF2
330
1F
100
AcDbEntity
  8
0
100
AcDbLine
 10
695.5018920871244
 20
668.4638135508172
 30
0.0
 11
695.5018920871244
 21
666.4638135508177
 31
0.0
  0
LINE
  5
EF3
330
1F
100
AcDbEntity
  8
0
100
AcDbLine
 10
694.5018920871241
 20
669.4638135508172
 30
0.0
 11
694.5018920871241
 21
668.4638135508172
 31
0.0
  0
LINE
  5
EF4
330
1F
100
AcDbEntity
  8
0
100
AcDbLine
 10
694.5018920871241
 20
668.4638135508172
 30
0.0
 11
695.5018920871244
 21
668.4638135508172
 31
0.0
  0
LINE
  5
EF5
330
1F
100
AcDbEntity
  8
0
100
AcDbLine
 10
693.0018920871241
 20
674.5638135508174
 30
0.0
 11
695.1018920871241
 21
674.5638135508174
 31
0.0
  0
LINE
  5
EF6
330
1F
100
AcDbEntity
  8
0
100
AcDbLine
 10
696.1018920871244
 20
674.5638135508174
 30
0.0
 11
696.1018920871244
 21
671.5638135508176
 31
0.0
  0
LINE
  5
EF7
330
1F
100
AcDbEntity
  8
0
100
AcDbLine
 10
695.1018920871241
 20
671.5638135508176
 30
0.0
 11
693.0018920871241
 21
671.5638135508176
 31
0.0
  0
LINE
  5
EF8
330
1F
100
AcDbEntity
  8
0
100
AcDbLine
 10
693.0018920871241
 20
671.5638135508176
 30
0.0
 11
693.0018920871241
 21
674.5638135508174
 31
0.0
  0
LINE
  5
EF9
330
1F
100
AcDbEntity
  8
0
100
AcDbLine
 10
696.1018920871244
 20
674.5638135508174
 30
0.0
 11
696.1018920871244
 21
675.0638135508173
 31
0.0
  0
LINE
  5
EFA
330
1F
100
AcDbEntity
  8
0
100
AcDbLine
 10
696.1018920871244
 20
675.0638135508173
 30
0.0
 11
695.1018920871241
 21
675.0638135508173
 31
0.0
  0
LINE
  5
EFB
330
1F
100
AcDbEntity
  8
0
100
AcDbLine
 10
695.1018920871241
 20
675.0638135508173
 30
0.0
 11
695.1018920871241
 21
674.5638135508174
 31
0.0
  0
LINE
  5
EFC
330
1F
100
AcDbEntity
  8
0
100
AcDbLine
 10
696.1018920871244
 20
671.5638135508176
 30
0.0
 11
696.1018920871244
 21
671.0638135508176
 31
0.0
  0
LINE
  5
EFD
330
1F
100
AcDbEntity
  8
0
100
AcDbLine
 10
696.1018920871244
 20
671.0638135508176
 30
0.0
 11
695.1018920871241
 21
671.0638135508176
 31
0.0
  0
LINE
  5
EFE
330
1F
100
AcDbEntity
  8
0
100
AcDbLine
 10
695.1018920871241
 20
671.0638135508176
 30
0.0
 11
695.1018920871241
 21
671.5638135508176
 31
0.0
  0
LINE
  5
F1F
330
1F
100
AcDbEntity
  8
0
100
AcDbLine
 10
687.0018920871244
 20
666.4638135508177
 30
0.0
 11
692.0018920871241
 21
666.4638135508177
 31
0.0
  0
LINE
  5
F21
330
1F
100
AcDbEntity
  8
0
100
AcDbLine
 10
693.5018920871241
 20
678.4638135508172
 30
0.0
 11
688.5018920871241
 21
678.4638135508172
 31
0.0
  0
LINE
  5
F23
330
1F
100
AcDbEntity
  8
0
100
AcDbLine
 10
688.0018920871241
 20
676.9638135508174
 30
0.0
 11
690.0018920871241
 21
676.9638135508174
 31
0.0
  0
LINE
  5
F24
330
1F
100
AcDbEntity
  8
0
100
AcDbLine
 10
690.0018920871241
 20
676.9638135508174
 30
0.0
 11
690.0018920871241
 21
674.9638135508177
 31
0.0
  0
LINE
  5
F25
330
1F
100
AcDbEntity
  8
0
100
AcDbLine
 10
690.0018920871241
 20
674.9638135508177
 30
0.0
 11
688.0018920871241
 21
674.9638135508177
 31
0.0
  0
LINE
  5
F26
330
1F
100
AcDbEntity
  8
0
100
AcDbLine
 10
688.0018920871241
 20
674.9638135508177
 30
0.0
 11
688.0018920871241
 21
676.9638135508174
 31
0.0
  0
LINE
  5
F27
330
1F
100
AcDbEntity
  8
0
100
AcDbLine
 10
687.0018920871244
 20
666.4638135508177
 30
0.0
 11
687.5018920871241
 21
666.4638135508177
 31
0.0
  0
LINE
  5
F28
330
1F
100
AcDbEntity
  8
0
100
AcDbLine
 10
687.5018920871241
 20
666.4638135508177
 30
0.0
 11
687.5018920871241
 21
669.4638135508172
 31
0.0
  0
LINE
  5
F29
330
1F
100
AcDbEntity
  8
0
100
AcDbLine
 10
687.5018920871241
 20
669.4638135508172
 30
0.0
 11
689.5018920871241
 21
669.4638135508172
 31
0.0
  0
LINE
  5
F2A
330
1F
100
AcDbEntity
  8
0
100
AcDbLine
 10
690.5018920871241
 20
668.4638135508172
 30
0.0
 11
690.5018920871241
 21
666.4638135508177
 31
0.0
  0
LINE
  5
F2B
330
1F
100
AcDbEntity
  8
0
100
AcDbLine
 10
689.5018920871241
 20
669.4638135508172
 30
0.0
 11
689.5018920871241
 21
668.4638135508172
 31
0.0
  0
LINE
  5
F2C
330
1F
100
AcDbEntity
  8
0
100
AcDbLine
 10
689.5018920871241
 20
668.4638135508172
 30
0.0
 11
690.5018920871241
 21
668.4638135508172
 31
0.0
  0
LINE
  5
F2D
330
1F
100
AcDbEntity
  8
0
100
AcDbLine
 10
688.0018920871241
 20
674.5638135508174
 30
0.0
 11
690.1018920871242
 21
674.5638135508174
 31
0.0
  0
LINE
  5
F2E
330
1F
100
AcDbEntity
  8
0
100
AcDbLine
 10
691.1018920871241
 20
674.5638135508174
 30
0.0
 11
691.1018920871241
 21
671.5638135508176
 31
0.0
  0
LINE
  5
F2F
330
1F
100
AcDbEntity
  8
0
100
AcDbLine
 10
690.1018920871242
 20
671.5638135508176
 30
0.0
 11
688.0018920871241
 21
671.5638135508176
 31
0.0
  0
LINE
  5
F30
330
1F
100
AcDbEntity
  8
0
100
AcDbLine
 10
688.0018920871241
 20
671.5638135508176
 30
0.0
 11
688.0018920871241
 21
674.5638135508174
 31
0.0
  0
LINE
  5
F31
330
1F
100
AcDbEntity
  8
0
100
AcDbLine
 10
691.1018920871241
 20
674.5638135508174
 30
0.0
 11
691.1018920871241
 21
675.0638135508173
 31
0.0
  0
LINE
  5
F32
330
1F
100
AcDbEntity
  8
0
100
AcDbLine
 10
691.1018920871241
 20
675.0638135508173
 30
0.0
 11
690.1018920871242
 21
675.0638135508173
 31
0.0
  0
LINE
  5
F33
330
1F
100
AcDbEntity
  8
0
100
AcDbLine
 10
690.1018920871242
 20
675.0638135508173
 30
0.0
 11
690.1018920871242
 21
674.5638135508174
 31
0.0
  0
LINE
  5
F34
330
1F
100
AcDbEntity
  8
0
100
AcDbLine
 10
691.1018920871241
 20
671.5638135508176
 30
0.0
 11
691.1018920871241
 21
671.0638135508176
 31
0.0
  0
LINE
  5
F35
330
1F
100
AcDbEntity
  8
0
100
AcDbLine
 10
691.1018920871241
 20
671.0638135508176
 30
0.0
 11
690.1018920871242
 21
671.0638135508176
 31
0.0
  0
LINE
  5
F36
330
1F
100
AcDbEntity
  8
0
100
AcDbLine
 10
690.1018920871242
 20
671.0638135508176
 30
0.0
 11
690.1018920871242
 21
671.5638135508176
 31
0.0
  0
LINE
  5
F57
330
1F
100
AcDbEntity
  8
0
100
AcDbLine
 10
682.0018920871242
 20
666.4638135508177
 30
0.0
 11
687.0018920871244
 21
666.4638135508177
 31
0.0
  0
LINE
  5
F59
330
1F
100
AcDbEntity
  8
0
100
AcDbLine
 10
688.5018920871241
 20
678.4638135508172
 30
0.0
 11
683.5018920871242
 21
678.4638135508172
 31
0.0
  0
LINE
  5
F5B
330
1F
100
AcDbEntity
  8
0
100
AcDbLine
 10
683.0018920871244
 20
676.9638135508174
 30
0.0
 11
685.0018920871242
 21
676.9638135508174
 31
0.0
  0
LINE
  5
F5C
330
1F
100
AcDbEntity
  8
0
100
AcDbLine
 10
685.0018920871242
 20
676.9638135508174
 30
0.0
 11
685.0018920871242
 21
674.9638135508177
 31
0.0
  0
LINE
  5
F5D
330
1F
100
AcDbEntity
  8
0
100
AcDbLine
 10
685.0018920871242
 20
674.9638135508177
 30
0.0
 11
683.0018920871244
 21
674.9638135508177
 31
0.0
  0
LINE
  5
F5E
330
1F
100
AcDbEntity
  8
0
100
AcDbLine
 10
683.0018920871244
 20
674.9638135508177
 30
0.0
 11
683.0018920871244
 21
676.9638135508174
 31
0.0
  0
LINE
  5
F5F
330
1F
100
AcDbEntity
  8
0
100
AcDbLine
 10
682.0018920871242
 20
666.4638135508177
 30
0.0
 11
682.5018920871244
 21
666.4638135508177
 31
0.0
  0
LINE
  5
F60
330
1F
100
AcDbEntity
  8
0
100
AcDbLine
 10
682.5018920871244
 20
666.4638135508177
 30
0.0
 11
682.5018920871244
 21
669.4638135508172
 31
0.0
  0
LINE
  5
F61
330
1F
100
AcDbEntity
  8
0
100
AcDbLine
 10
682.5018920871244
 20
669.4638135508172
 30
0.0
 11
684.5018920871242
 21
669.4638135508172
 31
0.0
  0
LINE
  5
F62
330
1F
100
AcDbEntity
  8
0
100
AcDbLine
 10
685.5018920871242
 20
668.4638135508172
 30
0.0
 11
685.5018920871242
 21
666.4638135508177
 31
0.0
  0
LINE
  5
F63
330
1F
100
AcDbEntity
  8
0
100
AcDbLine
 10
684.5018920871242
 20
669.4638135508172
 30
0.0
 11
684.5018920871242
 21
668.4638135508172
 31
0.0
  0
LINE
  5
F64
330
1F
100
AcDbEntity
  8
0
100
AcDbLine
 10
684.5018920871242
 20
668.4638135508172
 30
0.0
 11
685.5018920871242
 21
668.4638135508172
 31
0.0
  0
LINE
  5
F65
330
1F
100
AcDbEntity
  8
0
100
AcDbLine
 10
683.0018920871244
 20
674.5638135508174
 30
0.0
 11
685.1018920871243
 21
674.5638135508174
 31
0.0
  0
LINE
  5
F66
330
1F
100
AcDbEntity
  8
0
100
AcDbLine
 10
686.1018920871242
 20
674.5638135508174
 30
0.0
 11
686.1018920871242
 21
671.5638135508176
 31
0.0
  0
LINE
  5
F67
330
1F
100
AcDbEntity
  8
0
100
AcDbLine
 10
685.1018920871243
 20
671.5638135508176
 30
0.0
 11
683.0018920871244
 21
671.5638135508176
 31
0.0
  0
LINE
  5
F68
330
1F
100
AcDbEntity
  8
0
100
AcDbLine
 10
683.0018920871244
 20
671.5638135508176
 30
0.0
 11
683.0018920871244
 21
674.5638135508174
 31
0.0
  0
LINE
  5
F69
330
1F
100
AcDbEntity
  8
0
100
AcDbLine
 10
686.1018920871242
 20
674.5638135508174
 30
0.0
 11
686.1018920871242
 21
675.0638135508173
 31
0.0
  0
LINE
  5
F6A
330
1F
100
AcDbEntity
  8
0
100
AcDbLine
 10
686.1018920871242
 20
675.0638135508173
 30
0.0
 11
685.1018920871243
 21
675.0638135508173
 31
0.0
  0
LINE
  5
F6B
330
1F
100
AcDbEntity
  8
0
100
AcDbLine
 10
685.1018920871243
 20
675.0638135508173
 30
0.0
 11
685.1018920871243
 21
674.5638135508174
 31
0.0
  0
LINE
  5
F6C
330
1F
100
AcDbEntity
  8
0
100
AcDbLine
 10
686.1018920871242
 20
671.5638135508176
 30
0.0
 11
686.1018920871242
 21
671.0638135508176
 31
0.0
  0
LINE
  5
F6D
330
1F
100
AcDbEntity
  8
0
100
AcDbLine
 10
686.1018920871242
 20
671.0638135508176
 30
0.0
 11
685.1018920871243
 21
671.0638135508176
 31
0.0
  0
LINE
  5
F6E
330
1F
100
AcDbEntity
  8
0
100
AcDbLine
 10
685.1018920871243
 20
671.0638135508176
 30
0.0
 11
685.1018920871243
 21
671.5638135508176
 31
0.0
  0
LINE
  5
F8F
330
1F
100
AcDbEntity
  8
0
100
AcDbLine
 10
677.0018920871242
 20
666.4638135508177
 30
0.0
 11
682.0018920871242
 21
666.4638135508177
 31
0.0
  0
LINE
  5
F91
330
1F
100
AcDbEntity
  8
0
100
AcDbLine
 10
683.5018920871242
 20
678.4638135508172
 30
0.0
 11
678.5018920871244
 21
678.4638135508172
 31
0.0
  0
LINE
  5
F93
330
1F
100
AcDbEntity
  8
0
100
AcDbLine
 10
678.0018920871242
 20
676.9638135508174
 30
0.0
 11
680.0018920871242
 21
676.9638135508174
 31
0.0
  0
LINE
  5
F94
330
1F
100
AcDbEntity
  8
0
100
AcDbLine
 10
680.0018920871242
 20
676.9638135508174
 30
0.0
 11
680.0018920871242
 21
674.9638135508177
 31
0.0
  0
LINE
  5
F95
330
1F
100
AcDbEntity
  8
0
100
AcDbLine
 10
680.0018920871242
 20
674.9638135508177
 30
0.0
 11
678.0018920871242
 21
674.9638135508177
 31
0.0
  0
LINE
  5
F96
330
1F
100
AcDbEntity
  8
0
100
AcDbLine
 10
678.0018920871242
 20
674.9638135508177
 30
0.0
 11
678.0018920871242
 21
676.9638135508174
 31
0.0
  0
LINE
  5
F97
330
1F
100
AcDbEntity
  8
0
100
AcDbLine
 10
677.0018920871242
 20
666.4638135508177
 30
0.0
 11
677.5018920871242
 21
666.4638135508177
 31
0.0
  0
LINE
  5
F98
330
1F
100
AcDbEntity
  8
0
100
AcDbLine
 10
677.5018920871242
 20
666.4638135508177
 30
0.0
 11
677.5018920871242
 21
669.4638135508172
 31
0.0
  0
LINE
  5
F99
330
1F
100
AcDbEntity
  8
0
100
AcDbLine
 10
677.5018920871242
 20
669.4638135508172
 30
0.0
 11
679.5018920871243
 21
669.4638135508172
 31
0.0
  0
LINE
  5
F9A
330
1F
100
AcDbEntity
  8
0
100
AcDbLine
 10
680.5018920871242
 20
668.4638135508172
 30
0.0
 11
680.5018920871242
 21
666.4638135508177
 31
0.0
  0
LINE
  5
F9B
330
1F
100
AcDbEntity
  8
0
100
AcDbLine
 10
679.5018920871243
 20
669.4638135508172
 30
0.0
 11
679.5018920871243
 21
668.4638135508172
 31
0.0
  0
LINE
  5
F9C
330
1F
100
AcDbEntity
  8
0
100
AcDbLine
 10
679.5018920871243
 20
668.4638135508172
 30
0.0
 11
680.5018920871242
 21
668.4638135508172
 31
0.0
  0
LINE
  5
F9D
330
1F
100
AcDbEntity
  8
0
100
AcDbLine
 10
678.0018920871242
 20
674.5638135508174
 30
0.0
 11
680.1018920871244
 21
674.5638135508174
 31
0.0
  0
LINE
  5
F9E
330
1F
100
AcDbEntity
  8
0
100
AcDbLine
 10
681.1018920871243
 20
674.5638135508174
 30
0.0
 11
681.1018920871243
 21
671.5638135508176
 31
0.0
  0
LINE
  5
F9F
330
1F
100
AcDbEntity
  8
0
100
AcDbLine
 10
680.1018920871244
 20
671.5638135508176
 30
0.0
 11
678.0018920871242
 21
671.5638135508176
 31
0.0
  0
LINE
  5
FA0
330
1F
100
AcDbEntity
  8
0
100
AcDbLine
 10
678.0018920871242
 20
671.5638135508176
 30
0.0
 11
678.0018920871242
 21
674.5638135508174
 31
0.0
  0
LINE
  5
FA1
330
1F
100
AcDbEntity
  8
0
100
AcDbLine
 10
681.1018920871243
 20
674.5638135508174
 30
0.0
 11
681.1018920871243
 21
675.0638135508173
 31
0.0
  0
LINE
  5
FA2
330
1F
100
AcDbEntity
  8
0
100
AcDbLine
 10
681.1018920871243
 20
675.0638135508173
 30
0.0
 11
680.1018920871244
 21
675.0638135508173
 31
0.0
  0
LINE
  5
FA3
330
1F
100
AcDbEntity
  8
0
100
AcDbLine
 10
680.1018920871244
 20
675.0638135508173
 30
0.0
 11
680.1018920871244
 21
674.5638135508174
 31
0.0
  0
LINE
  5
FA4
330
1F
100
AcDbEntity
  8
0
100
AcDbLine
 10
681.1018920871243
 20
671.5638135508176
 30
0.0
 11
681.1018920871243
 21
671.0638135508176
 31
0.0
  0
LINE
  5
FA5
330
1F
100
AcDbEntity
  8
0
100
AcDbLine
 10
681.1018920871243
 20
671.0638135508176
 30
0.0
 11
680.1018920871244
 21
671.0638135508176
 31
0.0
  0
LINE
  5
FA6
330
1F
100
AcDbEntity
  8
0
100
AcDbLine
 10
680.1018920871244
 20
671.0638135508176
 30
0.0
 11
680.1018920871244
 21
671.5638135508176
 31
0.0
  0
LINE
  5
FC7
330
1F
100
AcDbEntity
  8
0
100
AcDbLine
 10
672.0018920871242
 20
666.4638135508177
 30
0.0
 11
677.0018920871242
 21
666.4638135508177
 31
0.0
  0
LINE
  5
FC9
330
1F
100
AcDbEntity
  8
0
100
AcDbLine
 10
678.5018920871244
 20
678.4638135508172
 30
0.0
 11
673.5018920871242
 21
678.4638135508172
 31
0.0
  0
LINE
  5
FCB
330
1F
100
AcDbEntity
  8
0
100
AcDbLine
 10
673.0018920871242
 20
676.9638135508174
 30
0.0
 11
675.0018920871242
 21
676.9638135508174
 31
0.0
  0
LINE
  5
FCC
330
1F
100
AcDbEntity
  8
0
100
AcDbLine
 10
675.0018920871242
 20
676.9638135508174
 30
0.0
 11
675.0018920871242
 21
674.9638135508177
 31
0.0
  0
LINE
  5
FCD
330
1F
100
AcDbEntity
  8
0
100
AcDbLine
 10
675.0018920871242
 20
674.9638135508177
 30
0.0
 11
673.0018920871242
 21
674.9638135508177
 31
0.0
  0
LINE
  5
FCE
330
1F
100
AcDbEntity
  8
0
100
AcDbLine
 10
673.0018920871242
 20
674.9638135508177
 30
0.0
 11
673.0018920871242
 21
676.9638135508174
 31
0.0
  0
LINE
  5
FCF
330
1F
100
AcDbEntity
  8
0
100
AcDbLine
 10
672.0018920871242
 20
666.4638135508177
 30
0.0
 11
672.5018920871242
 21
666.4638135508177
 31
0.0
  0
LINE
  5
FD0
330
1F
100
AcDbEntity
  8
0
100
AcDbLine
 10
672.5018920871242
 20
666.4638135508177
 30
0.0
 11
672.5018920871242
 21
669.4638135508172
 31
0.0
  0
LINE
  5
FD1
330
1F
100
AcDbEntity
  8
0
100
AcDbLine
 10
672.5018920871242
 20
669.4638135508172
 30
0.0
 11
674.5018920871244
 21
669.4638135508172
 31
0.0
  0
LINE
  5
FD2
330
1F
100
AcDbEntity
  8
0
100
AcDbLine
 10
675.5018920871243
 20
668.4638135508172
 30
0.0
 11
675.5018920871243
 21
666.4638135508177
 31
0.0
  0
LINE
  5
FD3
330
1F
100
AcDbEntity
  8
0
100
AcDbLine
 10
674.5018920871244
 20
669.4638135508172
 30
0.0
 11
674.5018920871244
 21
668.4638135508172
 31
0.0
  0
LINE
  5
FD4
330
1F
100
AcDbEntity
  8
0
100
AcDbLine
 10
674.5018920871244
 20
668.4638135508172
 30
0.0
 11
675.5018920871243
 21
668.4638135508172
 31
0.0
  0
LINE
  5
FD5
330
1F
100
AcDbEntity
  8
0
100
AcDbLine
 10
673.0018920871242
 20
674.5638135508174
 30
0.0
 11
675.1018920871244
 21
674.5638135508174
 31
0.0
  0
LINE
  5
FD6
330
1F
100
AcDbEntity
  8
0
100
AcDbLine
 10
676.1018920871244
 20
674.5638135508174
 30
0.0
 11
676.1018920871244
 21
671.5638135508176
 31
0.0
  0
LINE
  5
FD7
330
1F
100
AcDbEntity
  8
0
100
AcDbLine
 10
675.1018920871244
 20
671.5638135508176
 30
0.0
 11
673.0018920871242
 21
671.5638135508176
 31
0.0
  0
LINE
  5
FD8
330
1F
100
AcDbEntity
  8
0
100
AcDbLine
 10
673.0018920871242
 20
671.5638135508176
 30
0.0
 11
673.0018920871242
 21
674.5638135508174
 31
0.0
  0
LINE
  5
FD9
330
1F
100
AcDbEntity
  8
0
100
AcDbLine
 10
676.1018920871244
 20
674.5638135508174
 30
0.0
 11
676.1018920871244
 21
675.0638135508173
 31
0.0
  0
LINE
  5
FDA
330
1F
100
AcDbEntity
  8
0
100
AcDbLine
 10
676.1018920871244
 20
675.0638135508173
 30
0.0
 11
675.1018920871244
 21
675.0638135508173
 31
0.0
  0
LINE
  5
FDB
330
1F
100
AcDbEntity
  8
0
100
AcDbLine
 10
675.1018920871244
 20
675.0638135508173
 30
0.0
 11
675.1018920871244
 21
674.5638135508174
 31
0.0
  0
LINE
  5
FDC
330
1F
100
AcDbEntity
  8
0
100
AcDbLine
 10
676.1018920871244
 20
671.5638135508176
 30
0.0
 11
676.1018920871244
 21
671.0638135508176
 31
0.0
  0
LINE
  5
FDD
330
1F
100
AcDbEntity
  8
0
100
AcDbLine
 10
676.1018920871244
 20
671.0638135508176
 30
0.0
 11
675.1018920871244
 21
671.0638135508176
 31
0.0
  0
LINE
  5
FDE
330
1F
100
AcDbEntity
  8
0
100
AcDbLine
 10
675.1018920871244
 20
671.0638135508176
 30
0.0
 11
675.1018920871244
 21
671.5638135508176
 31
0.0
  0
LINE
  5
FFF
330
1F
100
AcDbEntity
  8
0
100
AcDbLine
 10
667.0018920871243
 20
666.4638135508177
 30
0.0
 11
672.0018920871242
 21
666.4638135508177
 31
0.0
  0
LINE
  5
1001
330
1F
100
AcDbEntity
  8
0
100
AcDbLine
 10
673.5018920871242
 20
678.4638135508172
 30
0.0
 11
668.5018920871242
 21
678.4638135508172
 31
0.0
  0
LINE
  5
1003
330
1F
100
AcDbEntity
  8
0
100
AcDbLine
 10
668.0018920871242
 20
676.9638135508174
 30
0.0
 11
670.0018920871244
 21
676.9638135508174
 31
0.0
  0
LINE
  5
1004
330
1F
100
AcDbEntity
  8
0
100
AcDbLine
 10
670.0018920871244
 20
676.9638135508174
 30
0.0
 11
670.0018920871244
 21
674.9638135508177
 31
0.0
  0
LINE
  5
1005
330
1F
100
AcDbEntity
  8
0
100
AcDbLine
 10
670.0018920871244
 20
674.9638135508177
 30
0.0
 11
668.0018920871242
 21
674.9638135508177
 31
0.0
  0
LINE
  5
1006
330
1F
100
AcDbEntity
  8
0
100
AcDbLine
 10
668.0018920871242
 20
674.9638135508177
 30
0.0
 11
668.0018920871242
 21
676.9638135508174
 31
0.0
  0
LINE
  5
1007
330
1F
100
AcDbEntity
  8
0
100
AcDbLine
 10
667.0018920871243
 20
666.4638135508177
 30
0.0
 11
667.5018920871242
 21
666.4638135508177
 31
0.0
  0
LINE
  5
1008
330
1F
100
AcDbEntity
  8
0
100
AcDbLine
 10
667.5018920871242
 20
666.4638135508177
 30
0.0
 11
667.5018920871242
 21
669.4638135508172
 31
0.0
  0
LINE
  5
1009
330
1F
100
AcDbEntity
  8
0
100
AcDbLine
 10
667.5018920871242
 20
669.4638135508172
 30
0.0
 11
669.5018920871242
 21
669.4638135508172
 31
0.0
  0
LINE
  5
100A
330
1F
100
AcDbEntity
  8
0
100
AcDbLine
 10
670.5018920871244
 20
668.4638135508172
 30
0.0
 11
670.5018920871244
 21
666.4638135508177
 31
0.0
  0
LINE
  5
100B
330
1F
100
AcDbEntity
  8
0
100
AcDbLine
 10
669.5018920871242
 20
669.4638135508172
 30
0.0
 11
669.5018920871242
 21
668.4638135508172
 31
0.0
  0
LINE
  5
100C
330
1F
100
AcDbEntity
  8
0
100
AcDbLine
 10
669.5018920871242
 20
668.4638135508172
 30
0.0
 11
670.5018920871244
 21
668.4638135508172
 31
0.0
  0
LINE
  5
100D
330
1F
100
AcDbEntity
  8
0
100
AcDbLine
 10
668.0018920871242
 20
674.5638135508174
 30
0.0
 11
670.1018920871242
 21
674.5638135508174
 31
0.0
  0
LINE
  5
100E
330
1F
100
AcDbEntity
  8
0
100
AcDbLine
 10
671.1018920871244
 20
674.5638135508174
 30
0.0
 11
671.1018920871244
 21
671.5638135508176
 31
0.0
  0
LINE
  5
100F
330
1F
100
AcDbEntity
  8
0
100
AcDbLine
 10
670.1018920871242
 20
671.5638135508176
 30
0.0
 11
668.0018920871242
 21
671.5638135508176
 31
0.0
  0
LINE
  5
1010
330
1F
100
AcDbEntity
  8
0
100
AcDbLine
 10
668.0018920871242
 20
671.5638135508176
 30
0.0
 11
668.0018920871242
 21
674.5638135508174
 31
0.0
  0
LINE
  5
1011
330
1F
100
AcDbEntity
  8
0
100
AcDbLine
 10
671.1018920871244
 20
674.5638135508174
 30
0.0
 11
671.1018920871244
 21
675.0638135508173
 31
0.0
  0
LINE
  5
1012
330
1F
100
AcDbEntity
  8
0
100
AcDbLine
 10
671.1018920871244
 20
675.0638135508173
 30
0.0
 11
670.1018920871242
 21
675.0638135508173
 31
0.0
  0
LINE
  5
1013
330
1F
100
AcDbEntity
  8
0
100
AcDbLine
 10
670.1018920871242
 20
675.0638135508173
 30
0.0
 11
670.1018920871242
 21
674.5638135508174
 31
0.0
  0
LINE
  5
1014
330
1F
100
AcDbEntity
  8
0
100
AcDbLine
 10
671.1018920871244
 20
671.5638135508176
 30
0.0
 11
671.1018920871244
 21
671.0638135508176
 31
0.0
  0
LINE
  5
1015
330
1F
100
AcDbEntity
  8
0
100
AcDbLine
 10
671.1018920871244
 20
671.0638135508176
 30
0.0
 11
670.1018920871242
 21
671.0638135508176
 31
0.0
  0
LINE
  5
1016
330
1F
100
AcDbEntity
  8
0
100
AcDbLine
 10
670.1018920871242
 20
671.0638135508176
 30
0.0
 11
670.1018920871242
 21
671.5638135508176
 31
0.0
  0
LINE
  5
1037
330
1F
100
AcDbEntity
  8
0
100
AcDbLine
 10
662.0018920871244
 20
666.4638135508177
 30
0.0
 11
667.0018920871243
 21
666.4638135508177
 31
0.0
  0
LINE
  5
1039
330
1F
100
AcDbEntity
  8
0
100
AcDbLine
 10
668.5018920871242
 20
678.4638135508172
 30
0.0
 11
663.5018920871242
 21
678.4638135508172
 31
0.0
  0
LINE
  5
103B
330
1F
100
AcDbEntity
  8
0
100
AcDbLine
 10
663.0018920871243
 20
676.9638135508174
 30
0.0
 11
665.0018920871242
 21
676.9638135508174
 31
0.0
  0
LINE
  5
103C
330
1F
100
AcDbEntity
  8
0
100
AcDbLine
 10
665.0018920871242
 20
676.9638135508174
 30
0.0
 11
665.0018920871242
 21
674.9638135508177
 31
0.0
  0
LINE
  5
103D
330
1F
100
AcDbEntity
  8
0
100
AcDbLine
 10
665.0018920871242
 20
674.9638135508177
 30
0.0
 11
663.0018920871243
 21
674.9638135508177
 31
0.0
  0
LINE
  5
103E
330
1F
100
AcDbEntity
  8
0
100
AcDbLine
 10
663.0018920871243
 20
674.9638135508177
 30
0.0
 11
663.0018920871243
 21
676.9638135508174
 31
0.0
  0
LINE
  5
103F
330
1F
100
AcDbEntity
  8
0
100
AcDbLine
 10
662.0018920871244
 20
666.4638135508177
 30
0.0
 11
662.5018920871242
 21
666.4638135508177
 31
0.0
  0
LINE
  5
1040
330
1F
100
AcDbEntity
  8
0
100
AcDbLine
 10
662.5018920871242
 20
666.4638135508177
 30
0.0
 11
662.5018920871242
 21
669.4638135508172
 31
0.0
  0
LINE
  5
1041
330
1F
100
AcDbEntity
  8
0
100
AcDbLine
 10
662.5018920871242
 20
669.4638135508172
 30
0.0
 11
664.5018920871242
 21
669.4638135508172
 31
0.0
  0
LINE
  5
1042
330
1F
100
AcDbEntity
  8
0
100
AcDbLine
 10
665.5018920871242
 20
668.4638135508172
 30
0.0
 11
665.5018920871242
 21
666.4638135508177
 31
0.0
  0
LINE
  5
1043
330
1F
100
AcDbEntity
  8
0
100
AcDbLine
 10
664.5018920871242
 20
669.4638135508172
 30
0.0
 11
664.5018920871242
 21
668.4638135508172
 31
0.0
  0
LINE
  5
1044
330
1F
100
AcDbEntity
  8
0
100
AcDbLine
 10
664.5018920871242
 20
668.4638135508172
 30
0.0
 11
665.5018920871242
 21
668.4638135508172
 31
0.0
  0
LINE
  5
1045
330
1F
100
AcDbEntity
  8
0
100
AcDbLine
 10
663.0018920871243
 20
674.5638135508174
 30
0.0
 11
665.1018920871242
 21
674.5638135508174
 31
0.0
  0
LINE
  5
1046
330
1F
100
AcDbEntity
  8
0
100
AcDbLine
 10
666.1018920871242
 20
674.5638135508174
 30
0.0
 11
666.1018920871242
 21
671.5638135508176
 31
0.0
  0
LINE
  5
1047
330
1F
100
AcDbEntity
  8
0
100
AcDbLine
 10
665.1018920871242
 20
671.5638135508176
 30
0.0
 11
663.0018920871243
 21
671.5638135508176
 31
0.0
  0
LINE
  5
1048
330
1F
100
AcDbEntity
  8
0
100
AcDbLine
 10
663.0018920871243
 20
671.5638135508176
 30
0.0
 11
663.0018920871243
 21
674.5638135508174
 31
0.0
  0
LINE
  5
1049
330
1F
100
AcDbEntity
  8
0
100
AcDbLine
 10
666.1018920871242
 20
674.5638135508174
 30
0.0
 11
666.1018920871242
 21
675.0638135508173
 31
0.0
  0
LINE
  5
104A
330
1F
100
AcDbEntity
  8
0
100
AcDbLine
 10
666.1018920871242
 20
675.0638135508173
 30
0.0
 11
665.1018920871242
 21
675.0638135508173
 31
0.0
  0
LINE
  5
104B
330
1F
100
AcDbEntity
  8
0
100
AcDbLine
 10
665.1018920871242
 20
675.0638135508173
 30
0.0
 11
665.1018920871242
 21
674.5638135508174
 31
0.0
  0
LINE
  5
104C
330
1F
100
AcDbEntity
  8
0
100
AcDbLine
 10
666.1018920871242
 20
671.5638135508176
 30
0.0
 11
666.1018920871242
 21
671.0638135508176
 31
0.0
  0
LINE
  5
104D
330
1F
100
AcDbEntity
  8
0
100
AcDbLine
 10
666.1018920871242
 20
671.0638135508176
 30
0.0
 11
665.1018920871242
 21
671.0638135508176
 31
0.0
  0
LINE
  5
104E
330
1F
100
AcDbEntity
  8
0
100
AcDbLine
 10
665.1018920871242
 20
671.0638135508176
 30
0.0
 11
665.1018920871242
 21
671.5638135508176
 31
0.0
  0
LINE
  5
106F
330
1F
100
AcDbEntity
  8
0
100
AcDbLine
 10
657.0018920871242
 20
666.4638135508177
 30
0.0
 11
662.0018920871244
 21
666.4638135508177
 31
0.0
  0
LINE
  5
1071
330
1F
100
AcDbEntity
  8
0
100
AcDbLine
 10
663.5018920871242
 20
678.4638135508172
 30
0.0
 11
658.5018920871242
 21
678.4638135508172
 31
0.0
  0
LINE
  5
1073
330
1F
100
AcDbEntity
  8
0
100
AcDbLine
 10
658.0018920871244
 20
676.9638135508174
 30
0.0
 11
660.0018920871242
 21
676.9638135508174
 31
0.0
  0
LINE
  5
1074
330
1F
100
AcDbEntity
  8
0
100
AcDbLine
 10
660.0018920871242
 20
676.9638135508174
 30
0.0
 11
660.0018920871242
 21
674.9638135508177
 31
0.0
  0
LINE
  5
1075
330
1F
100
AcDbEntity
  8
0
100
AcDbLine
 10
660.0018920871242
 20
674.9638135508177
 30
0.0
 11
658.0018920871244
 21
674.9638135508177
 31
0.0
  0
LINE
  5
1076
330
1F
100
AcDbEntity
  8
0
100
AcDbLine
 10
658.0018920871244
 20
674.9638135508177
 30
0.0
 11
658.0018920871244
 21
676.9638135508174
 31
0.0
  0
LINE
  5
1077
330
1F
100
AcDbEntity
  8
0
100
AcDbLine
 10
657.0018920871242
 20
666.4638135508177
 30
0.0
 11
657.5018920871244
 21
666.4638135508177
 31
0.0
  0
LINE
  5
1078
330
1F
100
AcDbEntity
  8
0
100
AcDbLine
 10
657.5018920871244
 20
666.4638135508177
 30
0.0
 11
657.5018920871244
 21
669.4638135508172
 31
0.0
  0
LINE
  5
1079
330
1F
100
AcDbEntity
  8
0
100
AcDbLine
 10
657.5018920871244
 20
669.4638135508172
 30
0.0
 11
659.5018920871242
 21
669.4638135508172
 31
0.0
  0
LINE
  5
107A
330
1F
100
AcDbEntity
  8
0
100
AcDbLine
 10
660.5018920871242
 20
668.4638135508172
 30
0.0
 11
660.5018920871242
 21
666.4638135508177
 31
0.0
  0
LINE
  5
107B
330
1F
100
AcDbEntity
  8
0
100
AcDbLine
 10
659.5018920871242
 20
669.4638135508172
 30
0.0
 11
659.5018920871242
 21
668.4638135508172
 31
0.0
  0
LINE
  5
107C
330
1F
100
AcDbEntity
  8
0
100
AcDbLine
 10
659.5018920871242
 20
668.4638135508172
 30
0.0
 11
660.5018920871242
 21
668.4638135508172
 31
0.0
  0
LINE
  5
107D
330
1F
100
AcDbEntity
  8
0
100
AcDbLine
 10
658.0018920871244
 20
674.5638135508174
 30
0.0
 11
660.1018920871243
 21
674.5638135508174
 31
0.0
  0
LINE
  5
107E
330
1F
100
AcDbEntity
  8
0
100
AcDbLine
 10
661.1018920871242
 20
674.5638135508174
 30
0.0
 11
661.1018920871242
 21
671.5638135508176
 31
0.0
  0
LINE
  5
107F
330
1F
100
AcDbEntity
  8
0
100
AcDbLine
 10
660.1018920871243
 20
671.5638135508176
 30
0.0
 11
658.0018920871244
 21
671.5638135508176
 31
0.0
  0
LINE
  5
1080
330
1F
100
AcDbEntity
  8
0
100
AcDbLine
 10
658.0018920871244
 20
671.5638135508176
 30
0.0
 11
658.0018920871244
 21
674.5638135508174
 31
0.0
  0
LINE
  5
1081
330
1F
100
AcDbEntity
  8
0
100
AcDbLine
 10
661.1018920871242
 20
674.5638135508174
 30
0.0
 11
661.1018920871242
 21
675.0638135508173
 31
0.0
  0
LINE
  5
1082
330
1F
100
AcDbEntity
  8
0
100
AcDbLine
 10
661.1018920871242
 20
675.0638135508173
 30
0.0
 11
660.1018920871243
 21
675.0638135508173
 31
0.0
  0
LINE
  5
1083
330
1F
100
AcDbEntity
  8
0
100
AcDbLine
 10
660.1018920871243
 20
675.0638135508173
 30
0.0
 11
660.1018920871243
 21
674.5638135508174
 31
0.0
  0
LINE
  5
1084
330
1F
100
AcDbEntity
  8
0
100
AcDbLine
 10
661.1018920871242
 20
671.5638135508176
 30
0.0
 11
661.1018920871242
 21
671.0638135508176
 31
0.0
  0
LINE
  5
1085
330
1F
100
AcDbEntity
  8
0
100
AcDbLine
 10
661.1018920871242
 20
671.0638135508176
 30
0.0
 11
660.1018920871243
 21
671.0638135508176
 31
0.0
  0
LINE
  5
1086
330
1F
100
AcDbEntity
  8
0
100
AcDbLine
 10
660.1018920871243
 20
671.0638135508176
 30
0.0
 11
660.1018920871243
 21
671.5638135508176
 31
0.0
  0
LINE
  5
1096
330
1F
100
AcDbEntity
  8
0
100
AcDbLine
 10
718.5018920871241
 20
666.4638135508177
 30
0.0
 11
717.5018920871241
 21
666.4638135508177
 31
0.0
  0
LINE
  5
1097
330
1F
100
AcDbEntity
  8
0
100
AcDbLine
 10
715.0018920871241
 20
681.4638135508172
 30
0.0
 11
715.0018920871241
 21
678.4617716057937
 31
0.0
  0
LINE
  5
1098
330
1F
100
AcDbEntity
  8
0
100
AcDbLine
 10
657.0018920871242
 20
666.4638135508177
 30
0.0
 11
652.5097321418061
 21
666.4638135508177
 31
0.0
  0
LINE
  5
11A5
330
1F
100
AcDbEntity
  8
0
100
AcDbLine
 10
646.0018920871242
 20
764.9638135508174
 30
0.0
 11
652.0018920871242
 21
764.9638135508175
 31
0.0
  0
LINE
  5
11A8
330
1F
100
AcDbEntity
  8
0
100
AcDbLine
 10
718.0018920871241
 20
764.9638135508175
 30
0.0
 11
724.0018920871241
 21
764.9638135508175
 31
0.0
  0
LINE
  5
11BA
330
1F
100
AcDbEntity
  8
0
100
AcDbLine
 10
724.0018920871241
 20
764.9638135508175
 30
0.0
 11
721.0018920871241
 21
764.9638135508175
 31
0.0
  0
LINE
  5
11BB
330
1F
100
AcDbEntity
  8
0
100
AcDbLine
 10
721.0018920871241
 20
764.9638135508175
 30
0.0
 11
721.001892087124
 21
765.9638135508174
 31
0.0
  0
LINE
  5
11BD
330
1F
100
AcDbEntity
  8
0
100
AcDbLine
 10
727.0018920871241
 20
765.9638135508174
 30
0.0
 11
727.0018920871241
 21
764.9638135508175
 31
0.0
  0
LINE
  5
11BE
330
1F
100
AcDbEntity
  8
0
100
AcDbLine
 10
652.0018920871242
 20
764.9638135508175
 30
0.0
 11
649.0018920871242
 21
764.9638135508175
 31
0.0
  0
LINE
  5
11BF
330
1F
100
AcDbEntity
  8
0
100
AcDbLine
 10
649.0018920871242
 20
764.9638135508175
 30
0.0
 11
649.0018920871242
 21
765.9638135508174
 31
0.0
  0
LINE
  5
11C1
330
1F
100
AcDbEntity
  8
0
100
AcDbLine
 10
655.0018920871242
 20
765.9638135508174
 30
0.0
 11
655.0018920871242
 21
764.9638135508175
 31
0.0
  0
LINE
  5
1336
330
1F
100
AcDbEntity
  8
0
100
AcDbLine
 10
633.0018920871244
 20
759.9638135508175
 30
0.0
 11
629.5018920871243
 21
759.9638135508175
 31
0.0
  0
LINE
  5
1337
330
1F
100
AcDbEntity
  8
0
100
AcDbLine
 10
633.0018920871244
 20
759.9638135508175
 30
0.0
 11
636.5018920871242
 21
759.9638135508175
 31
0.0
  0
LINE
  5
1338
330
1F
100
AcDbEntity
  8
0
100
AcDbLine
 10
633.0018920871244
 20
759.9638135508175
 30
0.0
 11
633.0018920871244
 21
763.4638135508176
 31
0.0
  0
LINE
  5
1339
330
1F
100
AcDbEntity
  8
0
100
AcDbLine
 10
633.0018920871244
 20
759.9638135508175
 30
0.0
 11
633.0018920871244
 21
756.4638135508175
 31
0.0
  0
LINE
  5
1A6E
330
1F
100
AcDbEntity
  8
0
100
AcDbLine
 10
743.0018920871241
 20
759.9638135508175
 30
0.0
 11
739.5018920871241
 21
759.9638135508175
 31
0.0
  0
LINE
  5
1A6F
330
1F
100
AcDbEntity
  8
0
100
AcDbLine
 10
743.0018920871241
 20
759.9638135508175
 30
0.0
 11
746.5018920871241
 21
759.9638135508175
 31
0.0
  0
LINE
  5
1A70
330
1F
100
AcDbEntity
  8
0
100
AcDbLine
 10
743.0018920871241
 20
759.9638135508175
 30
0.0
 11
743.0018920871241
 21
763.4638135508176
 31
0.0
  0
LINE
  5
1A71
330
1F
100
AcDbEntity
  8
0
100
AcDbLine
 10
743.0018920871241
 20
759.9638135508175
 30
0.0
 11
743.0018920871241
 21
756.4638135508175
 31
0.0
  0
LINE
  5
1A7C
330
1F
100
AcDbEntity
  8
0
100
AcDbLine
 10
743.0018920871246
 20
669.9638135508177
 30
0.0
 11
739.5018920871246
 21
669.9638135508177
 31
0.0
  0
LINE
  5
1A7D
330
1F
100
AcDbEntity
  8
0
100
AcDbLine
 10
743.0018920871246
 20
669.9638135508177
 30
0.0
 11
746.5018920871241
 21
669.9638135508177
 31
0.0
  0
LINE
  5
1A7E
330
1F
100
AcDbEntity
  8
0
100
AcDbLine
 10
743.0018920871246
 20
669.9638135508177
 30
0.0
 11
743.0018920871246
 21
673.4638135508177
 31
0.0
  0
LINE
  5
1A7F
330
1F
100
AcDbEntity
  8
0
100
AcDbLine
 10
743.0018920871246
 20
669.9638135508177
 30
0.0
 11
743.0018920871246
 21
666.4638135508177
 31
0.0
  0
LINE
  5
1A8A
330
1F
100
AcDbEntity
  8
0
100
AcDbLine
 10
633.0018920871244
 20
669.9638135508172
 30
0.0
 11
629.5018920871243
 21
669.9638135508172
 31
0.0
  0
LINE
  5
1A8B
330
1F
100
AcDbEntity
  8
0
100
AcDbLine
 10
633.0018920871244
 20
669.9638135508172
 30
0.0
 11
636.5018920871242
 21
669.9638135508172
 31
0.0
  0
LINE
  5
1A8C
330
1F
100
AcDbEntity
  8
0
100
AcDbLine
 10
633.0018920871244
 20
669.9638135508172
 30
0.0
 11
633.0018920871244
 21
673.4638135508172
 31
0.0
  0
LINE
  5
1A8D
330
1F
100
AcDbEntity
  8
0
100
AcDbLine
 10
633.0018920871244
 20
669.9638135508172
 30
0.0
 11
633.0018920871244
 21
666.4638135508177
 31
0.0
  0
MTEXT
  5
1A9C
330
1F
100
AcDbEntity
  8
0
100
AcDbMText
 10
756.9775777369255
 20
787.5806366962251
 30
0.0
 40
3.5
 41
34.55432804085968
 71
     1
 72
     5
  1
4×φ4.5
 73
     1
 44
1.0
1001
ACAD
1000
MTEXTBEGIN
1070
    73
1070
     1
1070
    44
1040
1.0
1070
    74
1070
     0
1000
MTEXTEND
  0
LINE
  5
1AF1
330
1F
100
AcDbEntity
  8
0
100
AcDbLine
 10
820.7091819606766
 20
764.9638135508175
 30
0.0
 11
820.7091819606766
 21
765.9638135508175
 31
0.0
  0
LINE
  5
1AF3
330
1F
100
AcDbEntity
  8
0
100
AcDbLine
 10
812.7091819606766
 20
764.9638135508175
 30
0.0
 11
812.7091819606766
 21
765.9638135508175
 31
0.0
  0
LINE
  5
1AF4
330
1F
100
AcDbEntity
  8
0
100
AcDbLine
 10
812.7091819606766
 20
765.9638135508175
 30
0.0
 11
820.7091819606766
 21
765.9638135508175
 31
0.0
  0
LINE
  5
1AF5
330
1F
100
AcDbEntity
  8
0
100
AcDbLine
 10
812.7091819606766
 20
765.9638135508175
 30
0.0
 11
812.7091819606766
 21
767.4638135508176
 31
0.0
  0
LINE
  5
1AF6
330
1F
100
AcDbEntity
  8
0
100
AcDbLine
 10
812.7091819606766
 20
767.4638135508176
 30
0.0
 11
803.7091819606766
 21
767.4638135508176
 31
0.0
  0
LINE
  5
1AF7
330
1F
100
AcDbEntity
  8
0
100
AcDbLine
 10
803.7091819606766
 20
767.4638135508176
 30
0.0
 11
803.7091819606766
 21
764.9638135508175
 31
0.0
  0
LINE
  5
1AFA
330
1F
100
AcDbEntity
  8
0
100
AcDbLine
 10
793.7091819606767
 20
764.9638135508175
 30
0.0
 11
790.7091819606765
 21
764.9638135508175
 31
0.0
  0
LINE
  5
1AFB
330
1F
100
AcDbEntity
  8
0
100
AcDbLine
 10
790.7091819606765
 20
764.9638135508175
 30
0.0
 11
790.7091819606765
 21
770.9638135508176
 31
0.0
  0
LINE
  5
1AFC
330
1F
100
AcDbEntity
  8
0
100
AcDbLine
 10
790.7091819606765
 20
770.9638135508176
 30
0.0
 11
796.7091819606767
 21
770.9638135508176
 31
0.0
  0
LINE
  5
1AFD
330
1F
100
AcDbEntity
  8
0
100
AcDbLine
 10
796.7091819606767
 20
770.9638135508176
 30
0.0
 11
796.7091819606767
 21
764.9638135508175
 31
0.0
  0
MTEXT
  5
1BF4
330
1F
100
AcDbEntity
  8
0
100
AcDbMText
 10
684.9344345795169
 20
714.9653869614294
 30
0.0
 40
2.0
 41
7.246937647830008
 71
     1
 72
     5
  1
SET
 73
     1
 44
1.0
1001
ACAD
1000
MTEXTBEGIN
1070
    73
1070
     1
1070
    44
1040
1.0
1070
    74
1070
     0
1000
MTEXTEND
  0
LINE
  5
1BF5
330
1F
100
AcDbEntity
  8
0
100
AcDbLine
 10
661.9229730246157
 20
714.8501423980754
 30
0.0
 11
664.9229730246157
 21
714.8501423980754
 31
0.0
  0
LINE
  5
1BF6
330
1F
100
AcDbEntity
  8
0
100
AcDbLine
 10
664.9229730246157
 20
714.8501423980754
 30
0.0
 11
663.4361225149287
 21
712.2445185645482
 31
0.0
  0
LINE
  5
1BF7
330
1F
100
AcDbEntity
  8
0
100
AcDbLine
 10
663.4361225149287
 20
712.2445185645482
 30
0.0
 11
661.9553348549876
 21
714.8535927118593
 31
0.0
  0
LINE
  5
1BF8
330
1F
100
AcDbEntity
  8
0
100
AcDbLine
 10
674.111700253968
 20
712.9034307378104
 30
0.0
 11
677.111700253968
 21
712.9034307378104
 31
0.0
  0
LINE
  5
1BF9
330
1F
100
AcDbEntity
  8
0
100
AcDbLine
 10
677.111700253968
 20
712.9034307378104
 30
0.0
 11
675.6163486670001
 21
715.504185172845
 31
0.0
  0
LINE
  5
1BFA
330
1F
100
AcDbEntity
  8
0
100
AcDbLine
 10
675.6163486670001
 20
715.504185172845
 30
0.0
 11
674.1140262583448
 21
712.9074511894628
 31
0.0
  0
LINE
  5
1C06
330
1F
100
AcDbEntity
  8
0
100
AcDbLine
 10
788.7091819606767
 20
732.9638135508176
 30
0.0
 11
788.7091819606767
 21
698.4638135508175
 31
0.0
  0
LINE
  5
1C07
330
1F
100
AcDbEntity
  8
0
100
AcDbLine
 10
788.7091819606767
 20
698.4638135508175
 30
0.0
 11
807.7091819606767
 21
698.4638135508175
 31
0.0
  0
LINE
  5
1C08
330
1F
100
AcDbEntity
  8
0
100
AcDbLine
 10
807.7091819606767
 20
698.4638135508175
 30
0.0
 11
807.7091819606767
 21
732.9638135508176
 31
0.0
  0
LINE
  5
1C09
330
1F
100
AcDbEntity
  8
0
100
AcDbLine
 10
807.7091819606767
 20
732.9638135508176
 30
0.0
 11
788.7091819606767
 21
732.9638135508176
 31
0.0
  0
CIRCLE
  5
1C44
330
1F
100
AcDbEntity
  8
0
100
AcDbCircle
 10
743.0018920871241
 20
759.9638135508175
 30
0.0
 40
2.25
  0
CIRCLE
  5
1C45
330
1F
100
AcDbEntity
  8
0
100
AcDbCircle
 10
743.0018920871246
 20
669.9638135508177
 30
0.0
 40
2.25
  0
CIRCLE
  5
1C46
330
1F
100
AcDbEntity
  8
0
100
AcDbCircle
 10
633.0018920871244
 20
669.9638135508172
 30
0.0
 40
2.25
  0
CIRCLE
  5
1C47
330
1F
100
AcDbEntity
  8
0
100
AcDbCircle
 10
633.0018920871244
 20
759.9638135508175
 30
0.0
 40
2.25
  0
DIMENSION
  5
1D15
330
1F
100
AcDbEntity
  8
0
100
AcDbDimension
  2
*D7
 10
614.9473304984478
 20
759.9638135508175
 30
0.0
 11
614.9473304984477
 21
714.9638135508175
 31
0.0
 70
   160
 71
     5
 42
90.00000000000033
  3
ISO-25
100
AcDbAlignedDimension
 13
628.0018920871242
 23
669.9638135508172
 33
0.0
 14
628.0018920871242
 24
759.9638135508175
 34
0.0
 50
90.0
100
AcDbRotatedDimension
1001
ACAD
1000
DSTYLE
1002
{
1070
    41
1040
3.0
1070
    42
1040
3.0
1070
   147
1040
1.0
1070
   140
1040
3.5
1002
}
  0
DIMENSION
  5
1D2D
330
1F
100
AcDbEntity
  8
0
100
AcDbDimension
  2
*D8
 10
743.0018920871246
 20
652.1436827926272
 30
0.0
 11
688.0018920871244
 21
654.8936827926272
 31
0.0
 70
    32
 71
     5
 42
110.0000000000002
  3
ISO-25
100
AcDbAlignedDimension
 13
633.0018920871244
 23
664.9638135508176
 33
0.0
 14
743.0018920871246
 24
664.9638135508172
 34
0.0
100
AcDbRotatedDimension
1001
ACAD
1000
DSTYLE
1002
{
1070
    41
1040
3.0
1070
    42
1040
3.0
1070
   147
1040
1.0
1070
   140
1040
3.5
1002
}
  0
LEADER
  5
1D69
330
1F
100
AcDbEntity
  8
0
100
AcDbLeader
  3
ISO-25
 40
2.5
 76
     3
 10
745.0018920871244
 20
761.9638135508175
 30
0.0
 10
756.537832814329
 20
782.671893490552
 30
0.0
 10
777.2555119331898
 20
782.671893490552
 30
0.0
213
15.222998093015
223
-1.25
233
0.0
1001
ACAD
1000
DSTYLE
1002
{
1070
    41
1040
3.0
1070
   147
1040
0.625
1070
    77
1070
     0
1002
}
  0
MTEXT
  5
1D6A
330
1F
100
AcDbEntity
  8
0
100
AcDbMText
 10
777.093697461419
 20
776.7781325014603
 30
0.0
 40
2.5
 41
0.0
 71
     1
 72
     1
  1

 73
     1
 44
1.0
1001
ACAD
1000
MTEXTBEGIN
1070
    73
1070
     1
1070
    44
1040
1.0
1070
    74
1070
     0
1000
MTEXTEND
  0
LINE
  5
242C
330
1F
100
AcDbEntity
  8
AM_VIS
100
AcDbLine
 10
720.3890034088707
 20
836.4819893736568
 30
0.0
 11
719.3337557581003
 21
801.549718013398
 31
0.0
  0
LINE
  5
242F
330
1F
100
AcDbEntity
  8
AM_VIS
100
AcDbLine
 10
727.6175050424629
 20
836.4819893736569
 30
0.0
 11
728.6727526932335
 21
801.549718013398
 31
0.0
  0
LINE
  5
2432
330
1F
100
AcDbEntity
  8
AM_VIS
100
AcDbLine
 10
723.8870077649139
 20
839.8638135508175
 30
0.0
 11
724.1195006864196
 21
839.8638135508175
 31
0.0
  0
ARC
  5
2433
330
1F
100
AcDbEntity
  8
AM_VIS
100
AcDbCircle
 10
724.1195006864196
 20
836.3638135508175
 30
0.0
 40
3.5
100
AcDbArc
 50
1.934932309553905
 51
90.0
  0
ARC
  5
2434
330
1F
100
AcDbEntity
  8
AM_VIS
100
AcDbCircle
 10
723.8870077649139
 20
836.3638135508175
 30
0.0
 40
3.499999999999998
100
AcDbArc
 50
90.0
 51
178.0650676904525
  0
LINE
  5
2436
330
1F
100
AcDbEntity
  8
0
100
AcDbLine
 10
718.0039083269597
 20
765.9638135508175
 30
0.0
 11
729.9998758472886
 21
765.9638135508175
 31
0.0
  0
LINE
  5
243D
330
1F
100
AcDbEntity
  8
0
100
AcDbLine
 10
718.0039083269597
 20
770.9638135508176
 30
0.0
 11
729.9998758472886
 21
770.9638135508176
 31
0.0
  0
LINE
  5
243E
330
1F
100
AcDbEntity
  8
0
100
AcDbLine
 10
718.0039083269597
 20
765.9638135508175
 30
0.0
 11
718.0039083269597
 21
785.9638135508175
 31
0.0
  0
LINE
  5
243F
330
1F
100
AcDbEntity
  8
0
100
AcDbLine
 10
729.9998758472886
 20
765.9638135508175
 30
0.0
 11
729.9998758472886
 21
785.9638135508175
 31
0.0
  0
LINE
  5
2440
330
1F
100
AcDbEntity
  8
0
100
AcDbLine
 10
718.0039083269597
 20
785.9638135508175
 30
0.0
 11
719.1978180064579
 21
797.0497180133983
 31
0.0
  0
LINE
  5
2441
330
1F
100
AcDbEntity
  8
0
100
AcDbLine
 10
729.9998758472886
 20
785.9638135508175
 30
0.0
 11
728.8086904448757
 21
797.0497180133983
 31
0.0
  0
LINE
  5
2456
330
1F
100
AcDbEntity
  8
AM_VIS
100
AcDbLine
 10
648.3890034088708
 20
836.4819893736568
 30
0.0
 11
647.3337557580999
 21
801.549718013398
 31
0.0
  0
LINE
  5
2459
330
1F
100
AcDbEntity
  8
AM_VIS
100
AcDbLine
 10
655.617505042463
 20
836.4819893736569
 30
0.0
 11
656.6727526932336
 21
801.549718013398
 31
0.0
  0
LINE
  5
245C
330
1F
100
AcDbEntity
  8
AM_VIS
100
AcDbLine
 10
651.8870077649141
 20
839.8638135508175
 30
0.0
 11
652.1195006864197
 21
839.8638135508175
 31
0.0
  0
ARC
  5
245D
330
1F
100
AcDbEntity
  8
AM_VIS
100
AcDbCircle
 10
652.1195006864197
 20
836.3638135508175
 30
0.0
 40
3.5
100
AcDbArc
 50
1.93493230955389
 51
90.0
  0
ARC
  5
245E
330
1F
100
AcDbEntity
  8
AM_VIS
100
AcDbCircle
 10
651.8870077649141
 20
836.3638135508175
 30
0.0
 40
3.499999999999998
100
AcDbArc
 50
90.0
 51
178.0650676904525
  0
DIMENSION
  5
245F
330
1F
100
AcDbEntity
  8
0
100
AcDbDimension
  2
*D12
 10
631.8239704118728
 20
764.9638135508175
 30
0.0
 11
631.8239704118727
 21
802.4138135508176
 31
0.0
 70
   160
 71
     5
 42
74.89999999999998
  3
ISO-25
100
AcDbAlignedDimension
 13
652.0032542256667
 23
839.8638135508175
 33
0.0
 14
631.0018920871242
 24
764.9638135508175
 34
0.0
 50
90.0
100
AcDbRotatedDimension
1001
ACAD
1000
DSTYLE
1002
{
1070
   140
1040
3.5
1070
    41
1040
3.0
1070
   271
1070
     0
1070
    50
1040
0.7853981633974483
1070
    90
1070
     1
1002
}
  0
LINE
  5
2460
330
1F
100
AcDbEntity
  8
0
100
AcDbLine
 10
646.0039083269597
 20
765.9638135508175
 30
0.0
 11
657.9998758472887
 21
765.9638135508175
 31
0.0
  0
LINE
  5
2467
330
1F
100
AcDbEntity
  8
0
100
AcDbLine
 10
646.0039083269597
 20
770.9638135508176
 30
0.0
 11
657.9998758472887
 21
770.9638135508176
 31
0.0
  0
LINE
  5
2468
330
1F
100
AcDbEntity
  8
0
100
AcDbLine
 10
646.0039083269597
 20
765.9638135508175
 30
0.0
 11
646.0039083269597
 21
785.9638135508175
 31
0.0
  0
LINE
  5
2469
330
1F
100
AcDbEntity
  8
0
100
AcDbLine
 10
657.9998758472887
 20
765.9638135508175
 30
0.0
 11
657.9998758472887
 21
785.9638135508175
 31
0.0
  0
LINE
  5
246A
330
1F
100
AcDbEntity
  8
0
100
AcDbLine
 10
646.0039083269597
 20
785.9638135508175
 30
0.0
 11
647.1978180064581
 21
797.0497180133983
 31
0.0
  0
LINE
  5
246B
330
1F
100
AcDbEntity
  8
0
100
AcDbLine
 10
657.9998758472887
 20
785.9638135508175
 30
0.0
 11
656.8086904448757
 21
797.0497180133983
 31
0.0
  0
LINE
  5
254A
330
1F
100
AcDbEntity
  8
AM_VIS
100
AcDbLine
 10
647.3186515634731
 20
801.0497180133981
 30
0.0
 11
647.2733389795924
 21
799.549718013398
 31
0.0
  0
LINE
  5
254B
330
1F
100
AcDbEntity
  8
AM_VIS
100
AcDbLine
 10
647.2582347849653
 20
799.0497180133983
 30
0.0
 11
647.2129222010847
 21
797.5497180133981
 31
0.0
  0
LINE
  5
254C
330
1F
100
AcDbEntity
  8
AM_VIS
100
AcDbLine
 10
656.6878568878604
 20
801.0497180133981
 30
0.0
 11
656.7331694717412
 21
799.549718013398
 31
0.0
  0
LINE
  5
254D
330
1F
100
AcDbEntity
  8
AM_VIS
100
AcDbLine
 10
656.7482736663682
 20
799.0497180133981
 30
0.0
 11
656.7935862502488
 21
797.5497180133983
 31
0.0
  0
LINE
  5
254E
330
1F
100
AcDbEntity
  8
AM_VIS
100
AcDbLine
 10
719.3186515634732
 20
801.0497180133981
 30
0.0
 11
719.2733389795924
 21
799.549718013398
 31
0.0
  0
LINE
  5
254F
330
1F
100
AcDbEntity
  8
AM_VIS
100
AcDbLine
 10
719.2582347849658
 20
799.0497180133981
 30
0.0
 11
719.2129222010849
 21
797.5497180133978
 31
0.0
  0
LINE
  5
2550
330
1F
100
AcDbEntity
  8
AM_VIS
100
AcDbLine
 10
728.6878568878604
 20
801.0497180133981
 30
0.0
 11
728.7331694717412
 21
799.549718013398
 31
0.0
  0
LINE
  5
2551
330
1F
100
AcDbEntity
  8
AM_VIS
100
AcDbLine
 10
728.748273666368
 20
799.0497180133981
 30
0.0
 11
728.7935862502487
 21
797.5497180133981
 31
0.0
  0
LINE
  5
2552
330
1F
100
AcDbEntity
  8
0
100
AcDbLine
 10
719.1978180064579
 20
797.0497180133992
 30
0.0
 11
728.8086904448757
 21
797.0497180133983
 31
0.0
  0
LINE
  5
2553
330
1F
100
AcDbEntity
  8
0
100
AcDbLine
 10
719.212922201085
 20
797.5497180133978
 30
0.0
 11
728.7935862502487
 21
797.5497180133981
 31
0.0
  0
LINE
  5
2554
330
1F
100
AcDbEntity
  8
0
100
AcDbLine
 10
719.2582347849658
 20
799.0497180133981
 30
0.0
 11
728.7482736663679
 21
799.0497180133981
 31
0.0
  0
LINE
  5
2555
330
1F
100
AcDbEntity
  8
0
100
AcDbLine
 10
719.2733389795924
 20
799.549718013398
 30
0.0
 11
728.7331694717412
 21
799.549718013398
 31
0.0
  0
LINE
  5
2556
330
1F
100
AcDbEntity
  8
0
100
AcDbLine
 10
719.3186515634732
 20
801.0497180133981
 30
0.0
 11
728.6878568878604
 21
801.0497180133981
 31
0.0
  0
LINE
  5
2557
330
1F
100
AcDbEntity
  8
0
100
AcDbLine
 10
719.3337557581003
 20
801.549718013398
 30
0.0
 11
728.6727526932335
 21
801.549718013398
 31
0.0
  0
LINE
  5
2558
330
1F
100
AcDbEntity
  8
0
100
AcDbLine
 10
719.6978180064578
 20
801.549718013398
 30
0.0
 11
719.6978180064578
 21
801.0497180133981
 31
0.0
  0
LINE
  5
2559
330
1F
100
AcDbEntity
  8
0
100
AcDbLine
 10
719.6978180064578
 20
799.549718013398
 30
0.0
 11
719.6978180064578
 21
799.0497180133981
 31
0.0
  0
LINE
  5
255A
330
1F
100
AcDbEntity
  8
0
100
AcDbLine
 10
719.6978180064578
 20
797.5497180133978
 30
0.0
 11
719.6978180064578
 21
797.0497180133978
 31
0.0
  0
LINE
  5
255B
330
1F
100
AcDbEntity
  8
0
100
AcDbLine
 10
719.1978180064579
 20
797.0497180133992
 30
0.0
 11
728.8086904448757
 21
797.0497180133983
 31
0.0
  0
LINE
  5
255C
330
1F
100
AcDbEntity
  8
0
100
AcDbLine
 10
728.3086904448756
 20
801.549718013398
 30
0.0
 11
728.3086904448757
 21
801.0497180133981
 31
0.0
  0
LINE
  5
255D
330
1F
100
AcDbEntity
  8
0
100
AcDbLine
 10
728.3086904448757
 20
799.549718013398
 30
0.0
 11
728.3086904448757
 21
799.0497180133981
 31
0.0
  0
LINE
  5
255E
330
1F
100
AcDbEntity
  8
0
100
AcDbLine
 10
728.3086904448757
 20
797.5497180133981
 30
0.0
 11
728.3086904448757
 21
797.0497180133983
 31
0.0
  0
LINE
  5
255F
330
1F
100
AcDbEntity
  8
0
100
AcDbLine
 10
647.197818006458
 20
797.0497180133998
 30
0.0
 11
656.8086904448757
 21
797.0497180133983
 31
0.0
  0
LINE
  5
2560
330
1F
100
AcDbEntity
  8
0
100
AcDbLine
 10
647.2129222010847
 20
797.5497180133981
 30
0.0
 11
656.7935862502488
 21
797.5497180133983
 31
0.0
  0
LINE
  5
2561
330
1F
100
AcDbEntity
  8
0
100
AcDbLine
 10
647.2582347849653
 20
799.0497180133983
 30
0.0
 11
656.7482736663682
 21
799.0497180133981
 31
0.0
  0
LINE
  5
2562
330
1F
100
AcDbEntity
  8
0
100
AcDbLine
 10
647.2733389795924
 20
799.549718013398
 30
0.0
 11
656.7331694717412
 21
799.549718013398
 31
0.0
  0
LINE
  5
2563
330
1F
100
AcDbEntity
  8
0
100
AcDbLine
 10
647.3186515634731
 20
801.0497180133981
 30
0.0
 11
656.6878568878604
 21
801.0497180133981
 31
0.0
  0
LINE
  5
2564
330
1F
100
AcDbEntity
  8
0
100
AcDbLine
 10
647.3337557580999
 20
801.549718013398
 30
0.0
 11
656.6727526932336
 21
801.549718013398
 31
0.0
  0
LINE
  5
2565
330
1F
100
AcDbEntity
  8
0
100
AcDbLine
 10
647.6978180064577
 20
801.549718013398
 30
0.0
 11
647.6978180064577
 21
801.0497180133981
 31
0.0
  0
LINE
  5
2566
330
1F
100
AcDbEntity
  8
0
100
AcDbLine
 10
647.6978180064577
 20
799.549718013398
 30
0.0
 11
647.6978180064577
 21
799.0497180133981
 31
0.0
  0
LINE
  5
2567
330
1F
100
AcDbEntity
  8
0
100
AcDbLine
 10
647.6978180064577
 20
797.5497180133981
 30
0.0
 11
647.6978180064577
 21
797.0497180133981
 31
0.0
  0
LINE
  5
2568
330
1F
100
AcDbEntity
  8
0
100
AcDbLine
 10
647.197818006458
 20
797.0497180133998
 30
0.0
 11
656.8086904448757
 21
797.0497180133983
 31
0.0
  0
LINE
  5
2569
330
1F
100
AcDbEntity
  8
0
100
AcDbLine
 10
656.3086904448754
 20
801.549718013398
 30
0.0
 11
656.3086904448755
 21
801.0497180133981
 31
0.0
  0
LINE
  5
256A
330
1F
100
AcDbEntity
  8
0
100
AcDbLine
 10
656.3086904448755
 20
799.549718013398
 30
0.0
 11
656.3086904448755
 21
799.0497180133981
 31
0.0
  0
LINE
  5
256B
330
1F
100
AcDbEntity
  8
0
100
AcDbLine
 10
656.3086904448755
 20
797.5497180133983
 30
0.0
 11
656.3086904448755
 21
797.0497180133983
 31
0.0
  0
MTEXT
  5
274A
330
1F
100
AcDbEntity
  8
0
100
AcDbMText
 10
552.1988733468647
 20
857.4659558943876
 30
0.0
 40
8.0
 41
133.3172581099149
 71
     1
 72
     5
  1
{\LSWL30-XY08-E}
 73
     1
 44
1.0
1001
ACAD
1000
MTEXTBEGIN
1070
    73
1070
     1
1070
    44
1040
1.0
1070
    74
1070
     0
1000
MTEXTEND
  0
MTEXT
  5
27DA
330
1F
100
AcDbEntity
  8
0
100
AcDbMText
 10
570.6093736812334
 20
633.1064757371316
 30
0.0
 40
5.0
 41
133.3172581099149
 71
     1
 72
     5
  1
（単位：mm）
 73
     1
 44
1.0
1001
ACAD
1000
MTEXTBEGIN
1070
    73
1070
     1
1070
    44
1040
1.0
1070
    74
1070
     0
1000
MTEXTEND
  0
VIEWPORT
  5
2069
102
{ACAD_XDICTIONARY
360
27FC
102
}
330
2062
100
AcDbEntity
 67
     1
  8
0
100
AcDbViewport
 10
128.5
 20
97.5
 30
0.0
 40
343.0989506172839
 41
222.18
 68
     1
 69
     1
 12
128.5
 22
97.5
 13
0.0
 23
0.0
 14
10.0
 24
10.0
 15
10.0
 25
10.0
 16
0.0
 26
0.0
 36
1.0
 17
0.0
 27
0.0
 37
0.0
 42
50.0
 43
0.0
 44
0.0
 45
222.18
 50
0.0
 51
0.0
 72
  1000
 90
    32800
  1

281
     0
 71
     1
 74
     0
110
0.0
120
0.0
130
0.0
111
1.0
121
0.0
131
0.0
112
0.0
122
1.0
132
0.0
 79
     0
146
0.0
1001
GENIUS_GENOBJ-N-SDF_13
1002
{
1000
OWNER
1000
GEN
1002
}
1001
GENIUS_GENODEF_13
1002
{
1000
HIER
1070
     0
1002
}
1002
{
1000
MANEDIT
1070
     0
1002
}
1002
{
1000
NOSEL
1070
     0
1002
}
1002
{
1000
BEHIND
1070
     0
1002
}
1002
{
1000
OTHER
1070
     0
1002
}
1002
{
1000
REACTOR
1002
}
1001
GENIUS_GENSCREG_15
1000
PF
1040
1.0
1000
DF
1040
1.0
1000
MIN
1011
-43.04947530864189
1021
-13.59
1031
0.0
1000
MAX
1011
300.049475308642
1021
208.59
1031
0.0
1000
FLAGS
1070
     2
  0
VIEWPORT
  5
206B
102
{ACAD_XDICTIONARY
360
27FE
102
}
330
2062
100
AcDbEntity
 67
     1
  8
0
100
AcDbViewport
 10
128.5
 20
97.5
 30
0.0
 40
205.6
 41
156.0
 68
     2
 69
     2
 12
681.0105001352177
 22
725.586963132349
 13
0.0
 23
0.0
 14
10.0
 24
10.0
 15
10.0
 25
10.0
 16
0.0
 26
0.0
 36
1.0
 17
0.0
 27
0.0
 37
0.0
 42
50.0
 43
0.0
 44
0.0
 45
213.41055031234
 50
0.0
 51
0.0
 72
  1000
 90
    32864
  1

281
     0
 71
     1
 74
     0
110
0.0
120
0.0
130
0.0
111
1.0
121
0.0
131
0.0
112
0.0
122
1.0
132
0.0
 79
     0
146
0.0
1001
GENIUS_GENODEF_13
1002
{
1000
HIER
1070
     0
1002
}
1002
{
1000
MANEDIT
1070
     0
1002
}
1002
{
1000
NOSEL
1070
     0
1002
}
1002
{
1000
BEHIND
1070
     0
1002
}
1002
{
1000
OTHER
1070
     0
1002
}
1002
{
1000
REACTOR
1002
}
1001
GENIUS_GENOBJ-N-SDF_13
1002
{
1000
OWNER
1000
GEN
1002
}
1001
GENIUS_GENSCREG_15
1000
PF
1040
0.0
1000
DF
1040
0.0
1000
MIN
1011
25.70000000000002
1021
19.5
1031
0.0
1000
MAX
1011
231.3
1021
175.5
1031
0.0
1000
FLAGS
1070
     2
  0
ENDSEC
  0
SECTION
  2
OBJECTS
  0
DICTIONARY
  5
C
330
0
100
AcDbDictionary
281
     1
  3
ACAD_2007HEADERVARS_RT
350
27F4
  3
ACAD_COLOR
350
6B
  3
ACAD_GROUP
350
D
  3
ACAD_LAYOUT
350
1A
  3
ACAD_MATERIAL
350
6A
  3
ACAD_MLEADERSTYLE
350
20C7
  3
ACAD_MLINESTYLE
350
17
  3
ACAD_PLOTSETTINGS
350
19
  3
ACAD_PLOTSTYLENAME
350
E
  3
ACAD_SCALELIST
350
20A5
  3
ACAD_TABLESTYLE
350
7E
  3
ACAD_VISUALSTYLE
350
2094
  3
ACDB_RECOMPOSE_DATA
350
2210
  3
AcDbVariableDictionary
350
5E
  3
AcmDictionary
350
2184
  3
AMG
350
20CC
  3
AMGSNAPSETTINGS
350
21C4
  3
DWGPROPS
350
27F3
  0
DICTIONARY
  5
10FA
330
2
100
AcDbDictionary
280
     1
281
     1
  3
ACAD_LAYERSTATES
360
10FB
  0
DICTIONARY
  5
21CB
330
10
100
AcDbDictionary
280
     1
281
     1
  3
ADSK_XREC_LAYER_RECONCILED
360
21CC
  0
DICTIONARY
  5
21CD
330
10E0
100
AcDbDictionary
280
     1
281
     1
  3
ADSK_XREC_LAYER_RECONCILED
360
21CE
  0
DICTIONARY
  5
21CF
330
10E1
100
AcDbDictionary
280
     1
281
     1
  3
ADSK_XREC_LAYER_RECONCILED
360
21D0
  0
DICTIONARY
  5
21D1
330
10E2
100
AcDbDictionary
280
     1
281
     1
  3
ADSK_XREC_LAYER_RECONCILED
360
21D2
  0
DICTIONARY
  5
21D3
330
10E3
100
AcDbDictionary
280
     1
281
     1
  3
ADSK_XREC_LAYER_RECONCILED
360
21D4
  0
DICTIONARY
  5
21D5
330
10E4
100
AcDbDictionary
280
     1
281
     1
  3
ADSK_XREC_LAYER_RECONCILED
360
21D6
  0
DICTIONARY
  5
21D7
330
10E5
100
AcDbDictionary
280
     1
281
     1
  3
ADSK_XREC_LAYER_RECONCILED
360
21D8
  0
DICTIONARY
  5
21D9
330
10E6
100
AcDbDictionary
280
     1
281
     1
  3
ADSK_XREC_LAYER_RECONCILED
360
21DA
  0
DICTIONARY
  5
21DB
330
10E7
100
AcDbDictionary
280
     1
281
     1
  3
ADSK_XREC_LAYER_RECONCILED
360
21DC
  0
DICTIONARY
  5
21DD
330
10E8
100
AcDbDictionary
280
     1
281
     1
  3
ADSK_XREC_LAYER_RECONCILED
360
21DE
  0
DICTIONARY
  5
21DF
330
10E9
100
AcDbDictionary
280
     1
281
     1
  3
ADSK_XREC_LAYER_RECONCILED
360
21E0
  0
DICTIONARY
  5
21E1
330
10EA
100
AcDbDictionary
280
     1
281
     1
  3
ADSK_XREC_LAYER_RECONCILED
360
21E2
  0
DICTIONARY
  5
21E3
330
10EB
100
AcDbDictionary
280
     1
281
     1
  3
ADSK_XREC_LAYER_RECONCILED
360
21E4
  0
DICTIONARY
  5
21E5
330
10EC
100
AcDbDictionary
280
     1
281
     1
  3
ADSK_XREC_LAYER_RECONCILED
360
21E6
  0
DICTIONARY
  5
21E7
330
10ED
100
AcDbDictionary
280
     1
281
     1
  3
ADSK_XREC_LAYER_RECONCILED
360
21E8
  0
DICTIONARY
  5
21E9
330
10EE
100
AcDbDictionary
280
     1
281
     1
  3
ADSK_XREC_LAYER_RECONCILED
360
21EA
  0
DICTIONARY
  5
21EB
330
10EF
100
AcDbDictionary
280
     1
281
     1
  3
ADSK_XREC_LAYER_RECONCILED
360
21EC
  0
DICTIONARY
  5
21ED
330
10F0
100
AcDbDictionary
280
     1
281
     1
  3
ADSK_XREC_LAYER_RECONCILED
360
21EE
  0
DICTIONARY
  5
21EF
330
10F1
100
AcDbDictionary
280
     1
281
     1
  3
ADSK_XREC_LAYER_RECONCILED
360
21F0
  0
DICTIONARY
  5
21F1
330
10F2
100
AcDbDictionary
280
     1
281
     1
  3
ADSK_XREC_LAYER_RECONCILED
360
21F2
  0
DICTIONARY
  5
15F
330
1F
100
AcDbDictionary
280
     1
281
     1
  3
ACAD_INDEX
360
27DB
  3
ACAD_SORTENTS
360
160
  0
DICTIONARY
  5
D92
330
D78
100
AcDbDictionary
280
     1
281
     1
  3
ACAD_SORTENTS
360
D93
  0
DICTIONARY
  5
1170
330
10FC
100
AcDbDictionary
280
     1
281
     1
  0
DICTIONARY
  5
89C
330
88F
100
AcDbDictionary
280
     1
281
     1
  3
ACAD_DIMASSOC
360
8A6
  0
DICTIONARY
  5
27FC
330
2069
100
AcDbDictionary
280
     1
281
     1
  3
ACAD_XREC_ROUNDTRIP
360
27FD
  0
DICTIONARY
  5
27FE
330
206B
100
AcDbDictionary
280
     1
281
     1
  3
ACAD_XREC_ROUNDTRIP
360
27FF
  0
DICTIONARY
  5
27F4
102
{ACAD_REACTORS
330
C
102
}
330
C
100
AcDbDictionary
281
     1
  3
DIMARCSYM
350
27F6
  3
DIMFXL
350
27F5
  3
DIMJOGANG
350
27F7
  0
DICTIONARY
  5
6B
102
{ACAD_REACTORS
330
C
102
}
330
C
100
AcDbDictionary
281
     1
  0
DICTIONARY
  5
D
102
{ACAD_REACTORS
330
C
102
}
330
C
100
AcDbDictionary
281
     1
  0
DICTIONARY
  5
1A
102
{ACAD_REACTORS
330
C
102
}
330
C
100
AcDbDictionary
281
     1
  3
Model
350
22
  3
レイアウト1
350
2063
  0
DICTIONARY
  5
6A
102
{ACAD_REACTORS
330
C
102
}
330
C
100
AcDbDictionary
281
     1
  3
ByBlock
350
2084
  3
ByLayer
350
207C
  3
Global
350
208C
  0
DICTIONARY
  5
20C7
102
{ACAD_REACTORS
330
C
102
}
330
C
100
AcDbDictionary
281
     1
  3
Standard
350
20C8
  0
DICTIONARY
  5
17
102
{ACAD_REACTORS
330
C
102
}
330
C
100
AcDbDictionary
281
     1
  3
Standard
350
18
  0
DICTIONARY
  5
19
102
{ACAD_REACTORS
330
C
102
}
330
C
100
AcDbDictionary
281
     1
  0
ACDBDICTIONARYWDFLT
  5
E
102
{ACAD_REACTORS
330
C
102
}
330
C
100
AcDbDictionary
281
     1
  3
Normal
350
F
100
AcDbDictionaryWithDefault
340
F
  0
DICTIONARY
  5
20A5
102
{ACAD_REACTORS
330
C
102
}
330
C
100
AcDbDictionary
281
     1
  3
A0
350
20A6
  3
A1
350
20A7
  3
A2
350
20A8
  3
A3
350
20A9
  3
A4
350
20AA
  3
A5
350
20AB
  3
A6
350
20AC
  3
A7
350
20AD
  3
A8
350
20AE
  3
A9
350
20AF
  3
B0
350
20B0
  3
B1
350
20B1
  3
B2
350
20B2
  3
B3
350
20B3
  3
B4
350
20B4
  3
B5
350
20B5
  3
B6
350
20B6
  3
B7
350
20B7
  3
B8
350
20B8
  3
B9
350
20B9
  3
C0
350
20BA
  3
C1
350
20BB
  3
C2
350
20BC
  3
C3
350
20BD
  3
C4
350
20BE
  3
C5
350
20BF
  3
C6
350
20C0
  3
C7
350
20C1
  3
C8
350
20C2
  3
C9
350
20C3
  3
D0
350
20C4
  3
D1
350
20C5
  3
D2
350
20C6
  0
DICTIONARY
  5
7E
102
{ACAD_REACTORS
330
C
102
}
330
C
100
AcDbDictionary
281
     1
  3
Standard
350
7F
  0
DICTIONARY
  5
2094
102
{ACAD_REACTORS
330
C
102
}
330
C
100
AcDbDictionary
281
     1
  3
2dWireframe
350
209A
  3
3D Hidden
350
209C
  3
3dWireframe
350
209B
  3
Basic
350
2099
  3
Brighten
350
20A0
  3
ColorChange
350
20A4
  3
Conceptual
350
209D
  3
Dim
350
209F
  3
Facepattern
350
20A3
  3
Flat
350
2095
  3
FlatWithEdges
350
2096
  3
Gouraud
350
2097
  3
GouraudWithEdges
350
2098
  3
Linepattern
350
20A2
  3
Realistic
350
209E
  3
Thicken
350
20A1
  0
XRECORD
  5
2210
102
{ACAD_REACTORS
330
C
102
}
330
C
100
AcDbXrecord
280
     1
 90
        1
330
7F
  0
DICTIONARY
  5
5E
102
{ACAD_REACTORS
330
C
102
}
330
C
100
AcDbDictionary
281
     1
  3
CANNOSCALE
350
220B
  3
CMLEADERSTYLE
350
220A
  3
CTABLESTYLE
350
84
  3
DIMASSOC
350
5F
  3
HIDETEXT
350
63
  3
INDEXCTL
350
220D
  3
SORTENTS
350
220C
  0
DICTIONARY
  5
2184
102
{ACAD_REACTORS
330
C
102
}
330
C
100
AcDbDictionary
281
     1
  3
AcmStdDictionary
350
2194
  3
AMDTSECTSYM_ARROWCOLOR
350
21AB
  0
DICTIONARY
  5
20CC
102
{ACAD_REACTORS
330
C
102
}
330
C
100
AcDbDictionary
281
     1
  3
AcMgSettings
350
20CD
  0
DICTIONARY
  5
21C4
102
{ACAD_REACTORS
330
C
102
}
330
C
100
AcDbDictionary
281
     1
  3
DIMENSION
350
21C9
  3
FEA
350
21C8
  3
HATCH (1)
350
21C5
  3
HATCH (2)
350
21C6
  3
SIMPLE WELD
350
21CA
  3
SYMBOLS
350
21C7
  0
XRECORD
  5
27F3
102
{ACAD_REACTORS
330
C
102
}
330
C
100
AcDbXrecord
280
     1
  1
DWGPROPS COOKIE
  2

  3

  4

  6

  7

  8
A080061
  9

300
AmdtFileType=84
301
=
302
=
303
=
304
=
305
=
306
=
307
=
308
=
309
=
 40
0.6297773148148149
 41
2454350.421215451
 42
2455533.727148091
  1

 90
        1
  0
DICTIONARY
  5
10FB
102
{ACAD_REACTORS
330
10FA
102
}
330
10FA
100
AcDbDictionary
281
     1
  0
XRECORD
  5
21CC
102
{ACAD_REACTORS
330
21CB
102
}
330
21CB
100
AcDbXrecord
280
     1
290
     1
  0
XRECORD
  5
21CE
102
{ACAD_REACTORS
330
21CD
102
}
330
21CD
100
AcDbXrecord
280
     1
290
     1
  0
XRECORD
  5
21D0
102
{ACAD_REACTORS
330
21CF
102
}
330
21CF
100
AcDbXrecord
280
     1
290
     1
  0
XRECORD
  5
21D2
102
{ACAD_REACTORS
330
21D1
102
}
330
21D1
100
AcDbXrecord
280
     1
290
     1
  0
XRECORD
  5
21D4
102
{ACAD_REACTORS
330
21D3
102
}
330
21D3
100
AcDbXrecord
280
     1
290
     1
  0
XRECORD
  5
21D6
102
{ACAD_REACTORS
330
21D5
102
}
330
21D5
100
AcDbXrecord
280
     1
290
     1
  0
XRECORD
  5
21D8
102
{ACAD_REACTORS
330
21D7
102
}
330
21D7
100
AcDbXrecord
280
     1
290
     1
  0
XRECORD
  5
21DA
102
{ACAD_REACTORS
330
21D9
102
}
330
21D9
100
AcDbXrecord
280
     1
290
     1
  0
XRECORD
  5
21DC
102
{ACAD_REACTORS
330
21DB
102
}
330
21DB
100
AcDbXrecord
280
     1
290
     1
  0
XRECORD
  5
21DE
102
{ACAD_REACTORS
330
21DD
102
}
330
21DD
100
AcDbXrecord
280
     1
290
     1
  0
XRECORD
  5
21E0
102
{ACAD_REACTORS
330
21DF
102
}
330
21DF
100
AcDbXrecord
280
     1
290
     1
  0
XRECORD
  5
21E2
102
{ACAD_REACTORS
330
21E1
102
}
330
21E1
100
AcDbXrecord
280
     1
290
     1
  0
XRECORD
  5
21E4
102
{ACAD_REACTORS
330
21E3
102
}
330
21E3
100
AcDbXrecord
280
     1
290
     1
  0
XRECORD
  5
21E6
102
{ACAD_REACTORS
330
21E5
102
}
330
21E5
100
AcDbXrecord
280
     1
290
     1
  0
XRECORD
  5
21E8
102
{ACAD_REACTORS
330
21E7
102
}
330
21E7
100
AcDbXrecord
280
     1
290
     1
  0
XRECORD
  5
21EA
102
{ACAD_REACTORS
330
21E9
102
}
330
21E9
100
AcDbXrecord
280
     1
290
     1
  0
XRECORD
  5
21EC
102
{ACAD_REACTORS
330
21EB
102
}
330
21EB
100
AcDbXrecord
280
     1
290
     1
  0
XRECORD
  5
21EE
102
{ACAD_REACTORS
330
21ED
102
}
330
21ED
100
AcDbXrecord
280
     1
290
     1
  0
XRECORD
  5
21F0
102
{ACAD_REACTORS
330
21EF
102
}
330
21EF
100
AcDbXrecord
280
     1
290
     1
  0
XRECORD
  5
21F2
102
{ACAD_REACTORS
330
21F1
102
}
330
21F1
100
AcDbXrecord
280
     1
290
     1
  0
DICTIONARY
  5
27DB
102
{ACAD_REACTORS
330
15F
102
}
330
15F
100
AcDbDictionary
281
     1
  3
*A1
350
27DC
  0
SORTENTSTABLE
  5
160
102
{ACAD_REACTORS
330
15F
102
}
330
15F
100
AcDbSortentsTable
330
1F
331
1D2
  5
1D7
331
209
  5
20D
331
115
  5
118
331
14C
  5
161
331
18B
  5
18B
331
193
  5
194
331
11D
  5
121
331
1DA
  5
1E0
331
164
  5
159
331
125
  5
12D
331
1E2
  5
1E7
331
29F
  5
2A9
331
1EA
  5
1F1
331
16C
  5
173
331
1AB
  5
1AE
331
12D
  5
138
331
135
  5
147
331
1FA
  5
1FE
331
184
  5
132
331
13D
  5
14E
331
202
  5
206
331
2BF
  5
1BA
331
1CB
  5
1D0
331
2C0
  5
1AA
331
20A
  5
216
331
14D
  5
162
331
18C
  5
18C
331
116
  5
119
331
1D3
  5
1D8
331
194
  5
1A0
331
126
  5
130
331
165
  5
120
331
1AC
  5
1B0
331
1EB
  5
1F3
331
12E
  5
13A
331
16D
  5
177
331
175
  5
181
331
136
  5
148
331
1F3
  5
1F8
331
1FB
  5
1FF
331
17D
  5
122
331
1BC
  5
1C1
331
203
  5
207
331
185
  5
175
331
1C4
  5
1CB
331
1CC
  5
1D2
331
146
  5
158
331
1D4
  5
1D9
331
14E
  5
163
331
20B
  5
21E
331
11F
  5
124
331
1DC
  5
1E1
331
166
  5
111
331
1E4
  5
1E9
331
2A9
  5
2B1
331
12F
  5
13B
331
1AD
  5
1B5
331
1F4
  5
1FA
331
137
  5
149
331
1B5
  5
1BC
331
1BD
  5
1C2
331
1FC
  5
200
331
186
  5
179
331
1C5
  5
1CC
331
204
  5
208
331
147
  5
15A
331
20C
  5
226
331
18E
  5
18E
331
120
  5
126
331
1DD
  5
1E2
331
29A
  5
29F
331
1E5
  5
1EA
331
128
  5
131
331
167
  5
146
331
1AE
  5
1B7
331
16F
  5
17B
331
130
  5
13C
331
177
  5
182
331
1F5
  5
1FB
331
1FD
  5
201
331
138
  5
14A
331
17F
  5
125
331
1BE
  5
1C4
331
205
  5
209
331
187
  5
183
331
1C6
  5
1CE
331
1CE
  5
1D3
331
111
  5
112
331
148
  5
15B
331
1D6
  5
1DA
331
20D
  5
22E
331
1DE
  5
1E4
331
29B
  5
2A0
331
168
  5
116
331
129
  5
134
331
1E6
  5
1EB
331
131
  5
13D
331
1B7
  5
1BD
331
1FE
  5
202
331
180
  5
12B
331
141
  5
156
331
206
  5
20A
331
1CF
  5
1D4
331
149
  5
15C
331
188
  5
188
331
112
  5
113
331
151
  5
165
331
190
  5
191
331
1D7
  5
1DC
331
29C
  5
2A5
331
216
  5
236
331
122
  5
129
331
1A0
  5
1A9
331
1A8
  5
1AB
331
1E7
  5
1EF
331
12A
  5
135
331
169
  5
12F
331
21E
  5
23E
331
226
  5
246
331
1EF
  5
1F4
331
1B0
  5
1B9
331
132
  5
13E
331
171
  5
17D
331
22E
  5
24E
331
1F7
  5
1FC
331
1FF
  5
203
331
236
  5
256
331
13A
  5
14B
331
181
  5
12E
331
1C0
  5
1C5
331
207
  5
20B
331
23E
  5
25E
331
246
  5
266
331
1D0
  5
1D6
331
14A
  5
15D
331
189
  5
189
331
24E
  5
26E
331
191
  5
192
331
1D8
  5
1DD
331
256
  5
276
331
123
  5
12A
331
1E0
  5
1E5
331
29D
  5
2A6
331
2A5
  5
2AF
331
16A
  5
115
331
1A9
  5
1AC
331
25E
  5
27E
331
12B
  5
136
331
266
  5
286
331
133
  5
13F
331
1F0
  5
1F5
331
26E
  5
29A
331
1B9
  5
1BE
331
1F8
  5
1FD
331
2B5
  5
2BF
331
276
  5
29B
331
1C1
  5
1C6
331
200
  5
204
331
2BD
  5
190
331
13B
  5
14C
331
182
  5
17F
331
27E
  5
29C
331
208
  5
20C
331
14B
  5
15E
331
18A
  5
18A
331
1D9
  5
1DE
331
286
  5
29D
331
192
  5
193
331
11C
  5
11F
331
1E1
  5
1E6
331
1AA
  5
1AD
331
1E9
  5
1F0
331
2A6
  5
2B0
331
12C
  5
137
331
16B
  5
164
331
173
  5
180
331
134
  5
141
331
1F1
  5
1F7
331
2B6
  5
2C0
331
1BA
  5
1C0
331
201
  5
205
331
2BE
  5
1A8
331
183
  5
133
331
1C2
  5
1CA
331
1CA
  5
1CF
  0
SORTENTSTABLE
  5
D93
102
{ACAD_REACTORS
330
D92
102
}
330
D92
100
AcDbSortentsTable
330
D78
  0
DIMASSOC
  5
8A6
102
{ACAD_REACTORS
330
89C
102
}
330
89C
100
AcDbDimAssoc
330
88F
 90
        1
 70
     0
 71
     0
  1
AcDbOsnapPointRef
 72
    13
331
131
 73
     2
 91
        0
 40
0.0
 10
0.0
 20
0.0
 30
2.000000000000000E+50
 75
     0
  0
XRECORD
  5
27FD
102
{ACAD_REACTORS
330
27FC
102
}
330
27FC
100
AcDbXrecord
280
     1
102
SHADEPLOT
 70
     0
  0
XRECORD
  5
27FF
102
{ACAD_REACTORS
330
27FE
102
}
330
27FE
100
AcDbXrecord
280
     1
102
SHADEPLOT
 70
     0
  0
XRECORD
  5
27F6
102
{ACAD_REACTORS
330
27F4
102
}
330
27F4
100
AcDbXrecord
280
     1
 70
     1
  0
XRECORD
  5
27F5
102
{ACAD_REACTORS
330
27F4
102
}
330
27F4
100
AcDbXrecord
280
     1
 40
1.25
  0
XRECORD
  5
27F7
102
{ACAD_REACTORS
330
27F4
102
}
330
27F4
100
AcDbXrecord
280
     1
 40
1.570796326794896
  0
LAYOUT
  5
22
102
{ACAD_XDICTIONARY
360
27F8
102
}
102
{ACAD_REACTORS
330
1A
102
}
330
1A
100
AcDbPlotSettings
  1

  2
none_device
  4
ISO_A4_(210.00_x_297.00_MM)
  6

 40
7.5
 41
20.0
 42
7.5
 43
20.0
 44
210.0
 45
297.0
 46
11.54999923706054
 47
-13.65000009536743
 48
0.0
 49
0.0
140
0.0
141
0.0
142
1.0
143
8.704084754739808
 70
 11952
 72
     1
 73
     0
 74
     0
  7
KIHON1.ctb
 75
     0
147
0.1148885871608098
148
0.0
149
0.0
100
AcDbLayout
  1
Model
 70
     1
 71
     0
 10
0.0
 20
0.0
 11
12.0
 21
9.0
 12
0.0
 22
0.0
 32
0.0
 14
0.0
 24
0.0
 34
0.0
 15
0.0
 25
0.0
 35
0.0
146
0.0
 13
0.0
 23
0.0
 33
0.0
 16
1.0
 26
0.0
 36
0.0
 17
0.0
 27
1.0
 37
0.0
 76
     0
330
1F
331
2073
1001
ACAD_PSEXT
1000
None
1000
None
1000
Not applicable
1000
The layout will not be plotted unless a new plotter configuration name is selected.
1070
     0
  0
LAYOUT
  5
2063
102
{ACAD_XDICTIONARY
360
2070
102
}
102
{ACAD_REACTORS
330
1A
102
}
330
1A
100
AcDbPlotSettings
  1

  2
none_device
  4
ISO_A4_(210.00_x_297.00_MM)
  6

 40
7.5
 41
20.0
 42
7.5
 43
20.0
 44
210.0
 45
297.0
 46
0.0
 47
0.0
 48
0.0
 49
0.0
140
0.0
141
0.0
142
1.0
143
1.0
 70
   688
 72
     1
 73
     1
 74
     5
  7
KIHON1.ctb
 75
    16
147
1.0
148
0.0
149
0.0
100
AcDbLayout
  1
レイアウト1
 70
     1
 71
     1
 10
-20.0
 20
-7.5
 11
277.0
 21
202.5
 12
0.0
 22
0.0
 32
0.0
 14
25.69999999999999
 24
19.5
 34
0.0
 15
231.3
 25
175.5
 35
0.0
146
0.0
 13
0.0
 23
0.0
 33
0.0
 16
1.0
 26
0.0
 36
0.0
 17
0.0
 27
1.0
 37
0.0
 76
     0
330
2062
331
2069
1001
ACAD_PSEXT
1000
なし
1000
なし
1000
適切ではありません
1000
新しいプロッタ環境設定名を選択しない限り、レイアウトは印刷されません。
1070
     0
  0
MATERIAL
  5
2084
102
{ACAD_XDICTIONARY
360
2085
102
}
102
{ACAD_REACTORS
330
6A
102
}
330
6A
100
AcDbMaterial
  1
ByBlock
 72
     0
 43
0.0008202099737533
 43
0.0
 43
0.0
 43
0.0
 43
0.0
 43
0.0008202099737533
 43
0.0
 43
0.0
 43
0.0
 43
0.0
 43
1.0
 43
0.0
 43
0.0
 43
0.0
 43
0.0
 43
1.0
 77
     0
 47
0.0008202099737533
 47
0.0
 47
0.0
 47
0.0
 47
0.0
 47
0.0008202099737533
 47
0.0
 47
0.0
 47
0.0
 47
0.0
 47
1.0
 47
0.0
 47
0.0
 47
0.0
 47
0.0
 47
1.0
171
     0
 49
0.0008202099737533
 49
0.0
 49
0.0
 49
0.0
 49
0.0
 49
0.0008202099737533
 49
0.0
 49
0.0
 49
0.0
 49
0.0
 49
1.0
 49
0.0
 49
0.0
 49
0.0
 49
0.0
 49
1.0
175
     0
142
0.0008202099737533
142
0.0
142
0.0
142
0.0
142
0.0
142
0.0008202099737533
142
0.0
142
0.0
142
0.0
142
0.0
142
1.0
142
0.0
142
0.0
142
0.0
142
0.0
142
1.0
179
     0
144
0.0008202099737533
144
0.0
144
0.0
144
0.0
144
0.0
144
0.0008202099737533
144
0.0
144
0.0
144
0.0
144
0.0
144
1.0
144
0.0
144
0.0
144
0.0
144
0.0
144
1.0
147
0.0008202099737533
147
0.0
147
0.0
147
0.0
147
0.0
147
0.0008202099737533
147
0.0
147
0.0
147
0.0
147
0.0
147
1.0
147
0.0
147
0.0
147
0.0
147
0.0
147
1.0
  0
MATERIAL
  5
207C
102
{ACAD_XDICTIONARY
360
207D
102
}
102
{ACAD_REACTORS
330
6A
102
}
330
6A
100
AcDbMaterial
  1
ByLayer
 72
     0
 43
0.0008202099737533
 43
0.0
 43
0.0
 43
0.0
 43
0.0
 43
0.0008202099737533
 43
0.0
 43
0.0
 43
0.0
 43
0.0
 43
1.0
 43
0.0
 43
0.0
 43
0.0
 43
0.0
 43
1.0
 77
     0
 47
0.0008202099737533
 47
0.0
 47
0.0
 47
0.0
 47
0.0
 47
0.0008202099737533
 47
0.0
 47
0.0
 47
0.0
 47
0.0
 47
1.0
 47
0.0
 47
0.0
 47
0.0
 47
0.0
 47
1.0
171
     0
 49
0.0008202099737533
 49
0.0
 49
0.0
 49
0.0
 49
0.0
 49
0.0008202099737533
 49
0.0
 49
0.0
 49
0.0
 49
0.0
 49
1.0
 49
0.0
 49
0.0
 49
0.0
 49
0.0
 49
1.0
175
     0
142
0.0008202099737533
142
0.0
142
0.0
142
0.0
142
0.0
142
0.0008202099737533
142
0.0
142
0.0
142
0.0
142
0.0
142
1.0
142
0.0
142
0.0
142
0.0
142
0.0
142
1.0
179
     0
144
0.0008202099737533
144
0.0
144
0.0
144
0.0
144
0.0
144
0.0008202099737533
144
0.0
144
0.0
144
0.0
144
0.0
144
1.0
144
0.0
144
0.0
144
0.0
144
0.0
144
1.0
147
0.0008202099737533
147
0.0
147
0.0
147
0.0
147
0.0
147
0.0008202099737533
147
0.0
147
0.0
147
0.0
147
0.0
147
1.0
147
0.0
147
0.0
147
0.0
147
0.0
147
1.0
  0
MATERIAL
  5
208C
102
{ACAD_XDICTIONARY
360
208D
102
}
102
{ACAD_REACTORS
330
6A
102
}
330
6A
100
AcDbMaterial
  1
Global
 72
     0
 43
0.0008202099737533
 43
0.0
 43
0.0
 43
0.0
 43
0.0
 43
0.0008202099737533
 43
0.0
 43
0.0
 43
0.0
 43
0.0
 43
1.0
 43
0.0
 43
0.0
 43
0.0
 43
0.0
 43
1.0
 77
     0
 47
0.0008202099737533
 47
0.0
 47
0.0
 47
0.0
 47
0.0
 47
0.0008202099737533
 47
0.0
 47
0.0
 47
0.0
 47
0.0
 47
1.0
 47
0.0
 47
0.0
 47
0.0
 47
0.0
 47
1.0
171
     0
 49
0.0008202099737533
 49
0.0
 49
0.0
 49
0.0
 49
0.0
 49
0.0008202099737533
 49
0.0
 49
0.0
 49
0.0
 49
0.0
 49
1.0
 49
0.0
 49
0.0
 49
0.0
 49
0.0
 49
1.0
175
     0
142
0.0008202099737533
142
0.0
142
0.0
142
0.0
142
0.0
142
0.0008202099737533
142
0.0
142
0.0
142
0.0
142
0.0
142
1.0
142
0.0
142
0.0
142
0.0
142
0.0
142
1.0
179
     0
144
0.0008202099737533
144
0.0
144
0.0
144
0.0
144
0.0
144
0.0008202099737533
144
0.0
144
0.0
144
0.0
144
0.0
144
1.0
144
0.0
144
0.0
144
0.0
144
0.0
144
1.0
147
0.0008202099737533
147
0.0
147
0.0
147
0.0
147
0.0
147
0.0008202099737533
147
0.0
147
0.0
147
0.0
147
0.0
147
1.0
147
0.0
147
0.0
147
0.0
147
0.0
147
1.0
  0
MLEADERSTYLE
  5
20C8
102
{ACAD_REACTORS
330
20C7
102
}
330
20C7
100
AcDbMLeaderStyle
170
     2
171
     1
172
     0
 90
        2
 40
0.0
 41
0.0
173
     1
 91
-1056964608
340
14
 92
       -2
290
     1
 42
2.0
291
     1
 43
0.36
  3
Standard
 44
4.0
300

342
11
174
     1
178
     6
175
     1
176
     0
 93
-1056964608
 45
4.0
292
     0
297
     0
 46
4.0
 94
-1056964608
 47
1.0
 49
1.0
140
1.0
293
     1
141
0.0
294
     1
177
     0
142
1.0
295
     0
296
     0
143
0.125
1001
ACAD_MLEADERVER
1070
     2
  0
MLINESTYLE
  5
18
102
{ACAD_REACTORS
330
17
102
}
330
17
100
AcDbMlineStyle
  2
STANDARD
 70
     0
  3

 62
   256
 51
90.0
 52
90.0
 71
     2
 49
0.5
 62
   256
  6
BYLAYER
 49
-0.5
 62
   256
  6
BYLAYER
  0
ACDBPLACEHOLDER
  5
F
102
{ACAD_REACTORS
330
E
102
}
330
E
  0
SCALE
  5
20A6
102
{ACAD_REACTORS
330
20A5
102
}
330
20A5
100
AcDbScale
 70
     0
300
1:1
140
1.0
141
1.0
290
     1
  0
SCALE
  5
20A7
102
{ACAD_REACTORS
330
20A5
102
}
330
20A5
100
AcDbScale
 70
     0
300
1:2
140
1.0
141
2.0
290
     0
  0
SCALE
  5
20A8
102
{ACAD_REACTORS
330
20A5
102
}
330
20A5
100
AcDbScale
 70
     0
300
1:4
140
1.0
141
4.0
290
     0
  0
SCALE
  5
20A9
102
{ACAD_REACTORS
330
20A5
102
}
330
20A5
100
AcDbScale
 70
     0
300
1:5
140
1.0
141
5.0
290
     0
  0
SCALE
  5
20AA
102
{ACAD_REACTORS
330
20A5
102
}
330
20A5
100
AcDbScale
 70
     0
300
1:8
140
1.0
141
8.0
290
     0
  0
SCALE
  5
20AB
102
{ACAD_REACTORS
330
20A5
102
}
330
20A5
100
AcDbScale
 70
     0
300
1:10
140
1.0
141
10.0
290
     0
  0
SCALE
  5
20AC
102
{ACAD_REACTORS
330
20A5
102
}
330
20A5
100
AcDbScale
 70
     0
300
1:16
140
1.0
141
16.0
290
     0
  0
SCALE
  5
20AD
102
{ACAD_REACTORS
330
20A5
102
}
330
20A5
100
AcDbScale
 70
     0
300
1:20
140
1.0
141
20.0
290
     0
  0
SCALE
  5
20AE
102
{ACAD_REACTORS
330
20A5
102
}
330
20A5
100
AcDbScale
 70
     0
300
1:30
140
1.0
141
30.0
290
     0
  0
SCALE
  5
20AF
102
{ACAD_REACTORS
330
20A5
102
}
330
20A5
100
AcDbScale
 70
     0
300
1:40
140
1.0
141
40.0
290
     0
  0
SCALE
  5
20B0
102
{ACAD_REACTORS
330
20A5
102
}
330
20A5
100
AcDbScale
 70
     0
300
1:50
140
1.0
141
50.0
290
     0
  0
SCALE
  5
20B1
102
{ACAD_REACTORS
330
20A5
102
}
330
20A5
100
AcDbScale
 70
     0
300
1:100
140
1.0
141
100.0
290
     0
  0
SCALE
  5
20B2
102
{ACAD_REACTORS
330
20A5
102
}
330
20A5
100
AcDbScale
 70
     0
300
2:1
140
2.0
141
1.0
290
     0
  0
SCALE
  5
20B3
102
{ACAD_REACTORS
330
20A5
102
}
330
20A5
100
AcDbScale
 70
     0
300
4:1
140
4.0
141
1.0
290
     0
  0
SCALE
  5
20B4
102
{ACAD_REACTORS
330
20A5
102
}
330
20A5
100
AcDbScale
 70
     0
300
8:1
140
8.0
141
1.0
290
     0
  0
SCALE
  5
20B5
102
{ACAD_REACTORS
330
20A5
102
}
330
20A5
100
AcDbScale
 70
     0
300
10:1
140
10.0
141
1.0
290
     0
  0
SCALE
  5
20B6
102
{ACAD_REACTORS
330
20A5
102
}
330
20A5
100
AcDbScale
 70
     0
300
100:1
140
100.0
141
1.0
290
     0
  0
SCALE
  5
20B7
102
{ACAD_REACTORS
330
20A5
102
}
330
20A5
100
AcDbScale
 70
     0
300
1/128" = 1'-0"
140
0.0078125
141
12.0
290
     0
  0
SCALE
  5
20B8
102
{ACAD_REACTORS
330
20A5
102
}
330
20A5
100
AcDbScale
 70
     0
300
1/64" = 1'-0"
140
0.015625
141
12.0
290
     0
  0
SCALE
  5
20B9
102
{ACAD_REACTORS
330
20A5
102
}
330
20A5
100
AcDbScale
 70
     0
300
1/32" = 1'-0"
140
0.03125
141
12.0
290
     0
  0
SCALE
  5
20BA
102
{ACAD_REACTORS
330
20A5
102
}
330
20A5
100
AcDbScale
 70
     0
300
1/16" = 1'-0"
140
0.0625
141
12.0
290
     0
  0
SCALE
  5
20BB
102
{ACAD_REACTORS
330
20A5
102
}
330
20A5
100
AcDbScale
 70
     0
300
3/32" = 1'-0"
140
0.09375
141
12.0
290
     0
  0
SCALE
  5
20BC
102
{ACAD_REACTORS
330
20A5
102
}
330
20A5
100
AcDbScale
 70
     0
300
1/8" = 1'-0"
140
0.125
141
12.0
290
     0
  0
SCALE
  5
20BD
102
{ACAD_REACTORS
330
20A5
102
}
330
20A5
100
AcDbScale
 70
     0
300
3/16" = 1'-0"
140
0.1875
141
12.0
290
     0
  0
SCALE
  5
20BE
102
{ACAD_REACTORS
330
20A5
102
}
330
20A5
100
AcDbScale
 70
     0
300
1/4" = 1'-0"
140
0.25
141
12.0
290
     0
  0
SCALE
  5
20BF
102
{ACAD_REACTORS
330
20A5
102
}
330
20A5
100
AcDbScale
 70
     0
300
3/8" = 1'-0"
140
0.375
141
12.0
290
     0
  0
SCALE
  5
20C0
102
{ACAD_REACTORS
330
20A5
102
}
330
20A5
100
AcDbScale
 70
     0
300
1/2" = 1'-0"
140
0.5
141
12.0
290
     0
  0
SCALE
  5
20C1
102
{ACAD_REACTORS
330
20A5
102
}
330
20A5
100
AcDbScale
 70
     0
300
3/4" = 1'-0"
140
0.75
141
12.0
290
     0
  0
SCALE
  5
20C2
102
{ACAD_REACTORS
330
20A5
102
}
330
20A5
100
AcDbScale
 70
     0
300
1" = 1'-0"
140
1.0
141
12.0
290
     0
  0
SCALE
  5
20C3
102
{ACAD_REACTORS
330
20A5
102
}
330
20A5
100
AcDbScale
 70
     0
300
1-1/2" = 1'-0"
140
1.5
141
12.0
290
     0
  0
SCALE
  5
20C4
102
{ACAD_REACTORS
330
20A5
102
}
330
20A5
100
AcDbScale
 70
     0
300
3" = 1'-0"
140
3.0
141
12.0
290
     0
  0
SCALE
  5
20C5
102
{ACAD_REACTORS
330
20A5
102
}
330
20A5
100
AcDbScale
 70
     0
300
6" = 1'-0"
140
6.0
141
12.0
290
     0
  0
SCALE
  5
20C6
102
{ACAD_REACTORS
330
20A5
102
}
330
20A5
100
AcDbScale
 70
     0
300
1'-0" = 1'-0"
140
12.0
141
12.0
290
     0
  0
TABLESTYLE
  5
7F
102
{ACAD_XDICTIONARY
360
220E
102
}
102
{ACAD_REACTORS
330
7E
102
}
330
7E
100
AcDbTableStyle
  3
Standard
 70
     0
 71
     0
 40
1.5
 41
1.5
280
     0
281
     0
  7
Standard
140
4.5
170
     2
 62
     0
 63
     7
283
     0
274
    -2
284
     1
 64
     0
275
    -2
285
     1
 65
     0
276
    -2
286
     1
 66
     0
277
    -2
287
     1
 67
     0
278
    -2
288
     1
 68
     0
279
    -2
289
     1
 69
     0
  7
Standard
140
6.0
170
     5
 62
     0
 63
     7
283
     0
274
    -2
284
     1
 64
     0
275
    -2
285
     1
 65
     0
276
    -2
286
     1
 66
     0
277
    -2
287
     1
 67
     0
278
    -2
288
     1
 68
     0
279
    -2
289
     1
 69
     0
  7
Standard
140
4.5
170
     5
 62
     0
 63
     7
283
     0
274
    -2
284
     1
 64
     0
275
    -2
285
     1
 65
     0
276
    -2
286
     1
 66
     0
277
    -2
287
     1
 67
     0
278
    -2
288
     1
 68
     0
279
    -2
289
     1
 69
     0
  0
VISUALSTYLE
  5
209A
102
{ACAD_REACTORS
330
2094
102
}
330
2094
100
AcDbVisualStyle
  2
2dWireframe
 70
     4
 71
     0
 72
     2
 73
     0
 90
        0
 40
-0.6
 41
-30.0
 62
     5
 63
     7
 74
     1
 91
        4
 64
     7
 65
   257
 75
     1
175
     1
 42
1.0
 92
        0
 66
   257
 43
1.0
 76
     1
 77
     6
 78
     2
 67
     7
 79
     5
170
     0
171
     0
290
     0
174
     0
 93
        1
 44
0.0
173
     0
291
     0
 45
0.0
1001
ACAD
1000
AcDbSavedByObjectVersion
1070
     0
1000
AcDbSavedByObjectVersion
1070
     0
1000
AcDbSavedByObjectVersion
1070
     0
1000
AcDbSavedByObjectVersion
1070
     0
  0
VISUALSTYLE
  5
209C
102
{ACAD_REACTORS
330
2094
102
}
330
2094
100
AcDbVisualStyle
  2
3D Hidden
 70
     6
 71
     1
 72
     2
 73
     2
 90
        0
 40
-0.6
 41
-30.0
 62
     5
 63
     7
 74
     2
 91
        2
 64
     7
 65
   257
 75
     2
175
     1
 42
40.0
 92
        0
 66
   257
 43
1.0
 76
     1
 77
     6
 78
     2
 67
     7
 79
     3
170
     0
171
     0
290
     0
174
     0
 93
        1
 44
0.0
173
     0
291
     0
 45
0.0
1001
ACAD
1000
AcDbSavedByObjectVersion
1070
     0
1000
AcDbSavedByObjectVersion
1070
     0
1000
AcDbSavedByObjectVersion
1070
     0
1000
AcDbSavedByObjectVersion
1070
     0
  0
VISUALSTYLE
  5
209B
102
{ACAD_REACTORS
330
2094
102
}
330
2094
100
AcDbVisualStyle
  2
3dWireframe
 70
     5
 71
     0
 72
     2
 73
     0
 90
        0
 40
-0.6
 41
-30.0
 62
     5
 63
     7
 74
     1
 91
        4
 64
     7
 65
   257
 75
     1
175
     1
 42
1.0
 92
        0
 66
   257
 43
1.0
 76
     1
 77
     6
 78
     2
 67
     7
 79
     5
170
     0
171
     0
290
     0
174
     0
 93
        1
 44
0.0
173
     0
291
     0
 45
0.0
1001
ACAD
1000
AcDbSavedByObjectVersion
1070
     0
1000
AcDbSavedByObjectVersion
1070
     0
1000
AcDbSavedByObjectVersion
1070
     0
1000
AcDbSavedByObjectVersion
1070
     0
  0
VISUALSTYLE
  5
2099
102
{ACAD_REACTORS
330
2094
102
}
330
2094
100
AcDbVisualStyle
  2
Basic
 70
     7
 71
     1
 72
     0
 73
     1
 90
        0
 40
-0.6
 41
-30.0
 62
     5
 63
     7
 74
     0
 91
        4
 64
     7
 65
   257
 75
     1
175
     1
 42
1.0
 92
        8
 66
     7
 43
1.0
 76
     1
 77
     6
 78
     2
 67
     7
 79
     5
170
     0
171
     0
290
     0
174
     0
 93
        1
 44
0.0
173
     0
291
     1
 45
0.0
1001
ACAD
1000
AcDbSavedByObjectVersion
1070
     0
1000
AcDbSavedByObjectVersion
1070
     0
1000
AcDbSavedByObjectVersion
1070
     0
1000
AcDbSavedByObjectVersion
1070
     0
  0
VISUALSTYLE
  5
20A0
102
{ACAD_REACTORS
330
2094
102
}
330
2094
100
AcDbVisualStyle
  2
Brighten
 70
    12
 71
     2
 72
     2
 73
     0
 90
        0
 40
-0.6
 41
-30.0
 62
     5
 63
     7
 74
     1
 91
        4
 64
     7
 65
   257
 75
     1
175
     1
 42
1.0
 92
        8
 66
     7
 43
1.0
 76
     1
 77
     6
 78
     2
 67
     7
 79
     5
170
     0
171
     0
290
     0
174
     0
 93
        1
 44
50.0
173
     0
291
     1
 45
0.0
1001
ACAD
1000
AcDbSavedByObjectVersion
1070
     0
1000
AcDbSavedByObjectVersion
1070
     0
1000
AcDbSavedByObjectVersion
1070
     0
1000
AcDbSavedByObjectVersion
1070
     0
  0
VISUALSTYLE
  5
20A4
102
{ACAD_REACTORS
330
2094
102
}
330
2094
100
AcDbVisualStyle
  2
ColorChange
 70
    16
 71
     2
 72
     2
 73
     3
 90
        0
 40
-0.6
 41
-30.0
 62
     5
 63
     8
 74
     1
 91
        4
 64
     7
 65
   257
 75
     1
175
     1
 42
1.0
 92
        8
 66
     8
 43
1.0
 76
     1
 77
     6
 78
     2
 67
     7
 79
     5
170
     0
171
     0
290
     0
174
     0
 93
        1
 44
0.0
173
     0
291
     1
 45
0.0
1001
ACAD
1000
AcDbSavedByObjectVersion
1070
     0
1000
AcDbSavedByObjectVersion
1070
     0
1000
AcDbSavedByObjectVersion
1070
     0
1000
AcDbSavedByObjectVersion
1070
     0
  0
VISUALSTYLE
  5
209D
102
{ACAD_REACTORS
330
2094
102
}
330
2094
100
AcDbVisualStyle
  2
Conceptual
 70
     9
 71
     3
 72
     2
 73
     0
 90
        0
 40
-0.6
 41
-30.0
 62
     5
 63
     7
 74
     2
 91
        2
 64
     7
 65
   257
 75
     1
175
     1
 42
40.0
 92
        8
 66
     7
 43
1.0
 76
     1
 77
     6
 78
     2
 67
     7
 79
     3
170
     0
171
     0
290
     0
174
     0
 93
        1
 44
0.0
173
     0
291
     0
 45
0.0
1001
ACAD
1000
AcDbSavedByObjectVersion
1070
     0
1000
AcDbSavedByObjectVersion
1070
     0
1000
AcDbSavedByObjectVersion
1070
     0
1000
AcDbSavedByObjectVersion
1070
     0
  0
VISUALSTYLE
  5
209F
102
{ACAD_REACTORS
330
2094
102
}
330
2094
100
AcDbVisualStyle
  2
Dim
 70
    11
 71
     2
 72
     2
 73
     0
 90
        0
 40
-0.6
 41
-30.0
 62
     5
 63
     7
 74
     1
 91
        4
 64
     7
 65
   257
 75
     1
175
     1
 42
1.0
 92
        8
 66
     7
 43
1.0
 76
     1
 77
     6
 78
     2
 67
     7
 79
     5
170
     0
171
     0
290
     0
174
     0
 93
        1
 44
-50.0
173
     0
291
     1
 45
0.0
1001
ACAD
1000
AcDbSavedByObjectVersion
1070
     0
1000
AcDbSavedByObjectVersion
1070
     0
1000
AcDbSavedByObjectVersion
1070
     0
1000
AcDbSavedByObjectVersion
1070
     0
  0
VISUALSTYLE
  5
20A3
102
{ACAD_REACTORS
330
2094
102
}
330
2094
100
AcDbVisualStyle
  2
Facepattern
 70
    15
 71
     2
 72
     2
 73
     0
 90
        0
 40
-0.6
 41
-30.0
 62
     5
 63
     7
 74
     1
 91
        4
 64
     7
 65
   257
 75
     1
175
     1
 42
1.0
 92
        8
 66
     7
 43
1.0
 76
     1
 77
     6
 78
     2
 67
     7
 79
     5
170
     0
171
     0
290
     0
174
     0
 93
        1
 44
0.0
173
     0
291
     1
 45
0.0
1001
ACAD
1000
AcDbSavedByObjectVersion
1070
     0
1000
AcDbSavedByObjectVersion
1070
     0
1000
AcDbSavedByObjectVersion
1070
     0
1000
AcDbSavedByObjectVersion
1070
     0
  0
VISUALSTYLE
  5
2095
102
{ACAD_REACTORS
330
2094
102
}
330
2094
100
AcDbVisualStyle
  2
Flat
 70
     0
 71
     2
 72
     1
 73
     1
 90
        2
 40
-0.6
 41
30.0
 62
     5
 63
     7
 74
     0
 91
        4
 64
     7
 65
   257
 75
     1
175
     1
 42
1.0
 92
        8
 66
     7
 43
1.0
 76
     1
 77
     6
 78
     2
 67
     7
 79
     5
170
     0
171
     0
290
     0
174
     0
 93
       13
 44
0.0
173
     0
291
     1
 45
0.0
1001
ACAD
1000
AcDbSavedByObjectVersion
1070
     0
1000
AcDbSavedByObjectVersion
1070
     0
1000
AcDbSavedByObjectVersion
1070
     0
1000
AcDbSavedByObjectVersion
1070
     0
  0
VISUALSTYLE
  5
2096
102
{ACAD_REACTORS
330
2094
102
}
330
2094
100
AcDbVisualStyle
  2
FlatWithEdges
 70
     1
 71
     2
 72
     1
 73
     1
 90
        2
 40
-0.6
 41
30.0
 62
     5
 63
     7
 74
     1
 91
        4
 64
     7
 65
   257
 75
     1
175
     1
 42
1.0
 92
        0
 66
   257
 43
1.0
 76
     1
 77
     6
 78
     2
 67
     7
 79
     5
170
     0
171
     0
290
     0
174
     0
 93
       13
 44
0.0
173
     0
291
     1
 45
0.0
1001
ACAD
1000
AcDbSavedByObjectVersion
1070
     0
1000
AcDbSavedByObjectVersion
1070
     0
1000
AcDbSavedByObjectVersion
1070
     0
1000
AcDbSavedByObjectVersion
1070
     0
  0
VISUALSTYLE
  5
2097
102
{ACAD_REACTORS
330
2094
102
}
330
2094
100
AcDbVisualStyle
  2
Gouraud
 70
     2
 71
     2
 72
     2
 73
     1
 90
        2
 40
-0.6
 41
30.0
 62
     5
 63
     7
 74
     0
 91
        4
 64
     7
 65
   257
 75
     1
175
     1
 42
1.0
 92
        0
 66
     7
 43
1.0
 76
     1
 77
     6
 78
     2
 67
     7
 79
     5
170
     0
171
     0
290
     0
174
     0
 93
       13
 44
0.0
173
     0
291
     1
 45
0.0
1001
ACAD
1000
AcDbSavedByObjectVersion
1070
     0
1000
AcDbSavedByObjectVersion
1070
     0
1000
AcDbSavedByObjectVersion
1070
     0
1000
AcDbSavedByObjectVersion
1070
     0
  0
VISUALSTYLE
  5
2098
102
{ACAD_REACTORS
330
2094
102
}
330
2094
100
AcDbVisualStyle
  2
GouraudWithEdges
 70
     3
 71
     2
 72
     2
 73
     1
 90
        2
 40
-0.6
 41
30.0
 62
     5
 63
     7
 74
     1
 91
        4
 64
     7
 65
   257
 75
     1
175
     1
 42
1.0
 92
        0
 66
   257
 43
1.0
 76
     1
 77
     6
 78
     2
 67
     7
 79
     5
170
     0
171
     0
290
     0
174
     0
 93
       13
 44
0.0
173
     0
291
     1
 45
0.0
1001
ACAD
1000
AcDbSavedByObjectVersion
1070
     0
1000
AcDbSavedByObjectVersion
1070
     0
1000
AcDbSavedByObjectVersion
1070
     0
1000
AcDbSavedByObjectVersion
1070
     0
  0
VISUALSTYLE
  5
20A2
102
{ACAD_REACTORS
330
2094
102
}
330
2094
100
AcDbVisualStyle
  2
Linepattern
 70
    14
 71
     2
 72
     2
 73
     0
 90
        0
 40
-0.6
 41
-30.0
 62
     5
 63
     7
 74
     1
 91
        4
 64
     7
 65
   257
 75
     7
175
     7
 42
1.0
 92
        8
 66
     7
 43
1.0
 76
     1
 77
     6
 78
     2
 67
     7
 79
     5
170
     0
171
     0
290
     0
174
     0
 93
        1
 44
0.0
173
     0
291
     1
 45
0.0
1001
ACAD
1000
AcDbSavedByObjectVersion
1070
     0
1000
AcDbSavedByObjectVersion
1070
     0
1000
AcDbSavedByObjectVersion
1070
     0
1000
AcDbSavedByObjectVersion
1070
     0
  0
VISUALSTYLE
  5
209E
102
{ACAD_REACTORS
330
2094
102
}
330
2094
100
AcDbVisualStyle
  2
Realistic
 70
     8
 71
     2
 72
     2
 73
     0
 90
        0
 40
-0.6
 41
-30.0
 62
     5
 63
     7
 74
     1
 91
        0
 64
     7
 65
   257
 75
     1
175
     1
 42
1.0
 92
        8
 66
     8
 43
1.0
 76
     1
 77
     6
 78
     2
 67
     7
 79
     5
170
     0
171
     0
290
     0
174
     0
 93
       13
 44
0.0
173
     0
291
     0
 45
0.0
1001
ACAD
1000
AcDbSavedByObjectVersion
1070
     0
1000
AcDbSavedByObjectVersion
1070
     0
1000
AcDbSavedByObjectVersion
1070
     0
1000
AcDbSavedByObjectVersion
1070
     0
  0
VISUALSTYLE
  5
20A1
102
{ACAD_REACTORS
330
2094
102
}
330
2094
100
AcDbVisualStyle
  2
Thicken
 70
    13
 71
     2
 72
     2
 73
     0
 90
        0
 40
-0.6
 41
-30.0
 62
     5
 63
     7
 74
     1
 91
        4
 64
     7
 65
   257
 75
     1
175
     1
 42
1.0
 92
       12
 66
     7
 43
1.0
 76
     1
 77
     6
 78
     2
 67
     7
 79
     5
170
     0
171
     0
290
     0
174
     0
 93
        1
 44
0.0
173
     0
291
     1
 45
0.0
1001
ACAD
1000
AcDbSavedByObjectVersion
1070
     0
1000
AcDbSavedByObjectVersion
1070
     0
1000
AcDbSavedByObjectVersion
1070
     0
1000
AcDbSavedByObjectVersion
1070
     0
  0
DICTIONARYVAR
  5
220B
102
{ACAD_REACTORS
330
5E
102
}
330
5E
100
DictionaryVariables
280
     0
  1
1:1
  0
DICTIONARYVAR
  5
220A
102
{ACAD_REACTORS
330
5E
102
}
330
5E
100
DictionaryVariables
280
     0
  1
STANDARD
  0
DICTIONARYVAR
  5
84
102
{ACAD_REACTORS
330
5E
102
}
330
5E
100
DictionaryVariables
280
     0
  1
STANDARD
  0
DICTIONARYVAR
  5
5F
102
{ACAD_REACTORS
330
5E
102
}
330
5E
100
DictionaryVariables
280
     0
  1
2
  0
DICTIONARYVAR
  5
63
102
{ACAD_REACTORS
330
5E
102
}
330
5E
100
DictionaryVariables
280
     0
  1
1
  0
DICTIONARYVAR
  5
220D
102
{ACAD_REACTORS
330
5E
102
}
330
5E
100
DictionaryVariables
280
     0
  1
1
  0
DICTIONARYVAR
  5
220C
102
{ACAD_REACTORS
330
5E
102
}
330
5E
100
DictionaryVariables
280
     0
  1
127
  0
DICTIONARY
  5
2194
102
{ACAD_REACTORS
330
2184
102
}
330
2184
100
AcDbDictionary
281
     1
  0
XRECORD
  5
21AB
102
{ACAD_REACTORS
330
2184
102
}
330
2184
100
AcDbXrecord
280
     1
 90
-1023410169
  0
DICTIONARY
  5
20CD
102
{ACAD_REACTORS
330
20CC
102
}
330
20CC
100
AcDbDictionary
281
     1
  3
DWGSETTINGS
350
2664
  3
TRANSSETTINGS
350
2665
  0
ACAMGFILTERDAT
  5
21C9
102
{ACAD_REACTORS
330
21C4
102
}
330
21C4
100
AcAmgFilterDat
 70
    15
  1
DIMENSION,AMDT_*_DIM
  2
*
  3
*
  4
*
  5
*
290
     1
  0
ACAMGFILTERDAT
  5
21C8
102
{ACAD_REACTORS
330
21C4
102
}
330
21C4
100
AcAmgFilterDat
 70
    15
  1
*
  2
AM_FEA-AM_*
  3
*
  4
*
  5
*
290
     1
  0
ACAMGFILTERDAT
  5
21C5
102
{ACAD_REACTORS
330
21C4
102
}
330
21C4
100
AcAmgFilterDat
 70
    15
  1
HATCH
  2
*
  3
*
  4
*
  5
*
290
     1
  0
ACAMGFILTERDAT
  5
21C6
102
{ACAD_REACTORS
330
21C4
102
}
330
21C4
100
AcAmgFilterDat
 70
    15
  1
LINE
  2
8,8N,*-8,*-8N,AM_8,AM_8N,*-AM_8,*-AM_8N
  3
*
  4
*
  5
INSERT,STDPART2D
290
     1
  0
ACAMGFILTERDAT
  5
21CA
102
{ACAD_REACTORS
330
21C4
102
}
330
21C4
100
AcAmgFilterDat
 70
    15
  1
ARC
  2
AM_5
  3
*
  4
2
  5
INSERT
290
     0
  0
ACAMGFILTERDAT
  5
21C7
102
{ACAD_REACTORS
330
21C4
102
}
330
21C4
100
AcAmgFilterDat
 70
    15
  1
ACMFCFRAME,ACMDATUMTARGET,ACMDATUMID,ACMWELDSYM,ACMSURFSYM,ACMFEATID,ACMPARTREF,ACMBALLOON,AMDTEDGESYM,AMGSCREWCALCTABLE
  2
*
  3
*
  4
*
  5
*
290
     1
  0
LAYER_INDEX
  5
27DC
102
{ACAD_REACTORS
330
27DB
102
}
330
27DB
100
AcDbIndex
 40
2455533.727148091
100
AcDbLayerIndex
  8
0
360
27DD
 90
      862
  8
Defpoints
360
27DE
 90
        0
  8
AM_TR
360
27DF
 90
        0
  8
AM_BM
360
27E0
 90
        0
  8
AM_BL
360
27E1
 90
        0
  8
AM_VIEWS
360
27E2
 90
        0
  8
AM_PARDIM
360
27E3
 90
        0
  8
AM_REFDIM
360
27E4
 90
        0
  8
AM_VIS
360
27E5
 90
       18
  8
AM_HID
360
27E6
 90
        0
  8
ZUMENWAKU
360
27E7
 90
        0
  8
CENTER
360
27E8
 90
        0
  8
GAIKEI
360
27E9
 90
        0
  8
SUNPOU
360
27EA
 90
        0
  8
KAKURE
360
27EB
 90
        0
  8
HIHYOUJI
360
27EC
 90
        0
  8
通常線
360
27ED
 90
        0
  8
寸法線
360
27EE
 90
        0
  8
外形線
360
27EF
 90
        0
  8
中心線2
360
27F0
 90
        0
  8
補助線
360
27F1
 90
        0
  0
DICTIONARY
  5
27F8
330
22
100
AcDbDictionary
280
     1
281
     1
  3
ACAD_XREC_ROUNDTRIP
360
27F9
  0
DICTIONARY
  5
2070
330
2063
100
AcDbDictionary
280
     1
281
     1
  3
ACAD_XREC_ROUNDTRIP
360
27FB
  3
ADSK_XREC_LAYOUTTHUMBNAIL
360
2071
  0
DICTIONARY
  5
2085
330
2084
100
AcDbDictionary
280
     1
281
     1
  3
ACAD_XREC_ROUNDTRIP
360
221E
  3
BUMPTILE
360
2087
  3
DIFFUSETILE
360
2086
  3
OPACITYTILE
360
208A
  3
REFLECTIONTILE
360
2089
  3
REFRACTIONTILE
360
208B
  3
SPECULARTILE
360
2088
  0
DICTIONARY
  5
207D
330
207C
100
AcDbDictionary
280
     1
281
     1
  3
ACAD_XREC_ROUNDTRIP
360
221D
  3
BUMPTILE
360
207F
  3
DIFFUSETILE
360
207E
  3
OPACITYTILE
360
2082
  3
REFLECTIONTILE
360
2081
  3
REFRACTIONTILE
360
2083
  3
SPECULARTILE
360
2080
  0
DICTIONARY
  5
208D
330
208C
100
AcDbDictionary
280
     1
281
     1
  3
ACAD_XREC_ROUNDTRIP
360
221F
  3
BUMPTILE
360
208F
  3
DIFFUSETILE
360
208E
  3
OPACITYTILE
360
2092
  3
REFLECTIONTILE
360
2091
  3
REFRACTIONTILE
360
2093
  3
SPECULARTILE
360
2090
  0
DICTIONARY
  5
220E
330
7F
100
AcDbDictionary
280
     1
281
     1
  3
ACAD_ROUNDTRIP_2008_TABLESTYLE_CELLSTYLEMAP
360
27F2
  3
ACAD_XREC_ROUNDTRIP
360
27FA
  0
IDBUFFER
  5
27DD
330
0
100
AcDbIdBuffer
330
DE3
330
DE4
330
DE5
330
DE6
330
E07
330
E09
330
E0B
330
E0C
330
E0D
330
E0E
330
E0F
330
E10
330
E11
330
E12
330
E13
330
E14
330
E15
330
E16
330
E17
330
E18
330
E19
330
E1A
330
E1B
330
E1C
330
E1D
330
E1E
330
E3F
330
E41
330
E43
330
E44
330
E45
330
E46
330
E47
330
E48
330
E49
330
E4A
330
E4B
330
E4C
330
E4D
330
E4E
330
E4F
330
E50
330
E51
330
E52
330
E53
330
E54
330
E55
330
E56
330
E77
330
E79
330
E7B
330
E7C
330
E7D
330
E7E
330
E7F
330
E80
330
E81
330
E82
330
E83
330
E84
330
E85
330
E86
330
E87
330
E88
330
E89
330
E8A
330
E8B
330
E8C
330
E8D
330
E8E
330
EAF
330
EB1
330
EB3
330
EB4
330
EB5
330
EB6
330
EB7
330
EB8
330
EB9
330
EBA
330
EBB
330
EBC
330
EBD
330
EBE
330
EBF
330
EC0
330
EC1
330
EC2
330
EC3
330
EC4
330
EC5
330
EC6
330
EE7
330
EE9
330
EEB
330
EEC
330
EED
330
EEE
330
EEF
330
EF0
330
EF1
330
EF2
330
EF3
330
EF4
330
EF5
330
EF6
330
EF7
330
EF8
330
EF9
330
EFA
330
EFB
330
EFC
330
EFD
330
EFE
330
F1F
330
F21
330
F23
330
F24
330
F25
330
F26
330
F27
330
F28
330
F29
330
F2A
330
F2B
330
F2C
330
F2D
330
F2E
330
F2F
330
F30
330
F31
330
F32
330
F33
330
F34
330
F35
330
F36
330
F57
330
F59
330
F5B
330
F5C
330
F5D
330
F5E
330
F5F
330
F60
330
F61
330
F62
330
F63
330
F64
330
F65
330
F66
330
F67
330
F68
330
F69
330
F6A
330
F6B
330
F6C
330
F6D
330
F6E
330
F8F
330
F91
330
F93
330
F94
330
F95
330
F96
330
F97
330
F98
330
F99
330
F9A
330
F9B
330
F9C
330
F9D
330
F9E
330
F9F
330
FA0
330
FA1
330
FA2
330
FA3
330
FA4
330
FA5
330
FA6
330
FC7
330
FC9
330
FCB
330
FCC
330
FCD
330
FCE
330
FCF
330
FD0
330
FD1
330
FD2
330
FD3
330
FD4
330
FD5
330
FD6
330
FD7
330
FD8
330
FD9
330
FDA
330
FDB
330
FDC
330
FDD
330
FDE
330
FFF
330
1001
330
1003
330
1004
330
1005
330
1006
330
1007
330
1008
330
1009
330
100A
330
100B
330
100C
330
100D
330
100E
330
100F
330
1010
330
1011
330
1012
330
1013
330
1014
330
1015
330
1016
330
1037
330
1039
330
103B
330
103C
330
103D
330
103E
330
103F
330
1040
330
1041
330
1042
330
1043
330
1044
330
1045
330
1046
330
1047
330
1048
330
1049
330
104A
330
104B
330
104C
330
104D
330
104E
330
106F
330
1071
330
1073
330
1074
330
1075
330
1076
330
1077
330
1078
330
1079
330
107A
330
107B
330
107C
330
107D
330
107E
330
107F
330
1080
330
1081
330
1082
330
1083
330
1084
330
1085
330
1086
330
1096
330
1097
330
1098
330
11A5
330
11A8
330
11BA
330
11BB
330
11BD
330
11BE
330
11BF
330
11C1
330
1336
330
1337
330
1338
330
1339
330
1A6E
330
1A6F
330
1A70
330
1A71
330
1A7C
330
1A7D
330
1A7E
330
1A7F
330
1A8A
330
1A8B
330
1A8C
330
1A8D
330
1A9C
330
1AF1
330
1AF3
330
1AF4
330
1AF5
330
1AF6
330
1AF7
330
1AFA
330
1AFB
330
1AFC
330
1AFD
330
1BF4
330
1BF5
330
1BF6
330
1BF7
330
1BF8
330
1BF9
330
1BFA
330
1C06
330
1C07
330
1C08
330
1C09
330
1C44
330
1C45
330
1C46
330
1C47
330
1D15
330
1D2D
330
1D69
330
1D6A
330
2436
330
243D
330
243E
330
243F
330
2440
330
2441
330
245F
330
2460
330
2467
330
2468
330
2469
330
246A
330
246B
330
2552
330
2553
330
2554
330
2555
330
2556
330
2557
330
2558
330
2559
330
255A
330
255B
330
255C
330
255D
330
255E
330
255F
330
2560
330
2561
330
2562
330
2563
330
2564
330
2565
330
2566
330
2567
330
2568
330
2569
330
256A
330
256B
330
274A
330
27DA
330
111
330
112
330
115
330
116
330
11C
330
11D
330
11F
330
120
330
122
330
123
330
125
330
126
330
128
330
129
330
12A
330
12B
330
12C
330
12D
330
12E
330
12F
330
130
330
131
330
132
330
133
330
134
330
135
330
136
330
137
330
138
330
13A
330
13B
330
13D
330
141
330
146
330
147
330
148
330
149
330
14A
330
14B
330
14C
330
14D
330
14E
330
151
330
164
330
165
330
166
330
167
330
168
330
169
330
16A
330
16B
330
16C
330
16D
330
16F
330
171
330
173
330
175
330
177
330
17D
330
17F
330
180
330
181
330
182
330
183
330
184
330
185
330
186
330
187
330
188
330
189
330
18A
330
18B
330
18C
330
18E
330
190
330
191
330
192
330
193
330
194
330
1A0
330
1A8
330
1A9
330
1AA
330
1AB
330
1AC
330
1AD
330
1AE
330
1B0
330
1B5
330
1B7
330
1B9
330
1BA
330
1BC
330
1BD
330
1BE
330
1C0
330
1C1
330
1C2
330
1C4
330
1C5
330
1C6
330
1CA
330
1CB
330
1CC
330
1CE
330
1CF
330
1D0
330
1D2
330
1D3
330
1D4
330
1D6
330
1D7
330
1D8
330
1D9
330
1DA
330
1DC
330
1DD
330
1DE
330
1E0
330
1E1
330
1E2
330
1E4
330
1E5
330
1E6
330
1E7
330
1E9
330
1EA
330
1EB
330
1EF
330
1F0
330
1F1
330
1F3
330
1F4
330
1F5
330
1F7
330
1F8
330
1FA
330
1FB
330
1FC
330
1FD
330
1FE
330
1FF
330
200
330
201
330
202
330
203
330
204
330
205
330
206
330
207
330
208
330
209
330
20A
330
20B
330
20C
330
20D
330
216
330
21E
330
226
330
22E
330
236
330
23E
330
246
330
24E
330
256
330
25E
330
266
330
26E
330
276
330
27E
330
286
330
29A
330
29B
330
29C
330
29D
330
29F
330
2A5
330
2A6
330
2A9
330
2B5
330
2B6
330
2BD
330
2BE
330
2BF
330
2C0
330
2C1
330
2C2
330
2C5
330
88F
330
8B0
330
8DB
330
A9E
330
AC0
330
AC2
330
AC4
330
AC5
330
AC6
330
AC7
330
AC8
330
AC9
330
ACA
330
ACB
330
ACC
330
ACD
330
ACE
330
ACF
330
AD0
330
AD1
330
AD2
330
AD3
330
AD4
330
AD5
330
AD6
330
AD7
330
AF8
330
AFA
330
AFC
330
AFD
330
AFE
330
AFF
330
B00
330
B01
330
B02
330
B03
330
B04
330
B05
330
B06
330
B07
330
B08
330
B09
330
B0A
330
B0B
330
B0C
330
B0D
330
B0E
330
B0F
330
B30
330
B32
330
B34
330
B35
330
B36
330
B37
330
B38
330
B39
330
B3A
330
B3B
330
B3C
330
B3D
330
B3E
330
B3F
330
B40
330
B41
330
B42
330
B43
330
B44
330
B45
330
B46
330
B47
330
B68
330
B6A
330
B6C
330
B6D
330
B6E
330
B6F
330
B70
330
B71
330
B72
330
B73
330
B74
330
B75
330
B76
330
B77
330
B78
330
B79
330
B7A
330
B7B
330
B7C
330
B7D
330
B7E
330
B7F
330
BA0
330
BA2
330
BA4
330
BA5
330
BA6
330
BA7
330
BA8
330
BA9
330
BAA
330
BAB
330
BAC
330
BAD
330
BAE
330
BAF
330
BB0
330
BB1
330
BB2
330
BB3
330
BB4
330
BB5
330
BB6
330
BB7
330
BD8
330
BDA
330
BDC
330
BDD
330
BDE
330
BDF
330
BE0
330
BE1
330
BE2
330
BE3
330
BE4
330
BE5
330
BE6
330
BE7
330
BE8
330
BE9
330
BEA
330
BEB
330
BEC
330
BED
330
BEE
330
BEF
330
C10
330
C12
330
C14
330
C15
330
C16
330
C17
330
C18
330
C19
330
C1A
330
C1B
330
C1C
330
C1D
330
C1E
330
C1F
330
C20
330
C21
330
C22
330
C23
330
C24
330
C25
330
C26
330
C27
330
C48
330
C4A
330
C4C
330
C4D
330
C4E
330
C4F
330
C50
330
C51
330
C52
330
C53
330
C54
330
C55
330
C56
330
C57
330
C58
330
C59
330
C5A
330
C5B
330
C5C
330
C5D
330
C5E
330
C5F
330
C80
330
C82
330
C84
330
C85
330
C86
330
C87
330
C88
330
C89
330
C8A
330
C8B
330
C8C
330
C8D
330
C8E
330
C8F
330
C90
330
C91
330
C92
330
C93
330
C94
330
C95
330
C96
330
C97
330
CB8
330
CBA
330
CBC
330
CBD
330
CBE
330
CBF
330
CC0
330
CC1
330
CC2
330
CC3
330
CC4
330
CC5
330
CC6
330
CC7
330
CC8
330
CC9
330
CCA
330
CCB
330
CCC
330
CCD
330
CCE
330
CCF
330
CF0
330
CF2
330
CF4
330
CF5
330
CF6
330
CF7
330
CF8
330
CF9
330
CFA
330
CFB
330
CFC
330
CFD
330
CFE
330
CFF
330
D00
330
D01
330
D02
330
D03
330
D04
330
D05
330
D06
330
D07
330
D28
330
D2A
330
D2C
330
D2D
330
D2E
330
D2F
330
D30
330
D31
330
D32
330
D33
330
D34
330
D35
330
D36
330
D37
330
D38
330
D39
330
D3A
330
D3B
330
D3C
330
D3D
330
D3E
330
D3F
330
D60
330
D62
330
D64
330
D65
330
D66
330
D67
330
D68
330
D6A
330
D6B
330
D6C
330
D6D
330
D6E
330
D6F
330
D70
330
D71
330
D72
330
D73
330
D74
330
D75
330
D76
330
D77
330
DCF
330
DD0
330
DD1
330
DD3
330
DD4
330
DD5
330
DD6
330
DD7
330
DD8
330
DD9
330
DDA
330
DDB
330
DDC
330
DDD
330
DDE
330
DDF
330
DE0
330
DE1
330
DE2
  0
IDBUFFER
  5
27DE
330
0
100
AcDbIdBuffer
  0
IDBUFFER
  5
27DF
330
0
100
AcDbIdBuffer
  0
IDBUFFER
  5
27E0
330
0
100
AcDbIdBuffer
  0
IDBUFFER
  5
27E1
330
0
100
AcDbIdBuffer
  0
IDBUFFER
  5
27E2
330
0
100
AcDbIdBuffer
  0
IDBUFFER
  5
27E3
330
0
100
AcDbIdBuffer
  0
IDBUFFER
  5
27E4
330
0
100
AcDbIdBuffer
  0
IDBUFFER
  5
27E5
330
0
100
AcDbIdBuffer
330
2550
330
2551
330
242C
330
242F
330
2432
330
2433
330
2434
330
2456
330
2459
330
245C
330
245D
330
245E
330
254A
330
254B
330
254C
330
254D
330
254E
330
254F
  0
IDBUFFER
  5
27E6
330
0
100
AcDbIdBuffer
  0
IDBUFFER
  5
27E7
330
0
100
AcDbIdBuffer
  0
IDBUFFER
  5
27E8
330
0
100
AcDbIdBuffer
  0
IDBUFFER
  5
27E9
330
0
100
AcDbIdBuffer
  0
IDBUFFER
  5
27EA
330
0
100
AcDbIdBuffer
  0
IDBUFFER
  5
27EB
330
0
100
AcDbIdBuffer
  0
IDBUFFER
  5
27EC
330
0
100
AcDbIdBuffer
  0
IDBUFFER
  5
27ED
330
0
100
AcDbIdBuffer
  0
IDBUFFER
  5
27EE
330
0
100
AcDbIdBuffer
  0
IDBUFFER
  5
27EF
330
0
100
AcDbIdBuffer
  0
IDBUFFER
  5
27F0
330
0
100
AcDbIdBuffer
  0
IDBUFFER
  5
27F1
330
0
100
AcDbIdBuffer
  0
XRECORD
  5
27F9
102
{ACAD_REACTORS
330
27F8
102
}
330
27F8
100
AcDbXrecord
280
     1
102
SHADEPLOT
 70
     0
102
SHADEPLOTRESLEVEL
 70
     2
102
SHADEPLOTCUSTOMDPI
 70
   300
  0
XRECORD
  5
27FB
102
{ACAD_REACTORS
330
2070
102
}
330
2070
100
AcDbXrecord
280
     1
102
SHADEPLOT
 70
     0
102
SHADEPLOTRESLEVEL
 70
     2
102
SHADEPLOTCUSTOMDPI
 70
   300
  0
XRECORD
  5
2071
102
{ACAD_REACTORS
330
2070
102
}
330
2070
100
AcDbXrecord
280
     1
310
28000000B40000007F00000001000800000000004C590000000000000000000000010000000000000000000000000000FFFFFF000000000000000000000000000000000000000000000000000000000000000000330000006600000099000000CC000000FF00000000330000333300006633000099330000CC330000FF3300
310
0000660000336600006666000099660000CC660000FF66000000990000339900006699000099990000CC990000FF99000000CC000033CC000066CC000099CC0000CCCC0000FFCC000000FF000033FF000066FF000099FF0000CCFF0000FFFF000000003300330033006600330099003300CC003300FF003300003333003333
310
33006633330099333300CC333300FF33330000663300336633006666330099663300CC663300FF66330000993300339933006699330099993300CC993300FF99330000CC330033CC330066CC330099CC3300CCCC3300FFCC330000FF330033FF330066FF330099FF3300CCFF3300FFFF330000006600330066006600660099
310
006600CC006600FF00660000336600333366006633660099336600CC336600FF33660000666600336666006666660099666600CC666600FF66660000996600339966006699660099996600CC996600FF99660000CC660033CC660066CC660099CC6600CCCC6600FFCC660000FF660033FF660066FF660099FF6600CCFF6600
310
FFFF660000009900330099006600990099009900CC009900FF00990000339900333399006633990099339900CC339900FF33990000669900336699006666990099669900CC669900FF66990000999900339999006699990099999900CC999900FF99990000CC990033CC990066CC990099CC9900CCCC9900FFCC990000FF99
310
0033FF990066FF990099FF9900CCFF9900FFFF99000000CC003300CC006600CC009900CC00CC00CC00FF00CC000033CC003333CC006633CC009933CC00CC33CC00FF33CC000066CC003366CC006666CC009966CC00CC66CC00FF66CC000099CC003399CC006699CC009999CC00CC99CC00FF99CC0000CCCC0033CCCC0066CC
310
CC0099CCCC00CCCCCC00FFCCCC0000FFCC0033FFCC0066FFCC0099FFCC00CCFFCC00FFFFCC000000FF003300FF006600FF009900FF00CC00FF00FF00FF000033FF003333FF006633FF009933FF00CC33FF00FF33FF000066FF003366FF006666FF009966FF00CC66FF00FF66FF000099FF003399FF006699FF009999FF00CC
310
99FF00FF99FF0000CCFF0033CCFF0066CCFF0099CCFF00CCCCFF00FFCCFF0000FFFF0033FFFF0066FFFF0099FFFF00CCFFFF00FFFFFF00000000000D0D0D001A1A1A00282828003535350043434300505050005D5D5D006B6B6B00787878008686860093939300A1A1A100AEAEAE00BBBBBB00C9C9C900D6D6D600E4E4E400
310
F1F1F100FFFFFF0000000000000000000000000000000000000000000000000000000000000000000000000000000000F5F5F5F5F5F5F5F5F5F5F5F5F5F5F5F5F5F5F5F5F5F5F5F5F5F5F5F5F5F5F5F5F5F5F5F5F5F5F5F5F5F5F5F5F5F5F5F5F5F5F5F5F5F5F5F5F5F5F5F5F5F5F5F5F5F5F5F5F5F5F5F5F5F5F5F5F5F5F5
310
F5F5F5F5F5F5F5F5F5F5F5F5F5F5F5F5F5F5F5F5F5F5F5F5F5F5F5F5F5F5F5F5F5F5F5F5F5F5F5F5F5F5F5F5F5F5F5F5F5F5F5F5F5F5F5F5F5F5F5F5F5F5F5F5F5F5F5F5F5F5F5F5F5F5F5F5F5F5F5F5F5F5F5F5F5F5F5F5F5F5F5F5F5F5F5F5F5F5F5F5F5F5E2E2E2E2E2E2E2E2E2E2E2E2E2E2E2E2E2E2E2E2E2E2E2E2E2
310
E2E2E2E2E2E2E2E2E2E2E2E2E2E2E2E2E2E2E2E2E2E2E2E2E2E2E2E2E2E2E2E2E2E2E2E2E2E2E2E2E2E2E2E2E2E2E2E2E2E2E2E2E2E2E2E2E2E2E2E2E2E2E2E2E2E2E2E2E2E2E2E2E2E2E2E2E2E2E2E2E2E2E2E2E2E2E2E2E2E2E2E2E2E2E2E2E2E2E2E2E2E2E2E2E2E2E2E2E2E2E2E2E2E2E2E2E2E2E2E2E2E2E2E2E2E2E2
310
E2E2E2E2E2E2E2E2E2E2E2E2E2E2E2E2E2E2E2E2E2E2E2E2E2F5F5F5E2E2E2E2E2E2E2E2E2E2E2E2E2E2E2E2E2E2E2E2E2E2E2E2E2E2E2E2E2E2E2E2E2E2E2E2E2E2E2E2E2E2E2E2E2E2E2E2E2E2E2E2E2E2E2E2E2E2E2E2E2E2E2E2E2E2E2E2E2E2E2E2E2E2E2E2E2E2E2E2E2E2E2E2E2E2E2E2E2E2E2E2E2E2E2E2E2E2E2
310
E2E2E2E2E2E2E2E2E2E2E2E2E2E2E2E2E2E2E2E2E2E2E2E2E2E2E2E2E2E2E2E2E2E2E2E2E2E2E2E2E2E2E2E2E2E2E2E2E2E2E2E2E2E2E2E2E2E2E2E2E2E2E2E2E2E2E2E2E2E2E2E2E2E2E2E2E2E2F5F5F5E2E2E2E2E2E2E2E2E2E2E2E2E2E2E2E2E2E2E2E2E2E2E2E2E2E2E2E2E2E2E2E2E2E2E2E2E2E2E2E2E2E2E2E2E2E2
310
E2E2E2E2E2E2E2E2E2E2E2E2E2E2E2E2E2E2E2E2E2E2E2E2E2E2E2E2E2E2E2E2E2E2E2E2E2E2E2E2E2E2E2E2E2E2E2E2E2E2E2E2E2E2E2E2E2E2E2E2E2E2E2E2E2E2E2E2E2E2E2E2E2E2E2E2E2E2E2E2E2E2E2E2E2E2E2E2E2E2E2E2E2E2E2E2E2E2E2E2E2E2E2E2E2E2E2E2E2E2E2E2E2E2E2E2E2E2E2E2E2E2E2E2E2E2E2
310
E2E2E2E2F5F5F5E2E2E2E2E2E2E2E2E2E2E2E2E2E2E2E2E2E2E2E2E2E2E2E2E2E2E2E2E2E2E2E2E2E2E2E2E2E2E2E2E2E2E2E2E2E2E2E2E2E2E2E2E2E2E2E2E2E2E2E2E2E2E2E2E2E2E2E2E2E2E2E2E2E2E2E2E2E2E2E2E2E2E2E2E2E2E2E2E2E2E2E2E2E2E2E2E2E2E2E2E2E2E2E2E2E2E2E2E2E2E2E2E2E2E2E2E2E2E2E2
310
E2E2E2E2E2E2E2E2E2E2E2E2E2E2E2E2E2E2E2E2E2E2E2E2E2E2E2E2E2E2E2E2E2E2E2E2E2E2E2E2E2E2E2E2E2E2E2E2E2E2E2E2E2E2E2E2E2F5F5F5E2E2E2E2E2E2E2E2E2E2E2F5F5F5F5F5F5F5F5F5E2E2E2E2E2E2E2E2E2F5F5F5F5F5F5F5F5F5F5F5F5F5F5F5F5E2E2E2E2E2E2E2E2E2E2F5F5F5F5F5F5F5F5F5F5F5F5
310
F5F5F5F5E2E2E2E2E2E2E2E2E2F5F5F5F5F5F5F5F5F5F5F5F5F5F5F5F5F5E2E2E2E2E2E2E2E2E2F5F5F5F5F5F5F5F5F5F5F5F5F5F5F5F5E2E2E2E2E2E2E2E2E2E2F5F5F5F5F5F5F5F5F5F5F5F5F5F5F5F5E2E2E2E2E2E2E2E2E2F5F5F5F5F5F5F5F5F5E2E2E2E2E2E2E2E2E2E2E2F5F5F5E2E2E2E2E2E2E2E2E2E2E2F5E2E2
310
E2E2E2E2E2E2E2E2E2E2E2E2E2E2E2E2E2E2E2E2E2E2E2E2E2E2E2E2E2E2E2E2E2E2E2E2E2E2E2E2E2E2E2E2E2E2E2E2E2E2E2E2E2E2E2E2E2E2E2E2E2E2E2E2E2E2E2E2E2E2E2E2E2E2E2E2E2E2E2E2E2E2E2E2E2E2E2E2E2E2E2E2E2E2E2E2E2E2E2E2E2E2E2E2E2E2E2E2E2E2E2E2E2E2E2E2E2E2E2E2E2E2E2E2E2E2E2
310
E2E2E2E2E2E2E2E2E2E2E2E2E2E2E2E2E2E2E2E2E2E2E2E2F5E2E2E2E2E2E2E2E2E2E2E2F5F5F5E2E2E2E2E2E2E2E2E2E2E2F5E2E2E2E2E2E2E2E2E2E2E2E2E2E2E2E2E2E2E2E2E2E2E2E2E2E2E2E2E2E2E2E2E2E2E2E2E2E2E2E2E2E2E2E2E2E2E2E2E2E2E2E2E2E2E2E2E2E2E2E2E2E2E2E2E2E2E2E2E2E2E2E2E2E2E2E2
310
E2E2E2E2E2E2E2E2E2E2E2E2E2E2E2E2E2E2E2E2E2E2E2E2E2E2E2E2E2E2E2E2E2E2E2E2E2E2E2E2E2E2E2E2E2E2E2E2E2E2E2E2E2E2E2E2E2E2E2E2E2E2E2E2E2E2E2E2E2E2E2E2E2E2E2E2E2F5E2E2E2E2E2E2E2E2E2E2E2F5F5F5E2E2E2E2E2E2E2E2E2E2E2F5E2E2E2E2E2E2E2E2E2E2E2E2E2E2E2E2E2E2E2E2E2E2E2
310
E2E2E2E2E2E2E2E2E2E2E2E2E2E2E2E2E2E2E2E2E2E2E2E2E2E2E2E2E2E2E2E2E2E2E2E2E2E2E2E2E2E2E2E2E2E2E2E2E2E2E2E2E2E2E2E2E2E2E2E2E2E2E2E2E2E2E2E2E2E2E2E2E2E2E2E2E2E2E2E2E2E2E2E2E2E2E2E2E2E2E2E2E2E2E2E2E2E2E2E2E2E2E2E2E2E2E2E2E2E2E2E2E2E2E2E2E2E2E2E2E2E2E2E2E2E2E2
310
E2E2E2F5E2E2E2E2E2E2E2E2E2E2E2F5F5F5E2E2E2E2E2E2E2E2E2E2E2F5E2E2E2E2E2E2E2E2E2E2E2E2E2E2E2E2E2E2E2E2E2E2E2E2E2E2E2E2E2E2E2E2E2E2E2E2E2E2E2E2E2E2E2E2E2E2E2E2E2E2E2E2E2E2E2E2E2E2E2E2E2E2E2E2E2E2E2E2E2E2E2E2E2E2E2E2E2E2E2E2E2E2E2E2E2E2E2E2E2E2E2E2E2E2E2E2E2
310
E2E2E2E2E2E2E2E2E2E2E2E2E2E2E2E2E2E2E2E2E2E2E2E2E2E2E2E2E2E2E2E2E2E2E2E2E2E2E2E2E2E2E2E2E2E2E2E2E2E2E2E2E2E2E2E2F5E2E2E2E2E2E2E2E2E2E2E2F5F5F5E2E2E2E2E2E2E2E2E2E2E2F5E2E2E2E2E2E2E2E2E2E2E2E2E2E2E2E2E2E2E2E2E2E2E2E2E2E2E2E2E2E2E2E2E2E2E2E2E2E2E2E2E2E2E2E2
310
E2E2E2E2E2E2E2E2E2E2E2E2E2E2E2E2E2E2E2E2E2E2E2E2E2E2E2E2E2E2E2E2E2E2E2E2E2E2E2E2E2E2E2E2E2E2E2E2E2E2E2E2E2E2E2E2E2E2E2E2E2E2E2E2E2E2E2E2E2E2E2E2E2E2E2E2E2E2E2E2E2E2E2E2E2E2E2E2E2E2E2E2E2E2E2E2E2E2E2E2E2E2E2E2E2E2E2E2E2F5E2E2E2E2E2E2E2E2E2E2E2F5F5F5E2E2E2
310
E2E2E2E2E2E2E2E2F5E2E2E2E2E2E2E2E2E2E2E2E2E2E2E2E2E2E2E2E2E2E2E2E2E2E2E2E2E2E2E2E2E2E2E2E2E2E2E2E2E2E2E2E2E2E2E2E2E2E2E2E2E2E2E2E2E2E2E2E2E2E2E2E2E2E2E2E2E2E2E2E2E2E2E2E2E2E2E2E2E2E2E2E2E2E2E2E2E2E2E2E2E2E2E2E2E2E2E2E2E2E2E2E2E2E2E2E2E2E2E2E2E2E2E2E2E2E2
310
E2E2E2E2E2E2E2E2E2E2E2E2E2E2E2E2E2E2E2E2E2E2E2E2E2E2E2E2E2E2E2E2E2E2E2F5E2E2E2E2E2E2E2E2E2E2E2F5F5F5E2E2E2E2E2E2E2E2E2E2E2F5E2E2E2E2E2E2E2E2E2E2E2E2E2E2E2E2E2E2E2E2E2E2E2E2E2E2E2E2E2E2E2E2E2E2E2E2E2E2E2E2E2E2E2E2E2E2E2E2E2E2E2E2E2E2E2E2E2E2E2E2E2E2E2E2E2
310
E2E2E2E2E2E2E2E2E2E2E2E2E2E2E2E2E2E2E2E2E2E2E2E2E2E2E2E2E2E2E2E2E2E2E2E2E2E2E2E2E2E2E2E2E2E2E2E2E2E2E2E2E2E2E2E2E2E2E2E2E2E2E2E2E2E2E2E2E2E2E2E2E2E2E2E2E2E2E2E2E2E2E2E2E2E2E2E2F5E2E2E2E2E2E2E2E2E2E2E2F5F5F5E2E2E2E2E2E2E2E2E2E2E2E2E2E2E2E2E2E2E2E2E2E2E2E2
310
E2E2E2E2E2E2E2E2E2E2E2E2E2E2E2E2E2E2E2E2E2E2E2E2E2E2E2E2E2E2E2E2E2E2E2E2E2E2E2E2E2E2E2E2E2E2E2E2E2E2E2E2E2E2E2E2E2E2E2E2E2E2E2E2E2E2E2E2E2E2E2E2E2E2E2E2E2E2E2E2E2E2E2E2E2E2E2E2E2E2E2E2E2E2E2E2E2E2E2E2E2E2E2E2E2E2E2E2E2E2E2E2E2E2E2E2E2E2E2E2E2E2E2E2E2E2E2
310
E2E2E2E2E2E2E2E2E2E2E2E2E2E2E2E2E2E2E2E2E2E2E2E2E2E2F5F5F5E2E2E2E2E2E2E2E2E2E2E2E2E2E2E2E2E2E2E2E2E2E2E2E2E2E2E2E2E2E2E2E2E2E2E2E2E2E2E2E2E2E2E2E2E2E2E2E2E2E2E2E2E2E2E2E2E2E2E2E2E2E2E2E2E2E2E2E2E2E2E2E2E2E2E2E2E2E2E2E2E2E2E2E2E2E2E2E2E2E2E2E2E2E2E2E2E2E2
310
E2E2E2E2E2E2E2E2E2E2E2E2E2E2E2E2E2E2E2E2E2E2E2E2E2E2E2E2E2E2E2E2E2E2E2E2E2E2E2E2E2E2E2E2E2E2E2E2E2E2E2E2E2E2E2E2E2E2E2E2E2E2E2E2E2E2E2E2E2E2E2E2E2E2E2E2E2E2E2F5F5F5E2E2E2E2E2E2E2E2E2E2E2E2E2E2E2E2E2E2E2E2E2E2E2E2E2E2E2E2E2E2E2E2E2E2E2E2E2E2E2E2E2E2E2E2E2
310
E2E2E2E2E2E2E2E2E2E2E2E2E2E2E2E2E2E2E2E2E2E2E2E2E2E2E2E2E2E2E2E2E2E2E2E2E2E2E2E2E2E2E2E2E2E2E2E2E2E2E2E2E2E2E2E2E2E2E2E2E2E2E2E2E2E2E2E2E2E2E2E2E2E2E2E2E2E2E2E2E2E2E2E2E2E2E2E2E2E2E2E2E2E2E2E2E2E2E2E2E2E2E2E2E2E2E2E2E2E2E2E2E2E2E2E2E2E2E2E2E2E2E2E2E2E2E2
310
E2E2E2E2E2F5F5F5E2E2E2E2E2E2E2E2E2E2E2E2E2E2E2E2E2E2E2E2E2E2E2E2E2E2F5F5F5F5F5F5F5F5F5F5F5F5F5F5F5F5F5F5F5F5F5F5F5F5F5F5F5F5F5F5F5F5F5F5F5F5F5F5F5F5F5F5F5F5F5F5F5F5F5F5F5F5F5F5F5F5F5F5F5F5F5F5F5F5F5F5F5F5F5F5F5F5F5F5F5F5F5F5F5F5F5F5F5F5F5F5F5F5F5F5F5F5F5
310
F5F5F5F5F5F5F5F5F5F5F5F5F5F5F5F5F5F5F5F5F5F5F5F5F5F5F5F5F5F5F5F5E2E2E2E2E2E2E2E2E2E2E2E2E2E2E2E2E2E2E2E2E2E2E2E2E2E2F5F5F5E2E2E2E2E2E2E2E2E2E2E2E2E2E2E2E2E2E2E2E2E2E2E2E2E2E2F5E2E2E2E2E2E2E2E2E2E2E2E2E2E2E2E2E2E2E2E2E2E2E2E2E2E2E2E2E2E2E2E2E2E2E2E2E2E2E2
310
E2E2E2E2E2E2E2E2E2E2E2E2E2E2E2E2E2E2E2E2E2E2E2E2E2E2E2E2E2E2E2E2E2E2E2E2E2E2E2E2E2E2E2E2E2E2E2E2E2E2E2E2E2E2E2E2E2E2E2E2E2E2E2E2E2E2E2E2E2E2E2E2E2E2E2E2E2E2E2E2E2E2E2E2F5E2E2E2E2E2E2E2E2E2E2E2E2E2E2E2E2E2E2E2E2E2E2E2E2E2E2F5F5F5E2E2E2E2E2E2E2E2E2E2E2E2E2
310
E2E2E2E2E2E2E2E2E2E2E2E2E2F5E2E2E2E2E2E2E2E2E2E2E2E2E2E2E2E2E2E2E2E2E2E2E2E2E2E2E2E2E2E2E2E2E2E2E2E2E2E2E2E2E2E2E2E2E2E2E2E2E2E2E2E2E2E2E2E2E2E2E2E2E2E2E2E2E2E2E2E2E2E2E2E2E2E2E2E2E2E2E2E2E2E2E2E2E2E2E2E2E2E2E2E2E2E2E2E2E2E2E2E2E2E2E2E2E2E2E2E2E2E2E2E2E2
310
E2E2E2E2E2E2E2E2E2E2F5E2E2E2E2E2E2E2E2E2E2E2E2E2E2E2E2E2E2E2E2E2E2E2E2E2E2F5F5F5E2E2E2E2E2E2E2E2E2E2E2E2E2E2E2E2E2E2E2E2E2E2E2E2E2E2F5E2E2E2E2E2E2E2E2E2E2E2E2E2E2E2E2E2E2E2E2E2E2E2E2E2E2E2E2E2E2E2E2E2E2E2E2E2E2E2E2E2E2E2E2E2E2E2E2E2E2E2E2E2E2E2E2E2E2E2E2
310
E2E2E2E2E2E2E2E2E2E2E2E2E2E2E2E2E2E2E2E2E2E2E2E2E2E2E2E2E2E2E2E2E2E2E2E2E2E2E2E2E2E2E2E2E2E2E2E2E2E2E2E2E2E2E2E2E2E2E2E2E2E2E2F5E2E2E2E2E2E2E2E2E2E2E2E2E2E2E2E2E2E2E2E2E2E2E2E2E2E2F5F5F5E2E2E2E2E2E2E2E2E2E2E2E2E2E2E2E2E2E2E2E2E2E2E2E2E2E2F5E2E2E2E2E2E2E2
310
E2E2E2E2E2E2E2E2E2E2E2E2E2E2E2E2E2E2E2E2E2E2E2E2E2E2E2E2E2E2E2E2E2E2E2E2E2E2E2E2E2E2E2E2E2E2E2E2E2E2E2E2E2E2E2E2E2E2E2E2E2E2E2E2E2E2E2E2E2E2E2E2E2E2E2E2E2E2E2E2E2E2E2E2E2E2E2E2E2E2E2E2E2E2E2E2E2E2E2E2E2E2E2E2E2E2E2E2E2E2E2E2E2E2E2E2F5E2E2E2E2E2E2E2E2E2E2
310
E2E2E2E2E2E2E2E2E2E2E2E2E2E2E2E2F5F5F5E2E2E2E2E2E2E2E2E2E2E2F5E2E2E2E2E2E2E2E2E2E2E2E2E2E2F5E2E2E2E2E2E2E2E2E2E2E2E2E2E2E2E2E2E2E2E2E2E2E2E2E2E2E2E2E2E2E2E2E2E2E2E2E2E2E2E2E2E2E2E2E2E2E2E2E2E2E2E2E2E2E2E2E2E2E2E2E2E2E2E2E2E2E2E2E2E2E2E2E2E2E2E2E2E2E2E2E2
310
E2E2E2E2E2E2E2E2E2E2E2E2E2E2E2E2E2E2E2E2E2E2E2E2E2E2E2E2E2E2E2E2E2E2E2E2E2E2E2E2E2E2F5E2E2E2E2E2E2E2E2E2E2E2E2E2E2F5E2E2E2E2E2E2E2E2E2E2E2F5F5F5E2E2E2E2E2E2E2E2E2E2E2F5E2E2E2E2E2E2E2E2E2E2E2E2E2E2F5E2E2E2E2E2E2E2E2E2E2E2E2E2E2E2E2E2E2E2E2E2E2E2E2E2E2E2E2
310
E2E2E2E2E2E2E2E2E2E2E2E2E2E2E2E2E2E2E2E2E2E2E2E2E2E2E2E2E2E2E2E2E2E2E2E2E2E2E2E2E2E2E2E2E2E2E2E2E2E2E2E2E2E2E2E2E2E2E2E2E2E2E2E2E2E2E2E2E2E2E2E2E2E2E2E2E2E2E2E2E2E2E2E2E2E2E2E2E2E2E2E2E2E2E2F5E2E2E2E2E2E2E2E2E2E2E2E2E2E2F5E2E2E2E2E2E2E2E2E2E2E2F5F5F5E2E2
310
E2E2E2E2E2E2E2E2E2F5E2E2E2E2E2E2E2E2E2E2E2E2E2E2F5E2E2E2E2E2E2E2E2E2E2E2E2E2E2E2E2E2E2E2E2E2E2E2E2E2E2E2E2E2E2E2E2E2E2E2E2E2E2E2E2E2E2E2E2E2E2E2E2E2E2E2E2E2E2E2E2E2E2E2E2E2E2E2E2E2E2E2E2E2E2E2E2E2E2E2E2E2E2E2E2E2E2E2E2E2E2E2E2E2E2E2E2E2E2E2E2E2E2E2E2E2E2
310
E2E2E2E2E2E2E2E2E2E2E2E2E2E2E2E2E2E2E2E2E2F5E2E2E2E2E2E2E2E2E2E2E2E2E2E2F5E2E2E2E2E2E2E2E2E2E2E2F5F5F5E2E2E2E2E2E2E2E2E2E2E2F5E2E2E2E2E2E2E2E2E2E2E2E2E2E2F5E2E2E2E2E2E2E2E2E2E2E2E2E2E2E2E2E2E2E2E2E2E2E2E2E2E2E2E2E2E2E2E2E2E2E2E2E2E2E2E2E2E2E2E2E2E2E2E2E2
310
E2E2E2E2E2E2E2E2E2E2E2E2E2E2E2E2E2E2E2E2E2E2E2E2E2E2E2E2E2E2E2E2E2E2E2E2E2E2E2E2E2E2E2E2E2E2E2E2E2E2E2E2E2E2E2E2E2E2E2E2E2E2E2E2E2E2E2E2E2E2E2E2E2E2F5E2E2E2E2E2E2E2E2E2E2E2E2E2E2F5E2E2E2E2E2E2E2E2E2E2E2F5F5F5E2E2E2E2E2E2E2E2E2E2E2F5E2E2E2E2E2E2E2E2E2E2E2
310
E2E2E2F5E2E2E2E2E2E2E2E2E2E2E2E2E2E2E2E2E2E2E2E2E2E2E2E2E2E2E2E2E2E2E2E2E2E2E2E2E2E2F5E2E2E2E2E2E2E2E2E2E2E2E2E2E2E2E2E2E2E2E2E2E2E2E2E2E2E2E2E2E2E2E2E2E2E2E2E2E2E2E2E2E2E2E2E2E2E2E2E2E2E2F5E2E2E2E2E2E2E2E2E2E2E2E2E2E2E2E2E2E2E2E2E2E2E2E2E2E2E2E2E2E2E2E2
310
F5E2E2E2E2E2E2E2E2E2E2E2E2E2E2F5E2E2E2E2E2E2E2E2E2E2E2F5F5F5E2E2E2E2E2E2E2E2E2E2E2F5E2E2E2E2E2E2E2E2E2E2E2E2E2E2F5E2E2E2E2E2E2E2E2E2E2E2E2E2E2E2E2E2E2E2E2E2E2E2E2E2E2E2E2E2E2E2E2E2E2E2E2E2E2F5F5F5F5F5F5F5F5F5F5F5F5F5F5F5F5F5F5F5F5F5F5F5F5F5F5F5F5F5F5F5F5
310
F5F5F5F5F5F5F5F5F5F5F5F5F5F5F5F5F5F5F5F5F5E2E2E2E2E2E2E2E2E2E2E2E2E2E2E2E2E2E2E2E2E2E2E2E2E2E2E2E2E2E2E2E2F5E2E2E2E2E2E2E2E2E2E2E2E2E2E2F5E2E2E2E2E2E2E2E2E2E2E2F5F5F5E2E2E2E2E2E2E2E2E2E2E2F5E2E2E2E2E2E2E2E2E2E2E2E2E2E2F5E2E2E2E2E2E2E2E2E2E2E2E2E2E2E2E2E2
310
E2E2E2E2E2E2E2E2E2E2E2E2E2E2E2E2E2E2E2E2E2F5E2E2E2E2E2E2E2E2E2E2E2E2E2E2E2E2E2E2E2E2E2E2E2E2F5F5F5F5E2E2E2E2E2E2E2E2E2E2E2E2E2E2E2E2E2E2E2E2E2E2E2F5E2E2E2E2E2E2E2E2E2E2E2E2E2E2E2E2E2E2E2E2E2E2E2E2E2E2E2E2E2E2E2E2F5E2E2E2E2E2E2E2E2E2E2E2E2E2E2F5E2E2E2E2E2
310
E2E2E2E2E2E2F5F5F5E2E2E2E2E2E2E2E2E2E2E2F5E2E2E2E2E2E2E2E2E2E2E2E2E2E2F5E2E2E2E2E2E2E2E2E2E2E2E2E2E2E2E2E2E2E2E2E2E2E2E2E2E2E2E2E2E2E2E2E2E2E2E2E2E2F5E2E2E2E2E2E2E2E2E2E2E2E2E2E2E2E2E2E2E2E2E2E2E2F5F5F5F5F5E2E2E2E2E2E2E2E2E2E2E2E2E2E2E2E2E2E2E2E2E2E2E2F5
310
E2E2E2E2E2E2E2E2E2E2E2E2E2E2E2E2E2E2E2E2E2E2E2E2E2E2E2E2E2E2E2E2F5E2E2E2E2E2E2E2E2E2E2E2E2E2E2F5E2E2E2E2E2E2E2E2E2E2E2F5F5F5E2E2E2E2E2E2E2E2E2E2E2F5E2E2E2E2E2E2E2E2E2E2E2E2E2E2F5E2E2E2E2E2E2E2E2E2E2E2E2E2E2E2E2E2E2E2E2E2E2E2E2E2E2E2E2E2E2E2E2E2E2E2E2E2E2
310
F5E2E2E2E2E2E2E2E2E2E2E2E2E2E2E2E2E2E2E2E2E2E2E2E2E2E2E2E2E2E2E2E2E2E2E2E2E2E2E2E2E2E2E2E2E2E2E2E2E2E2E2F5E2E2E2E2E2E2E2E2E2E2E2E2E2E2E2E2E2E2E2E2E2E2E2E2E2E2E2E2E2E2E2E2F5E2E2E2E2E2E2E2E2E2E2E2E2E2E2F5E2E2E2E2E2E2E2E2E2E2E2F5F5F5E2E2E2E2E2E2E2E2E2E2E2F5
310
E2E2E2E2E2E2E2E2E2E2E2E2E2E2F5E2E2E2E2E2E2E2E2E2E2E2E2E2E2E2E2E2E2E2E2E2E2E2E2E2E2E2E2E2E2E2E2E2E2E2E2E2E2F5E2F5F5E2E2E2E2E2E2E2E2E2E2E2E2E2E2E2E2E2E2E2E2E2E2E2E2E2E2E2E2E2E2E2E2E2E2E2E2E2E2E2E2E2E2E2E2E2F5F5E2F5E2E2E2E2E2E2E2E2E2E2E2E2E2E2E2E2E2E2E2E2E2
310
E2E2E2E2E2E2E2E2E2E2E2F5E2E2E2E2E2E2E2E2E2E2E2E2E2E2F5E2E2E2E2E2E2E2E2E2E2E2F5F5F5E2E2E2E2E2E2E2E2E2E2E2F5E2E2E2E2E2E2E2E2E2E2E2E2E2E2F5E2E2E2E2E2E2E2E2E2E2E2E2E2E2E2E2E2E2E2E2E2E2E2E2E2E2E2E2E2E2E2E2E2E2E2E2E2E2F5E2F5F5F5F5F5F5F5F5F5F5F5F5F5F5F5F5F5F5F5
310
F5F5F5F5F5F5F5F5F5F5F5F5F5F5F5F5F5F5F5F5F5F5F5F5F5F5F5F5F5F5E2F5E2E2E2E2E2E2E2E2E2E2E2E2E2E2E2E2E2E2E2E2E2E2E2E2E2E2E2E2E2E2E2E2F5E2E2E2E2E2E2E2E2E2E2E2E2E2E2F5E2E2E2E2E2E2E2E2E2E2E2F5F5F5E2E2E2E2E2E2E2E2E2E2E2F5E2E2E2E2E2E2E2E2E2E2E2E2E2E2F5E2E2E2E2E2E2
310
E2E2E2E2E2E2E2E2E2E2E2E2E2E2E2E2E2E2E2E2E2E2E2E2E2E2E2E2E2E2E2E2F5E2F5E2E2E2E2E2E2E2E2E2E2E2E2E2E2E2E2E2E2E2E2E2F5F5F5F5F5E2E2E2E2E2E2E2E2E2E2E2E2E2E2E2E2E2E2E2E2E2F5E2F5E2E2E2E2E2E2E2E2E2E2E2E2E2F5E2F5E2E2E2E2E2E2E2E2E2E2E2E2E2F5E2F5F5E2E2E2E2E2E2E2E2E2
310
E2E2E2E2E2F5E2E2E2E2E2E2E2E2E2E2E2F5F5F5E2E2E2E2E2E2E2E2E2E2E2F5E2E2E2E2E2E2E2E2E2E2E2E2E2E2F5E2E2E2E2E2E2E2E2E2E2E2E2E2E2E2E2E2E2E2E2E2E2E2E2E2E2E2E2E2E2E2E2E2E2E2E2E2E2F5E2F5E2E2E2E2E2E2E2E2E2E2E2E2E2E2E2E2E2E2E2E2E2E2F5F5F5E2E2E2E2E2E2E2E2E2E2E2E2E2E2
310
E2E2E2E2E2E2E2E2F5E2F5E2E2E2E2E2E2E2E2E2E2E2E2E2F5F5F5F5F5F5F5F5F5F5F5F5F5F5F5F5F5F5F5F5E2E2E2E2E2E2E2E2E2E2E2E2E2E2F5E2E2E2E2E2E2E2E2E2E2E2F5F5F5E2E2E2E2E2E2E2E2E2E2E2F5E2E2E2E2E2E2E2E2E2E2E2E2E2E2F5E2E2E2E2E2E2E2E2E2E2E2E2E2E2E2E2E2E2E2E2E2E2E2E2E2E2E2
310
E2E2E2E2E2E2E2E2E2E2E2F5E2F5E2E2E2E2E2E2E2E2E2E2E2E2E2E2E2E2E2E2E2E2E2E2E2E2E2E2E2E2E2E2E2E2E2E2E2E2E2E2E2E2E2E2E2E2E2E2E2F5E2F5E2E2E2E2E2E2E2E2E2E2E2E2E2F5E2E2E2E2E2E2E2F5F5F5E2E2E2E2E2E2E2F5F5E2E2E2E2E2E2E2E2E2E2E2E2E2E2F5E2E2E2E2E2E2E2E2E2E2E2F5F5F5E2
310
E2E2E2E2E2E2E2E2E2E2F5E2E2E2E2E2E2E2E2E2E2E2E2E2E2F5E2E2E2E2E2E2E2E2E2E2E2E2E2E2E2E2E2E2E2E2E2E2E2E2E2E2E2E2E2E2E2E2E2E2E2E2E2E2F5E2F5E2E2E2E2E2E2E2E2E2E2E2E2E2E2E2E2E2E2E2E2E2E2E2E2E2E2E2E2E2E2E2E2E2E2E2E2E2E2E2E2E2E2E2E2E2E2E2F5E2F5E2E2E2E2E2E2E2E2E2E2
310
E2E2E2F5E2E2E2E2E2E2E2E2F5F5E2E2E2E2E2E2E2F5F5E2E2E2E2E2E2E2E2E2E2E2E2E2E2F5E2E2E2E2E2E2E2E2E2E2E2F5F5F5E2E2E2E2E2E2E2E2E2E2E2E2E2E2E2E2E2E2E2E2E2E2E2E2E2E2F5E2E2E2E2E2E2E2E2E2E2E2E2E2E2E2E2E2E2E2E2E2E2E2E2E2E2E2E2E2F5F5F5F5F5F5F5F5F5F5F5F5F5F5F5F5F5F5F5
310
F5F5F5F5F5F5F5F5F5F5F5F5F5F5F5F5F5F5F5F5F5F5F5F5F5F5F5F5F5F5F5F5F5F5F5F5F5F5F5F5F5F5F5E2E2E2E2E2E2E2E2E2E2E2E2E2F5F5F5F5F5F5F5F5F5F5F5F5F5F5F5F5F5F5F5F5E2E2E2E2E2E2E2E2E2E2E2E2E2E2E2E2E2E2E2E2E2E2E2E2E2E2F5F5F5E2E2E2E2E2E2E2E2E2E2E2E2E2E2E2E2E2E2E2E2E2E2
310
E2E2E2E2F5E2E2E2E2E2E2E2E2E2E2E2E2E2E2E2E2E2E2E2E2E2E2E2E2E2E2E2E2E2E2F5E2E2E2E2E2E2E2F5E2F5E2F5F5E2E2E2E2E2F5F5F5F5F5F5F5F5F5F5F5F5F5F5F5F5F5F5F5F5F5F5F5F5F5F5F5F5F5F5F5E2E2E2E2E2F5F5E2F5E2F5E2E2E2E2E2E2E2E2E2E2E2E2E2F5F5E2E2E2E2E2E2E2E2E2E2E2E2F5E2F5E2
310
F5F5E2E2E2E2E2E2E2E2E2E2E2E2E2E2E2E2E2E2E2E2E2E2E2E2E2E2F5F5F5E2E2E2E2E2E2E2E2E2E2E2E2E2E2E2E2E2E2E2E2E2E2E2E2E2E2F5E2E2E2E2E2E2E2E2E2E2E2E2E2E2E2E2E2E2E2E2E2E2E2E2E2E2E2E2E2F5F5E2E2F5F5F5F5F5F5F5F5F5F5E2E2E2E2E2E2F5E2F5F5F5F5F5F5F5F5F5F5F5F5F5F5F5F5F5F5
310
F5F5F5F5F5F5F5F5F5F5F5E2E2E2E2E2E2F5F5F5F5F5E2E2E2E2E2E2E2E2E2E2E2E2E2F5E2E2E2E2E2E2E2E2E2E2E2E2E2F5E2F5E2F5F5E2E2E2E2E2E2E2E2E2E2E2E2E2E2E2E2E2E2E2E2E2E2E2E2E2E2F5F5F5E2E2E2E2E2E2E2E2E2E2E2E2E2E2E2E2E2E2E2E2E2E2E2E2E2E2F5E2E2E2E2E2E2E2E2E2E2E2E2E2E2E2E2
310
E2E2E2E2E2E2E2E2E2E2E2E2E2E2F5E2E2E2F5E2E2E2F5F5F5F5F5E2E2E2E2E2E2F5E2F5F5F5F5F5F5F5F5F5F5F5F5F5F5F5F5F5F5F5F5F5F5F5F5F5F5F5F5F5E2E2E2E2E2E2F5F5F5F5F5E2E2E2E2E2E2E2E2E2E2E2E2E2F5E2E2E2E2E2E2E2E2E2E2E2E2E2F5E2F5E2F5F5E2E2E2E2E2E2E2E2E2E2E2E2E2E2E2E2E2E2E2
310
E2E2E2E2E2E2E2F5F5F5E2E2E2E2E2E2E2E2E2E2E2E2E2E2E2E2E2E2E2E2E2E2E2E2E2E2F5E2E2E2E2E2E2E2E2E2E2E2E2E2E2E2E2E2E2E2E2E2E2E2E2E2E2E2E2E2E2F5E2E2F5F5E2E2E2F5E2F5F5F5E2E2E2E2E2E2F5E2F5F5F5F5F5F5F5F5F5F5F5F5F5F5F5F5F5F5F5F5F5F5F5F5F5F5F5F5F5E2E2E2E2E2E2F5F5F5E2
310
F5E2E2E2E2E2E2E2E2E2E2E2E2E2F5E2E2E2E2E2E2E2E2E2E2E2E2E2F5E2F5E2F5F5E2E2E2E2E2E2E2E2E2E2E2E2E2E2E2E2E2E2E2E2E2E2E2E2E2E2F5F5F5E2E2E2E2E2E2E2E2E2E2E2E2E2E2E2E2E2E2E2E2E2E2E2E2E2E2F5E2E2E2E2E2E2E2E2E2E2E2E2E2E2E2E2E2E2E2E2E2E2E2E2E2E2E2E2E2E2F5E2E2E2F5E2E2
310
E2F5F5F5F5E2E2E2E2E2E2E2F5E2F5F5F5F5F5F5F5F5F5F5F5F5F5F5F5F5F5F5F5F5F5F5F5F5F5F5F5F5F5E2E2E2E2E2E2E2F5F5F5F5E2E2E2E2E2E2E2E2E2E2E2E2E2F5F5F5F5F5F5F5F5F5F5F5F5F5F5F5F5F5E2F5F5E2E2E2E2E2E2E2E2E2E2E2E2E2E2E2E2E2E2E2E2E2E2E2E2E2E2F5F5F5E2E2E2E2E2E2E2E2E2E2E2
310
E2E2E2E2E2E2E2E2E2E2E2E2E2E2E2F5E2E2E2E2E2E2E2E2E2E2E2E2E2E2E2E2E2E2E2E2E2E2E2E2E2E2E2E2E2E2F5E2E2E2F5E2E2E2F5E2E2E2E2E2E2E2E2E2E2F5F5F5F5F5F5F5F5F5F5F5F5F5F5F5F5F5F5F5F5F5F5F5F5F5F5F5F5F5F5F5E2E2E2E2E2E2E2E2E2E2F5E2E2E2E2E2E2E2E2E2E2E2E2E2F5E2E2E2E2E2E2
310
E2E2E2E2E2E2E2F5E2E2E2F5F5E2E2E2E2E2E2E2E2E2E2E2E2E2E2E2E2E2E2E2E2E2E2E2E2E2E2F5F5F5E2E2E2E2E2E2E2E2E2E2E2E2E2E2E2E2E2E2E2E2E2E2E2E2E2E2F5E2E2E2E2E2E2E2E2E2E2E2E2E2E2E2E2E2E2E2E2E2E2E2E2E2E2E2E2E2E2F5E2E2E2F5E2E2E2F5E2E2E2E2E2E2E2E2E2E2F5F5F5F5F5F5F5F5F5
310
F5F5F5F5F5F5F5F5F5F5F5F5F5F5F5F5F5F5F5F5E2F5E2E2E2E2E2E2E2E2E2E2F5E2E2E2E2E2E2E2E2E2E2E2E2E2F5E2E2E2E2E2E2E2E2E2E2E2E2E2F5E2E2E2F5F5E2E2E2E2E2E2E2E2E2E2E2E2E2E2E2E2E2E2E2E2E2E2E2E2E2E2F5F5F5E2E2E2E2E2E2E2E2E2E2E2F5E2E2E2E2E2E2E2E2E2E2E2E2E2E2F5E2E2E2E2E2
310
E2E2E2E2E2E2E2E2E2E2E2E2E2E2E2E2E2E2E2E2E2E2E2E2E2F5E2E2E2F5E2E2E2F5E2E2E2E2E2E2E2E2E2E2F5F5F5F5F5F5F5F5F5F5F5F5F5F5F5F5F5F5F5F5F5F5F5F5F5F5F5F5F5E2F5E2E2E2E2E2E2E2E2E2E2F5E2E2E2E2E2E2E2E2E2E2E2E2E2F5E2E2E2E2E2E2E2E2E2E2E2E2E2F5E2E2E2F5F5E2E2E2E2E2E2E2E2
310
E2E2E2E2E2E2F5E2E2E2E2E2E2E2E2E2E2E2F5F5F5E2E2E2E2E2E2E2E2E2E2E2F5E2E2E2E2E2E2E2E2E2E2E2E2E2E2F5E2E2E2E2E2E2E2E2E2E2E2E2E2E2E2E2E2E2E2E2E2E2E2E2E2E2E2E2E2E2F5E2E2E2F5E2E2E2F5E2E2E2E2E2E2E2E2E2E2F5F5F5F5F5F5E2F5E2F5F5F5F5F5F5F5F5F5F5E2F5E2F5F5F5F5F5F5F5E2
310
F5E2E2E2E2E2E2E2E2E2E2F5E2E2E2E2E2E2E2E2E2E2E2E2E2F5E2E2E2E2E2E2E2E2E2E2E2E2E2F5E2E2E2F5F5E2E2E2E2E2E2E2E2E2E2E2E2E2E2F5E2E2E2E2E2E2E2E2E2E2E2F5F5F5E2E2E2E2E2E2E2E2E2E2E2F5E2E2E2E2E2E2E2E2E2E2E2E2E2E2F5E2E2E2E2E2E2E2E2E2E2E2E2E2E2E2E2E2E2E2E2E2E2E2E2E2E2
310
E2E2E2E2F5E2E2E2F5E2E2E2F5E2E2E2E2E2E2E2E2E2E2F5F5F5F5F5F5F5F5F5F5F5F5F5F5F5F5F5F5F5F5F5F5F5F5F5F5F5F5F5E2F5E2E2E2E2E2E2E2E2E2E2F5E2E2E2E2E2E2E2E2E2E2E2E2E2F5E2E2E2E2E2E2E2E2E2E2E2E2E2F5E2E2E2F5F5E2E2E2E2E2E2E2E2E2E2E2E2E2E2F5E2E2E2E2E2E2E2E2E2E2E2F5F5F5
310
E2E2E2E2E2E2E2E2E2E2E2F5E2E2E2E2E2E2E2E2E2E2E2E2E2E2F5E2E2E2E2E2E2E2E2E2E2E2E2E2E2E2E2E2E2E2E2E2E2E2E2E2E2E2E2E2E2F5E2E2E2F5E2E2E2F5E2E2E2E2E2E2E2E2E2E2F5F5F5F5F5F5F5F5F5F5F5F5F5F5F5F5F5F5F5F5F5F5F5F5F5F5F5F5F5F5F5E2E2E2E2E2E2E2E2E2E2F5E2E2E2E2E2E2E2E2E2
310
E2E2E2E2F5E2E2E2E2E2E2E2E2E2E2E2E2E2F5E2E2E2F5F5E2E2E2E2E2E2E2E2E2E2E2E2E2E2F5E2E2E2E2E2E2E2E2E2E2E2F5F5F5E2E2E2E2E2E2E2E2E2E2E2F5E2E2E2E2E2E2E2E2E2E2E2E2E2E2F5E2E2E2E2E2E2E2E2E2E2E2E2E2E2E2E2E2E2E2E2E2E2E2E2E2E2E2E2E2E2F5E2E2E2F5E2E2E2F5E2E2E2E2E2E2E2E2
310
E2E2E2E2E2E2E2E2E2E2E2E2E2E2E2E2E2E2E2E2E2E2E2E2E2E2E2E2E2E2E2E2E2E2E2E2E2E2E2E2E2E2E2F5E2E2E2E2E2E2E2E2E2E2E2E2E2F5E2E2E2E2E2E2E2E2E2E2E2E2E2F5E2E2E2F5F5E2E2E2E2E2E2E2E2E2E2E2E2E2E2F5E2E2E2E2E2E2E2E2E2E2E2F5F5F5E2E2E2E2E2E2E2E2E2E2E2F5E2E2E2E2E2E2E2E2E2
310
E2E2E2E2E2F5E2E2E2E2E2E2E2E2E2E2E2E2E2E2E2E2E2E2E2E2E2E2E2E2E2E2E2E2E2E2F5E2E2E2F5E2E2E2F5E2E2E2E2E2E2E2E2E2E2E2E2E2E2E2E2E2E2E2E2E2E2E2E2E2E2E2E2E2E2E2E2E2E2E2E2E2E2E2E2E2E2E2E2E2E2E2E2E2E2E2F5E2E2E2E2E2E2E2E2E2E2E2E2E2F5E2E2E2E2E2E2E2E2E2E2E2E2E2F5E2E2
310
E2F5F5E2E2E2E2E2E2E2E2E2E2E2E2E2E2F5E2E2E2E2E2E2E2E2E2E2E2F5F5F5E2E2E2E2E2E2E2E2E2E2E2F5E2E2E2E2E2E2E2E2E2E2E2E2E2E2F5E2E2E2E2E2E2E2E2E2E2E2E2E2E2E2E2E2E2E2E2E2E2E2E2E2E2E2E2E2E2F5E2E2E2F5E2E2E2F5E2E2E2E2E2E2E2E2E2E2E2E2E2E2E2E2E2E2E2E2E2E2E2E2E2E2E2E2E2
310
E2E2E2E2E2E2E2E2E2E2E2E2E2E2E2E2E2E2E2E2E2E2F5E2E2E2E2E2E2E2E2E2E2E2E2E2F5E2E2E2E2E2E2E2E2E2E2E2E2E2F5E2E2E2F5F5E2E2E2E2E2E2E2E2E2E2E2E2E2E2F5E2E2E2E2E2E2E2E2E2E2E2F5F5F5E2E2E2E2E2E2E2E2E2E2E2F5E2E2E2E2E2E2E2E2E2E2E2E2E2E2F5E2E2E2E2E2E2E2E2E2E2E2E2E2E2E2
310
E2E2E2E2E2E2E2E2E2E2E2E2E2E2E2F5E2E2E2F5E2E2E2F5E2E2E2E2E2E2E2E2E2E2E2E2E2E2E2E2E2E2E2E2E2E2E2E2E2E2E2E2E2E2E2E2E2E2E2E2E2E2E2E2E2E2E2E2E2E2E2E2E2E2E2F5E2E2E2E2E2E2E2E2E2E2E2E2E2F5E2E2E2F5F5F5F5F5F5F5F5F5E2F5E2E2E2F5F5E2E2E2E2E2E2E2E2E2E2E2E2E2E2F5E2E2E2
310
E2E2E2E2E2E2E2E2F5F5F5E2E2E2E2E2E2E2E2E2E2E2F5E2E2E2E2E2E2E2E2E2E2E2E2E2E2F5E2E2E2E2E2E2E2E2E2E2E2E2E2E2E2E2E2E2E2E2E2E2E2E2E2E2E2E2E2E2F5E2E2E2F5E2E2E2F5E2E2E2E2E2E2E2E2E2E2E2E2E2E2E2E2E2E2E2E2E2E2E2E2E2E2E2E2E2E2E2E2E2E2E2E2E2E2E2E2E2E2E2E2E2E2E2E2E2E2
310
E2F5E2E2E2E2E2E2E2E2E2E2E2E2E2F5E2E2E2F5E2E2E2E2E2E2E2F5E2F5E2E2E2F5F5E2E2E2E2E2E2E2E2E2E2E2E2E2E2F5E2E2E2E2E2E2E2E2E2E2E2F5F5F5E2E2E2E2E2E2E2E2E2E2E2F5E2E2E2E2E2E2E2E2E2E2E2E2E2E2F5E2E2E2E2E2E2E2E2E2E2E2E2E2E2E2E2E2E2E2E2E2E2E2E2E2E2E2E2E2E2F5E2E2E2F5E2
310
E2E2F5E2E2E2E2F5F5F5F5F5F5F5F5F5F5F5F5F5F5F5F5F5F5F5F5F5F5F5F5F5F5F5F5F5F5F5F5F5F5F5F5F5F5F5F5F5F5F5E2E2E2E2F5E2E2E2E2E2E2E2E2E2E2E2E2E2F5E2E2E2F5E2E2E2E2E2E2E2F5E2F5E2E2E2F5F5E2E2E2E2E2E2E2E2E2E2E2E2E2E2F5E2E2E2E2E2E2E2E2E2E2E2F5F5F5E2E2E2E2E2E2E2E2E2E2
310
E2F5E2E2E2E2E2E2E2E2E2E2E2E2E2E2F5E2E2E2E2E2E2E2E2E2E2E2E2E2E2E2E2E2E2E2E2E2E2E2E2E2E2E2E2E2E2F5E2E2E2F5E2E2E2F5E2E2E2E2F5E2E2E2E2E2E2E2E2E2E2E2E2E2E2E2E2E2E2E2E2E2E2E2E2E2E2E2E2E2E2E2E2E2E2E2E2E2E2E2E2E2F5E2E2E2E2F5E2E2E2E2E2E2E2E2E2E2E2E2E2F5E2E2E2F5E2
310
E2E2E2E2E2E2F5E2F5E2E2E2F5F5E2E2E2E2E2E2E2E2E2E2E2E2E2E2F5E2E2E2E2E2E2E2E2E2E2E2F5F5F5E2E2E2E2E2E2E2E2E2E2E2F5E2E2E2E2E2E2E2E2E2E2E2E2E2E2F5E2E2E2E2E2E2E2E2E2E2E2E2E2E2E2E2E2E2E2E2E2E2E2E2E2E2E2E2E2E2F5E2E2E2F5E2E2E2F5E2E2E2E2F5E2E2E2E2E2E2E2E2E2E2E2E2E2
310
E2E2E2E2E2E2E2E2E2E2E2E2E2E2E2E2E2E2E2E2E2E2E2E2E2E2E2E2F5E2E2E2E2F5E2E2E2E2E2E2E2E2E2E2E2E2E2F5E2E2E2F5E2E2E2E2E2E2E2F5E2F5E2E2E2F5F5E2E2E2E2E2E2E2E2E2E2E2E2E2E2F5E2E2E2E2E2E2E2E2E2E2E2F5F5F5E2E2E2E2E2E2E2E2E2E2E2F5E2E2E2E2E2E2E2E2E2E2E2E2E2E2F5E2E2E2E2
310
E2E2E2E2E2E2E2E2E2E2E2E2E2E2E2E2E2E2E2E2E2E2E2E2F5E2F5E2E2E2F5E2E2E2F5E2E2E2E2F5E2E2E2F5F5F5F5E2F5F5F5F5E2F5F5F5F5E2F5F5F5F5E2E2E2E2E2E2E2E2E2E2E2E2E2E2E2E2E2E2E2F5E2E2E2E2F5E2E2E2E2E2E2E2E2E2E2E2E2E2F5E2E2E2F5E2E2E2E2E2E2E2F5E2F5E2E2E2F5F5E2E2E2E2E2E2E2
310
E2E2E2E2E2E2E2F5E2E2E2E2E2E2E2E2E2E2E2F5F5F5E2E2E2E2E2E2E2E2E2E2E2F5E2E2E2E2E2E2E2E2E2E2E2E2E2E2F5E2E2E2E2E2E2E2E2E2E2E2E2E2E2E2E2E2E2E2E2E2E2E2E2E2E2E2E2F5F5F5E2F5F5F5E2E2E2F5E2E2E2E2F5E2E2F5F5F5F5F5F5F5F5E2F5E2F5F5F5F5F5F5F5F5F5F5E2E2F5F5F5F5F5F5F5F5F5
310
F5E2F5F5F5F5E2F5E2E2E2E2F5E2E2E2E2E2E2E2E2E2E2E2E2E2F5E2E2E2F5E2E2E2E2E2E2E2F5E2F5E2E2E2F5F5E2E2E2E2E2E2E2E2E2E2E2E2E2E2F5E2E2E2E2E2E2E2E2E2E2E2F5F5F5E2E2E2E2E2E2E2E2E2E2E2F5E2E2E2E2E2E2E2E2E2E2E2E2E2E2F5E2E2E2E2E2E2E2E2E2E2E2E2E2E2E2E2E2E2E2E2E2E2E2E2E2
310
E2E2E2F5F5F5E2F5F5F5E2E2E2F5E2E2E2E2F5E2E2F5F5F5F5F5F5E2F5F5E2F5E2E2F5E2F5F5F5F5F5F5E2F5F5F5F5F5F5F5F5F5F5F5F5F5F5F5F5E2F5E2E2E2E2F5E2E2E2E2E2E2E2E2E2E2E2E2E2F5E2E2E2F5E2E2E2E2E2E2E2F5E2F5E2E2E2F5F5E2E2E2E2E2E2E2E2E2E2E2E2E2E2F5E2E2E2E2E2E2E2E2E2E2E2F5F5
310
F5E2E2E2E2E2E2E2E2E2E2E2E2E2E2E2E2E2E2E2E2E2E2E2E2E2E2F5E2E2E2E2E2E2E2E2E2E2E2E2E2E2E2E2E2E2E2E2E2E2E2E2E2E2E2E2F5F5F5E2F5F5F5E2E2E2F5E2E2E2E2F5E2E2F5F5F5F5F5F5F5E2E2F5E2F5E2F5F5F5F5E2E2F5F5E2E2F5F5F5F5F5F5F5F5F5F5E2E2E2E2E2E2F5E2E2E2E2F5E2E2E2E2E2E2E2E2
310
E2E2E2E2E2F5E2E2E2F5E2E2E2E2E2E2E2F5E2F5E2E2E2F5F5E2E2E2E2E2E2E2E2E2E2E2E2E2E2E2E2E2E2E2E2E2E2E2E2E2E2F5F5F5E2E2E2E2E2E2E2E2E2E2E2E2E2E2E2E2E2E2E2E2E2E2E2E2E2E2F5E2E2E2E2E2E2E2E2E2E2E2E2E2E2E2E2E2E2E2E2E2E2E2E2E2E2E2E2F5F5F5E2F5F5F5E2E2E2F5E2E2E2E2F5E2E2
310
E2F5F5F5E2E2F5F5F5F5E2F5F5F5F5E2E2F5F5F5E2E2E2F5F5F5F5F5F5F5F5F5E2E2E2E2E2E2E2F5E2E2E2E2F5E2E2E2E2E2E2E2E2E2E2E2E2E2F5E2E2E2F5E2E2E2E2E2E2E2F5E2F5E2E2E2F5F5E2E2E2E2E2E2E2E2E2E2E2E2E2E2E2E2E2E2E2E2E2E2E2E2E2E2F5F5F5E2E2E2E2E2E2E2E2E2E2E2E2E2E2E2E2E2E2E2E2
310
E2E2E2E2E2E2F5E2E2E2E2E2E2E2E2E2E2E2E2E2E2E2E2E2E2E2E2E2E2E2E2E2E2E2E2E2E2F5E2E2E2F5E2E2E2F5E2E2E2E2F5E2E2E2E2E2E2E2E2E2E2E2E2E2E2E2E2E2E2E2E2E2E2E2E2E2E2E2E2E2E2E2E2E2E2E2E2E2E2E2E2E2F5E2E2E2E2F5E2E2E2E2E2E2E2E2E2E2E2E2E2F5E2E2E2F5E2E2E2E2E2E2E2F5E2F5E2
310
E2E2F5F5E2E2E2E2E2E2E2E2E2E2E2E2E2E2E2E2E2E2E2E2E2E2E2E2E2E2F5F5F5E2E2E2E2E2E2E2E2E2E2E2E2E2E2E2E2E2E2E2E2E2E2E2E2E2E2F5E2E2E2E2E2E2E2E2E2E2E2E2E2E2E2E2E2E2E2E2E2E2E2E2E2E2E2E2E2E2F5E2E2E2F5E2E2E2F5E2E2E2E2F5E2E2E2E2E2F5F5F5F5F5F5F5F5F5F5F5F5F5F5F5E2E2E2
310
E2E2E2E2E2E2E2E2E2E2E2E2E2E2E2E2E2E2F5E2E2E2E2F5E2E2E2E2E2E2E2E2E2E2E2E2E2F5E2E2E2F5E2E2E2E2E2E2E2F5E2F5E2E2E2F5F5E2E2E2E2E2E2E2E2E2E2E2E2E2E2E2E2E2E2E2E2E2E2E2E2E2E2F5F5F5E2E2E2E2E2E2E2E2E2E2E2E2E2E2E2E2E2E2E2E2E2E2E2E2E2E2F5E2E2E2E2E2E2E2E2E2E2E2E2E2E2
310
E2E2E2E2E2E2E2E2E2E2E2E2E2E2E2E2F5E2E2E2F5E2E2E2F5E2E2E2E2F5E2E2E2E2E2F5E2E2E2E2E2E2E2E2E2E2E2E2E2F5E2E2E2E2E2F5F5F5F5F5F5F5F5F5F5E2E2E2E2E2E2F5E2E2E2E2F5E2E2E2E2E2E2E2E2E2E2E2E2E2F5E2E2E2F5E2E2E2E2E2E2E2F5E2F5E2E2E2F5F5E2E2E2E2E2E2E2E2E2E2E2E2E2E2E2E2E2
310
E2E2E2E2E2E2E2E2E2F5F5F5E2E2E2E2E2E2E2E2E2E2E2E2E2E2E2E2E2E2E2E2E2E2E2E2E2E2F5E2E2E2E2E2E2E2E2E2E2E2E2E2E2E2E2E2E2E2E2E2E2E2E2E2E2E2E2E2E2F5E2E2E2F5E2E2E2F5E2E2E2E2F5E2E2E2E2E2F5E2E2E2E2E2E2E2E2E2E2E2E2E2F5E2E2E2E2F5F5F5F5F5F5F5F5F5F5F5E2F5F5F5E2E2F5E2E2
310
E2E2F5E2E2E2E2E2E2E2E2E2E2E2E2E2F5E2E2E2F5E2E2E2E2E2E2E2F5E2F5E2E2E2F5F5E2E2E2E2E2E2E2E2E2E2E2E2E2E2E2E2E2E2E2E2E2E2E2E2E2E2F5F5F5E2E2E2E2E2E2E2E2E2E2E2E2E2E2E2E2E2E2E2E2E2E2E2E2E2E2F5E2E2E2E2E2E2E2E2E2E2E2E2E2E2E2E2E2E2E2E2E2E2E2E2E2E2E2E2E2E2F5E2E2E2F5
310
E2E2E2F5E2E2E2E2F5E2E2E2E2E2F5E2E2E2E2E2E2E2E2E2E2E2E2E2F5E2E2E2E2E2F5F5F5F5F5F5F5F5F5F5E2E2E2E2E2E2F5E2E2E2E2F5E2E2E2E2E2E2E2E2E2E2E2E2E2F5E2E2E2F5E2E2E2E2E2E2E2F5E2F5E2E2E2F5F5E2E2E2E2E2E2E2E2E2E2E2E2E2E2E2E2E2E2E2E2E2E2E2E2E2E2F5F5F5E2E2E2E2E2E2E2E2E2
310
E2E2E2E2E2E2E2E2E2E2E2E2E2E2E2E2E2F5E2E2E2E2E2E2E2E2E2E2E2E2E2E2E2E2E2E2E2E2E2E2E2E2E2E2E2E2E2E2F5E2E2E2F5E2E2E2F5E2E2E2E2F5E2E2E2E2E2F5E2E2E2E2E2E2E2E2E2E2E2E2E2F5E2E2E2E2E2F5F5F5F5F5F5F5F5F5E2E2E2E2E2E2E2F5E2E2E2E2F5E2E2E2E2E2E2E2E2E2E2E2E2E2F5E2E2E2F5
310
F5F5F5F5F5F5F5F5E2F5E2E2E2F5F5E2E2E2E2E2E2E2E2E2E2E2E2E2E2E2E2E2E2E2E2E2E2E2E2E2E2F5F5F5E2E2E2E2E2E2E2E2E2E2E2E2E2E2E2E2E2E2E2E2E2E2E2E2E2E2F5E2E2E2E2E2E2E2E2E2E2E2E2E2E2E2E2E2E2E2E2E2E2E2E2E2E2E2E2E2E2F5E2E2E2F5E2E2E2F5E2E2E2E2F5E2E2E2E2E2F5F5F5F5F5F5F5
310
F5F5F5F5F5F5F5F5E2E2E2E2E2E2E2E2E2E2E2E2E2E2E2E2E2E2E2E2E2F5E2E2E2E2F5E2E2E2E2E2E2E2E2E2E2E2E2E2F5E2E2E2E2E2E2E2E2E2E2E2E2E2F5E2E2E2F5F5E2E2E2E2E2E2E2E2E2E2E2E2E2E2E2E2E2E2E2E2E2E2E2E2E2E2F5F5F5E2E2E2E2E2E2E2E2E2E2E2F5E2E2E2E2E2E2E2E2E2E2E2E2E2E2F5E2E2E2
310
E2E2E2E2E2E2E2E2E2E2E2E2E2E2E2E2E2E2E2E2E2E2E2E2E2E2E2F5E2E2E2F5E2E2E2F5E2E2E2E2F5E2E2E2E2E2E2E2E2E2E2E2E2E2E2E2E2E2E2E2E2E2E2E2E2E2E2E2E2E2E2E2E2E2E2E2E2E2E2E2E2E2F5E2E2E2E2F5E2E2E2E2E2E2E2E2E2E2E2E2E2F5E2E2E2E2E2E2E2E2E2E2E2E2E2F5E2E2E2F5F5E2E2E2E2E2E2
310
E2E2E2E2E2E2E2E2F5E2E2E2E2E2E2E2E2E2E2E2F5F5F5E2E2E2E2E2E2E2E2E2E2E2F5E2E2E2E2E2E2E2E2E2E2E2E2E2E2F5E2E2E2E2E2E2E2E2E2E2E2E2E2E2E2E2E2E2E2E2E2E2E2E2E2E2E2E2E2E2F5E2E2E2F5E2E2E2F5E2E2E2E2F5E2E2E2E2E2E2E2E2E2E2E2E2E2E2E2E2E2E2E2E2E2E2E2E2E2E2F5F5E2F5F5E2E2
310
F5F5E2E2E2E2E2E2F5E2E2E2E2F5E2E2E2E2E2E2E2E2E2E2E2E2E2F5E2E2E2E2E2E2E2E2E2E2E2E2E2F5E2E2E2F5F5E2E2E2E2E2E2E2E2E2E2E2E2E2E2F5E2E2E2E2E2E2E2E2E2E2E2F5F5F5E2E2E2E2E2E2E2E2E2E2E2F5E2E2E2E2E2E2E2E2E2E2E2E2E2E2F5E2E2E2E2E2E2E2E2E2E2E2E2E2E2E2E2E2E2E2E2E2E2E2E2
310
E2E2E2E2E2E2F5E2E2E2F5E2E2E2F5E2E2E2E2F5E2E2F5F5F5F5F5F5F5F5F5F5F5F5F5E2E2E2E2E2E2E2E2E2F5F5F5F5F5F5F5E2E2F5F5E2E2E2E2E2E2F5E2E2E2E2F5E2E2E2E2E2E2E2E2E2E2E2E2E2F5E2E2E2E2E2E2E2E2E2E2E2E2E2F5E2E2E2F5F5E2E2E2E2E2E2E2E2E2E2E2E2E2E2F5E2E2E2E2E2E2E2E2E2E2E2F5
310
F5F5E2E2E2E2E2E2E2E2E2E2E2F5E2E2E2E2E2E2E2E2E2E2E2E2E2E2F5E2E2E2E2E2E2E2E2E2E2E2E2E2E2E2E2E2E2E2E2E2E2E2E2E2E2E2E2E2E2F5E2E2E2F5E2E2E2F5E2E2E2E2F5E2E2F5F5F5F5F5F5F5E2F5F5F5F5F5E2E2E2E2E2E2E2E2E2F5F5F5F5F5F5F5E2E2F5F5E2E2E2E2E2E2F5E2E2E2E2F5E2E2E2E2E2E2E2
310
E2E2E2E2E2E2F5E2E2E2E2E2E2E2E2E2E2E2E2E2F5E2E2E2F5F5E2E2E2E2E2E2E2E2E2E2E2E2E2E2F5E2E2E2E2E2E2E2E2E2E2E2F5F5F5E2E2E2E2E2E2E2E2E2E2E2F5E2E2E2E2E2E2E2E2E2E2E2E2E2E2F5E2E2E2E2E2E2E2E2E2E2E2E2E2E2E2E2E2E2E2E2E2E2E2E2E2E2E2E2E2E2F5E2E2E2F5E2E2E2F5E2E2E2E2F5E2
310
E2E2E2E2E2E2E2E2E2E2E2E2E2E2E2E2E2E2E2E2E2E2E2E2E2E2E2E2E2E2E2E2E2E2E2E2E2E2E2E2F5E2E2E2E2F5E2E2E2E2E2E2E2E2E2E2E2E2E2F5E2E2E2E2E2E2E2E2E2E2E2E2E2F5E2E2E2F5F5E2E2E2E2E2E2E2E2E2E2E2E2E2E2F5E2E2E2E2E2E2E2E2E2E2E2F5F5F5E2E2E2E2E2E2E2E2E2E2E2F5E2E2E2E2E2E2E2
310
E2E2E2E2E2E2E2F5E2E2E2E2E2E2E2E2E2E2E2E2E2E2E2E2E2E2E2E2E2E2E2E2E2E2E2E2E2E2F5E2E2E2F5E2E2E2F5E2E2E2E2F5F5F5F5F5F5F5F5F5F5F5F5F5F5F5F5F5F5F5F5F5F5F5F5F5F5F5F5F5F5F5F5F5F5F5F5F5F5F5F5F5F5F5E2E2E2E2F5E2E2E2E2E2E2E2E2E2E2E2E2E2F5E2E2E2E2E2E2E2E2E2E2E2E2E2F5
310
E2E2E2F5F5E2E2E2E2E2E2E2E2E2E2E2E2E2E2F5E2E2E2E2E2E2E2E2E2E2E2F5F5F5E2E2E2E2E2E2E2E2E2E2E2F5E2E2E2E2E2E2E2E2E2E2E2E2E2E2F5E2E2E2E2E2E2E2E2E2E2E2E2E2E2E2E2E2E2E2E2E2E2E2E2E2E2E2E2E2E2F5E2E2E2F5E2E2E2F5E2E2E2E2E2E2E2E2E2E2E2E2E2E2E2E2E2E2E2E2E2E2E2E2E2E2E2
310
E2E2E2E2E2E2E2E2E2E2E2E2E2E2E2E2E2E2E2E2E2E2E2E2F5E2E2E2E2E2E2E2E2E2E2E2E2E2F5E2E2E2E2E2E2E2E2E2E2E2E2E2F5E2E2E2F5F5E2E2E2E2E2E2E2E2E2E2E2E2E2E2F5E2E2E2E2E2E2E2E2E2E2E2F5F5F5E2E2E2E2E2E2E2E2E2E2E2F5E2E2E2E2E2E2E2E2E2E2E2E2E2E2F5E2E2E2E2E2E2E2E2E2E2E2E2E2
310
E2E2E2E2E2E2E2E2E2E2E2E2E2E2E2E2E2F5E2E2E2F5E2E2E2F5E2E2E2E2E2E2E2E2E2E2E2E2E2E2E2E2E2E2E2E2E2E2E2E2E2E2E2E2E2E2E2E2E2E2E2E2E2E2E2E2E2E2E2E2E2E2E2E2E2E2E2F5E2E2E2E2E2E2E2E2E2E2E2E2E2F5E2E2E2E2E2E2E2E2E2E2E2E2E2F5E2E2E2F5F5E2E2E2E2E2E2E2E2E2E2E2E2E2E2F5E2
310
E2E2E2E2E2E2E2E2E2E2F5F5F5E2E2E2E2E2E2E2E2E2E2E2F5E2E2E2E2E2E2E2E2E2E2E2E2E2E2F5E2E2E2E2E2E2E2E2E2E2E2E2E2E2E2E2E2E2E2E2E2E2E2E2E2E2E2E2E2E2F5E2E2E2F5E2E2E2F5F5F5F5E2E2E2E2E2E2E2E2E2E2E2E2E2E2E2E2E2E2E2E2E2E2E2E2E2E2E2E2E2E2E2E2E2E2E2E2E2E2E2E2E2E2E2E2E2
310
F5F5F5F5E2E2E2E2E2E2E2E2E2E2E2E2E2F5F5F5F5F5F5F5F5F5F5F5F5F5F5F5F5F5E2F5F5E2E2E2E2E2E2E2E2E2E2E2E2E2E2F5E2E2E2E2E2E2E2E2E2E2E2F5F5F5E2E2E2E2E2E2E2E2E2E2E2F5E2E2E2E2E2E2E2E2E2E2E2E2E2E2F5E2E2E2E2E2E2E2E2E2E2E2E2E2E2E2E2E2E2E2E2E2E2E2E2E2E2E2E2E2E2F5E2E2F5
310
F5E2E2E2F5E2F5F5F5E2E2E2E2E2E2E2E2E2E2E2E2E2E2E2E2E2E2E2E2E2E2E2E2E2E2E2E2E2E2E2E2E2E2E2E2E2E2E2E2E2E2E2F5F5F5F5F5E2E2E2E2E2E2E2E2E2E2E2E2E2F5E2E2E2E2E2E2E2E2E2E2E2E2E2F5E2F5E2F5F5E2E2E2E2E2E2E2E2E2E2E2E2E2E2F5E2E2E2E2E2E2E2E2E2E2E2F5F5F5E2E2E2E2E2E2E2E2
310
E2E2E2F5E2E2E2E2E2E2E2E2E2E2E2E2E2E2F5E2E2E2E2E2E2E2E2E2E2E2E2E2E2E2E2E2E2E2E2E2E2E2E2E2E2E2E2E2E2F5E2E2F5F5F5F5F5F5F5F5F5F5E2E2E2E2E2F5E2E2E2E2E2E2E2E2E2E2E2E2E2E2E2E2E2E2E2E2E2E2E2E2E2E2E2E2E2E2E2F5E2E2E2E2E2F5F5F5F5F5E2E2E2E2E2E2E2E2E2E2E2E2E2F5E2E2E2
310
E2E2E2E2E2E2E2E2E2E2F5E2F5E2F5F5E2E2E2E2E2E2E2E2E2E2E2E2E2E2F5E2E2E2E2E2E2E2E2E2E2E2F5F5F5E2E2E2E2E2E2E2E2E2E2E2F5E2E2E2E2E2E2E2E2E2E2E2E2E2E2F5E2E2E2E2E2E2E2E2E2E2E2E2E2E2E2E2E2E2E2E2E2E2E2E2E2E2E2E2E2F5F5E2E2E2E2E2E2E2F5F5F5F5F5E2E2E2E2E2F5E2E2E2E2E2E2
310
E2E2E2E2E2E2E2E2E2E2E2E2E2E2E2E2E2E2E2E2E2E2E2E2E2F5E2E2E2E2E2F5F5F5F5F5E2E2E2E2E2E2E2E2E2E2E2E2E2F5E2E2E2E2E2E2E2E2E2E2E2E2E2F5E2F5E2F5F5E2E2E2E2E2E2E2E2E2E2E2E2E2E2F5E2E2E2E2E2E2E2E2E2E2E2F5F5F5E2E2E2E2E2E2E2E2E2E2E2F5E2E2E2E2E2E2E2E2E2E2E2E2E2E2F5E2E2
310
E2E2E2E2E2E2E2E2E2E2E2E2E2E2E2E2E2E2E2E2E2E2E2E2E2E2E2F5F5F5F5F5F5F5F5F5F5F5F5F5F5F5F5F5F5F5F5F5F5F5F5F5F5F5F5F5F5F5F5F5F5F5F5F5F5F5F5F5F5F5F5F5F5F5F5F5F5F5F5F5F5F5F5F5F5F5F5F5F5E2E2E2E2E2E2E2E2E2E2E2E2E2F5F5F5F5F5F5F5F5F5F5F5F5F5F5F5F5F5F5F5F5E2E2E2E2E2
310
E2E2E2E2E2E2E2E2E2F5E2E2E2E2E2E2E2E2E2E2E2F5F5F5E2E2E2E2E2E2E2E2E2E2E2F5E2E2E2E2E2E2E2E2E2E2E2E2E2E2F5E2E2E2E2E2E2E2E2E2E2E2E2E2E2E2E2E2E2E2E2E2E2E2E2E2E2E2E2E2E2E2E2E2E2E2E2E2E2E2E2E2E2E2E2E2E2E2F5F5E2F5E2E2E2F5F5F5F5F5F5E2E2E2E2E2E2E2E2E2F5F5F5F5F5F5E2
310
E2E2F5E2F5F5E2E2E2E2E2E2E2E2F5E2E2E2E2E2E2E2E2E2E2E2E2E2E2E2E2E2E2F5E2F5E2E2F5F5F5F5F5F5F5F5F5F5E2E2E2E2E2E2E2E2E2E2E2E2E2E2F5E2E2E2E2E2E2E2E2E2E2E2F5F5F5E2E2E2E2E2E2E2E2E2E2E2F5E2E2E2E2E2E2E2E2E2E2E2E2E2E2F5E2E2E2E2E2E2E2E2E2E2E2E2E2E2E2E2E2E2E2E2E2E2E2
310
E2E2E2E2E2E2E2E2E2E2E2E2E2E2E2E2E2E2E2E2E2E2E2E2F5F5E2F5E2E2E2E2E2E2E2E2E2E2E2E2E2E2E2E2E2E2E2E2E2E2E2E2E2E2E2F5E2F5F5E2E2E2E2E2E2E2E2E2F5E2E2E2E2E2E2E2E2E2E2E2E2E2E2E2E2E2F5E2F5E2E2E2E2E2E2E2E2E2E2E2F5E2E2E2E2E2E2E2E2E2E2E2E2E2E2F5E2E2E2E2E2E2E2E2E2E2E2
310
F5F5F5E2E2E2E2E2E2E2E2E2E2E2E2E2E2E2E2E2E2E2E2E2E2E2E2E2E2F5E2E2E2E2E2E2E2E2E2E2E2E2E2E2E2E2E2E2E2E2E2E2E2E2E2E2E2E2E2E2E2E2E2E2E2E2E2E2E2E2E2E2E2E2E2E2E2F5F5F5F5E2E2E2E2E2E2E2E2E2E2E2E2E2E2E2E2E2E2E2E2E2E2E2E2E2E2E2F5F5F5F5E2E2E2E2E2E2E2E2E2E2F5E2E2E2E2
310
E2E2E2E2E2E2E2E2E2E2E2E2F5F5F5E2E2E2E2E2E2E2E2E2E2E2F5E2E2E2E2E2E2E2E2E2E2E2E2E2E2E2E2E2E2E2E2E2E2E2E2E2E2F5F5F5E2E2E2E2E2E2E2E2E2E2E2E2E2E2E2E2E2E2E2E2E2E2E2E2E2E2F5E2E2E2E2E2E2E2E2E2E2E2E2E2E2E2E2E2E2E2E2E2E2E2E2E2E2E2E2E2E2E2E2E2E2E2E2E2E2E2E2E2E2E2E2
310
E2E2E2E2F5E2E2E2E2E2E2E2E2E2E2E2E2E2E2E2E2E2E2E2E2E2E2E2E2E2E2E2E2E2E2E2F5E2E2E2E2E2E2E2E2E2E2E2E2F5E2E2E2E2E2E2E2E2E2E2E2E2E2E2E2E2E2E2E2E2E2E2E2E2E2E2E2E2E2F5E2E2E2E2E2E2E2E2E2E2E2E2E2E2E2E2E2E2E2E2E2E2E2E2E2E2F5F5F5E2E2E2E2E2E2E2E2E2E2E2E2E2E2E2E2E2E2
310
E2E2E2E2E2E2E2E2F5E2E2E2E2E2E2E2E2E2E2E2E2E2E2E2E2E2E2E2E2E2E2E2E2E2E2E2E2E2E2E2E2E2E2E2E2E2E2E2E2E2E2E2E2E2E2E2E2F5E2E2E2E2E2E2E2E2E2E2E2E2E2E2E2E2E2E2E2E2E2E2E2E2E2E2E2E2E2E2E2F5E2E2E2E2E2E2E2E2E2E2E2E2E2F5F5F5F5F5F5F5F5F5F5E2E2E2E2E2E2E2E2E2E2E2E2E2E2
310
E2E2E2E2E2F5E2E2E2E2E2E2E2E2E2E2E2E2E2E2E2E2E2E2E2E2E2E2E2E2E2E2F5F5F5E2E2E2E2E2E2E2E2E2E2E2E2E2E2E2E2E2E2E2E2E2E2E2E2E2E2F5E2E2E2E2E2E2E2E2E2E2E2E2E2E2E2E2E2E2E2E2E2E2E2E2E2E2E2E2E2E2E2E2E2E2E2E2E2E2E2E2E2E2E2E2E2E2E2E2F5E2E2E2E2E2E2E2E2E2E2E2E2E2E2E2E2
310
E2E2E2E2E2E2E2E2E2E2E2E2E2E2E2F5E2E2E2E2E2E2E2E2E2E2E2E2E2F5F5F5F5F5F5F5F5F5E2E2E2E2E2E2E2E2E2E2E2E2E2E2E2E2E2E2E2E2F5E2E2E2E2E2E2E2E2E2E2E2E2E2E2E2E2E2E2E2E2E2E2E2E2E2E2F5F5F5E2E2E2E2E2E2E2E2E2E2E2E2E2E2E2E2E2E2E2E2E2E2E2E2E2E2F5E2E2E2E2E2E2E2E2E2E2E2E2
310
E2E2E2E2E2E2E2E2E2E2E2E2E2E2E2E2E2E2E2E2E2E2E2E2E2E2E2E2E2E2E2E2E2E2E2E2F5E2E2E2E2E2E2E2E2E2E2E2E2E2E2E2E2E2E2E2E2E2E2E2E2E2E2E2E2E2E2E2F5E2E2E2E2E2E2E2E2E2E2E2E2E2E2F5F5E2F5E2F5F5F5E2E2E2E2E2E2E2E2E2E2E2E2E2E2E2E2E2E2E2E2F5E2E2E2E2E2E2E2E2E2E2E2E2E2E2E2
310
E2E2E2E2E2E2E2E2E2E2E2F5F5F5E2E2E2E2E2E2E2E2E2E2E2E2E2E2E2E2E2E2E2E2E2E2E2E2E2E2F5E2E2E2E2E2E2E2E2E2E2E2E2E2E2E2E2E2E2E2E2E2E2E2E2E2E2E2E2E2E2E2E2E2E2E2E2E2E2E2E2E2E2E2E2E2E2E2E2F5E2E2E2E2E2E2E2E2E2E2E2E2E2E2E2E2E2E2E2E2E2E2E2E2E2E2E2E2E2E2E2F5E2E2E2E2E2
310
E2E2E2E2E2E2E2E2E2E2E2E2E2E2E2E2E2E2E2E2E2E2E2E2E2E2E2E2E2E2E2E2E2E2E2E2E2F5E2E2E2E2E2E2E2E2E2E2E2E2E2E2E2E2E2E2E2E2E2E2E2E2E2E2F5F5F5E2E2E2E2E2E2E2E2E2E2E2E2E2E2E2E2E2E2E2E2E2E2E2E2E2E2F5E2E2E2E2E2E2E2E2E2E2E2E2E2E2E2E2E2E2E2E2E2E2E2E2E2E2E2E2E2E2E2E2E2
310
E2E2E2E2E2E2E2E2E2E2E2E2E2E2E2F5E2E2E2E2E2E2E2E2E2E2E2E2E2E2E2E2E2E2E2E2E2E2E2E2E2E2E2E2E2E2E2F5E2E2E2E2E2E2E2E2E2E2E2E2E2E2E2E2E2E2E2E2E2E2E2E2E2E2E2E2E2E2E2E2E2E2E2E2E2E2E2E2E2E2F5E2E2E2E2E2E2E2E2E2E2E2E2E2E2E2E2E2E2E2E2E2E2E2E2E2E2F5F5F5E2E2E2E2E2E2E2
310
E2E2E2E2E2E2E2E2E2E2E2E2E2E2E2E2E2E2E2F5E2E2E2E2E2E2E2E2E2E2E2E2E2E2E2E2E2E2E2E2E2E2E2E2E2E2E2E2E2E2E2E2E2E2E2E2E2E2E2E2E2E2E2E2E2E2E2E2F5E2E2E2E2E2E2E2E2E2E2E2E2E2E2E2E2E2E2E2E2E2E2E2E2E2E2E2E2E2E2E2F5E2E2E2E2E2E2E2E2E2E2E2E2E2E2E2E2E2E2E2E2E2E2E2E2E2E2
310
E2E2E2E2E2E2E2E2E2E2E2E2E2E2E2E2F5E2E2E2E2E2E2E2E2E2E2E2E2E2E2E2E2E2E2E2E2E2E2E2E2E2E2F5F5F5E2E2E2E2E2E2E2E2E2E2E2F5E2E2E2E2E2E2E2E2E2E2E2E2E2E2F5E2E2E2E2E2E2E2E2E2E2E2E2E2E2E2E2E2E2E2E2E2E2E2E2E2E2E2E2E2E2E2E2E2E2E2E2E2E2E2E2E2E2E2E2E2E2E2E2F5E2E2E2E2E2
310
E2E2E2E2E2E2E2E2E2E2E2E2E2E2E2E2E2E2E2E2E2E2E2E2E2E2F5E2E2E2E2E2E2E2E2E2E2E2E2E2E2E2E2E2E2E2E2E2E2E2E2E2E2E2E2E2E2E2E2E2E2E2E2E2E2E2E2E2E2F5E2E2E2E2E2E2E2E2E2E2E2E2E2E2F5E2E2E2E2E2E2E2E2E2E2E2F5F5F5E2E2E2E2E2E2E2E2E2E2E2F5E2E2E2E2E2E2E2E2E2E2E2E2E2E2F5E2
310
E2E2E2E2E2E2E2E2E2E2E2E2E2E2E2E2E2E2E2E2E2E2E2E2E2E2E2E2E2E2E2E2E2E2E2E2E2E2E2E2E2E2E2E2E2E2E2E2E2E2E2E2E2E2E2E2E2E2E2E2E2E2E2E2E2E2E2E2E2E2E2E2E2E2E2E2E2E2E2E2E2E2E2E2E2E2E2E2E2E2E2E2E2E2E2E2E2E2E2E2E2E2E2E2E2E2E2E2E2E2E2E2E2E2E2E2E2E2E2E2E2E2F5E2E2E2E2
310
E2E2E2E2E2E2E2E2E2E2F5E2E2E2E2E2E2E2E2E2E2E2F5F5F5E2E2E2E2E2E2E2E2E2E2E2F5E2E2E2E2E2E2E2E2E2E2E2E2E2E2F5E2E2E2E2E2E2E2E2E2E2E2E2E2E2E2E2E2E2E2E2E2E2E2E2E2E2E2E2E2E2E2E2E2E2E2E2E2E2E2E2E2E2E2E2E2E2E2E2F5E2E2E2E2E2E2E2E2E2E2E2E2E2E2E2E2E2E2E2E2E2E2E2E2E2E2
310
E2E2E2E2E2F5E2E2E2E2E2E2E2E2E2E2E2E2E2E2E2E2E2E2E2E2E2E2E2E2E2E2E2E2E2E2E2E2E2E2E2E2E2E2E2E2E2E2F5E2E2E2E2E2E2E2E2E2E2E2E2E2E2F5E2E2E2E2E2E2E2E2E2E2E2F5F5F5E2E2E2E2E2E2E2E2E2E2E2F5E2E2E2E2E2E2E2E2E2E2E2E2E2E2F5E2E2E2E2E2E2E2E2E2E2E2E2E2E2E2E2E2E2E2E2E2E2
310
E2E2E2E2E2E2E2E2E2E2E2E2E2E2E2E2E2E2E2E2E2E2E2E2E2E2F5F5F5F5F5F5F5F5F5F5F5F5F5F5F5F5F5F5F5F5F5F5F5F5F5F5F5F5F5F5F5F5F5E2E2E2E2E2E2E2E2E2E2E2E2E2E2E2E2E2E2E2E2E2E2E2E2E2E2E2E2E2E2E2E2E2E2E2E2E2E2E2E2E2E2F5E2E2E2E2E2E2E2E2E2E2E2E2E2E2F5E2E2E2E2E2E2E2E2E2E2
310
E2F5F5F5E2E2E2E2E2E2E2E2E2E2E2F5E2E2E2E2E2E2E2E2E2E2E2E2E2E2F5E2E2E2E2E2E2E2E2E2E2E2E2E2E2E2E2E2E2E2E2E2E2E2E2E2E2E2E2E2E2E2E2E2E2E2E2E2E2E2E2E2E2E2E2E2E2E2E2F5E2E2E2E2E2E2E2E2E2E2E2E2E2E2E2F5F5E2E2E2E2E2E2E2E2E2E2E2E2E2E2F5E2E2E2E2E2E2E2E2E2E2E2E2E2E2E2
310
E2E2E2E2E2E2E2E2E2E2E2E2E2E2E2E2E2E2E2E2E2E2E2E2E2E2E2F5E2E2E2E2E2E2E2E2E2E2E2E2E2E2F5E2E2E2E2E2E2E2E2E2E2E2F5F5F5E2E2E2E2E2E2E2E2E2E2E2F5E2E2E2E2E2E2E2E2E2E2E2E2E2E2F5F5F5F5F5F5F5F5F5F5F5F5F5F5F5F5F5F5F5F5F5F5F5F5F5F5F5F5F5F5F5F5F5F5F5F5E2E2E2E2E2E2E2E2
310
E2E2E2E2E2E2E2E2E2E2E2E2E2E2E2E2E2E2E2E2F5F5F5E2E2E2E2E2E2E2E2E2E2E2E2E2E2E2E2E2E2E2E2E2E2E2E2E2E2E2E2E2E2E2E2E2E2E2E2E2E2E2E2E2E2E2E2E2E2E2E2E2E2E2E2E2E2E2E2E2F5E2E2E2E2E2E2E2E2E2E2E2E2E2E2F5E2E2E2E2E2E2E2E2E2E2E2F5F5F5E2E2E2E2E2E2E2E2E2E2E2F5E2E2E2E2E2
310
E2E2E2E2E2E2E2E2E2F5E2F5F5F5E2F5F5E2F5F5F5F5F5F5E2F5F5E2E2E2E2E2F5E2F5E2F5E2E2F5F5E2F5F5F5E2E2E2E2E2E2E2E2E2E2E2E2E2E2E2E2E2E2E2E2E2E2E2E2E2E2E2E2E2E2E2E2E2E2E2E2E2E2E2E2E2E2E2E2E2E2E2E2E2E2E2E2E2E2E2E2E2E2E2E2E2E2E2E2E2E2E2E2E2E2E2E2E2E2E2E2E2E2E2E2E2E2
310
E2E2E2E2E2E2F5E2E2E2E2E2E2E2E2E2E2E2E2E2E2F5E2E2E2E2E2E2E2E2E2E2E2F5F5F5E2E2E2E2E2E2E2E2E2E2E2F5E2E2E2E2E2E2E2E2E2E2E2E2E2E2F5E2F5E2F5E2F5F5E2F5E2E2F5E2F5F5E2F5E2E2E2E2E2E2F5F5E2F5E2F5E2F5F5E2E2F5E2E2E2E2E2E2E2E2E2E2E2E2E2E2E2E2E2E2E2E2E2E2E2E2E2E2E2E2E2
310
E2E2E2E2E2E2E2E2E2E2E2E2E2E2E2E2E2E2E2E2E2E2E2E2E2E2E2E2E2E2E2E2E2E2E2E2E2E2E2E2E2E2E2E2E2E2E2E2E2E2E2E2E2E2E2E2E2E2E2F5E2E2E2E2E2E2E2E2E2E2E2E2E2E2F5E2E2E2E2E2E2E2E2E2E2E2F5F5F5E2E2E2E2E2E2E2E2E2E2E2F5E2E2E2E2E2E2E2E2E2E2E2E2E2E2F5E2F5F5F5E2F5F5F5F5E2E2
310
E2F5F5F5E2E2F5F5F5F5F5E2F5E2E2F5E2F5E2F5E2F5F5F5E2E2E2E2E2E2E2E2E2E2E2E2E2E2E2E2E2E2E2E2E2E2E2E2E2E2E2E2E2E2E2E2E2E2E2E2E2E2E2E2E2E2E2E2E2E2E2E2E2E2E2E2E2E2E2E2E2E2E2E2E2E2E2E2E2E2E2E2E2E2E2E2E2E2E2E2E2E2E2E2E2E2E2E2E2E2E2E2F5E2E2E2E2E2E2E2E2E2E2E2E2E2E2
310
F5E2E2E2E2E2E2E2E2E2E2E2F5F5F5E2E2E2E2E2E2E2E2E2E2E2F5E2E2E2E2E2E2E2E2E2E2E2E2E2E2F5E2F5E2F5F5E2F5F5F5E2E2E2E2F5F5F5F5E2E2E2E2E2E2F5F5E2F5F5F5F5F5E2F5F5F5E2E2E2E2E2E2E2E2E2E2E2E2E2E2E2E2E2E2E2E2E2E2E2E2E2E2E2E2E2E2E2E2E2E2E2E2E2E2E2E2E2E2E2E2E2E2E2E2E2E2
310
E2E2E2E2E2E2E2E2E2E2E2E2E2E2E2E2E2E2E2E2E2E2E2E2E2E2E2E2E2E2E2E2E2E2E2E2E2E2F5E2E2E2E2E2E2E2E2E2E2E2E2E2E2F5E2E2E2E2E2E2E2E2E2E2E2F5F5F5E2E2E2E2E2E2E2E2E2E2E2F5E2E2E2E2E2E2E2E2E2E2E2E2E2E2F5E2E2F5E2F5E2F5F5F5E2E2F5F5F5E2F5F5E2E2E2E2E2F5E2F5F5E2F5E2F5E2E2
310
F5F5E2E2E2E2E2E2E2E2E2E2E2E2E2E2E2E2E2E2E2E2E2E2E2E2E2E2E2E2E2E2E2E2E2E2E2E2E2E2E2E2E2E2E2E2E2E2E2E2E2E2E2E2E2E2E2E2E2E2E2E2E2E2E2E2E2E2E2E2E2E2E2E2E2E2E2E2E2E2E2E2E2E2E2E2E2E2E2E2E2F5E2E2E2E2E2E2E2E2E2E2E2E2E2E2F5E2E2E2E2E2E2E2E2E2E2E2F5F5F5E2E2E2E2E2E2
310
E2E2E2E2E2F5E2E2E2E2E2E2E2E2E2E2E2E2E2E2F5E2E2E2E2E2E2E2E2E2E2E2E2E2E2E2E2E2E2E2E2E2E2E2E2E2E2E2E2E2E2E2E2E2E2E2E2E2E2E2E2E2E2E2E2E2E2E2E2E2E2E2E2E2E2E2E2E2E2E2E2E2E2E2E2E2E2E2E2E2E2E2E2E2E2E2E2E2E2E2E2E2E2E2E2E2E2E2E2E2E2E2E2E2E2E2E2E2E2E2E2E2E2E2E2E2E2
310
E2E2E2E2E2E2E2E2E2E2E2E2E2E2E2E2E2F5E2E2E2E2E2E2E2E2E2E2E2E2E2E2F5E2E2E2E2E2E2E2E2E2E2E2F5F5F5E2E2E2E2E2E2E2E2E2E2E2F5E2E2E2E2E2E2E2E2E2E2E2E2E2E2F5E2E2E2E2E2E2E2E2E2E2E2E2E2E2E2E2E2E2E2E2E2E2E2E2E2E2E2E2E2E2E2E2E2E2E2E2E2E2E2E2E2E2E2E2E2E2E2E2E2E2E2E2E2
310
E2E2E2E2E2E2E2E2E2E2E2E2E2E2E2E2E2E2E2E2E2E2E2E2E2E2E2E2E2E2E2E2E2E2E2E2E2E2E2E2E2E2E2E2E2E2E2E2E2E2E2E2E2E2E2E2E2E2E2E2E2E2E2E2E2E2E2E2E2E2F5E2E2E2E2E2E2E2E2E2E2E2E2E2E2F5E2E2E2E2E2E2E2E2E2E2E2F5F5F5E2E2E2E2E2E2E2E2E2E2E2F5E2E2E2E2E2E2E2E2E2E2E2E2E2E2F5
310
E2E2E2E2E2E2E2E2E2E2E2E2E2E2E2E2E2E2E2E2E2E2E2E2E2E2E2E2E2E2E2E2E2E2E2E2E2E2E2E2E2E2E2E2E2E2E2E2E2E2E2E2E2E2E2E2E2E2E2E2E2E2E2E2E2E2E2E2E2E2E2E2E2E2E2E2E2E2E2E2E2E2E2E2E2E2E2E2E2E2E2E2E2E2E2E2E2E2E2E2E2E2E2E2E2E2E2E2E2E2E2E2E2E2E2E2E2E2E2E2E2E2E2F5E2E2E2
310
E2E2E2E2E2E2E2E2E2E2E2F5E2E2E2E2E2E2E2E2E2E2E2F5F5F5E2E2E2E2E2E2E2E2E2E2E2F5E2E2E2E2E2E2E2E2E2E2E2E2E2E2F5E2E2E2E2E2E2E2E2E2E2E2E2E2E2E2E2E2E2E2E2E2E2E2E2E2E2E2E2E2E2E2E2E2E2E2E2E2E2E2E2E2E2E2E2E2E2E2E2E2E2E2E2E2E2E2E2E2E2E2E2E2E2E2E2E2E2E2E2E2E2E2E2E2E2
310
E2E2E2E2E2E2E2E2E2E2E2E2E2E2E2E2E2E2E2E2E2E2E2E2E2E2E2E2E2E2E2E2E2E2E2E2E2E2E2E2E2E2E2E2E2E2E2E2E2F5E2E2E2E2E2E2E2E2E2E2E2E2E2E2F5E2E2E2E2E2E2E2E2E2E2E2F5F5F5E2E2E2E2E2E2E2E2E2E2E2E2E2E2E2E2E2E2E2E2E2E2E2E2E2E2F5E2E2E2E2E2E2E2E2E2E2E2E2E2E2E2E2E2E2E2E2E2
310
E2E2E2E2E2E2E2E2E2E2E2E2E2E2E2E2E2E2E2E2E2E2E2E2E2E2E2E2E2E2E2E2E2E2E2E2E2E2E2E2E2E2E2E2E2E2E2E2E2E2E2E2E2E2E2E2E2E2E2E2E2E2E2E2E2E2E2E2E2E2E2E2E2E2E2E2E2E2E2E2E2E2E2E2E2E2E2E2E2E2E2E2E2E2E2E2E2E2E2E2E2E2F5E2E2E2E2E2E2E2E2E2E2E2E2E2E2E2E2E2E2E2E2E2E2E2E2
310
E2E2F5F5F5E2E2E2E2E2E2E2E2E2E2E2E2E2E2E2E2E2E2E2E2E2E2E2E2E2E2F5E2E2E2E2E2E2E2E2E2E2E2E2E2E2E2E2E2E2E2E2E2E2E2E2E2E2E2E2E2E2E2E2E2E2E2E2E2E2E2E2E2E2E2E2E2E2E2E2E2E2E2E2E2E2E2E2E2E2E2E2E2E2E2E2E2E2E2E2E2E2E2E2E2E2E2E2E2E2E2E2E2E2E2E2E2E2E2E2E2E2E2E2E2E2E2
310
E2E2E2E2E2E2E2E2E2E2E2E2E2E2E2E2E2E2E2E2E2E2E2E2E2E2E2E2F5E2E2E2E2E2E2E2E2E2E2E2E2E2E2E2E2E2E2E2E2E2E2E2E2E2E2F5F5F5E2E2E2E2E2E2E2E2E2E2E2E2E2E2E2E2E2E2E2E2E2E2E2E2E2E2F5E2E2E2E2E2E2E2E2E2E2E2E2E2E2E2E2E2E2E2E2E2E2E2E2E2E2E2E2E2E2E2E2E2E2E2E2E2E2E2E2E2E2
310
E2E2E2E2E2E2E2E2E2E2E2E2E2E2E2E2E2E2E2E2E2E2E2E2E2E2E2E2E2E2E2E2E2E2E2E2E2E2E2E2E2E2E2E2E2E2E2E2E2E2E2E2E2E2E2E2E2E2E2E2E2E2E2E2E2E2E2E2E2E2E2E2E2E2E2E2E2E2E2E2E2F5E2E2E2E2E2E2E2E2E2E2E2E2E2E2E2E2E2E2E2E2E2E2E2E2E2E2F5F5F5E2E2E2E2E2E2E2E2E2E2E2E2E2E2E2E2
310
E2E2E2E2E2E2E2E2E2E2F5E2E2E2E2E2E2E2E2E2E2E2E2E2E2E2E2E2E2E2E2E2E2E2E2E2E2E2E2E2E2E2E2E2E2E2E2E2E2E2E2E2E2E2E2E2E2E2E2E2E2E2E2E2E2E2E2E2E2E2E2E2E2E2E2E2E2E2E2E2E2E2E2E2E2E2E2E2E2E2E2E2E2E2E2E2E2E2E2E2E2E2E2E2E2E2E2E2E2E2E2E2E2E2E2E2E2E2E2E2E2E2E2E2E2E2E2
310
E2E2E2E2E2E2E2F5E2E2E2E2E2E2E2E2E2E2E2E2E2E2E2E2E2E2E2E2E2E2E2E2E2E2F5F5F5E2E2E2E2E2E2E2E2E2E2E2E2E2E2E2E2E2E2E2E2E2E2E2E2E2E2F5F5F5F5F5F5F5F5F5F5F5F5F5F5F5F5F5F5F5F5F5F5F5F5F5F5F5F5F5F5F5F5F5F5F5F5F5F5F5F5F5F5F5F5F5F5F5F5F5F5F5F5F5F5F5F5F5F5F5F5F5F5F5F5
310
F5F5F5F5F5F5F5F5F5F5F5F5F5F5F5F5F5F5F5F5F5F5F5F5F5F5F5F5F5F5F5F5F5F5F5F5F5F5F5F5F5F5F5F5F5F5F5F5F5F5F5F5F5F5F5F5F5F5F5F5F5E2E2E2E2E2E2E2E2E2E2E2E2E2E2E2E2E2E2E2E2E2E2E2E2E2E2F5F5F5E2E2E2E2E2E2E2E2E2E2E2E2E2E2E2E2E2E2E2E2E2E2E2E2E2E2E2E2E2E2E2E2E2E2E2E2E2
310
E2E2E2E2E2E2E2E2E2E2E2E2E2E2E2E2E2E2E2E2E2E2E2E2E2E2E2E2E2E2E2E2E2E2E2E2E2E2E2E2E2E2E2E2E2E2E2E2E2E2E2E2E2E2E2E2E2E2E2E2E2E2E2E2E2E2E2E2E2E2E2E2E2E2E2E2E2E2E2E2E2E2E2E2E2E2E2E2E2E2E2E2E2E2E2E2E2E2E2E2E2E2E2E2E2E2E2E2E2E2E2E2E2E2E2E2E2E2E2E2E2E2E2E2E2E2E2
310
E2E2E2E2E2E2E2E2E2E2E2E2E2F5F5F5E2E2E2E2E2E2E2E2E2E2E2E2E2E2E2E2E2E2E2E2E2E2E2E2E2E2E2E2E2E2E2E2E2E2E2E2E2E2E2E2E2E2E2E2E2E2E2E2E2E2E2E2E2E2E2E2E2E2E2E2E2E2E2E2E2E2E2E2E2E2E2E2E2E2E2E2E2E2E2E2E2E2E2E2E2E2E2E2E2E2E2E2E2E2E2E2E2E2E2E2E2E2E2E2E2E2E2E2E2E2E2
310
E2E2E2E2E2E2E2E2E2E2E2E2E2E2E2E2E2E2E2E2E2E2E2E2E2E2E2E2E2E2E2E2E2E2E2E2E2E2E2E2E2E2E2E2E2E2E2E2E2E2E2E2E2E2E2E2E2E2E2E2E2E2E2E2E2E2F5F5F5E2E2E2E2E2E2E2E2E2E2E2E2E2E2E2E2E2E2E2E2E2E2E2E2E2E2E2E2E2E2E2E2E2E2E2E2E2E2E2E2E2E2E2E2E2E2E2E2E2E2E2E2E2E2E2E2E2E2
310
E2E2E2E2E2E2E2E2E2E2E2E2E2E2E2E2E2E2E2E2E2E2E2E2E2E2E2E2E2E2E2E2E2E2E2E2E2E2E2E2E2E2E2E2E2E2E2E2E2E2E2E2E2E2E2E2E2E2E2E2E2E2E2E2E2E2E2E2E2E2E2E2E2E2E2E2E2E2E2E2E2E2E2E2E2E2E2E2E2E2E2E2E2E2E2E2E2E2E2E2E2E2E2E2E2E2E2E2E2E2E2E2E2E2E2E2E2E2E2F5F5F5E2E2E2E2E2
310
E2E2E2E2E2E2F5E2E2E2E2E2E2E2E2E2E2E2E2E2E2E2E2E2E2E2E2E2E2E2E2E2E2E2E2E2E2E2E2E2E2E2E2E2E2E2E2E2E2E2E2E2E2E2E2E2E2E2E2E2E2E2E2E2E2E2E2E2E2E2E2E2E2E2E2E2E2E2E2E2E2E2E2E2E2E2E2E2E2E2E2E2E2E2E2E2E2E2E2E2E2E2E2E2E2E2E2E2E2E2E2E2E2E2E2E2E2E2E2E2E2E2E2E2E2E2E2
310
E2E2E2E2E2E2E2E2E2E2E2E2E2E2E2E2E2E2E2E2E2E2E2E2E2E2E2E2E2E2E2E2E2F5E2E2E2E2E2E2E2E2E2E2E2F5F5F5E2E2E2E2E2E2E2E2E2E2E2F5E2E2E2E2E2E2E2E2E2E2E2E2E2E2E2E2E2E2E2E2E2E2E2E2E2E2E2E2E2E2E2E2E2E2E2E2E2E2E2E2E2E2E2E2E2E2E2E2E2E2E2E2E2E2E2E2E2E2E2E2E2E2E2E2E2E2E2
310
E2E2E2E2E2E2E2E2E2E2E2E2E2E2E2E2E2E2E2E2E2E2E2E2E2E2E2E2E2E2E2E2E2E2E2E2E2E2E2E2E2E2E2E2E2E2E2E2E2E2E2E2E2E2E2E2E2E2E2E2E2E2E2E2E2E2E2E2E2E2E2E2E2E2E2E2E2E2E2E2E2E2E2E2E2E2F5E2E2E2E2E2E2E2E2E2E2E2F5F5F5E2E2E2E2E2E2E2E2E2E2E2F5E2E2E2E2E2E2E2E2E2E2E2E2E2E2
310
E2E2E2E2E2E2E2E2E2E2E2E2E2E2E2E2E2E2E2E2E2E2E2E2E2E2E2E2E2E2E2E2E2E2E2E2E2E2E2E2E2E2E2E2E2E2E2E2E2E2E2E2E2E2E2E2E2E2E2E2E2E2E2E2E2E2E2E2E2E2E2E2E2E2E2E2E2E2E2E2E2E2E2E2E2E2E2E2E2E2E2E2E2E2E2E2E2E2E2E2E2E2E2E2E2E2E2E2E2E2E2E2E2E2E2E2E2E2E2E2E2E2E2E2E2E2E2
310
E2E2E2E2E2E2E2E2E2E2E2E2F5E2E2E2E2E2E2E2E2E2E2E2F5F5F5E2E2E2E2E2E2E2E2E2E2E2F5E2E2E2E2E2E2E2E2E2E2E2E2E2E2E2E2E2E2E2E2E2E2E2E2E2E2E2E2E2E2E2E2E2E2E2E2E2E2E2E2E2E2E2E2E2E2E2E2E2E2E2E2E2E2E2E2E2E2E2E2E2E2E2E2E2E2E2E2E2E2E2E2E2E2E2E2E2E2E2E2E2E2E2E2E2E2E2E2
310
E2E2E2E2E2E2E2E2E2E2E2E2E2E2E2E2E2E2E2E2E2E2E2E2E2E2E2E2E2E2E2E2E2E2E2E2E2E2E2E2E2E2E2E2E2E2E2E2E2E2E2E2E2E2E2E2E2E2E2E2E2E2E2E2E2F5E2E2E2E2E2E2E2E2E2E2E2F5F5F5E2E2E2E2E2E2E2E2E2E2E2F5E2E2E2E2E2E2E2E2E2E2E2E2E2E2E2E2E2E2E2E2E2E2E2E2E2E2E2E2E2E2E2E2E2E2E2
310
E2E2E2E2E2E2E2E2E2E2E2E2E2E2E2E2E2E2E2E2E2E2E2E2E2E2E2E2E2E2E2E2E2E2E2E2E2E2E2E2E2E2E2E2E2E2E2E2E2E2E2E2E2E2E2E2E2E2E2E2E2E2E2E2E2E2E2E2E2E2E2E2E2E2E2E2E2E2E2E2E2E2E2E2E2E2E2E2E2E2E2E2E2E2E2E2E2E2E2E2E2E2E2E2E2E2E2E2E2E2E2E2E2E2E2E2E2E2F5E2E2E2E2E2E2E2E2
310
E2E2E2F5F5F5E2E2E2E2E2E2E2E2E2E2E2F5E2E2E2E2E2E2E2E2E2E2E2E2E2E2E2E2E2E2E2E2E2E2E2E2E2E2E2E2E2E2E2E2E2E2E2E2E2E2E2E2E2E2E2E2E2E2E2E2E2E2E2E2E2E2E2E2E2E2E2E2E2E2E2E2E2E2E2E2E2E2E2E2E2E2E2E2E2E2E2E2E2E2E2E2E2E2E2E2E2E2E2E2E2E2E2E2E2E2E2E2E2E2E2E2E2E2E2E2E2
310
E2E2E2E2E2E2E2E2E2E2E2E2E2E2E2E2E2E2E2E2E2E2E2E2E2E2E2E2E2E2E2E2E2E2E2E2E2E2E2E2E2E2E2E2F5E2E2E2E2E2E2E2E2E2E2E2F5F5F5E2E2E2E2E2E2E2E2E2E2E2F5E2E2E2E2E2E2E2E2E2E2E2E2E2E2E2E2E2E2E2E2E2E2E2E2E2E2E2E2E2E2E2E2E2E2E2E2E2E2E2E2E2E2E2E2E2E2E2E2E2E2E2E2E2E2E2E2
310
E2E2E2E2E2E2E2E2E2E2E2E2E2E2E2E2E2E2E2E2E2E2E2E2E2E2E2E2E2E2E2E2E2E2E2E2E2E2E2E2E2E2E2E2E2E2E2E2E2E2E2E2E2E2E2E2E2E2E2E2E2E2E2E2E2E2E2E2E2E2E2E2E2E2E2E2E2E2E2E2E2E2E2E2E2E2E2E2E2E2E2E2E2E2E2E2E2F5E2E2E2E2E2E2E2E2E2E2E2F5F5F5E2E2E2E2E2E2E2E2E2E2E2F5F5F5F5
310
F5F5F5F5F5E2E2E2E2E2E2E2E2E2F5F5F5F5F5F5F5F5F5F5F5F5F5F5F5F5E2E2E2E2E2E2E2E2E2E2F5F5F5F5F5F5F5F5F5F5F5F5F5F5F5F5E2E2E2E2E2E2E2E2E2F5F5F5F5F5F5F5F5F5F5F5F5F5F5F5F5F5E2E2E2E2E2E2E2E2E2F5F5F5F5F5F5F5F5F5F5F5F5F5F5F5F5E2E2E2E2E2E2E2E2E2E2F5F5F5F5F5F5F5F5F5F5
310
F5F5F5F5F5F5E2E2E2E2E2E2E2E2E2F5F5F5F5F5F5F5F5F5E2E2E2E2E2E2E2E2E2E2E2F5F5F5E2E2E2E2E2E2E2E2E2E2E2E2E2E2E2E2E2E2E2E2E2E2E2E2E2E2E2E2E2E2E2E2E2E2E2E2E2E2E2E2E2E2E2E2E2E2E2E2E2E2E2E2E2E2E2E2E2E2E2E2E2E2E2E2E2E2E2E2E2E2E2E2E2E2E2E2E2E2E2E2E2E2E2E2E2E2E2E2E2
310
E2E2E2E2E2E2E2E2E2E2E2E2E2E2E2E2E2E2E2E2E2E2E2E2E2E2E2E2E2E2E2E2E2E2E2E2E2E2E2E2E2E2E2E2E2E2E2E2E2E2E2E2E2E2E2E2E2E2E2E2E2E2E2E2E2E2E2E2E2E2E2E2E2E2E2E2E2E2E2E2E2E2E2E2E2E2E2E2F5F5F5E2E2E2E2E2E2E2E2E2E2E2E2E2E2E2E2E2E2E2E2E2E2E2E2E2E2E2E2E2E2E2E2E2E2E2E2
310
E2E2E2E2E2E2E2E2E2E2E2E2E2E2E2E2E2E2E2E2E2E2E2E2E2E2E2E2E2E2E2E2E2E2E2E2E2E2E2E2E2E2E2E2E2E2E2E2E2E2E2E2E2E2E2E2E2E2E2E2E2E2E2E2E2E2E2E2E2E2E2E2E2E2E2E2E2E2E2E2E2E2E2E2E2E2E2E2E2E2E2E2E2E2E2E2E2E2E2E2E2E2E2E2E2E2E2E2E2E2E2E2E2E2E2E2E2E2E2E2E2E2E2E2E2E2E2
310
E2E2E2E2E2E2E2E2E2E2E2E2E2E2F5F5F5E2E2E2E2E2E2E2E2E2E2E2E2E2E2E2E2E2E2E2E2E2E2E2E2E2E2E2E2E2E2E2E2E2E2E2E2E2E2E2E2E2E2E2E2E2E2E2E2E2E2E2E2E2E2E2E2E2E2E2E2E2E2E2E2E2E2E2E2E2E2E2E2E2E2E2E2E2E2E2E2E2E2E2E2E2E2E2E2E2E2E2E2E2E2E2E2E2E2E2E2E2E2E2E2E2E2E2E2E2E2
310
E2E2E2E2E2E2E2E2E2E2E2E2E2E2E2E2E2E2E2E2E2E2E2E2E2E2E2E2E2E2E2E2E2E2E2E2E2E2E2E2E2E2E2E2E2E2E2E2E2E2E2E2E2E2E2E2E2E2E2E2E2E2E2E2E2E2E2F5F5F5E2E2E2E2E2E2E2E2E2E2E2E2E2E2E2E2E2E2E2E2E2E2E2E2E2E2E2E2E2E2E2E2E2E2E2E2E2E2E2E2E2E2E2E2E2E2E2E2E2E2E2E2E2E2E2E2E2
310
E2E2E2E2E2E2E2E2E2E2E2E2E2E2E2E2E2E2E2E2E2E2E2E2E2E2E2E2E2E2E2E2E2E2E2E2E2E2E2E2E2E2E2E2E2E2E2E2E2E2E2E2E2E2E2E2E2E2E2E2E2E2E2E2E2E2E2E2E2E2E2E2E2E2E2E2E2E2E2E2E2E2E2E2E2E2E2E2E2E2E2E2E2E2E2E2E2E2E2E2E2E2E2E2E2E2E2E2E2E2E2E2E2E2E2E2E2E2E2E2F5EFF5F5F5F5F5
310
F5F5F5F5F5F5F5F5F5F5F5F5F5F5F5F5F5F5F5F5F5F5F5F5F5F5F5F5F5F5F5F5F5F5F5F5F5F5F5F5F5F5F5F5F5F5F5F5F5F5F5F5F5F5F5F5F5F5F5F5F5F5F5F5F5F5F5F5F5F5F5F5F5F5F5F5F5F5F5F5F5F5F5F5F5F5F5F5F5F5F5F5F5F5F5F5F5F5F5F5F5F5F5F5F5F5F5F5F5F5F5F5F5F5F5F5F5F5F5F5F5F5F5F5F5F5F5
310
F5F5F5F5F5F5F5F5F5F5F5F5F5F5F5F5F5F5F5F5F5F5F5F5F5F5F5F5F5F5F5F5F5F5F5F5F5F5F5F5F5F5F5F5F5F5F5EF
  0
XRECORD
  5
221E
102
{ACAD_REACTORS
330
2085
102
}
330
2085
100
AcDbXrecord
280
     1
102
MATERIAL
148
0.0
149
0.0
149
0.0
 93
        0
 94
      127
282
     0
 72
     0
 77
     0
171
     0
175
     0
179
     0
273
     0
  0
XRECORD
  5
2087
102
{ACAD_REACTORS
330
2085
102
}
330
2085
100
AcDbXrecord
280
     1
270
     1
271
     1
  0
XRECORD
  5
2086
102
{ACAD_REACTORS
330
2085
102
}
330
2085
100
AcDbXrecord
280
     1
270
     1
271
     1
  0
XRECORD
  5
208A
102
{ACAD_REACTORS
330
2085
102
}
330
2085
100
AcDbXrecord
280
     1
270
     1
271
     1
  0
XRECORD
  5
2089
102
{ACAD_REACTORS
330
2085
102
}
330
2085
100
AcDbXrecord
280
     1
270
     1
271
     1
  0
XRECORD
  5
208B
102
{ACAD_REACTORS
330
2085
102
}
330
2085
100
AcDbXrecord
280
     1
270
     1
271
     1
  0
XRECORD
  5
2088
102
{ACAD_REACTORS
330
2085
102
}
330
2085
100
AcDbXrecord
280
     1
270
     1
271
     1
  0
XRECORD
  5
221D
102
{ACAD_REACTORS
330
207D
102
}
330
207D
100
AcDbXrecord
280
     1
102
MATERIAL
148
0.0
149
0.0
149
0.0
 93
        0
 94
      127
282
     0
 72
     0
 77
     0
171
     0
175
     0
179
     0
273
     0
  0
XRECORD
  5
207F
102
{ACAD_REACTORS
330
207D
102
}
330
207D
100
AcDbXrecord
280
     1
270
     1
271
     1
  0
XRECORD
  5
207E
102
{ACAD_REACTORS
330
207D
102
}
330
207D
100
AcDbXrecord
280
     1
270
     1
271
     1
  0
XRECORD
  5
2082
102
{ACAD_REACTORS
330
207D
102
}
330
207D
100
AcDbXrecord
280
     1
270
     1
271
     1
  0
XRECORD
  5
2081
102
{ACAD_REACTORS
330
207D
102
}
330
207D
100
AcDbXrecord
280
     1
270
     1
271
     1
  0
XRECORD
  5
2083
102
{ACAD_REACTORS
330
207D
102
}
330
207D
100
AcDbXrecord
280
     1
270
     1
271
     1
  0
XRECORD
  5
2080
102
{ACAD_REACTORS
330
207D
102
}
330
207D
100
AcDbXrecord
280
     1
270
     1
271
     1
  0
XRECORD
  5
221F
102
{ACAD_REACTORS
330
208D
102
}
330
208D
100
AcDbXrecord
280
     1
102
MATERIAL
148
0.0
149
0.0
149
0.0
 93
        0
 94
      127
282
     0
 72
     0
 77
     0
171
     0
175
     0
179
     0
273
     0
  0
XRECORD
  5
208F
102
{ACAD_REACTORS
330
208D
102
}
330
208D
100
AcDbXrecord
280
     1
270
     1
271
     1
  0
XRECORD
  5
208E
102
{ACAD_REACTORS
330
208D
102
}
330
208D
100
AcDbXrecord
280
     1
270
     1
271
     1
  0
XRECORD
  5
2092
102
{ACAD_REACTORS
330
208D
102
}
330
208D
100
AcDbXrecord
280
     1
270
     1
271
     1
  0
XRECORD
  5
2091
102
{ACAD_REACTORS
330
208D
102
}
330
208D
100
AcDbXrecord
280
     1
270
     1
271
     1
  0
XRECORD
  5
2093
102
{ACAD_REACTORS
330
208D
102
}
330
208D
100
AcDbXrecord
280
     1
270
     1
271
     1
  0
XRECORD
  5
2090
102
{ACAD_REACTORS
330
208D
102
}
330
208D
100
AcDbXrecord
280
     1
270
     1
271
     1
  0
CELLSTYLEMAP
  5
27F2
102
{ACAD_REACTORS
330
220E
102
}
330
220E
100
AcDbCellStyleMap
 90
        3
300
CELLSTYLE
  1
TABLEFORMAT_BEGIN
 90
        5
170
     1
 91
        0
 92
    32768
 62
   257
 93
        1
300
CONTENTFORMAT
  1
CONTENTFORMAT_BEGIN
 90
        0
 91
        0
 92
        4
 93
        0
300

 40
0.0
140
1.0
 94
        5
 62
     0
340
11
144
6.0
309
CONTENTFORMAT_END
171
     1
301
MARGIN
  1
CELLMARGIN_BEGIN
 40
1.5
 40
1.5
 40
1.5
 40
1.5
 40
0.18
 40
0.18
309
CELLMARGIN_END
 94
        6
 95
        1
302
GRIDFORMAT
  1
GRIDFORMAT_BEGIN
 90
        0
 91
        1
 62
     0
 92
       -2
340
0
 93
        0
 40
0.045
309
GRIDFORMAT_END
 95
        2
302
GRIDFORMAT
  1
GRIDFORMAT_BEGIN
 90
        0
 91
        1
 62
     0
 92
       -2
340
0
 93
        0
 40
0.045
309
GRIDFORMAT_END
 95
        4
302
GRIDFORMAT
  1
GRIDFORMAT_BEGIN
 90
        0
 91
        1
 62
     0
 92
       -2
340
0
 93
        0
 40
0.045
309
GRIDFORMAT_END
 95
        8
302
GRIDFORMAT
  1
GRIDFORMAT_BEGIN
 90
        0
 91
        1
 62
     0
 92
       -2
340
0
 93
        0
 40
0.045
309
GRIDFORMAT_END
 95
       16
302
GRIDFORMAT
  1
GRIDFORMAT_BEGIN
 90
        0
 91
        1
 62
     0
 92
       -2
340
0
 93
        0
 40
0.045
309
GRIDFORMAT_END
 95
       32
302
GRIDFORMAT
  1
GRIDFORMAT_BEGIN
 90
        0
 91
        1
 62
     0
 92
       -2
340
0
 93
        0
 40
0.045
309
GRIDFORMAT_END
309
TABLEFORMAT_END
  1
CELLSTYLE_BEGIN
 90
        1
 91
        1
300
_TITLE
309
CELLSTYLE_END
300
CELLSTYLE
  1
TABLEFORMAT_BEGIN
 90
        5
170
     1
 91
        0
 92
        0
 62
   257
 93
        1
300
CONTENTFORMAT
  1
CONTENTFORMAT_BEGIN
 90
        0
 91
        0
 92
        4
 93
        0
300

 40
0.0
140
1.0
 94
        5
 62
     0
340
11
144
4.5
309
CONTENTFORMAT_END
171
     1
301
MARGIN
  1
CELLMARGIN_BEGIN
 40
1.5
 40
1.5
 40
1.5
 40
1.5
 40
0.18
 40
0.18
309
CELLMARGIN_END
 94
        6
 95
        1
302
GRIDFORMAT
  1
GRIDFORMAT_BEGIN
 90
        0
 91
        1
 62
     0
 92
       -2
340
0
 93
        0
 40
0.045
309
GRIDFORMAT_END
 95
        2
302
GRIDFORMAT
  1
GRIDFORMAT_BEGIN
 90
        0
 91
        1
 62
     0
 92
       -2
340
0
 93
        0
 40
0.045
309
GRIDFORMAT_END
 95
        4
302
GRIDFORMAT
  1
GRIDFORMAT_BEGIN
 90
        0
 91
        1
 62
     0
 92
       -2
340
0
 93
        0
 40
0.045
309
GRIDFORMAT_END
 95
        8
302
GRIDFORMAT
  1
GRIDFORMAT_BEGIN
 90
        0
 91
        1
 62
     0
 92
       -2
340
0
 93
        0
 40
0.045
309
GRIDFORMAT_END
 95
       16
302
GRIDFORMAT
  1
GRIDFORMAT_BEGIN
 90
        0
 91
        1
 62
     0
 92
       -2
340
0
 93
        0
 40
0.045
309
GRIDFORMAT_END
 95
       32
302
GRIDFORMAT
  1
GRIDFORMAT_BEGIN
 90
        0
 91
        1
 62
     0
 92
       -2
340
0
 93
        0
 40
0.045
309
GRIDFORMAT_END
309
TABLEFORMAT_END
  1
CELLSTYLE_BEGIN
 90
        2
 91
        1
300
_HEADER
309
CELLSTYLE_END
300
CELLSTYLE
  1
TABLEFORMAT_BEGIN
 90
        5
170
     1
 91
        0
 92
        0
 62
   257
 93
        1
300
CONTENTFORMAT
  1
CONTENTFORMAT_BEGIN
 90
        0
 91
        0
 92
        4
 93
        0
300

 40
0.0
140
1.0
 94
        2
 62
     0
340
11
144
4.5
309
CONTENTFORMAT_END
171
     1
301
MARGIN
  1
CELLMARGIN_BEGIN
 40
1.5
 40
1.5
 40
1.5
 40
1.5
 40
0.18
 40
0.18
309
CELLMARGIN_END
 94
        6
 95
        1
302
GRIDFORMAT
  1
GRIDFORMAT_BEGIN
 90
        0
 91
        1
 62
     0
 92
       -2
340
0
 93
        0
 40
0.045
309
GRIDFORMAT_END
 95
        2
302
GRIDFORMAT
  1
GRIDFORMAT_BEGIN
 90
        0
 91
        1
 62
     0
 92
       -2
340
0
 93
        0
 40
0.045
309
GRIDFORMAT_END
 95
        4
302
GRIDFORMAT
  1
GRIDFORMAT_BEGIN
 90
        0
 91
        1
 62
     0
 92
       -2
340
0
 93
        0
 40
0.045
309
GRIDFORMAT_END
 95
        8
302
GRIDFORMAT
  1
GRIDFORMAT_BEGIN
 90
        0
 91
        1
 62
     0
 92
       -2
340
0
 93
        0
 40
0.045
309
GRIDFORMAT_END
 95
       16
302
GRIDFORMAT
  1
GRIDFORMAT_BEGIN
 90
        0
 91
        1
 62
     0
 92
       -2
340
0
 93
        0
 40
0.045
309
GRIDFORMAT_END
 95
       32
302
GRIDFORMAT
  1
GRIDFORMAT_BEGIN
 90
        0
 91
        1
 62
     0
 92
       -2
340
0
 93
        0
 40
0.045
309
GRIDFORMAT_END
309
TABLEFORMAT_END
  1
CELLSTYLE_BEGIN
 90
        3
 91
        2
300
_DATA
309
CELLSTYLE_END
  0
XRECORD
  5
27FA
102
{ACAD_REACTORS
330
220E
102
}
330
220E
100
AcDbXrecord
280
     1
102
ACAD_ROUNDTRIP_PRE2007_TABLESTYLE
 90
        4
 91
        0
  1

 92
        4
 93
        0
  2

 94
        4
 95
        0
  3

  0
ENDSEC
  0
EOF
